osu file format v14

[General]
AudioFilename: audio.mp3
AudioLeadIn: 0
PreviewTime: 58920
Countdown: 0
SampleSet: Normal
StackLeniency: 0.7
Mode: 1
LetterboxInBreaks: 0
WidescreenStoryboard: 0

[Editor]
DistanceSpacing: 0.5
BeatDivisor: 4
GridSize: 32
TimelineZoom: 2.5

[Metadata]
Title:Aikotoba TV Size ver.
TitleUnicode:アイコトバ TV Size ver.
Artist:GARNiDELiA
ArtistUnicode:GARNiDELiA
Creator:spboxer3
Version:aabc's Oni
Source:アニメガタリズ
Tags:aabc271 kanpakyin kpy Anime Gataris
BeatmapID:1467107
BeatmapSetID:689313

[Difficulty]
HPDrainRate:5
CircleSize:5
OverallDifficulty:5
ApproachRate:7
SliderMultiplier:1.4
SliderTickRate:1

[Events]
//Background and Video events
0,0,"BG.jpg",0,0
//Break Periods
//Storyboard Layer 0 (Background)
//Storyboard Layer 1 (Fail)
//Storyboard Layer 2 (Pass)
//Storyboard Layer 3 (Foreground)
//Storyboard Layer 4 (Overlay)
//Storyboard Sound Samples

[TimingPoints]
539,405.405405405405,4,1,0,60,1,0
539,-113.636363636364,4,1,0,60,0,0
5403,-113.636363636364,4,1,0,30,0,0
6620,-105.263157894737,4,1,0,60,0,0
7025,-98.0392156862745,4,1,0,76,0,0
19998,405.405405405405,4,1,0,76,1,8
19998,-98.0392156862745,4,1,0,76,0,8
20809,405.405405405405,4,1,0,76,1,0
20809,-104.166666666667,4,1,0,68,0,0
32363,-103.626943005181,4,1,0,68,0,0
32464,-103.359173126615,4,1,0,68,0,0
32565,-103.092783505155,4,1,0,69,0,0
32768,-102.564102564103,4,1,0,69,0,0
32869,-102.30179028133,4,1,0,69,0,0
32971,-102.040816326531,4,1,0,70,0,0
33173,-101.522842639594,4,1,0,70,0,0
33275,-101.26582278481,4,1,0,70,0,0
33376,-101.010101010101,4,1,0,71,0,0
33579,-100.502512562814,4,1,0,71,0,0
33781,-100,4,1,0,72,0,0
46754,-100,4,1,0,68,0,0
47160,-101.010101010101,4,1,0,68,0,0
48376,-104.166666666667,4,1,0,68,0,0
56484,-104.166666666667,4,1,0,70,0,0
56788,-103.359173126615,4,1,0,70,0,0
56890,-103.092783505155,4,1,0,71,0,0
57092,-102.564102564103,4,1,0,71,0,0
57295,-102.040816326531,4,1,0,72,0,0
57599,-101.26582278481,4,1,0,72,0,0
57700,-101.010101010101,4,1,0,73,0,0
57903,-100.502512562814,4,1,0,73,0,0
58106,-100,4,1,0,74,0,0
58308,-99.5024875621892,4,1,0,74,0,0
58410,-99.255583126551,4,1,0,74,0,0
58511,-99.009900990099,4,1,0,75,0,0
58714,-98.5221674876848,4,1,0,75,0,0
58917,-98.0392156862745,4,1,0,76,0,0
59018,-97.7995110024451,4,1,0,76,0,0
59119,-97.5609756097562,4,1,0,76,0,0
59221,-97.3236009732362,4,1,0,76,0,0
59322,-97.0873786407767,4,1,0,77,0,0
59727,-96.1538461538461,4,1,0,78,0,1
62160,-80.6451612903226,4,1,0,78,0,1
62971,-96.1538461538461,4,1,0,78,0,1
65403,-80.6451612903226,4,1,0,78,0,1
66214,-96.1538461538461,4,1,0,78,0,1
72295,-96.1538461538461,4,1,0,78,0,0
72700,-94.3396226415094,4,1,0,78,0,1
75133,-79.3650793650794,4,1,0,78,0,1
75944,-94.3396226415094,4,1,0,78,0,1
78376,-79.3650793650794,4,1,0,78,0,1
79187,-94.3396226415094,4,1,0,78,0,1
85673,-100,4,1,0,68,0,0

[HitObjects]
256,192,539,5,8,0:0:0:0:
256,192,944,5,0,0:0:0:0:
256,192,1349,5,8,0:0:0:0:
256,192,1552,5,0,0:0:0:0:
256,192,1755,1,0,0:0:0:0:
256,192,1957,5,8,0:0:0:0:
256,192,2566,5,0,0:0:0:0:
256,192,2971,5,8,0:0:0:0:
256,192,3174,5,0,0:0:0:0:
256,192,3376,1,0,0:0:0:0:
256,192,3782,5,8,0:0:0:0:
256,192,4187,5,0,0:0:0:0:
256,192,4593,5,8,0:0:0:0:
256,192,4795,5,0,0:0:0:0:
256,192,4998,1,0,0:0:0:0:
256,192,5201,5,8,0:0:0:0:
256,192,5403,12,0,6417,0:0:0:0:
256,192,6620,5,4,0:0:0:0:
256,192,7025,5,12,0:0:0:0:
256,192,7430,5,0,0:0:0:0:
256,192,7633,5,8,0:0:0:0:
256,192,7734,5,0,0:0:0:0:
256,192,7836,5,8,0:0:0:0:
256,192,8038,5,0,0:0:0:0:
256,192,8241,1,0,0:0:0:0:
256,192,8444,5,8,0:0:0:0:
256,192,8849,1,8,0:0:0:0:
256,192,9052,5,0,0:0:0:0:
256,192,9255,1,0,0:0:0:0:
256,192,9356,1,0,0:0:0:0:
256,192,9457,5,8,0:0:0:0:
256,192,9660,1,8,0:0:0:0:
256,192,9863,5,0,0:0:0:0:
256,192,10066,1,0,0:0:0:0:
256,192,10268,5,8,0:0:0:0:
256,192,10674,5,0,0:0:0:0:
256,192,10876,5,8,0:0:0:0:
256,192,10978,5,0,0:0:0:0:
256,192,11079,1,0,0:0:0:0:
256,192,11484,1,0,0:0:0:0:
256,192,11687,5,8,0:0:0:0:
256,192,11890,5,0,0:0:0:0:
256,192,12093,1,0,0:0:0:0:
256,192,12194,1,0,0:0:0:0:
256,192,12295,5,8,0:0:0:0:
256,192,12498,5,0,0:0:0:0:
256,192,12701,5,8,0:0:0:0:
256,192,12903,1,8,0:0:0:0:
256,192,13005,1,8,0:0:0:0:
256,192,13106,5,0,0:0:0:0:
256,192,13511,5,12,0:0:0:0:
256,192,13917,5,0,0:0:0:0:
256,192,14120,5,8,0:0:0:0:
256,192,14221,5,0,0:0:0:0:
256,192,14322,5,8,0:0:0:0:
256,192,14525,5,0,0:0:0:0:
256,192,14728,1,0,0:0:0:0:
256,192,14930,5,8,0:0:0:0:
256,192,15336,1,8,0:0:0:0:
256,192,15538,5,0,0:0:0:0:
256,192,15741,1,0,0:0:0:0:
256,192,15843,1,0,0:0:0:0:
256,192,15944,5,8,0:0:0:0:
256,192,16147,1,8,0:0:0:0:
256,192,16349,5,0,0:0:0:0:
256,192,16552,1,0,0:0:0:0:
256,192,16755,5,8,0:0:0:0:
256,192,17160,5,0,0:0:0:0:
256,192,17363,5,8,0:0:0:0:
256,192,17464,5,0,0:0:0:0:
256,192,17566,1,0,0:0:0:0:
256,192,17971,1,0,0:0:0:0:
256,192,18174,5,8,0:0:0:0:
256,192,18579,1,0,0:0:0:0:
256,192,18680,5,8,0:0:0:0:
256,192,18782,1,8,0:0:0:0:
256,192,18984,5,0,0:0:0:0:
256,192,19086,1,0,0:0:0:0:
256,192,19187,5,8,0:0:0:0:
256,192,19390,1,0,0:0:0:0:
256,192,19491,5,8,0:0:0:0:
256,192,19593,5,0,0:0:0:0:
256,192,19795,1,0,0:0:0:0:
256,192,19897,1,0,0:0:0:0:
256,192,19998,1,0,0:0:0:0:
256,192,20201,1,0,0:0:0:0:
256,192,20809,5,12,0:0:0:0:
256,192,21214,1,8,0:0:0:0:
256,192,21619,5,0,0:0:0:0:
256,192,22025,1,0,0:0:0:0:
256,192,22227,5,8,0:0:0:0:
256,192,22430,5,0,0:0:0:0:
256,192,22836,1,0,0:0:0:0:
256,192,23038,5,8,0:0:0:0:
256,192,23444,5,0,0:0:0:0:
256,192,23646,5,8,0:0:0:0:
256,192,23849,5,0,0:0:0:0:
256,192,24052,5,8,0:0:0:0:
256,192,24457,1,8,0:0:0:0:
256,192,24660,1,8,0:0:0:0:
256,192,24863,1,8,0:0:0:0:
256,192,25065,5,0,0:0:0:0:
256,192,25268,5,8,0:0:0:0:
256,192,25673,5,0,0:0:0:0:
256,192,26079,5,8,0:0:0:0:
256,192,26281,1,8,0:0:0:0:
256,192,26484,1,8,0:0:0:0:
256,192,26687,5,0,0:0:0:0:
256,192,26890,1,0,0:0:0:0:
256,192,27295,5,12,0:0:0:0:
256,192,27700,1,8,0:0:0:0:
256,192,28106,5,0,0:0:0:0:
256,192,28511,1,0,0:0:0:0:
256,192,28714,5,8,0:0:0:0:
256,192,28917,5,0,0:0:0:0:
256,192,29221,1,0,0:0:0:0:
256,192,29322,1,0,0:0:0:0:
256,192,29525,5,8,0:0:0:0:
256,192,29930,5,0,0:0:0:0:
256,192,30133,5,8,0:0:0:0:
256,192,30336,5,0,0:0:0:0:
256,192,30538,5,8,0:0:0:0:
256,192,30741,1,8,0:0:0:0:
256,192,30842,1,8,0:0:0:0:
256,192,30944,1,8,0:0:0:0:
256,192,31146,1,8,0:0:0:0:
256,192,31349,1,8,0:0:0:0:
256,192,31552,5,0,0:0:0:0:
256,192,31754,5,8,0:0:0:0:
256,192,32160,5,0,0:0:0:0:
256,192,32363,1,0,0:0:0:0:
256,192,32464,1,0,0:0:0:0:
256,192,32565,5,8,0:0:0:0:
256,192,32768,5,0,0:0:0:0:
256,192,32869,1,0,0:0:0:0:
256,192,32971,5,8,0:0:0:0:
256,192,33173,1,0,0:0:0:0:
256,192,33275,5,8,0:0:0:0:
256,192,33376,1,8,0:0:0:0:
256,192,33579,5,0,0:0:0:0:
256,192,33781,5,12,0:0:0:0:
256,192,34086,5,0,0:0:0:0:
256,192,34187,5,8,0:0:0:0:
256,192,34390,1,8,0:0:0:0:
256,192,34592,5,0,0:0:0:0:
256,192,34896,1,0,0:0:0:0:
256,192,34998,5,8,0:0:0:0:
256,192,35200,1,8,0:0:0:0:
256,192,35403,5,0,0:0:0:0:
256,192,35606,1,0,0:0:0:0:
256,192,35707,1,0,0:0:0:0:
256,192,35910,1,0,0:0:0:0:
256,192,36011,5,8,0:0:0:0:
256,192,36417,5,0,0:0:0:0:
256,192,36619,5,8,0:0:0:0:
256,192,36822,5,0,0:0:0:0:
256,192,37025,5,8,0:0:0:0:
256,192,37227,1,8,0:0:0:0:
256,192,37329,1,8,0:0:0:0:
256,192,37430,1,8,0:0:0:0:
256,192,37633,1,8,0:0:0:0:
256,192,37836,1,8,0:0:0:0:
256,192,38038,5,0,0:0:0:0:
256,192,38140,1,0,0:0:0:0:
256,192,38241,5,8,0:0:0:0:
256,192,38646,5,0,0:0:0:0:
256,192,38849,5,8,0:0:0:0:
256,192,38950,5,0,0:0:0:0:
256,192,39052,5,8,0:0:0:0:
256,192,39254,1,8,0:0:0:0:
256,192,39457,1,8,0:0:0:0:
256,192,39660,1,8,0:0:0:0:
256,192,39761,1,8,0:0:0:0:
256,192,39863,5,0,0:0:0:0:
256,192,40065,1,0,0:0:0:0:
256,192,40268,1,4,0:0:0:0:
256,192,40572,1,0,0:0:0:0:
256,192,40673,1,0,0:0:0:0:
256,192,40876,1,0,0:0:0:0:
256,192,41079,5,8,0:0:0:0:
256,192,41383,1,8,0:0:0:0:
256,192,41484,5,0,0:0:0:0:
256,192,41687,1,0,0:0:0:0:
256,192,41890,5,8,0:0:0:0:
256,192,42194,1,8,0:0:0:0:
256,192,42295,1,8,0:0:0:0:
256,192,42498,5,0,0:0:0:0:
256,192,42700,5,8,0:0:0:0:
256,192,42903,5,0,0:0:0:0:
256,192,43004,1,0,0:0:0:0:
256,192,43106,5,8,0:0:0:0:
256,192,43308,1,8,0:0:0:0:
256,192,43511,5,0,0:0:0:0:
256,192,43714,5,8,0:0:0:0:
256,192,43815,1,8,0:0:0:0:
256,192,43917,1,8,0:0:0:0:
256,192,44119,5,0,0:0:0:0:
256,192,44525,1,0,0:0:0:0:
256,192,44727,1,0,0:0:0:0:
256,192,44930,5,8,0:0:0:0:
256,192,45336,5,0,0:0:0:0:
256,192,45538,5,8,0:0:0:0:
256,192,45741,5,0,0:0:0:0:
256,192,45842,1,0,0:0:0:0:
256,192,45944,5,8,0:0:0:0:
256,192,46045,1,8,0:0:0:0:
256,192,46146,5,0,0:0:0:0:
256,192,46349,5,8,0:0:0:0:
256,192,46552,5,0,0:0:0:0:
256,192,46754,5,12,0:0:0:0:
256,192,47160,1,8,0:0:0:0:
256,192,47363,5,0,0:0:0:0:
256,192,47565,5,8,0:0:0:0:
256,192,48376,1,8,0:0:0:0:
256,192,48781,1,8,0:0:0:0:
256,192,48984,5,0,0:0:0:0:
256,192,49187,5,8,0:0:0:0:
256,192,49998,1,8,0:0:0:0:
256,192,50403,5,0,0:0:0:0:
256,192,50606,5,8,0:0:0:0:
256,192,50808,1,8,0:0:0:0:
256,192,51011,5,0,0:0:0:0:
256,192,51214,5,8,0:0:0:0:
256,192,51417,5,0,0:0:0:0:
256,192,51619,5,8,0:0:0:0:
256,192,52025,1,8,0:0:0:0:
256,192,52430,1,8,0:0:0:0:
256,192,52633,1,8,0:0:0:0:
256,192,52836,1,8,0:0:0:0:
256,192,53038,5,0,0:0:0:0:
256,192,53241,1,12,0:0:0:0:
256,192,53646,5,8,0:0:0:0:
256,192,53849,5,0,0:0:0:0:
256,192,54052,5,8,0:0:0:0:
256,192,54254,1,8,0:0:0:0:
256,192,54457,1,8,0:0:0:0:
256,192,54660,5,0,0:0:0:0:
256,192,54863,5,8,0:0:0:0:
256,192,55268,1,8,0:0:0:0:
256,192,55471,5,0,0:0:0:0:
256,192,55673,5,8,0:0:0:0:
256,192,55876,1,8,0:0:0:0:
256,192,56079,1,8,0:0:0:0:
256,192,56281,5,0,0:0:0:0:
256,192,56484,5,12,0:0:0:0:
256,192,56788,1,8,0:0:0:0:
256,192,56890,5,0,0:0:0:0:
256,192,57092,1,0,0:0:0:0:
256,192,57295,5,12,0:0:0:0:
256,192,57599,1,8,0:0:0:0:
256,192,57700,1,8,0:0:0:0:
256,192,57903,5,0,0:0:0:0:
256,192,58106,5,12,0:0:0:0:
256,192,58308,5,0,0:0:0:0:
256,192,58410,1,0,0:0:0:0:
256,192,58511,5,8,0:0:0:0:
256,192,58714,5,0,0:0:0:0:
256,192,58917,5,8,0:0:0:0:
256,192,59018,1,8,0:0:0:0:
256,192,59119,5,0,0:0:0:0:
256,192,59221,1,0,0:0:0:0:
256,192,59322,5,8,0:0:0:0:
256,192,59727,5,4,0:0:0:0:
256,192,59930,5,8,0:0:0:0:
256,192,60031,1,8,0:0:0:0:
256,192,60133,5,0,0:0:0:0:
256,192,60336,1,0,0:0:0:0:
256,192,60538,1,0,0:0:0:0:
256,192,60944,1,0,0:0:0:0:
256,192,61146,5,8,0:0:0:0:
256,192,61349,1,8,0:0:0:0:
256,192,61552,5,0,0:0:0:0:
256,192,61653,1,0,0:0:0:0:
256,192,61754,1,0,0:0:0:0:
256,192,62160,5,12,0:0:0:0:
256,192,62565,1,4,0:0:0:0:
256,192,62971,1,0,0:0:0:0:
256,192,63173,5,8,0:0:0:0:
256,192,63275,1,8,0:0:0:0:
256,192,63376,5,0,0:0:0:0:
256,192,63579,1,0,0:0:0:0:
256,192,63781,1,0,0:0:0:0:
256,192,64187,1,0,0:0:0:0:
256,192,64390,5,8,0:0:0:0:
256,192,64592,5,0,0:0:0:0:
256,192,64795,1,0,0:0:0:0:
256,192,64896,5,8,0:0:0:0:
256,192,64998,1,8,0:0:0:0:
256,192,65403,5,12,0:0:0:0:
256,192,65808,5,4,0:0:0:0:
256,192,66214,1,0,0:0:0:0:
256,192,66417,5,8,0:0:0:0:
256,192,66518,1,8,0:0:0:0:
256,192,66619,5,0,0:0:0:0:
256,192,66822,1,0,0:0:0:0:
256,192,67025,1,0,0:0:0:0:
256,192,67430,1,0,0:0:0:0:
256,192,67633,5,8,0:0:0:0:
256,192,67836,1,8,0:0:0:0:
256,192,68038,5,0,0:0:0:0:
256,192,68140,1,0,0:0:0:0:
256,192,68241,1,0,0:0:0:0:
256,192,68444,5,8,0:0:0:0:
256,192,68646,5,0,0:0:0:0:
256,192,69052,5,8,0:0:0:0:
256,192,69457,5,0,0:0:0:0:
256,192,69660,5,8,0:0:0:0:
256,192,69761,1,8,0:0:0:0:
256,192,69863,1,8,0:0:0:0:
256,192,70065,5,0,0:0:0:0:
256,192,70268,5,8,0:0:0:0:
256,192,70673,5,0,0:0:0:0:
256,192,70876,5,8,0:0:0:0:
256,192,71079,1,8,0:0:0:0:
256,192,71281,5,0,0:0:0:0:
256,192,71383,1,0,0:0:0:0:
256,192,71484,5,8,0:0:0:0:
256,192,71687,5,0,0:0:0:0:
256,192,71890,5,8,0:0:0:0:
256,192,71991,1,8,0:0:0:0:
256,192,72092,5,0,0:0:0:0:
256,192,72194,1,0,0:0:0:0:
256,192,72295,5,8,0:0:0:0:
256,192,72700,5,4,0:0:0:0:
256,192,72903,5,8,0:0:0:0:
256,192,73004,1,8,0:0:0:0:
256,192,73106,5,0,0:0:0:0:
256,192,73308,1,0,0:0:0:0:
256,192,73511,1,0,0:0:0:0:
256,192,73917,1,0,0:0:0:0:
256,192,74119,5,8,0:0:0:0:
256,192,74322,1,8,0:0:0:0:
256,192,74525,5,0,0:0:0:0:
256,192,74626,1,0,0:0:0:0:
256,192,74727,1,0,0:0:0:0:
256,192,74930,1,0,0:0:0:0:
256,192,75133,5,12,0:0:0:0:
256,192,75538,5,4,0:0:0:0:
256,192,75944,1,0,0:0:0:0:
256,192,76146,5,8,0:0:0:0:
256,192,76248,1,8,0:0:0:0:
256,192,76349,5,0,0:0:0:0:
256,192,76552,1,0,0:0:0:0:
256,192,76754,1,0,0:0:0:0:
256,192,77160,1,0,0:0:0:0:
256,192,77363,5,8,0:0:0:0:
256,192,77565,5,0,0:0:0:0:
256,192,77768,1,0,0:0:0:0:
256,192,77869,5,8,0:0:0:0:
256,192,77971,1,8,0:0:0:0:
256,192,78173,5,0,0:0:0:0:
256,192,78376,5,12,0:0:0:0:
256,192,78781,5,4,0:0:0:0:
256,192,79187,1,0,0:0:0:0:
256,192,79390,5,8,0:0:0:0:
256,192,79491,1,8,0:0:0:0:
256,192,79592,5,0,0:0:0:0:
256,192,79795,1,0,0:0:0:0:
256,192,79998,1,0,0:0:0:0:
256,192,80403,1,0,0:0:0:0:
256,192,80606,5,8,0:0:0:0:
256,192,80808,1,8,0:0:0:0:
256,192,81011,5,0,0:0:0:0:
256,192,81113,1,0,0:0:0:0:
256,192,81214,1,0,0:0:0:0:
256,192,81417,5,8,0:0:0:0:
256,192,81619,1,8,0:0:0:0:
256,192,81721,1,8,0:0:0:0:
256,192,81822,5,0,0:0:0:0:
256,192,81923,1,0,0:0:0:0:
256,192,82025,5,8,0:0:0:0:
256,192,82430,5,4,0:0:0:0:
256,192,82633,5,8,0:0:0:0:
256,192,82734,1,8,0:0:0:0:
256,192,82836,1,8,0:0:0:0:
256,192,83038,5,0,0:0:0:0:
256,192,83241,5,12,0:0:0:0:
256,192,83646,5,0,0:0:0:0:
256,192,83849,5,8,0:0:0:0:
256,192,84052,1,12,0:0:0:0:
256,192,84254,5,0,0:0:0:0:
256,192,84356,1,0,0:0:0:0:
256,192,84457,5,8,0:0:0:0:
256,192,84660,5,0,0:0:0:0:
256,192,84863,5,8,0:0:0:0:
256,192,84964,1,8,0:0:0:0:
256,192,85065,5,0,0:0:0:0:
256,192,85167,1,0,0:0:0:0:
256,192,85268,1,0,0:0:0:0:
256,192,85673,1,0,0:0:0:0:
256,192,85876,5,8,0:0:0:0:
256,192,86079,1,8,0:0:0:0:
256,192,86281,5,0,0:0:0:0:
256,192,86484,5,8,0:0:0:0:
256,192,86890,5,0,0:0:0:0:
256,192,87092,5,12,0:0:0:0:
256,192,87498,5,0,0:0:0:0:
256,192,87700,5,12,0:0:0:0:
256,192,88106,5,4,0:0:0:0:
