osu file format v14

[General]
AudioFilename: audio.mp3
AudioLeadIn: 0
PreviewTime: 58920
Countdown: 0
SampleSet: Normal
StackLeniency: 0.7
Mode: 1
LetterboxInBreaks: 0
WidescreenStoryboard: 1

[Editor]
DistanceSpacing: 0.1
BeatDivisor: 2
GridSize: 32
TimelineZoom: 1.8

[Metadata]
Title:Aikotoba TV Size ver.
TitleUnicode:アイコトバ TV Size ver.
Artist:GARNiDELiA
ArtistUnicode:GARNiDELiA
Creator:spboxer3
Version:Kantan
Source:アニメガタリズ
Tags:aabc271 kanpakyin kpy Anime Gataris
BeatmapID:1467179
BeatmapSetID:689313

[Difficulty]
HPDrainRate:7
CircleSize:4
OverallDifficulty:3
ApproachRate:5
SliderMultiplier:1.4
SliderTickRate:1

[Events]
//Background and Video events
0,0,"BG.jpg",0,0
//Break Periods
//Storyboard Layer 0 (Background)
//Storyboard Layer 1 (Fail)
//Storyboard Layer 2 (Pass)
//Storyboard Layer 3 (Foreground)
//Storyboard Layer 4 (Overlay)
//Storyboard Sound Samples

[TimingPoints]
539,405.405405405405,4,1,0,60,1,0
19998,405.405405405405,4,1,0,60,1,8
20809,405.405405405405,4,1,0,60,1,0
59727,-100,4,1,0,70,0,1
85673,-100,4,1,0,65,0,0

[HitObjects]
256,192,539,5,8,0:0:0:0:
256,192,1349,1,0,0:0:0:0:
256,192,1755,1,0,0:0:0:0:
256,192,2160,1,8,0:0:0:0:
256,192,2971,1,0,0:0:0:0:
256,192,3782,1,8,0:0:0:0:
256,192,4593,1,0,0:0:0:0:
256,192,4998,1,0,0:0:0:0:
256,192,5403,1,8,0:0:0:0:
256,192,7025,1,0,0:0:0:0:
256,192,7836,1,8,0:0:0:0:
256,192,8647,1,0,0:0:0:0:
256,192,9052,1,0,0:0:0:0:
256,192,9457,1,8,0:0:0:0:
256,192,10268,1,0,0:0:0:0:
256,192,11079,1,8,0:0:0:0:
256,192,11890,1,0,0:0:0:0:
256,192,12295,1,0,0:0:0:0:
256,192,12701,1,8,0:0:0:0:
256,192,13106,1,8,0:0:0:0:
256,192,13511,1,0,0:0:0:0:
256,192,14322,1,8,0:0:0:0:
256,192,15133,1,0,0:0:0:0:
256,192,15538,1,0,0:0:0:0:
256,192,15944,1,8,0:0:0:0:
256,192,16755,1,0,0:0:0:0:
256,192,17566,1,8,0:0:0:0:
256,192,18174,12,0,19998,0:0:0:0:
256,192,20809,5,0,0:0:0:0:
256,192,21619,1,8,0:0:0:0:
256,192,22430,1,0,0:0:0:0:
256,192,22836,1,0,0:0:0:0:
256,192,23241,1,0,0:0:0:0:
256,192,24052,1,0,0:0:0:0:
256,192,24863,1,8,0:0:0:0:
256,192,25673,1,0,0:0:0:0:
256,192,27295,1,0,0:0:0:0:
256,192,28106,1,8,0:0:0:0:
256,192,28917,1,0,0:0:0:0:
256,192,29322,1,0,0:0:0:0:
256,192,29727,1,0,0:0:0:0:
256,192,30538,1,0,0:0:0:0:
256,192,31349,1,8,0:0:0:0:
256,192,32160,1,0,0:0:0:0:
256,192,33781,1,0,0:0:0:0:
256,192,34592,1,8,0:0:0:0:
256,192,35403,1,0,0:0:0:0:
256,192,35808,1,0,0:0:0:0:
256,192,36214,1,8,0:0:0:0:
256,192,37025,1,0,0:0:0:0:
256,192,37836,1,8,0:0:0:0:
256,192,38241,1,8,0:0:0:0:
256,192,38646,1,0,0:0:0:0:
256,192,40268,1,0,0:0:0:0:
256,192,41079,1,8,0:0:0:0:
256,192,41890,1,0,0:0:0:0:
256,192,42700,1,8,0:0:0:0:
256,192,43511,1,0,0:0:0:0:
256,192,43917,1,0,0:0:0:0:
256,192,44322,1,8,0:0:0:0:
256,192,45133,1,0,0:0:0:0:
256,192,45538,1,0,0:0:0:0:
256,192,45944,1,8,0:0:0:0:
256,192,46349,1,8,0:0:0:0:
256,192,46754,1,0,0:0:0:0:
256,192,48376,1,0,0:0:0:0:
256,192,49998,1,0,0:0:0:0:
256,192,50403,1,0,0:0:0:0:
256,192,50808,1,0,0:0:0:0:
256,192,51619,1,8,0:0:0:0:
256,192,52025,1,8,0:0:0:0:
256,192,52430,1,8,0:0:0:0:
256,192,53241,1,0,0:0:0:0:
256,192,54863,1,0,0:0:0:0:
256,192,55673,1,8,0:0:0:0:
256,192,56484,1,0,0:0:0:0:
256,192,57295,1,8,0:0:0:0:
256,192,57700,1,8,0:0:0:0:
256,192,58106,1,0,0:0:0:0:
256,192,58511,1,0,0:0:0:0:
256,192,58917,1,8,0:0:0:0:
256,192,59727,1,0,0:0:0:0:
256,192,60538,1,8,0:0:0:0:
256,192,61349,1,0,0:0:0:0:
256,192,61754,1,0,0:0:0:0:
256,192,62160,1,8,0:0:0:0:
256,192,62565,1,8,0:0:0:0:
256,192,62971,1,0,0:0:0:0:
256,192,63781,1,8,0:0:0:0:
256,192,64592,1,0,0:0:0:0:
256,192,66214,1,0,0:0:0:0:
256,192,67025,1,8,0:0:0:0:
256,192,67836,1,0,0:0:0:0:
256,192,68241,1,0,0:0:0:0:
256,192,68646,1,8,0:0:0:0:
256,192,69457,1,0,0:0:0:0:
256,192,70268,1,8,0:0:0:0:
256,192,71079,1,0,0:0:0:0:
256,192,71484,1,0,0:0:0:0:
256,192,71890,1,8,0:0:0:0:
256,192,72295,1,8,0:0:0:0:
256,192,72700,1,0,0:0:0:0:
256,192,73511,1,8,0:0:0:0:
256,192,74322,1,0,0:0:0:0:
256,192,75133,1,8,0:0:0:0:
256,192,75538,1,8,0:0:0:0:
256,192,75944,1,0,0:0:0:0:
256,192,76349,1,0,0:0:0:0:
256,192,76754,1,8,0:0:0:0:
256,192,77565,1,0,0:0:0:0:
256,192,79187,1,0,0:0:0:0:
256,192,79998,1,8,0:0:0:0:
256,192,80808,1,0,0:0:0:0:
256,192,81214,1,8,0:0:0:0:
256,192,81619,1,8,0:0:0:0:
256,192,82430,1,0,0:0:0:0:
256,192,83241,1,8,0:0:0:0:
256,192,84052,1,0,0:0:0:0:
256,192,84457,1,8,0:0:0:0:
256,192,84863,1,0,0:0:0:0:
256,192,85673,1,0,0:0:0:0:
256,192,86484,1,8,0:0:0:0:
256,192,87092,1,8,0:0:0:0:
256,192,87700,1,0,0:0:0:0:
256,192,88106,1,8,0:0:0:0:
