osu file format v14

[General]
AudioFilename: audio.mp3
AudioLeadIn: 0
PreviewTime: 58920
Countdown: 0
SampleSet: Normal
StackLeniency: 0.7
Mode: 1
LetterboxInBreaks: 0
WidescreenStoryboard: 0

[Editor]
DistanceSpacing: 0.2
BeatDivisor: 8
GridSize: 16
TimelineZoom: 3.999998

[Metadata]
Title:Aikotoba TV Size ver.
TitleUnicode:アイコトバ TV Size ver.
Artist:GARNiDELiA
ArtistUnicode:GARNiDELiA
Creator:spboxer3
Version:Inner Oni
Source:アニメガタリズ
Tags:aabc271 kanpakyin kpy Anime Gataris
BeatmapID:1459215
BeatmapSetID:689313

[Difficulty]
HPDrainRate:6
CircleSize:5
OverallDifficulty:6
ApproachRate:6
SliderMultiplier:1.6
SliderTickRate:1

[Events]
//Background and Video events
0,0,"BG.jpg",0,0
//Break Periods
//Storyboard Layer 0 (Background)
//Storyboard Layer 1 (Fail)
//Storyboard Layer 2 (Pass)
//Storyboard Layer 3 (Foreground)
//Storyboard Layer 4 (Overlay)
//Storyboard Sound Samples

[TimingPoints]
539,405.405405405405,4,1,0,60,1,0
539,-80,4,1,0,60,0,0
19998,405.405405405405,4,1,0,60,1,8
19998,-80,4,1,0,60,0,8
20809,405.405405405405,4,1,0,60,1,0
20809,-80,4,1,0,60,0,0
59727,-80,4,1,0,70,0,1
62160,-50,4,1,0,70,0,1
62768,-80,4,1,0,70,0,1
65403,-50,4,1,0,70,0,1
66011,-80,4,1,0,70,0,1
75133,-50,4,1,0,70,0,1
75336,-80,4,1,0,70,0,1
75538,-50,4,1,0,70,0,1
75741,-80,4,1,0,70,0,1
78376,-50,4,1,0,70,0,1
78579,-80,4,1,0,70,0,1
78781,-50,4,1,0,70,0,1
78984,-80,4,1,0,70,0,1
85673,-100,4,1,0,65,0,0

[HitObjects]
256,192,539,5,8,0:0:0:0:
256,192,944,1,0,0:0:0:0:
256,192,1349,1,8,0:0:0:0:
256,192,1552,1,0,0:0:0:0:
256,192,1755,1,0,0:0:0:0:
256,192,1957,1,8,0:0:0:0:
256,192,2363,1,8,0:0:0:0:
256,192,2566,1,0,0:0:0:0:
256,192,2971,1,8,0:0:0:0:
256,192,3174,1,0,0:0:0:0:
256,192,3376,1,0,0:0:0:0:
256,192,3782,1,8,0:0:0:0:
256,192,4187,1,0,0:0:0:0:
256,192,4593,1,8,0:0:0:0:
256,192,4795,1,0,0:0:0:0:
256,192,4998,1,0,0:0:0:0:
256,192,5201,1,8,0:0:0:0:
256,192,5606,1,8,0:0:0:0:
256,192,6011,1,8,0:0:0:0:
256,192,6417,1,0,0:0:0:0:
256,192,6484,1,0,0:0:0:0:
256,192,6552,1,0,0:0:0:0:
256,192,6620,1,8,0:0:0:0:
256,192,7025,1,4,0:0:0:0:
256,192,7430,1,8,0:0:0:0:
256,192,7633,1,8,0:0:0:0:
256,192,7734,1,8,0:0:0:0:
256,192,7836,1,0,0:0:0:0:
256,192,8038,1,0,0:0:0:0:
256,192,8241,1,8,0:0:0:0:
256,192,8444,1,8,0:0:0:0:
256,192,8849,1,0,0:0:0:0:
256,192,9052,1,8,0:0:0:0:
256,192,9255,1,0,0:0:0:0:
256,192,9356,1,0,0:0:0:0:
256,192,9457,1,8,0:0:0:0:
256,192,9660,1,8,0:0:0:0:
256,192,9863,1,0,0:0:0:0:
256,192,10268,1,8,0:0:0:0:
256,192,10674,1,8,0:0:0:0:
256,192,10876,1,8,0:0:0:0:
256,192,10978,1,8,0:0:0:0:
256,192,11079,1,0,0:0:0:0:
256,192,11282,1,0,0:0:0:0:
256,192,11484,1,8,0:0:0:0:
256,192,11687,1,8,0:0:0:0:
256,192,12093,1,0,0:0:0:0:
256,192,12194,1,0,0:0:0:0:
256,192,12295,1,8,0:0:0:0:
256,192,12498,1,0,0:0:0:0:
256,192,12701,1,8,0:0:0:0:
256,192,12802,1,8,0:0:0:0:
256,192,12903,1,0,0:0:0:0:
256,192,13106,1,8,0:0:0:0:
256,192,13207,1,8,0:0:0:0:
256,192,13309,1,0,0:0:0:0:
256,192,13410,1,0,0:0:0:0:
256,192,13511,1,0,0:0:0:0:
256,192,13917,1,8,0:0:0:0:
256,192,14120,1,8,0:0:0:0:
256,192,14221,1,8,0:0:0:0:
256,192,14322,1,0,0:0:0:0:
256,192,14525,1,0,0:0:0:0:
256,192,14728,1,8,0:0:0:0:
256,192,14930,1,8,0:0:0:0:
256,192,15336,1,0,0:0:0:0:
256,192,15538,1,8,0:0:0:0:
256,192,15741,1,0,0:0:0:0:
256,192,15843,1,0,0:0:0:0:
256,192,15944,1,8,0:0:0:0:
256,192,16147,1,8,0:0:0:0:
256,192,16349,1,0,0:0:0:0:
256,192,16755,1,8,0:0:0:0:
256,192,17160,1,8,0:0:0:0:
256,192,17363,1,8,0:0:0:0:
256,192,17464,1,8,0:0:0:0:
256,192,17566,1,0,0:0:0:0:
256,192,17768,1,0,0:0:0:0:
256,192,17971,1,8,0:0:0:0:
256,192,18174,1,8,0:0:0:0:
256,192,18579,1,0,0:0:0:0:
256,192,18680,1,0,0:0:0:0:
256,192,18782,1,8,0:0:0:0:
256,192,18984,1,0,0:0:0:0:
256,192,19086,1,8,0:0:0:0:
256,192,19187,1,8,0:0:0:0:
256,192,19390,1,0,0:0:0:0:
256,192,19491,1,8,0:0:0:0:
256,192,19593,1,0,0:0:0:0:
256,192,19795,1,0,0:0:0:0:
256,192,19897,1,0,0:0:0:0:
256,192,19998,1,8,0:0:0:0:
256,192,20201,1,8,0:0:0:0:
256,192,20403,1,0,0:0:0:0:
256,192,20809,1,4,0:0:0:0:
256,192,21113,1,0,0:0:0:0:
256,192,21214,1,8,0:0:0:0:
256,192,21417,1,8,0:0:0:0:
256,192,21822,1,0,0:0:0:0:
256,192,21923,1,0,0:0:0:0:
256,192,22025,1,8,0:0:0:0:
256,192,22227,1,8,0:0:0:0:
256,192,22430,1,0,0:0:0:0:
256,192,22734,1,0,0:0:0:0:
256,192,22836,1,0,0:0:0:0:
256,192,23038,1,8,0:0:0:0:
256,192,23241,1,0,0:0:0:0:
256,192,23342,1,0,0:0:0:0:
256,192,23444,1,0,0:0:0:0:
256,192,23646,1,8,0:0:0:0:
256,192,23849,1,0,0:0:0:0:
256,192,23950,1,0,0:0:0:0:
256,192,24052,1,8,0:0:0:0:
256,192,24254,1,8,0:0:0:0:
256,192,24356,1,0,0:0:0:0:
256,192,24457,1,8,0:0:0:0:
256,192,24660,1,8,0:0:0:0:
256,192,24863,1,0,0:0:0:0:
256,192,25065,1,0,0:0:0:0:
256,192,25167,1,0,0:0:0:0:
256,192,25268,1,8,0:0:0:0:
256,192,25471,1,8,0:0:0:0:
256,192,25673,1,0,0:0:0:0:
256,192,25977,1,0,0:0:0:0:
256,192,26079,1,8,0:0:0:0:
256,192,26281,1,0,0:0:0:0:
256,192,26687,1,0,0:0:0:0:
256,192,26890,1,8,0:0:0:0:
256,192,27092,1,8,0:0:0:0:
256,192,27194,1,8,0:0:0:0:
256,192,27295,1,0,0:0:0:0:
256,192,27599,1,0,0:0:0:0:
256,192,27700,1,8,0:0:0:0:
256,192,27903,1,0,0:0:0:0:
256,192,28308,1,0,0:0:0:0:
256,192,28410,1,8,0:0:0:0:
256,192,28511,1,8,0:0:0:0:
256,192,28714,1,8,0:0:0:0:
256,192,28917,1,0,0:0:0:0:
256,192,29221,1,0,0:0:0:0:
256,192,29322,1,8,0:0:0:0:
256,192,29525,1,0,0:0:0:0:
256,192,29727,1,0,0:0:0:0:
256,192,29829,1,8,0:0:0:0:
256,192,29930,1,0,0:0:0:0:
256,192,30133,1,8,0:0:0:0:
256,192,30234,1,0,0:0:0:0:
256,192,30336,1,8,0:0:0:0:
256,192,30437,1,8,0:0:0:0:
256,192,30538,1,0,0:0:0:0:
256,192,30741,1,0,0:0:0:0:
256,192,30842,1,0,0:0:0:0:
256,192,30944,1,8,0:0:0:0:
256,192,31146,1,8,0:0:0:0:
256,192,31349,1,0,0:0:0:0:
256,192,31552,1,0,0:0:0:0:
256,192,31653,1,0,0:0:0:0:
256,192,31754,1,8,0:0:0:0:
256,192,31957,1,8,0:0:0:0:
256,192,32160,1,0,0:0:0:0:
256,192,32363,1,0,0:0:0:0:
256,192,32464,1,8,0:0:0:0:
256,192,32565,1,0,0:0:0:0:
256,192,32768,1,0,0:0:0:0:
256,192,32869,1,0,0:0:0:0:
256,192,32971,1,8,0:0:0:0:
256,192,33173,1,0,0:0:0:0:
256,192,33275,1,8,0:0:0:0:
256,192,33376,1,8,0:0:0:0:
256,192,33579,1,8,0:0:0:0:
256,192,33680,1,8,0:0:0:0:
256,192,33781,1,0,0:0:0:0:
256,192,34086,1,0,0:0:0:0:
256,192,34187,1,8,0:0:0:0:
256,192,34390,1,8,0:0:0:0:
256,192,34592,1,0,0:0:0:0:
256,192,34694,1,0,0:0:0:0:
256,192,34795,1,8,0:0:0:0:
256,192,34896,1,8,0:0:0:0:
256,192,34998,1,0,0:0:0:0:
256,192,35200,1,8,0:0:0:0:
256,192,35302,1,8,0:0:0:0:
256,192,35403,1,0,0:0:0:0:
256,192,35707,1,0,0:0:0:0:
256,192,35808,1,8,0:0:0:0:
256,192,36011,1,8,0:0:0:0:
256,192,36214,1,0,0:0:0:0:
256,192,36315,1,0,0:0:0:0:
256,192,36518,1,0,0:0:0:0:
256,192,36619,1,8,0:0:0:0:
256,192,36822,1,8,0:0:0:0:
256,192,36923,1,8,0:0:0:0:
256,192,37025,1,0,0:0:0:0:
256,192,37227,1,0,0:0:0:0:
256,192,37329,1,0,0:0:0:0:
256,192,37430,1,8,0:0:0:0:
256,192,37633,1,8,0:0:0:0:
256,192,37836,1,0,0:0:0:0:
256,192,38038,1,0,0:0:0:0:
256,192,38140,1,0,0:0:0:0:
256,192,38241,1,8,0:0:0:0:
256,192,38444,1,8,0:0:0:0:
256,192,38646,1,0,0:0:0:0:
256,192,38950,1,0,0:0:0:0:
256,192,39052,1,8,0:0:0:0:
256,192,39254,1,8,0:0:0:0:
256,192,39457,1,0,0:0:0:0:
256,192,39558,1,0,0:0:0:0:
256,192,39660,1,8,0:0:0:0:
256,192,39761,1,0,0:0:0:0:
256,192,39863,1,8,0:0:0:0:
256,192,40065,1,8,0:0:0:0:
256,192,40167,5,8,0:0:0:0:
256,192,40268,1,0,0:0:0:0:
256,192,40572,1,0,0:0:0:0:
256,192,40673,1,8,0:0:0:0:
256,192,40876,1,0,0:0:0:0:
256,192,41180,1,0,0:0:0:0:
256,192,41383,1,0,0:0:0:0:
256,192,41484,1,8,0:0:0:0:
256,192,41687,1,0,0:0:0:0:
256,192,41788,1,8,0:0:0:0:
256,192,41890,1,0,0:0:0:0:
256,192,42194,1,0,0:0:0:0:
256,192,42295,1,8,0:0:0:0:
256,192,42498,1,8,0:0:0:0:
256,192,42802,1,8,0:0:0:0:
256,192,43004,1,0,0:0:0:0:
256,192,43106,1,8,0:0:0:0:
256,192,43308,1,8,0:0:0:0:
256,192,43410,1,8,0:0:0:0:
256,192,43511,1,0,0:0:0:0:
256,192,43714,1,0,0:0:0:0:
256,192,43815,1,8,0:0:0:0:
256,192,43917,1,8,0:0:0:0:
256,192,44119,1,0,0:0:0:0:
256,192,44423,1,0,0:0:0:0:
256,192,44626,1,0,0:0:0:0:
256,192,44727,1,8,0:0:0:0:
256,192,44930,1,0,0:0:0:0:
256,192,45133,1,0,0:0:0:0:
256,192,45234,1,0,0:0:0:0:
256,192,45336,1,8,0:0:0:0:
256,192,45538,1,8,0:0:0:0:
256,192,45741,1,0,0:0:0:0:
256,192,45842,1,0,0:0:0:0:
256,192,45944,1,8,0:0:0:0:
256,192,46045,1,8,0:0:0:0:
256,192,46146,1,0,0:0:0:0:
256,192,46248,1,0,0:0:0:0:
256,192,46349,1,8,0:0:0:0:
256,192,46552,1,0,0:0:0:0:
256,192,46653,1,0,0:0:0:0:
256,192,46754,1,8,0:0:0:0:
256,192,46957,1,0,0:0:0:0:
256,192,47160,1,8,0:0:0:0:
256,192,47211,1,8,0:0:0:0:
256,192,47261,1,0,0:0:0:0:
256,192,47312,1,0,0:0:0:0:
256,192,47363,1,0,0:0:0:0:
256,192,47464,1,0,0:0:0:0:
256,192,47565,1,8,0:0:0:0:
256,192,47768,1,0,0:0:0:0:
256,192,47869,1,0,0:0:0:0:
256,192,47971,1,8,0:0:0:0:
256,192,48173,1,0,0:0:0:0:
256,192,48376,1,8,0:0:0:0:
256,192,48579,1,0,0:0:0:0:
256,192,48680,1,0,0:0:0:0:
256,192,48781,1,8,0:0:0:0:
256,192,48984,1,0,0:0:0:0:
256,192,49187,1,8,0:0:0:0:
256,192,49390,1,0,0:0:0:0:
256,192,49491,1,0,0:0:0:0:
256,192,49592,1,8,0:0:0:0:
256,192,49795,1,0,0:0:0:0:
256,192,49998,1,0,0:0:0:0:
256,192,50099,1,0,0:0:0:0:
256,192,50200,1,8,0:0:0:0:
256,192,50302,1,8,0:0:0:0:
256,192,50403,1,0,0:0:0:0:
256,192,50504,1,8,0:0:0:0:
256,192,50606,1,8,0:0:0:0:
256,192,50707,1,8,0:0:0:0:
256,192,50808,1,0,0:0:0:0:
256,192,50910,1,0,0:0:0:0:
256,192,51011,1,8,0:0:0:0:
256,192,51113,1,8,0:0:0:0:
256,192,51214,1,0,0:0:0:0:
256,192,51315,1,8,0:0:0:0:
256,192,51417,1,8,0:0:0:0:
256,192,51518,1,8,0:0:0:0:
256,192,51619,1,0,0:0:0:0:
256,192,51721,1,0,0:0:0:0:
256,192,51822,1,8,0:0:0:0:
256,192,51923,1,8,0:0:0:0:
256,192,52025,1,0,0:0:0:0:
256,192,52126,1,8,0:0:0:0:
256,192,52227,1,8,0:0:0:0:
256,192,52329,1,0,0:0:0:0:
256,192,52430,1,8,0:0:0:0:
256,192,52633,1,0,0:0:0:0:
256,192,52700,1,0,0:0:0:0:
256,192,52768,1,0,0:0:0:0:
256,192,52836,1,8,0:0:0:0:
256,192,53038,1,0,0:0:0:0:
256,192,53241,1,12,0:0:0:0:
256,192,53444,1,0,0:0:0:0:
256,192,53646,1,8,0:0:0:0:
256,192,53748,1,0,0:0:0:0:
256,192,53849,1,0,0:0:0:0:
256,192,54052,1,8,0:0:0:0:
256,192,54254,1,0,0:0:0:0:
256,192,54457,1,8,0:0:0:0:
256,192,54660,1,0,0:0:0:0:
256,192,54863,1,8,0:0:0:0:
256,192,55065,1,0,0:0:0:0:
256,192,55167,1,8,0:0:0:0:
256,192,55268,1,8,0:0:0:0:
256,192,55471,1,0,0:0:0:0:
256,192,55673,1,8,0:0:0:0:
256,192,55876,1,0,0:0:0:0:
256,192,55977,1,0,0:0:0:0:
256,192,56079,1,8,0:0:0:0:
256,192,56180,1,8,0:0:0:0:
256,192,56281,1,0,0:0:0:0:
256,192,56484,1,12,0:0:0:0:
256,192,56687,1,0,0:0:0:0:
256,192,56788,1,0,0:0:0:0:
256,192,56890,1,0,0:0:0:0:
256,192,57092,1,12,0:0:0:0:
256,192,57295,1,0,0:0:0:0:
256,192,57396,1,0,0:0:0:0:
256,192,57498,1,0,0:0:0:0:
256,192,57700,1,12,0:0:0:0:
256,192,57903,1,0,0:0:0:0:
256,192,58106,1,0,0:0:0:0:
256,192,58207,1,8,0:0:0:0:
256,192,58308,1,0,0:0:0:0:
256,192,58511,1,8,0:0:0:0:
256,192,58613,1,0,0:0:0:0:
256,192,58714,1,8,0:0:0:0:
256,192,58917,1,0,0:0:0:0:
256,192,59018,1,8,0:0:0:0:
256,192,59119,1,0,0:0:0:0:
256,192,59187,1,0,0:0:0:0:
256,192,59254,1,0,0:0:0:0:
256,192,59322,1,8,0:0:0:0:
256,192,59727,1,4,0:0:0:0:
256,192,59930,1,8,0:0:0:0:
256,192,60133,1,0,0:0:0:0:
256,192,60234,1,0,0:0:0:0:
256,192,60336,1,8,0:0:0:0:
256,192,60437,1,0,0:0:0:0:
256,192,60538,1,8,0:0:0:0:
256,192,60741,1,0,0:0:0:0:
256,192,60842,1,0,0:0:0:0:
256,192,60944,1,8,0:0:0:0:
256,192,61146,1,8,0:0:0:0:
256,192,61349,1,0,0:0:0:0:
256,192,61450,1,8,0:0:0:0:
256,192,61552,1,0,0:0:0:0:
256,192,61754,1,8,0:0:0:0:
256,192,61957,1,0,0:0:0:0:
256,192,62160,1,12,0:0:0:0:
256,192,62565,1,12,0:0:0:0:
256,192,62768,1,0,0:0:0:0:
256,192,62869,1,0,0:0:0:0:
256,192,62971,1,8,0:0:0:0:
256,192,63173,1,0,0:0:0:0:
256,192,63275,1,0,0:0:0:0:
256,192,63376,1,8,0:0:0:0:
256,192,63579,1,8,0:0:0:0:
256,192,63781,1,0,0:0:0:0:
256,192,63984,1,0,0:0:0:0:
256,192,64086,1,0,0:0:0:0:
256,192,64187,1,8,0:0:0:0:
256,192,64390,1,8,0:0:0:0:
256,192,64795,1,0,0:0:0:0:
256,192,64896,1,0,0:0:0:0:
256,192,64998,1,8,0:0:0:0:
256,192,65200,1,0,0:0:0:0:
256,192,65403,1,12,0:0:0:0:
256,192,65808,1,12,0:0:0:0:
256,192,66011,1,0,0:0:0:0:
256,192,66113,1,0,0:0:0:0:
256,192,66214,1,8,0:0:0:0:
256,192,66417,1,8,0:0:0:0:
256,192,66619,1,0,0:0:0:0:
256,192,66822,1,0,0:0:0:0:
256,192,66923,1,0,0:0:0:0:
256,192,67025,1,8,0:0:0:0:
256,192,67227,1,8,0:0:0:0:
256,192,67430,1,0,0:0:0:0:
256,192,67531,1,0,0:0:0:0:
256,192,67633,1,8,0:0:0:0:
256,192,67836,1,0,0:0:0:0:
256,192,68038,1,8,0:0:0:0:
256,192,68140,1,8,0:0:0:0:
256,192,68241,1,0,0:0:0:0:
256,192,68444,1,8,0:0:0:0:
256,192,68646,1,0,0:0:0:0:
256,192,68849,1,0,0:0:0:0:
256,192,68917,1,0,0:0:0:0:
256,192,68984,1,0,0:0:0:0:
256,192,69052,1,8,0:0:0:0:
256,192,69254,1,0,0:0:0:0:
256,192,69322,1,0,0:0:0:0:
256,192,69390,1,0,0:0:0:0:
256,192,69457,1,8,0:0:0:0:
256,192,69660,1,8,0:0:0:0:
256,192,69863,1,0,0:0:0:0:
256,192,70065,1,8,0:0:0:0:
256,192,70167,1,0,0:0:0:0:
256,192,70268,1,8,0:0:0:0:
256,192,70471,1,8,0:0:0:0:
256,192,70673,1,0,0:0:0:0:
256,192,70876,1,8,0:0:0:0:
256,192,71079,1,4,0:0:0:0:
256,192,71281,1,0,0:0:0:0:
256,192,71383,1,0,0:0:0:0:
256,192,71484,1,8,0:0:0:0:
256,192,71687,1,0,0:0:0:0:
256,192,71788,1,0,0:0:0:0:
256,192,71890,1,8,0:0:0:0:
256,192,72092,1,0,0:0:0:0:
256,192,72194,1,0,0:0:0:0:
256,192,72295,1,8,0:0:0:0:
256,192,72396,1,8,0:0:0:0:
256,192,72498,1,8,0:0:0:0:
256,192,72599,1,8,0:0:0:0:
256,192,72700,1,4,0:0:0:0:
256,192,72903,1,0,0:0:0:0:
256,192,73106,1,8,0:0:0:0:
256,192,73308,1,0,0:0:0:0:
256,192,73410,1,0,0:0:0:0:
256,192,73511,1,8,0:0:0:0:
256,192,73714,1,8,0:0:0:0:
256,192,73917,1,0,0:0:0:0:
256,192,74018,1,8,0:0:0:0:
256,192,74119,1,8,0:0:0:0:
256,192,74322,1,0,0:0:0:0:
256,192,74525,1,0,0:0:0:0:
256,192,74626,1,0,0:0:0:0:
256,192,74727,1,8,0:0:0:0:
256,192,74930,1,0,0:0:0:0:
256,192,75133,1,12,0:0:0:0:
256,192,75336,1,0,0:0:0:0:
256,192,75538,1,12,0:0:0:0:
256,192,75741,1,0,0:0:0:0:
256,192,75842,1,8,0:0:0:0:
256,192,75944,1,0,0:0:0:0:
256,192,76146,1,0,0:0:0:0:
256,192,76349,1,8,0:0:0:0:
256,192,76552,1,0,0:0:0:0:
256,192,76653,1,8,0:0:0:0:
256,192,76754,1,0,0:0:0:0:
256,192,76957,1,0,0:0:0:0:
256,192,77160,1,8,0:0:0:0:
256,192,77261,1,0,0:0:0:0:
256,192,77363,1,0,0:0:0:0:
257,192,77768,1,0,0:0:0:0:
257,192,77869,1,0,0:0:0:0:
257,192,77971,1,8,0:0:0:0:
257,192,78173,1,0,0:0:0:0:
257,192,78376,1,12,0:0:0:0:
257,192,78579,1,0,0:0:0:0:
257,192,78781,1,12,0:0:0:0:
257,192,78984,1,0,0:0:0:0:
257,192,79086,1,8,0:0:0:0:
257,192,79187,1,0,0:0:0:0:
257,192,79390,1,0,0:0:0:0:
257,192,79592,1,8,0:0:0:0:
257,192,79795,1,0,0:0:0:0:
257,192,79896,1,0,0:0:0:0:
257,192,79998,1,8,0:0:0:0:
257,192,80200,1,8,0:0:0:0:
257,192,80403,1,0,0:0:0:0:
257,192,80504,1,0,0:0:0:0:
257,192,80606,1,8,0:0:0:0:
257,192,81011,1,8,0:0:0:0:
257,192,81113,1,8,0:0:0:0:
257,192,81214,1,0,0:0:0:0:
257,192,81417,1,8,0:0:0:0:
257,192,81619,1,0,0:0:0:0:
257,192,81721,1,0,0:0:0:0:
257,192,81923,1,0,0:0:0:0:
257,192,82025,1,8,0:0:0:0:
257,192,82227,1,8,0:0:0:0:
257,192,82329,1,8,0:0:0:0:
257,192,82430,1,0,0:0:0:0:
257,192,82633,1,0,0:0:0:0:
257,192,82836,1,8,0:0:0:0:
257,192,83038,1,0,0:0:0:0:
257,192,83140,1,0,0:0:0:0:
257,192,83241,1,8,0:0:0:0:
257,192,83444,1,8,0:0:0:0:
257,192,83646,1,0,0:0:0:0:
257,192,83849,1,8,0:0:0:0:
257,191,84254,1,0,0:0:0:0:
257,191,84356,1,0,0:0:0:0:
257,191,84457,1,8,0:0:0:0:
257,192,84660,1,8,0:0:0:0:
257,192,84863,1,0,0:0:0:0:
257,192,84964,1,0,0:0:0:0:
257,192,85065,1,8,0:0:0:0:
257,192,85167,1,8,0:0:0:0:
257,192,85268,1,0,0:0:0:0:
257,192,85673,1,0,0:0:0:0:
257,192,85876,1,0,0:0:0:0:
257,192,86079,1,8,0:0:0:0:
257,192,86281,1,0,0:0:0:0:
257,192,86484,1,8,0:0:0:0:
257,192,86890,1,8,0:0:0:0:
257,192,87092,1,4,0:0:0:0:
257,192,87498,1,0,0:0:0:0:
257,192,87599,1,0,0:0:0:0:
257,192,87700,1,8,0:0:0:0:
257,192,87903,1,0,0:0:0:0:
256,192,88106,1,12,0:0:0:0:
