osu file format v14

[General]
AudioFilename: audio.mp3
AudioLeadIn: 0
PreviewTime: 58920
Countdown: 0
SampleSet: Normal
StackLeniency: 0.7
Mode: 1
LetterboxInBreaks: 0
WidescreenStoryboard: 1

[Editor]
DistanceSpacing: 0.2
BeatDivisor: 4
GridSize: 32
TimelineZoom: 1.8

[Metadata]
Title:Aikotoba TV Size ver.
TitleUnicode:アイコトバ TV Size ver.
Artist:GARNiDELiA
ArtistUnicode:GARNiDELiA
Creator:spboxer3
Version:Futsuu
Source:アニメガタリズ
Tags:aabc271 kanpakyin kpy Anime Gataris
BeatmapID:1467178
BeatmapSetID:689313

[Difficulty]
HPDrainRate:6
CircleSize:4
OverallDifficulty:4
ApproachRate:5
SliderMultiplier:1.4
SliderTickRate:1

[Events]
//Background and Video events
0,0,"BG.jpg",0,0
//Break Periods
//Storyboard Layer 0 (Background)
//Storyboard Layer 1 (Fail)
//Storyboard Layer 2 (Pass)
//Storyboard Layer 3 (Foreground)
//Storyboard Layer 4 (Overlay)
//Storyboard Sound Samples

[TimingPoints]
539,405.405405405405,4,1,0,60,1,0
19998,405.405405405405,4,1,0,60,1,8
20809,405.405405405405,4,1,0,60,1,0
59727,-100,4,1,0,70,0,1
85673,-100,4,1,0,65,0,0

[HitObjects]
256,192,539,5,8,0:0:0:0:
256,192,944,1,0,0:0:0:0:
256,192,1349,1,8,0:0:0:0:
256,192,1552,1,0,0:0:0:0:
256,192,1957,1,8,0:0:0:0:
256,192,2566,1,0,0:0:0:0:
256,192,2971,1,8,0:0:0:0:
256,192,3376,1,0,0:0:0:0:
256,192,3782,1,8,0:0:0:0:
256,192,4187,1,0,0:0:0:0:
256,192,4593,1,8,0:0:0:0:
256,192,4795,1,0,0:0:0:0:
256,192,5201,1,8,0:0:0:0:
256,192,6620,1,12,0:0:0:0:
256,192,7025,1,0,0:0:0:0:
256,192,7430,1,8,0:0:0:0:
256,192,7836,1,0,0:0:0:0:
256,192,8241,1,8,0:0:0:0:
256,192,8444,1,0,0:0:0:0:
256,192,8849,1,0,0:0:0:0:
256,192,9052,1,0,0:0:0:0:
256,192,9457,1,8,0:0:0:0:
256,192,9863,1,0,0:0:0:0:
256,192,10268,1,0,0:0:0:0:
256,192,10674,1,8,0:0:0:0:
256,192,11079,1,0,0:0:0:0:
256,192,11484,1,8,0:0:0:0:
256,192,11687,1,0,0:0:0:0:
256,192,12093,1,0,0:0:0:0:
256,192,12295,1,0,0:0:0:0:
256,192,12701,1,8,0:0:0:0:
256,192,13106,1,8,0:0:0:0:
256,192,13309,1,8,0:0:0:0:
256,192,13511,1,0,0:0:0:0:
256,192,13917,1,8,0:0:0:0:
256,192,14322,1,0,0:0:0:0:
256,192,14728,1,8,0:0:0:0:
256,192,14930,1,0,0:0:0:0:
256,192,15336,1,0,0:0:0:0:
256,192,15538,1,0,0:0:0:0:
256,192,15944,1,8,0:0:0:0:
256,192,16349,1,0,0:0:0:0:
256,192,16755,1,0,0:0:0:0:
256,192,17160,1,8,0:0:0:0:
256,192,17566,1,0,0:0:0:0:
256,192,17971,1,8,0:0:0:0:
256,192,18174,1,8,0:0:0:0:
256,192,19795,1,0,0:0:0:0:
256,192,19998,1,8,0:0:0:0:
256,192,20201,1,8,0:0:0:0:
256,192,20403,1,0,0:0:0:0:
256,192,20809,1,4,0:0:0:0:
256,192,21214,1,8,0:0:0:0:
256,192,21619,1,0,0:0:0:0:
256,192,22227,1,8,0:0:0:0:
256,192,22430,1,0,0:0:0:0:
256,192,22836,1,0,0:0:0:0:
256,192,23038,1,8,0:0:0:0:
256,192,23444,1,0,0:0:0:0:
256,192,23849,1,8,0:0:0:0:
256,192,24052,1,0,0:0:0:0:
256,192,24457,1,8,0:0:0:0:
256,192,24863,1,0,0:0:0:0:
256,192,25065,1,0,0:0:0:0:
256,192,25268,1,8,0:0:0:0:
256,192,25673,1,0,0:0:0:0:
256,192,26079,1,8,0:0:0:0:
256,192,26687,1,0,0:0:0:0:
256,192,26890,1,8,0:0:0:0:
256,192,27295,1,0,0:0:0:0:
256,192,27700,1,8,0:0:0:0:
256,192,28106,1,0,0:0:0:0:
256,192,28714,1,8,0:0:0:0:
256,192,28917,1,0,0:0:0:0:
256,192,29322,1,0,0:0:0:0:
256,192,29525,1,8,0:0:0:0:
256,192,29930,1,0,0:0:0:0:
256,192,30336,1,8,0:0:0:0:
256,192,30538,1,0,0:0:0:0:
256,192,30944,1,8,0:0:0:0:
256,192,31349,1,0,0:0:0:0:
256,192,31552,1,0,0:0:0:0:
256,192,31754,1,8,0:0:0:0:
256,192,32160,1,0,0:0:0:0:
256,192,32971,1,0,0:0:0:0:
256,192,33376,1,8,0:0:0:0:
256,192,33781,1,0,0:0:0:0:
256,192,34187,1,8,0:0:0:0:
256,192,34592,1,0,0:0:0:0:
256,192,34795,1,0,0:0:0:0:
256,192,35200,1,8,0:0:0:0:
256,192,35403,1,0,0:0:0:0:
256,192,35808,1,0,0:0:0:0:
256,192,36011,1,8,0:0:0:0:
256,192,36417,1,0,0:0:0:0:
256,192,36822,1,8,0:0:0:0:
256,192,37025,1,0,0:0:0:0:
256,192,37430,1,8,0:0:0:0:
256,192,37836,1,0,0:0:0:0:
256,192,38241,1,8,0:0:0:0:
256,192,38646,1,0,0:0:0:0:
256,192,39052,1,8,0:0:0:0:
256,192,39254,1,0,0:0:0:0:
256,192,39660,1,0,0:0:0:0:
256,192,39863,1,8,0:0:0:0:
256,192,40268,1,0,0:0:0:0:
256,192,40673,1,8,0:0:0:0:
256,192,40876,1,0,0:0:0:0:
256,192,41281,1,0,0:0:0:0:
256,192,41890,1,0,0:0:0:0:
256,192,42295,1,8,0:0:0:0:
256,192,42498,1,0,0:0:0:0:
256,192,42903,1,8,0:0:0:0:
256,192,43511,1,8,0:0:0:0:
256,192,43917,1,8,0:0:0:0:
256,192,44119,1,0,0:0:0:0:
256,192,44525,1,8,0:0:0:0:
256,192,44727,1,0,0:0:0:0:
256,192,44930,1,8,0:0:0:0:
256,192,45336,1,0,0:0:0:0:
256,192,45538,1,8,0:0:0:0:
256,192,45944,1,0,0:0:0:0:
256,192,46146,1,8,0:0:0:0:
256,192,46552,1,8,0:0:0:0:
256,192,46754,1,0,0:0:0:0:
256,192,47565,1,0,0:0:0:0:
256,192,47971,1,8,0:0:0:0:
256,192,48376,1,0,0:0:0:0:
256,192,49187,1,0,0:0:0:0:
256,192,49592,1,8,0:0:0:0:
256,192,49998,1,0,0:0:0:0:
256,192,50200,1,0,0:0:0:0:
256,192,50606,1,0,0:0:0:0:
256,192,50808,1,8,0:0:0:0:
256,192,51011,1,0,0:0:0:0:
256,192,51417,1,0,0:0:0:0:
256,192,51619,1,8,0:0:0:0:
256,192,52025,1,0,0:0:0:0:
256,192,52633,1,0,0:0:0:0:
256,192,52836,1,8,0:0:0:0:
256,192,53241,1,0,0:0:0:0:
256,192,54052,1,0,0:0:0:0:
256,192,54457,1,8,0:0:0:0:
256,192,54863,1,0,0:0:0:0:
256,192,55673,1,0,0:0:0:0:
256,192,56079,1,8,0:0:0:0:
256,192,56484,1,0,0:0:0:0:
256,192,56890,1,8,0:0:0:0:
256,192,57295,1,0,0:0:0:0:
256,192,57700,1,8,0:0:0:0:
256,192,58106,1,0,0:0:0:0:
256,192,58308,1,0,0:0:0:0:
256,192,58511,1,8,0:0:0:0:
256,192,58714,1,0,0:0:0:0:
256,192,58917,1,8,0:0:0:0:
256,192,59322,1,8,0:0:0:0:
256,192,59727,1,0,0:0:0:0:
256,192,60133,1,8,0:0:0:0:
256,192,60336,1,0,0:0:0:0:
256,192,60538,1,0,0:0:0:0:
256,192,60944,1,0,0:0:0:0:
256,192,61146,1,0,0:0:0:0:
256,192,61349,1,8,0:0:0:0:
256,192,61754,1,0,0:0:0:0:
256,192,62160,1,8,0:0:0:0:
256,192,62565,1,8,0:0:0:0:
256,192,62971,1,0,0:0:0:0:
256,192,63376,1,8,0:0:0:0:
256,192,63579,1,0,0:0:0:0:
256,192,63781,1,0,0:0:0:0:
256,192,64187,1,0,0:0:0:0:
256,192,64390,1,8,0:0:0:0:
256,192,64795,1,8,0:0:0:0:
256,192,64998,1,0,0:0:0:0:
256,192,65403,1,8,0:0:0:0:
256,192,66214,1,0,0:0:0:0:
256,192,66619,1,8,0:0:0:0:
256,192,66822,1,0,0:0:0:0:
256,192,67025,1,0,0:0:0:0:
256,192,67430,1,0,0:0:0:0:
256,192,67633,1,8,0:0:0:0:
256,192,68038,1,8,0:0:0:0:
256,192,68241,1,0,0:0:0:0:
256,192,68646,1,8,0:0:0:0:
256,192,69052,1,8,0:0:0:0:
256,192,69457,1,0,0:0:0:0:
256,192,69863,1,8,0:0:0:0:
256,192,70065,1,0,0:0:0:0:
256,192,70268,1,8,0:0:0:0:
256,192,70673,1,0,0:0:0:0:
256,192,70876,1,8,0:0:0:0:
256,192,71281,1,8,0:0:0:0:
256,192,71484,1,0,0:0:0:0:
256,192,71890,1,8,0:0:0:0:
256,192,72295,1,8,0:0:0:0:
256,192,72700,1,0,0:0:0:0:
256,192,72903,1,0,0:0:0:0:
256,192,73106,1,8,0:0:0:0:
256,192,73511,1,0,0:0:0:0:
256,192,73917,1,0,0:0:0:0:
256,192,74119,1,0,0:0:0:0:
256,192,74322,1,8,0:0:0:0:
256,192,74727,1,0,0:0:0:0:
256,192,75133,1,8,0:0:0:0:
256,192,75538,1,8,0:0:0:0:
256,192,75944,1,0,0:0:0:0:
256,192,76146,1,0,0:0:0:0:
256,192,76349,1,8,0:0:0:0:
256,192,76754,1,8,0:0:0:0:
256,192,77160,1,0,0:0:0:0:
256,192,77363,1,8,0:0:0:0:
256,192,77768,1,8,0:0:0:0:
256,192,77971,1,0,0:0:0:0:
256,192,78376,1,8,0:0:0:0:
256,192,79187,1,0,0:0:0:0:
256,192,79390,1,0,0:0:0:0:
256,192,79592,1,8,0:0:0:0:
256,192,79998,1,0,0:0:0:0:
256,192,80403,1,0,0:0:0:0:
256,192,80606,1,8,0:0:0:0:
256,192,81011,1,8,0:0:0:0:
256,192,81214,1,0,0:0:0:0:
256,192,81619,1,8,0:0:0:0:
256,192,82025,1,8,0:0:0:0:
256,192,82430,1,0,0:0:0:0:
256,192,82633,1,0,0:0:0:0:
256,192,82836,1,8,0:0:0:0:
256,192,83241,1,8,0:0:0:0:
256,192,83646,1,0,0:0:0:0:
256,192,83849,1,8,0:0:0:0:
256,192,84254,1,8,0:0:0:0:
256,192,84457,1,0,0:0:0:0:
256,192,84863,1,8,0:0:0:0:
256,192,85268,1,8,0:0:0:0:
256,192,85673,1,0,0:0:0:0:
256,192,86079,1,8,0:0:0:0:
256,192,86281,1,0,0:0:0:0:
256,192,86484,1,8,0:0:0:0:
256,192,86890,1,0,0:0:0:0:
256,192,87092,1,8,0:0:0:0:
256,192,87498,1,0,0:0:0:0:
256,192,87700,1,8,0:0:0:0:
256,192,88106,1,8,0:0:0:0:
