osu file format v14

[General]
AudioFilename: audio.mp3
AudioLeadIn: 0
PreviewTime: 59394
Countdown: 0
SampleSet: Soft
StackLeniency: 0.7
Mode: 0
LetterboxInBreaks: 0
WidescreenStoryboard: 0

[Editor]
DistanceSpacing: 1.2
BeatDivisor: 4
GridSize: 8
TimelineZoom: 1.4

[Metadata]
Title:Aikotoba (TV Size)
TitleUnicode:Aikotoba (TV Size)
Artist:GARNiDELiA
ArtistUnicode:GARNiDELiA
Creator:GugUCorn
Version:Insane
Source:アニメガタリズ
Tags:animegataris anime gataris opening ガルニデリア
BeatmapID:2010507
BeatmapSetID:960309

[Difficulty]
HPDrainRate:7
CircleSize:4
OverallDifficulty:7
ApproachRate:9
SliderMultiplier:1.7
SliderTickRate:2

[Events]
//Background and Video events
0,0,"1080.png",0,0
//Break Periods
//Storyboard Layer 0 (Background)
//Storyboard Layer 1 (Fail)
//Storyboard Layer 2 (Pass)
//Storyboard Layer 3 (Foreground)
//Storyboard Sound Samples

[TimingPoints]
611,405.405405405405,4,1,1,50,1,0
1219,-100,4,1,2,50,0,0
1421,-100,4,1,1,50,0,0
6692,-66.6666666666667,4,2,1,60,0,0
7097,-100,4,2,1,60,0,1
18246,-100,4,2,1,60,0,0
19462,-133.333333333333,4,2,1,60,0,0
19867,-50,4,2,1,60,0,0
20273,-100,4,2,1,60,0,0
20475,-66.6666666666667,4,2,2,60,0,0
20881,-100,4,2,1,60,0,0
52908,-100,4,2,2,60,0,0
53110,-100,4,2,1,60,0,0
59394,-50,4,2,1,60,0,0
59800,-100,4,2,1,60,0,1
62232,-66.6666666666667,4,2,1,60,0,1
62638,-58.8235294117647,4,2,1,60,0,1
63043,-100,4,2,1,60,0,1
65475,-66.6666666666667,4,2,1,60,0,1
66286,-100,4,2,1,60,0,1
68719,-133.333333333333,4,2,1,60,0,1
69124,-66.6666666666667,4,2,1,60,0,1
69529,-100,4,2,1,60,0,1
72671,-100,4,2,1,60,0,0
72773,-100,4,2,1,60,0,1
78448,-66.6666666666667,4,2,1,60,0,1
78854,-58.8235294117647,4,2,1,60,0,1
79259,-100,4,2,1,60,0,1
82097,-66.6666666666667,4,2,1,60,0,1
82502,-100,4,2,1,60,0,0
88178,-133.333333333333,4,2,1,60,0,0
88482,-133.333333333333,4,2,1,5,0,0

[Colours]
Combo1 : 255,128,64
Combo2 : 128,128,192
Combo3 : 255,255,0
Combo4 : 128,128,255

[HitObjects]
256,128,611,6,0,B|248:192|248:192|264:240|264:240|256:304,2,170,0|8|0,2:0|2:1|2:0,0:0:0:0:
184,80,1624,2,0,B|144:64|144:64|96:64,1,85,0|8,2:0|2:1,0:0:0:0:
328,80,2029,2,0,B|368:64|368:64|416:64,1,85,0|0,2:0|2:0,0:0:0:0:
480,120,2435,1,0,2:0:0:0:
440,192,2638,6,0,B|400:208|400:208|352:208,1,85,8|8,2:1|2:1,0:0:0:0:
280,232,3043,2,0,P|232:208|192:208,1,85,0|0,2:0|2:0,0:0:0:0:
120,216,3448,6,0,P|120:264|16:320,2,170,8|0|8,2:1|2:0|2:1,0:0:0:0:
64,152,4462,1,8,2:1:0:0:
32,232,4665,1,0,2:0:0:0:
184,336,4867,2,0,B|232:320|232:320|272:320,1,85,0|8,2:0|2:1,0:0:0:0:
344,296,5273,2,0,P|384:328|496:296,1,170,0|0,2:0|2:0,0:0:0:0:
432,144,5881,6,0,L|424:232,1,85,0|0,2:0|2:0,0:0:0:0:
344,88,6286,2,0,L|336:176,1,85,0|0,2:0|2:0,0:0:0:0:
432,144,6692,6,0,P|440:64|352:-8,1,191.250007295609,4|0,0:3|0:0,0:0:0:0:
320,8,7097,6,0,P|272:32|240:32,1,85,4|0,0:0|0:0,0:0:0:0:
0,32,7502,2,0,P|48:8|80:8,1,85,8|0,0:0|0:0,0:0:0:0:
184,176,7908,1,0,0:0:0:0:
56,87,8111,2,0,P|98:87|136:106,2,85,0|8|0,0:0|0:0|0:0,0:0:0:0:
56,344,8719,6,0,L|72:208,1,127.5
80,176,9124,1,8,0:0:0:0:
184,352,9327,1,0,0:0:0:0:
184,176,9529,1,0,0:0:0:0:
272,312,9732,2,0,P|312:336|352:344,2,85,0|8|8,0:0|0:0|0:0,0:0:0:0:
296,144,10340,6,0,P|389:165|450:204,1,170,0|8,0:0|0:0,0:0:0:0:
454,289,10948,1,0,0:0:0:0:
454,289,11050,1,0,0:0:0:0:
454,289,11151,2,0,P|447:247|451:204,1,85
480,128,11556,2,0,P|488:80|488:40,1,85,8|0,0:0|0:0,0:0:0:0:
256,72,11962,6,0,P|312:64|344:64,1,85
451,204,12367,2,0,P|447:247|454:289,1,85,8|0,0:0|0:0,0:0:0:0:
272,312,12773,1,0,0:0:0:0:
451,204,12975,1,8,0:0:0:0:
192,168,13178,1,8,0:0:0:0:
16,360,13381,1,8,0:0:0:0:
16,360,13482,1,8,0:0:0:0:
16,360,13583,6,0,P|32:312|32:272,1,85,4|0,0:0|0:0,0:0:0:0:
48,192,13989,2,0,P|32:112|32:24,1,170,8|0,0:0|0:0,0:0:0:0:
152,64,14597,1,0,0:0:0:0:
152,64,14800,2,0,B|200:72|200:72|240:72,1,85,8|0,0:0|0:0,0:0:0:0:
304,128,15205,2,0,P|352:96|448:152,1,170,0|8,0:0|0:0,0:0:0:0:
236,72,15813,1,0,0:0:0:0:
368,176,16016,1,0,0:0:0:0:
368,8,16219,1,0,0:0:0:0:
248,200,16421,1,8,0:0:0:0:
440,88,16624,1,8,0:0:0:0:
432,312,16827,6,0,P|416:352|296:360,1,170,0|8,0:0|0:0,0:0:0:0:
150,309,17435,1,0,0:0:0:0:
150,309,17536,1,0,0:0:0:0:
150,309,17638,2,0,P|192:304|232:320,1,85
64,360,18043,1,8,0:0:0:0:
88,232,18246,1,2,0:0:0:0:
88,32,18651,5,2,0:0:0:0:
130,35,18752,1,2,0:0:0:0:
172,39,18853,1,0,0:0:0:0:
208,128,19056,5,2,0:0:0:0:
229,124,19157,1,2,0:0:0:0:
250,121,19258,1,0,0:0:0:0:
344,160,19462,6,0,L|360:128,2,31.8750012159348,0|2|2,0:0|0:0|0:0,0:0:0:0:
424,40,19867,6,0,L|448:128,2,85,8|8|8,0:0|0:0|0:0,0:0:0:0:
480,288,20273,1,8,0:0:0:0:
480,288,20475,6,0,P|432:328|504:312,1,191.250007295609,4|0,0:3|0:0,0:0:0:0:
368,264,20881,6,0,P|328:296|240:304,1,127.5,4|0,0:0|0:0,0:0:0:0:
160,280,21286,2,0,L|168:368,1,85,8|0,0:0|0:0,0:0:0:0:
32,256,21894,1,0,0:0:0:0:
32,256,22097,2,0,L|40:344,1,85,8|0,0:0|0:0,0:0:0:0:
80,192,22502,2,0,B|72:144|72:144|80:96|80:96|72:64,1,127.5
56,24,22908,5,8,0:0:0:0:
144,32,23110,1,0,0:0:0:0:
311,40,23516,2,0,P|354:39|396:46,1,85,0|8,0:0|0:0,0:0:0:0:
480,32,23921,1,8,0:0:0:0:
480,32,24023,1,0,0:0:0:0:
480,32,24124,6,0,B|464:96|464:96|472:160,1,127.5
480,200,24529,1,8,0:0:0:0:
480,200,24732,1,0,0:0:0:0:
304,320,24935,2,0,P|352:304|400:304,1,85
224,256,25340,2,0,P|208:312|128:320,1,127.5,8|0,0:0|0:0,0:0:0:0:
104,320,25746,6,0,P|48:304|16:312,1,85
24,264,26050,1,0,0:0:0:0:
32,224,26151,2,0,P|40:176|32:128,1,85,8|0,0:0|0:0,0:0:0:0:
72,64,26556,1,0,0:0:0:0:
136,216,26759,1,2,0:3:0:0:
240,88,26962,2,0,L|328:72,1,85,8|8,0:0|0:0,0:0:0:0:
368,64,27266,1,8,0:0:0:0:
408,56,27367,6,0,P|464:72|496:72,1,85,4|0,0:0|0:0,0:0:0:0:
408,232,27773,2,0,P|416:184|440:144,1,85,8|0,0:0|0:0,0:0:0:0:
488,312,28178,2,0,P|448:344|352:320,1,127.5
336,320,28583,2,0,P|288:312|240:320,1,85,8|0,0:0|0:0,0:0:0:0:
96,232,28989,6,0,B|112:328|112:328|104:368,1,127.5
16,264,29394,1,8,0:0:0:0:
16,264,29597,2,0,P|24:176|88:136,1,170
176,152,30205,1,8,0:0:0:0:
352,48,30408,1,0,0:0:0:0:
352,48,30610,6,0,P|296:48|256:64,1,85
176,152,31016,1,8,0:0:0:0:
404,128,31219,2,0,P|365:145|336:176,2,85
448,312,31827,6,0,B|446:249|422:209|422:209|408:207|400:231,1,127.5,8|0,0:0|0:0,0:0:0:0:
344,320,32232,1,0,0:0:0:0:
232,224,32435,5,2,0:0:0:0:
200,200,32536,1,2,0:0:0:0:
192,240,32638,1,8,0:0:0:0:
32,344,32840,5,2,0:0:0:0:
64,368,32942,1,2,0:0:0:0:
72,328,33043,1,0,0:0:0:0:
72,176,33246,5,2,0:0:0:0:
40,152,33347,1,2,0:0:0:0:
32,192,33448,1,8,0:0:0:0:
168,88,33651,6,0,L|160:40,1,42.5,10|10,0:0|0:0,0:0:0:0:
232,0,33854,6,0,B|248:96|248:96|272:120,1,127.5,4|0,0:0|0:0,0:0:0:0:
304,144,34259,2,0,P|352:128|400:128,1,85,8|0,0:0|0:0,0:0:0:0:
472,144,34665,1,0,0:0:0:0:
416,208,34867,2,0,P|419:250|433:290,1,85,0|8,0:0|0:0,0:0:0:0:
496,344,35273,1,0,0:0:0:0:
496,344,35475,6,0,P|448:320|368:344,1,127.5
344,368,35881,1,8,0:0:0:0:
216,296,36083,6,0,P|155:312|98:287,1,127.5
72,256,36489,2,0,L|72:304,1,42.5
120,192,36692,2,0,P|104:144|104:104,1,85,8|0,0:0|0:0,0:0:0:0:
112,72,36996,1,0,0:0:0:0:
136,32,37097,6,0,L|224:48,1,85
448,32,37502,2,0,L|360:48,1,85,8|0,0:0|0:0,0:0:0:0:
200,136,37908,2,0,L|288:152,1,85
472,120,38313,2,0,P|416:168|416:224,1,127.5,8|0,0:0|0:0,0:0:0:0:
432,256,38719,5,0,0:0:0:0:
320,360,38921,1,0,0:0:0:0:
320,360,39023,1,0,0:0:0:0:
320,360,39124,2,0,P|328:312|320:272,1,85,8|0,0:0|0:0,0:0:0:0:
256,216,39529,1,0,0:0:0:0:
192,360,39732,2,0,P|183:318|190:276,2,85,0|8|8,0:0|0:0|0:0,0:0:0:0:
80,72,40340,6,0,P|64:112|128:80,1,170,4|8,0:0|0:0,0:0:0:0:
24,192,40948,1,0,0:0:0:0:
24,192,41151,2,0,P|72:216|152:208,1,127.5
296,144,41556,2,0,P|261:143|200:160,1,85,8|0,0:0|0:0,0:0:0:0:
384,207,41962,6,0,B|376:91|376:91|391:103,1,127.5
467,162,42367,2,0,L|472:249,1,85,8|0,0:0|0:0,0:0:0:0:
480,336,42773,1,0,0:0:0:0:
336,288,42975,1,0,0:0:0:0:
200,352,43178,2,0,B|152:360|152:360|112:360,1,85,8|0,0:0|0:0,0:0:0:0:
72,360,43482,1,0,0:0:0:0:
32,360,43583,6,0,P|48:288|0:208,1,170,0|8,0:0|0:0,0:0:0:0:
64,24,44192,6,0,P|48:96|96:176,1,170
176,192,44800,1,8,0:0:0:0:
240,136,45002,2,0,B|280:144|320:136|320:136|312:144|312:144|352:136|392:144,1,170
472,176,45610,2,0,P|464:128|472:80,1,85,8|0,0:0|0:0,0:0:0:0:
456,256,46016,1,0,0:0:0:0:
384,56,46219,1,0,0:0:0:0:
368,240,46421,2,0,P|376:288|376:336,1,85,8|0,0:0|0:0,0:0:0:0:
240,136,46827,5,4,0:0:0:0:
216,296,47029,2,0,P|248:328|272:368,1,85
32,264,47435,1,0,0:0:0:0:
80,368,47638,2,0,P|128:368|176:384,1,85,8|0,0:0|0:0,0:0:0:0:
216,296,48043,2,0,P|168:296|120:280,1,85
0,184,48448,1,0,0:0:0:0:
88,48,48651,1,0,0:0:0:0:
88,48,48854,2,0,P|136:40|176:40,1,85
256,48,49259,1,8,0:0:0:0:
344,56,49462,6,0,P|386:55|428:47,2,85
488,104,50070,2,0,B|480:200|480:200|488:288,1,170
352,248,50678,1,0,0:0:0:0:
352,248,50881,2,0,P|288:240|256:240,1,85,8|0,0:0|0:0,0:0:0:0:
160,320,51286,2,0,P|118:326|75:328,1,85
40,248,51692,2,0,B|64:200|48:152|48:152|64:72,1,170
61,82,52300,1,0,0:0:0:0:
136,40,52502,6,0,P|184:48|224:48,1,85,8|0,0:0|0:0,0:0:0:0:
296,88,52908,2,0,P|336:48|368:32,1,85,4|0,0:3|0:0,0:0:0:0:
360,264,53313,5,4,0:0:0:0:
336,184,53516,2,0,P|352:136|376:112,1,85
488,192,53921,1,0,0:0:0:0:
408,336,54124,2,0,P|360:368|328:376,1,85,8|0,0:0|0:0,0:0:0:0:
172,350,54529,2,0,P|214:343|256:352,1,85
96,384,54935,1,0,0:0:0:0:
99,211,55138,2,0,P|105:253|104:296,2,85
72,128,55746,2,0,P|64:72|64:32,1,85,8|0,0:0|0:0,0:0:0:0:
288,64,56151,2,0,P|296:120|296:160,1,85
184,96,56556,5,12,0:0:0:0:
288,64,56759,1,8,0:0:0:0:
400,80,56962,1,8,0:0:0:0:
488,144,57165,1,8,0:0:0:0:
424,290,57367,5,12,0:0:0:0:
317,265,57570,1,8,0:0:0:0:
228,195,57773,1,8,0:0:0:0:
184,96,57976,1,8,0:0:0:0:
400,80,58178,5,12,0:0:0:0:
317,265,58381,1,8,0:0:0:0:
288,64,58583,1,12,0:0:0:0:
424,290,58786,1,8,0:0:0:0:
184,96,58989,2,0,L|128:88,3,42.5,12|8|8|8,0:0|0:0|0:0|0:0,0:0:0:0:
112,168,59394,6,0,P|64:120|168:8,1,255,4|4,0:3|0:3,0:0:0:0:
192,176,59800,5,4,0:0:0:0:
264,24,60002,1,0,0:0:0:0:
352,168,60205,2,0,P|344:224|344:256,1,85,8|0,0:0|0:0,0:0:0:0:
192,88,60610,5,0,0:0:0:0:
344,80,60813,1,0,0:0:0:0:
192,88,61016,2,0,P|128:96|80:88,1,85,8|0,0:0|0:0,0:0:0:0:
344,80,61421,2,0,P|392:72|440:72,1,85
464,272,61827,2,0,P|400:304|336:304,1,127.5,8|0,0:0|0:0,0:0:0:0:
136,344,62232,6,0,P|176:296|272:352,1,191.250007295609,4|0,0:0|0:0,0:0:0:0:
203,201,62638,6,0,L|203:361,1,159.375006079674,12|0,0:0|0:0,0:0:0:0:
203,360,62942,1,0,0:0:0:0:
203,360,63043,1,4,0:0:0:0:
96,240,63246,1,0,0:0:0:0:
144,88,63448,2,0,P|152:56|152:0,1,85,8|0,0:0|0:0,0:0:0:0:
17,106,63854,6,0,L|144:88,1,127.5
232,72,64259,1,8,0:0:0:0:
232,72,64462,2,0,P|288:104|392:96,1,170
432,272,65070,2,0,P|440:200|448:184,1,85,8|0,0:0|0:0,0:0:0:0:
320,192,65475,6,0,P|328:264|304:352,1,127.500004863739,4|8,0:0|0:0,0:0:0:0:
64,320,65881,6,0,P|56:248|80:160,1,127.500004863739,8|8,0:0|0:0,0:0:0:0:
104,120,66185,1,8,0:0:0:0:
104,120,66286,6,0,P|128:72|128:32,1,85,12|0,0:0|0:0,0:0:0:0:
65,194,66692,1,8,0:0:0:0:
24,48,66894,1,0,0:0:0:0:
216,112,67097,2,0,P|264:120|304:112,1,85
432,8,67502,1,8,0:0:0:0:
432,8,67705,2,0,P|424:64|424:104,1,85
472,264,68110,1,0,0:0:0:0:
472,264,68313,2,0,P|480:208|480:168,1,85,8|0,0:0|0:0,0:0:0:0:
256,288,68719,6,0,P|304:264|344:288,1,95.6250036478044,0|8,0:0|0:0,0:0:0:0:
200,232,69124,6,0,P|264:192|376:208,1,191.250007295609,12|8,0:0|0:0,0:0:0:0:
168,328,69529,5,12,0:0:0:0:
144,152,69732,1,0,0:0:0:0:
8,264,69935,2,0,P|16:312|16:360,1,85,8|0,0:0|0:0,0:0:0:0:
48,176,70340,2,0,P|40:120|40:40,1,127.5,0|8,0:0|0:0,0:0:0:0:
48,16,70746,1,8,0:0:0:0:
152,48,70948,2,0,P|208:64|240:64,1,85,0|4,0:0|0:0,0:0:0:0:
344,40,71354,5,8,0:0:0:0:
400,24,71455,1,8,0:0:0:0:
456,32,71556,1,4,0:0:0:0:
464,192,71759,1,8,0:0:0:0:
448,256,71860,1,8,0:0:0:0:
472,320,71962,1,4,0:0:0:0:
280,360,72165,5,8,0:0:0:0:
294,290,72266,1,8,0:0:0:0:
265,225,72367,1,12,0:3:0:0:
203,190,72469,1,8,0:0:0:0:
133,197,72570,1,8,0:0:0:0:
80,245,72671,1,8,0:0:0:0:
65,314,72773,6,0,P|96:360|136:368,1,85,4|0,0:0|0:0,0:0:0:0:
133,197,73178,2,0,P|136:152|112:112,1,85,8|0,0:0|0:0,0:0:0:0:
40,16,73583,2,0,P|104:16|200:88,1,170,0|8,0:0|0:0,0:0:0:0:
328,96,74192,1,0,0:0:0:0:
328,96,74394,2,0,P|392:120|416:120,1,85
496,96,74800,1,8,0:0:0:0:
440,368,75205,5,4,0:0:0:0:
496,96,75610,1,12,0:0:0:0:
440,368,75813,1,0,0:0:0:0:
440,368,75915,1,8,0:0:0:0:
440,368,76016,6,0,P|392:352|344:352,1,85,4|0,0:0|0:0,0:0:0:0:
128,360,76421,2,0,P|176:376|224:376,1,85,8|0,0:0|0:0,0:0:0:0:
488,304,76827,2,0,P|424:280|312:280,1,170,0|8,0:0|0:0,0:0:0:0:
216,184,77435,1,0,0:0:0:0:
216,184,77638,2,0,L|224:272,1,85
120,184,78043,2,0,L|128:272,1,85,8|0,0:0|0:0,0:0:0:0:
104,16,78448,6,0,P|104:64|128:24,1,127.500004863739,4|8,0:0|0:0,0:0:0:0:
32,112,78854,6,0,P|120:144|168:128,1,144.500002756119,8|8,0:0|0:0,0:0:0:0:
232,88,79158,1,8,0:0:0:0:
304,48,79259,6,0,P|344:32|392:32,1,85,4|0,0:0|0:0,0:0:0:0:
416,216,79665,2,0,P|376:232|328:232,1,85,8|0,0:0|0:0,0:0:0:0:
448,120,80070,2,0,P|456:208|480:288,1,170,0|8,0:0|0:0,0:0:0:0:
360,352,80678,2,0,P|296:336|192:344,1,170
0,328,81286,1,8,0:0:0:0:
96,368,81489,1,0,0:0:0:0:
217,264,81692,2,0,P|213:306|193:343,1,85
0,224,82097,6,0,P|0:152|56:48,1,191.250007295609,12|8,0:0|0:0,0:0:0:0:
104,32,82502,5,4,0:0:0:0:
256,104,82705,1,0,0:0:0:0:
256,104,82908,2,0,P|312:112|352:104,1,85,8|0,0:0|0:0,0:0:0:0:
472,32,83313,2,0,P|456:72|464:208,1,170,4|8,0:0|0:0,0:0:0:0:
360,344,83921,1,0,0:0:0:0:
459,196,84124,1,4,0:0:0:0:
456,376,84327,1,8,0:0:0:0:
352,232,84529,1,12,0:0:0:0:
512,288,84732,1,0,0:0:0:0:
360,344,84935,2,0,P|296:336|264:344,1,85,12|0,0:0|0:0,0:0:0:0:
112,384,85340,5,2,0:3:0:0:
112,384,85746,1,0,0:0:0:0:
144,288,85948,1,0,0:0:0:0:
136,184,86151,2,0,P|96:152|88:104,1,85
328,72,86556,2,0,B|240:64|168:112|168:112|176:128,1,170
392,184,87165,5,12,0:0:0:0:
432,0,87367,1,0,0:0:0:0:
320,288,87570,1,8,0:0:0:0:
512,184,87773,1,8,0:0:0:0:
256,120,87975,1,0,0:0:0:0:
440,280,88178,6,0,B|448:320|448:352|448:352|432:336,1,95.6250036478044,12|0,0:0|0:0,0:0:0:0:
