osu file format v14

[General]
AudioFilename: audio.mp3
AudioLeadIn: 0
PreviewTime: 73288
Countdown: 0
SampleSet: Normal
StackLeniency: 0.7
Mode: 1
LetterboxInBreaks: 0
WidescreenStoryboard: 0

[Editor]
DistanceSpacing: 0.1
BeatDivisor: 4
GridSize: 32
TimelineZoom: 1

[Metadata]
Title:GLORY DAY~kagayaku sono hi~
TitleUnicode:GLORY DAY~kagayaku sono hi~
Artist:GARDEN
ArtistUnicode:GARDEN
Creator:kvgyubh
Version:enjoy!
Source:
Tags:anime pokemon advance generation ED 8
BeatmapID:1439386
BeatmapSetID:680785

[Difficulty]
HPDrainRate:4
CircleSize:5
OverallDifficulty:3
ApproachRate:5
SliderMultiplier:1.4
SliderTickRate:1

[Events]
//Background and Video events
0,0,"main.png",0,0
//Break Periods
//Storyboard Layer 0 (Background)
//Storyboard Layer 1 (Fail)
//Storyboard Layer 2 (Pass)
//Storyboard Layer 3 (Foreground)
//Storyboard Sound Samples

[TimingPoints]
391.00774844721,599.980054016205,4,1,0,100,1,0
9990,-100,4,1,0,100,0,1
26790,-100,4,1,0,100,0,0
74788,-100,4,1,0,100,0,1
91587,-100,4,1,0,100,0,0

[HitObjects]
256,192,391,5,0,0:0:0:0:
256,192,990,1,2,0:0:0:0:
256,192,1590,1,0,0:0:0:0:
256,192,2190,1,2,0:0:0:0:
256,192,2790,1,0,0:0:0:0:
256,192,3390,1,2,0:0:0:0:
256,192,3990,1,0,0:0:0:0:
256,192,4590,1,2,0:0:0:0:
256,192,5190,1,0,0:0:0:0:
256,192,5790,1,0,0:0:0:0:
256,192,6390,1,0,0:0:0:0:
256,192,6990,1,0,0:0:0:0:
256,192,7590,1,0,0:0:0:0:
256,192,8190,1,2,0:0:0:0:
256,192,8790,5,4,0:0:0:0:
256,192,9390,1,4,0:0:0:0:
256,192,9990,1,6,0:0:0:0:
256,192,10890,1,8,0:0:0:0:
256,192,11190,1,8,0:0:0:0:
256,192,11490,1,0,0:0:0:0:
256,192,11790,1,0,0:0:0:0:
256,192,12090,1,0,0:0:0:0:
256,192,12390,1,8,0:0:0:0:
256,192,12990,1,8,0:0:0:0:
256,192,13590,1,0,0:0:0:0:
256,192,14190,1,8,0:0:0:0:
256,192,14490,1,0,0:0:0:0:
256,192,14790,1,4,0:0:0:0:
256,192,15690,1,8,0:0:0:0:
256,192,15990,1,8,0:0:0:0:
256,192,16290,1,0,0:0:0:0:
256,192,16590,1,0,0:0:0:0:
256,192,16890,1,8,0:0:0:0:
256,192,17190,1,8,0:0:0:0:
256,192,17590,1,2,0:0:0:0:
256,192,17790,1,0,0:0:0:0:
256,192,18390,1,4,0:0:0:0:
256,192,18990,1,4,0:0:0:0:
256,192,19590,1,6,0:0:0:0:
256,192,20190,1,0,0:0:0:0:
256,192,20490,1,2,0:0:0:0:
256,192,20790,1,0,0:0:0:0:
256,192,21090,1,0,0:0:0:0:
256,192,21390,1,2,0:0:0:0:
256,192,21690,1,2,0:0:0:0:
256,192,21990,1,0,0:0:0:0:
256,192,22590,1,0,0:0:0:0:
256,192,22890,1,2,0:0:0:0:
256,192,23190,1,2,0:0:0:0:
256,192,23790,1,8,0:0:0:0:
256,192,24090,1,8,0:0:0:0:
256,192,24390,1,2,0:0:0:0:
256,192,24690,1,0,0:0:0:0:
256,192,24990,1,0,0:0:0:0:
256,192,25290,1,0,0:0:0:0:
256,192,25590,1,2,0:0:0:0:
256,192,26190,1,0,0:0:0:0:
256,192,26490,1,2,0:0:0:0:
256,192,26790,1,2,0:0:0:0:
256,192,27390,1,0,0:0:0:0:
256,192,27690,1,8,0:0:0:0:
256,192,27840,1,0,0:0:0:0:
256,192,28590,1,8,0:0:0:0:
256,192,29190,1,0,0:0:0:0:
256,192,29790,1,0,0:0:0:0:
256,192,30090,1,8,0:0:0:0:
256,192,30240,1,0,0:0:0:0:
256,192,30989,1,0,0:0:0:0:
256,192,31589,1,0,0:0:0:0:
256,192,32189,1,0,0:0:0:0:
256,192,32489,1,8,0:0:0:0:
256,192,32639,1,0,0:0:0:0:
256,192,33389,1,8,0:0:0:0:
256,192,33989,1,0,0:0:0:0:
256,192,34589,1,0,0:0:0:0:
256,192,34889,1,2,0:0:0:0:
256,192,35039,1,0,0:0:0:0:
256,192,35489,1,0,0:0:0:0:
256,192,35789,1,8,0:0:0:0:
256,192,35939,1,8,0:0:0:0:
256,192,36089,1,0,0:0:0:0:
256,192,36239,1,0,0:0:0:0:
256,192,36989,1,0,0:0:0:0:
256,192,37289,1,0,0:0:0:0:
256,192,37439,1,8,0:0:0:0:
256,192,38789,1,0,0:0:0:0:
256,192,39089,1,0,0:0:0:0:
256,192,39389,1,8,0:0:0:0:
256,192,39689,1,8,0:0:0:0:
256,192,39989,1,0,0:0:0:0:
256,192,40289,1,2,0:0:0:0:
256,192,40589,1,0,0:0:0:0:
256,192,41189,1,0,0:0:0:0:
256,192,41789,1,2,0:0:0:0:
256,192,42089,1,0,0:0:0:0:
256,192,42239,1,8,0:0:0:0:
256,192,42689,1,0,0:0:0:0:
256,192,42989,1,8,0:0:0:0:
256,192,43289,1,8,0:0:0:0:
256,192,43589,1,0,0:0:0:0:
256,192,44189,1,8,0:0:0:0:
256,192,44489,1,0,0:0:0:0:
256,192,45089,1,0,0:0:0:0:
256,192,45389,1,2,0:0:0:0:
256,192,45689,1,0,0:0:0:0:
256,192,45989,1,0,0:0:0:0:
256,192,46589,1,2,0:0:0:0:
256,192,47189,1,0,0:0:0:0:
256,192,47489,1,0,0:0:0:0:
256,192,47789,1,8,0:0:0:0:
256,192,48389,1,0,0:0:0:0:
256,192,48689,1,8,0:0:0:0:
256,192,49289,1,8,0:0:0:0:
256,192,50189,1,0,0:0:0:0:
256,192,50489,1,8,0:0:0:0:
256,192,50789,1,8,0:0:0:0:
256,192,51089,1,8,0:0:0:0:
256,192,51389,1,0,0:0:0:0:
256,192,51989,1,0,0:0:0:0:
256,192,52289,1,8,0:0:0:0:
256,192,52589,1,0,0:0:0:0:
256,192,52889,1,8,0:0:0:0:
256,192,53189,1,0,0:0:0:0:
256,192,53789,1,8,0:0:0:0:
256,192,54089,1,0,0:0:0:0:
256,192,54689,1,0,0:0:0:0:
256,192,54989,1,0,0:0:0:0:
256,192,55139,1,0,0:0:0:0:
256,192,55289,1,8,0:0:0:0:
256,192,55589,1,4,0:0:0:0:
256,192,56189,1,0,0:0:0:0:
256,192,56489,1,0,0:0:0:0:
256,192,56639,1,8,0:0:0:0:
256,192,57689,1,8,0:0:0:0:
256,192,57989,1,0,0:0:0:0:
256,192,58289,1,2,0:0:0:0:
256,192,58589,1,2,0:0:0:0:
256,192,58889,1,0,0:0:0:0:
256,192,59189,1,8,0:0:0:0:
256,192,59489,1,0,0:0:0:0:
256,192,59789,1,2,0:0:0:0:
256,192,60089,1,0,0:0:0:0:
256,192,60988,1,0,0:0:0:0:
256,192,61288,1,0,0:0:0:0:
256,192,61438,1,8,0:0:0:0:
256,192,61888,1,0,0:0:0:0:
256,192,62188,1,8,0:0:0:0:
256,192,62488,1,8,0:0:0:0:
256,192,62788,1,0,0:0:0:0:
256,192,63388,1,0,0:0:0:0:
256,192,63688,1,8,0:0:0:0:
256,192,63838,1,0,0:0:0:0:
256,192,64288,1,8,0:0:0:0:
256,192,64588,1,0,0:0:0:0:
256,192,64888,1,8,0:0:0:0:
256,192,65788,1,0,0:0:0:0:
256,192,66388,1,0,0:0:0:0:
256,192,66688,1,0,0:0:0:0:
256,192,66988,1,8,0:0:0:0:
256,192,67288,1,0,0:0:0:0:
256,192,67588,1,8,0:0:0:0:
256,192,67888,1,0,0:0:0:0:
256,192,68488,1,8,0:0:0:0:
256,192,69388,1,0,0:0:0:0:
256,192,69688,1,8,0:0:0:0:
256,192,69988,1,8,0:0:0:0:
256,192,70288,1,0,0:0:0:0:
256,192,70588,1,0,0:0:0:0:
256,192,70888,1,8,0:0:0:0:
256,192,71188,1,0,0:0:0:0:
256,192,71488,1,2,0:0:0:0:
256,192,71788,1,0,0:0:0:0:
256,192,72088,1,8,0:0:0:0:
256,192,72388,12,0,73438,0:0:0:0:
256,192,73588,5,4,0:0:0:0:
256,192,74188,1,4,0:0:0:0:
256,192,74788,1,6,0:0:0:0:
256,192,75688,1,8,0:0:0:0:
256,192,75988,1,0,0:0:0:0:
256,192,76288,1,0,0:0:0:0:
256,192,76588,1,8,0:0:0:0:
256,192,76888,1,0,0:0:0:0:
256,192,77188,1,8,0:0:0:0:
256,192,77788,1,8,0:0:0:0:
256,192,78088,1,0,0:0:0:0:
256,192,78388,1,0,0:0:0:0:
256,192,78988,1,8,0:0:0:0:
256,192,79288,1,8,0:0:0:0:
256,192,79588,1,4,0:0:0:0:
256,192,80488,1,8,0:0:0:0:
256,192,80788,1,0,0:0:0:0:
256,192,81088,1,0,0:0:0:0:
256,192,81388,1,0,0:0:0:0:
256,192,81688,1,8,0:0:0:0:
256,192,81988,1,8,0:0:0:0:
256,192,82388,1,2,0:0:0:0:
256,192,82588,1,0,0:0:0:0:
256,192,83188,1,6,0:0:0:0:
256,192,83788,1,4,0:0:0:0:
256,192,84388,1,4,0:0:0:0:
256,192,84988,1,0,0:0:0:0:
256,192,85288,1,2,0:0:0:0:
256,192,85588,1,2,0:0:0:0:
256,192,85888,1,0,0:0:0:0:
256,192,86188,1,0,0:0:0:0:
256,192,86488,1,2,0:0:0:0:
256,192,86788,1,0,0:0:0:0:
256,192,87388,1,0,0:0:0:0:
256,192,87688,1,2,0:0:0:0:
256,192,87988,1,2,0:0:0:0:
256,192,88588,1,0,0:0:0:0:
256,192,88888,1,0,0:0:0:0:
256,192,89188,1,8,0:0:0:0:
256,192,89488,1,0,0:0:0:0:
256,192,89788,1,0,0:0:0:0:
256,192,90088,1,2,0:0:0:0:
256,192,90388,1,2,0:0:0:0:
256,192,90987,1,0,0:0:0:0:
256,192,91287,1,0,0:0:0:0:
256,192,91587,1,6,0:0:0:0:
