osu file format v14

[General]
AudioFilename: audio.mp3
AudioLeadIn: 0
PreviewTime: 21591
Countdown: 1
SampleSet: Normal
StackLeniency: 0.7
Mode: 0
LetterboxInBreaks: 0
WidescreenStoryboard: 0

[Editor]
Bookmarks: 34606
DistanceSpacing: 0.9
BeatDivisor: 4
GridSize: 8
TimelineZoom: 2.2

[Metadata]
Title:RAISE MY SWORD (TV Size)
TitleUnicode:RAISE MY SWORD (TV Size)
Artist:GALNEYRUS
ArtistUnicode:GALNEYRUS
Creator:Orofil
Version:FOUR DIMENSIONS
Source:
Tags:Sotarks pp streams 1-2 farm
BeatmapID:1913630
BeatmapSetID:916290

[Difficulty]
HPDrainRate:1
CircleSize:4.2
OverallDifficulty:9.6
ApproachRate:9.6
SliderMultiplier:3
SliderTickRate:4

[Events]
//Background and Video events
0,0,"raise my pp.png",0,0
//Break Periods
//Storyboard Layer 0 (Background)
//Storyboard Layer 1 (Fail)
//Storyboard Layer 2 (Pass)
//Storyboard Layer 3 (Foreground)
//Storyboard Layer 4 (Overlay)
//Storyboard Sound Samples

[TimingPoints]
713,324.324324324324,4,1,22,72,1,0
713,-98.0392156862745,4,1,22,72,0,0
2010,326.086956521739,4,1,22,72,1,0
5270,-98.0392156862745,4,1,22,72,0,0
7227,324.324324324324,4,1,22,72,1,0
8524,327.868852459016,4,1,22,72,1,0
8524,-98.0392156862745,4,1,22,72,0,0
9835,325.909831613254,4,1,22,72,1,0
9835,-98.0392156862745,4,1,22,72,0,0
11146,326.086956521739,4,1,22,72,1,1
12433,326.086956521739,4,1,22,72,1,1
20251,335.195530726257,4,1,22,72,1,1
21591,322.58064516129,4,1,22,72,1,1
23526,327.868852459016,4,1,22,72,1,1
24181,333.333333333333,4,1,22,72,1,1
24678,326.086956521739,4,1,22,72,1,1
24843,326.086956521739,4,1,22,72,1,1
25024,326.086956521739,4,1,22,72,1,1
25354,652.173913043478,4,1,22,72,1,0
25354,-689.655172413793,4,1,22,72,0,0

[HitObjects]
195,339,713,5,0,0:0:0:0:
135,290,794,1,0,0:0:0:0:
112,216,875,1,0,0:0:0:0:
130,141,956,1,0,0:0:0:0:
184,87,1037,1,0,0:0:0:0:
259,75,1118,1,0,0:0:0:0:
324,114,1199,1,0,0:0:0:0:
356,183,1280,1,0,0:0:0:0:
408,127,1361,5,0,0:0:0:0:
377,57,1442,1,0,0:0:0:0:
302,40,1523,1,0,0:0:0:0:
249,95,1604,1,0,0:0:0:0:
270,168,1685,1,0,0:0:0:0:
356,183,1767,1,0,0:0:0:0:
408,127,1848,1,0,0:0:0:0:
377,57,1929,1,0,0:0:0:0:
324,114,2010,5,0,0:0:0:0:
326,188,2091,1,0,0:0:0:0:
349,259,2173,1,0,0:0:0:0:
330,331,2254,1,0,0:0:0:0:
264,369,2336,1,0,0:0:0:0:
198,333,2417,1,0,0:0:0:0:
192,257,2499,1,0,0:0:0:0:
215,186,2580,1,0,0:0:0:0:
209,110,2662,5,0,0:0:0:0:
148,66,2743,1,0,0:0:0:0:
83,105,2825,1,0,0:0:0:0:
62,176,2906,1,0,0:0:0:0:
96,242,2988,1,0,0:0:0:0:
157,284,3069,1,0,0:0:0:0:
230,300,3151,1,0,0:0:0:0:
304,297,3232,1,0,0:0:0:0:
354,240,3314,5,0,0:0:0:0:
327,170,3395,1,0,0:0:0:0:
331,94,3477,1,0,0:0:0:0:
395,56,3558,1,0,0:0:0:0:
460,93,3640,1,0,0:0:0:0:
471,166,3721,1,0,0:0:0:0:
430,229,3803,1,0,0:0:0:0:
363,262,3884,1,0,0:0:0:0:
303,308,3966,5,0,0:0:0:0:
245,356,4048,1,0,0:0:0:0:
170,352,4129,1,0,0:0:0:0:
129,288,4211,1,0,0:0:0:0:
153,217,4292,1,0,0:0:0:0:
159,141,4374,1,0,0:0:0:0:
117,78,4455,1,0,0:0:0:0:
42,67,4537,1,0,0:0:0:0:
82,129,4618,5,0,0:0:0:0:
156,116,4700,1,0,0:0:0:0:
216,72,4781,1,0,0:0:0:0:
291,75,4863,1,0,0:0:0:0:
332,136,4944,1,0,0:0:0:0:
316,209,5026,1,0,0:0:0:0:
249,242,5107,1,0,0:0:0:0:
174,230,5189,1,0,0:0:0:0:
114,182,5270,6,0,P|141:159|199:145,1,76.500000466919
343,234,5433,2,0,P|316:257|258:271,1,76.500000466919
46,241,5596,2,0,P|61:279|103:316,1,76.5000004669189
231,364,5759,2,0,P|279:371|329:360,1,76.5000004669189
461,236,5923,5,0,0:0:0:0:
481,178,6004,1,0,0:0:0:0:
461,119,6086,1,0,0:0:0:0:
411,83,6167,1,0,0:0:0:0:
349,80,6249,1,0,0:0:0:0:
302,119,6330,1,0,0:0:0:0:
294,180,6412,1,0,0:0:0:0:
321,234,6493,1,0,0:0:0:0:
279,279,6575,5,0,0:0:0:0:
218,288,6656,1,0,0:0:0:0:
160,266,6738,1,0,0:0:0:0:
122,218,6819,1,0,0:0:0:0:
116,156,6901,1,0,0:0:0:0:
141,100,6982,1,0,0:0:0:0:
190,63,7064,1,0,0:0:0:0:
249,51,7145,1,0,0:0:0:0:
233,109,7227,5,0,0:0:0:0:
196,156,7308,1,0,0:0:0:0:
141,180,7389,1,0,0:0:0:0:
97,221,7470,1,0,0:0:0:0:
94,280,7551,1,0,0:0:0:0:
132,325,7632,1,0,0:0:0:0:
191,326,7713,1,0,0:0:0:0:
231,282,7794,1,0,0:0:0:0:
231,222,7875,5,0,0:0:0:0:
258,168,7956,1,0,0:0:0:0:
313,145,8037,1,0,0:0:0:0:
368,167,8118,1,0,0:0:0:0:
427,164,8199,1,0,0:0:0:0:
463,115,8281,1,0,0:0:0:0:
450,56,8362,1,0,0:0:0:0:
399,24,8443,1,0,0:0:0:0:
382,82,8524,5,0,0:0:0:0:
411,134,8605,1,0,0:0:0:0:
415,195,8687,1,0,0:0:0:0:
378,243,8769,1,0,0:0:0:0:
318,259,8851,1,0,0:0:0:0:
259,241,8933,1,0,0:0:0:0:
210,203,9015,1,0,0:0:0:0:
182,148,9097,1,0,0:0:0:0:
197,88,9179,5,0,0:0:0:0:
257,82,9261,1,0,0:0:0:0:
306,118,9343,1,0,0:0:0:0:
318,178,9425,1,0,0:0:0:0:
291,233,9507,1,0,0:0:0:0:
234,255,9589,1,0,0:0:0:0:
172,255,9671,1,0,0:0:0:0:
120,221,9753,1,0,0:0:0:0:
85,170,9835,5,0,0:0:0:0:
131,91,9916,1,0,0:0:0:0:
221,77,9997,1,0,0:0:0:0:
303,118,10079,1,0,0:0:0:0:
342,200,10160,5,0,0:0:0:0:
431,221,10242,1,0,0:0:0:0:
486,148,10323,1,0,0:0:0:0:
424,79,10405,1,0,0:0:0:0:
338,109,10486,5,0,0:0:0:0:
283,183,10568,1,0,0:0:0:0:
203,227,10649,1,0,0:0:0:0:
115,196,10731,1,0,0:0:0:0:
88,108,10812,5,0,0:0:0:0:
168,62,10894,1,0,0:0:0:0:
253,93,10975,1,0,0:0:0:0:
283,183,11057,1,0,0:0:0:0:
229,265,11146,6,0,P|257:286|316:285,3,75
380,260,11472,2,0,P|405:236|416:178,3,75
405,109,11798,2,0,P|391:76|340:47,3,75
272,35,12124,2,0,P|237:36|191:74,3,75
178,123,12433,5,0,0:0:0:0:
182,189,12514,1,0,0:0:0:0:
217,246,12596,5,0,0:0:0:0:
274,280,12677,1,0,0:0:0:0:
341,272,12759,5,0,0:0:0:0:
392,229,12840,1,0,0:0:0:0:
406,162,12922,5,0,0:0:0:0:
386,97,13003,1,0,0:0:0:0:
333,53,13085,5,0,0:0:0:0:
266,44,13166,1,0,0:0:0:0:
198,52,13248,5,0,0:0:0:0:
140,85,13329,1,0,0:0:0:0:
107,144,13411,5,0,0:0:0:0:
99,210,13492,1,0,0:0:0:0:
126,272,13574,5,0,0:0:0:0:
170,322,13655,1,0,0:0:0:0:
236,336,13737,6,0,L|256:253,1,75
284,144,13900,2,0,L|266:216,1,75
378,287,14063,6,0,L|358:204,1,75
314,30,14226,2,0,L|331:102,1,75
477,185,14389,6,0,L|388:165,1,75
284,144,14552,2,0,L|357:160,1,75
417,236,14715,6,0,L|328:256,1,75
158,294,14878,2,0,L|231:277,1,75
422,117,15041,5,0,0:0:0:0:
372,70,15123,1,0,0:0:0:0:
307,50,15204,1,0,0:0:0:0:
239,50,15286,1,0,0:0:0:0:
176,73,15367,5,0,0:0:0:0:
134,127,15449,1,0,0:0:0:0:
121,192,15530,1,0,0:0:0:0:
136,258,15612,1,0,0:0:0:0:
175,312,15693,6,0,P|210:304|250:273,1,75
325,74,15856,2,0,P|290:82|250:113,1,75
342,306,16019,6,0,P|371:284|395:240,1,75
176,73,16182,2,0,P|146:94|122:138,1,75
219,308,16346,5,0,0:0:0:0:
282,330,16427,1,0,0:0:0:0:
349,327,16509,1,0,0:0:0:0:
406,292,16590,1,0,0:0:0:0:
443,235,16672,1,0,0:0:0:0:
436,169,16753,1,0,0:0:0:0:
395,114,16835,1,0,0:0:0:0:
333,86,16916,1,0,0:0:0:0:
265,86,16998,5,0,0:0:0:0:
201,106,17079,1,0,0:0:0:0:
150,151,17161,1,0,0:0:0:0:
126,213,17242,1,0,0:0:0:0:
139,279,17324,1,0,0:0:0:0:
185,327,17405,1,0,0:0:0:0:
247,353,17487,1,0,0:0:0:0:
313,364,17568,1,0,0:0:0:0:
379,349,17650,6,0,P|401:319|391:270,1,75
272,139,17813,2,0,P|244:163|238:199,1,75
477,242,17976,6,0,P|479:205|458:176,1,75
203,289,18139,2,0,P|208:325|235:349,1,75
426,238,18302,5,0,0:0:0:0:
426,238,18384,1,0,0:0:0:0:
426,238,18465,1,0,0:0:0:0:
426,238,18547,1,0,0:0:0:0:
426,238,18628,1,0,0:0:0:0:
426,238,18710,1,0,0:0:0:0:
426,238,18791,1,0,0:0:0:0:
424,232,18873,1,0,0:0:0:0:
426,238,18954,5,0,0:0:0:0:
386,293,19036,1,0,0:0:0:0:
319,302,19117,1,0,0:0:0:0:
254,280,19199,1,0,0:0:0:0:
220,221,19280,1,0,0:0:0:0:
235,154,19362,1,0,0:0:0:0:
299,134,19443,1,0,0:0:0:0:
344,184,19525,1,0,0:0:0:0:
282,210,19606,5,0,0:0:0:0:
215,222,19688,1,0,0:0:0:0:
153,196,19769,1,0,0:0:0:0:
123,134,19851,1,0,0:0:0:0:
160,78,19932,1,0,0:0:0:0:
227,75,20014,1,0,0:0:0:0:
264,131,20096,1,0,0:0:0:0:
202,158,20177,1,0,0:0:0:0:
147,182,20251,5,0,0:0:0:0:
128,276,20334,1,0,0:0:0:0:
202,339,20418,1,0,0:0:0:0:
280,281,20502,1,0,0:0:0:0:
350,348,20586,1,0,0:0:0:0:
434,301,20669,1,0,0:0:0:0:
426,203,20753,1,0,0:0:0:0:
329,187,20837,1,0,0:0:0:0:
280,281,20921,5,0,0:0:0:0:
202,339,21005,1,0,0:0:0:0:
128,276,21088,1,0,0:0:0:0:
147,182,21172,1,0,0:0:0:0:
64,130,21256,1,0,0:0:0:0:
100,39,21340,1,0,0:0:0:0:
197,36,21424,1,0,0:0:0:0:
236,123,21507,1,0,0:0:0:0:
240,224,21591,6,0,L|286:290,1,75
452,289,21752,2,0,L|486:216,1,75
397,92,21913,2,0,L|316:98,1,75
240,224,22074,2,0,L|286:290,1,75
497,80,22236,5,0,0:0:0:0:
459,43,22316,1,0,0:0:0:0:
408,26,22397,1,0,0:0:0:0:
355,29,22478,1,0,0:0:0:0:
311,148,22558,5,0,0:0:0:0:
260,164,22638,1,0,0:0:0:0:
207,156,22719,1,0,0:0:0:0:
161,129,22800,1,0,0:0:0:0:
63,37,22881,6,0,L|80:124,1,75
141,348,23042,2,0,L|172:267,1,75
380,37,23203,2,0,L|363:124,1,75
302,348,23364,2,0,L|271:267,1,75
171,95,23526,5,0,0:0:0:0:
237,98,23607,1,0,0:0:0:0:
297,128,23689,1,0,0:0:0:0:
343,177,23771,1,0,0:0:0:0:
197,297,23853,5,0,0:0:0:0:
197,297,23935,1,0,0:0:0:0:
197,297,24017,1,0,0:0:0:0:
403,336,24181,6,0,P|421:292|415:235,1,75
184,23,24347,2,0,P|136:29|90:63,1,75
81,361,24514,1,0,0:0:0:0:
474,127,24678,6,0,P|477:91|459:37,1,75
92,184,24843,2,0,P|59:199|21:241,1,75
360,361,25024,1,0,0:0:0:0:
42,106,25187,5,0,0:0:0:0:
493,349,25354,2,0,B|163:349|284:58|-7:52,1,609.000007434082
