osu file format v14

[General]
AudioFilename: audio.mp3
AudioLeadIn: 0
PreviewTime: 96582
Countdown: 1
SampleSet: Normal
StackLeniency: 0.7
Mode: 0
LetterboxInBreaks: 0
WidescreenStoryboard: 0

[Editor]
Bookmarks: 15701,37234
DistanceSpacing: 1.5
BeatDivisor: 4
GridSize: 8
TimelineZoom: 1

[Metadata]
Title:Raise My Sword
TitleUnicode:Raise My Sword
Artist:GALNERYUS ft. WillKnuddeln
ArtistUnicode:GALNERYUS ft. WillKnuddeln
Creator:Blitzifyyy
Version:what am i doing
Source:
Tags:
BeatmapID:1923224
BeatmapSetID:920944

[Difficulty]
HPDrainRate:5
CircleSize:4.2
OverallDifficulty:10
ApproachRate:9.6
SliderMultiplier:1.4
SliderTickRate:1

[Events]
//Background and Video events
0,0,"DSC100215090.jpg",0,0
//Break Periods
//Storyboard Layer 0 (Background)
//Storyboard Layer 1 (Fail)
//Storyboard Layer 2 (Pass)
//Storyboard Layer 3 (Foreground)
//Storyboard Sound Samples

[TimingPoints]
713,324.324324324324,4,1,22,72,1,0
713,-98.0392156862745,4,1,22,72,0,0
2010,326.086956521739,4,1,22,72,1,0
5270,-98.0392156862745,4,1,22,72,0,0
7227,324.324324324324,4,1,22,72,1,0
8524,327.868852459016,4,1,22,72,1,0
8524,-98.0392156862745,4,1,22,72,0,0
9835,325.909831613254,4,1,22,72,1,0
9835,-98.0392156862745,4,1,22,72,0,0
16353,326.619488296135,4,1,22,72,1,0
16353,-98.0392156862745,4,1,22,72,0,0
18965,326.086956521739,4,1,22,72,1,0
19943,-98.0392156862745,4,1,22,72,0,0
20269,331.491712707182,4,1,22,72,1,0
20269,-98.0392156862745,4,1,22,72,0,0
21263,306.122448979592,4,1,22,72,1,0
21263,-98.0392156862745,4,1,22,72,0,0
21569,326.26427406199,4,1,22,72,1,0
21569,-98.0392156862745,4,1,22,62,0,0
26802,325.20325203252,4,1,22,62,1,0
26802,-98.0392156862745,4,1,22,62,0,0
29647,-98.0392156862745,4,1,22,5,0,0
29728,-98.0392156862745,4,1,22,62,0,0
30700,326.086956521739,4,1,22,62,1,0
30700,-98.0392156862745,4,1,22,62,0,0
31352,333.333333333333,4,1,22,62,1,0
32018,326.086956521739,4,1,22,62,1,0
32018,-98.0392156862745,4,1,22,62,0,0
33312,326.086956521739,4,1,22,62,1,0
33312,-98.0392156862745,4,1,22,62,0,0
35937,324.324324324324,4,1,22,62,1,0
35937,-98.0392156862745,4,1,22,62,0,0
38855,326.086956521739,4,1,22,62,1,0
38855,-98.0392156862745,4,1,22,62,0,0
39843,326.086956521739,4,1,22,62,1,0
39843,-133.333333333333,4,1,22,62,0,0
45060,-98.0392156862745,4,1,22,62,0,0
48973,312.5,4,1,22,62,1,0
49285,363.636363636364,4,1,22,62,1,0
49466,315.789473684211,4,1,22,62,1,0
49781,363.636363636364,4,1,22,62,1,0
49962,315.789473684211,4,1,22,62,1,0
50277,325.20325203252,4,1,22,52,1,0
50277,-121.951219512195,4,1,22,52,0,0
54179,331.491712707182,4,1,22,52,1,0
54179,-121.951219512195,4,1,22,52,0,0
55504,324.324324324324,4,1,22,52,1,0
55504,-121.951219512195,4,1,22,52,0,0
59395,326.975476839237,4,1,22,52,1,0
60702,-121.951219512195,4,1,22,52,0,0
66100,326.086956521739,4,1,22,52,1,0
66263,326.086956521739,4,1,22,52,1,0
66752,-121.951219512195,4,1,22,52,0,0
67237,326.086956521739,4,1,22,52,1,0
67237,-121.951219512195,4,1,22,52,0,0
68542,326.086956521739,4,1,22,52,1,0
68542,-121.951219512195,4,1,22,52,0,0
71157,325.20325203252,4,1,22,52,1,0
71157,-108.695652173913,4,1,22,52,0,0
73758,326.086956521739,4,1,22,52,1,0
73758,-108.695652173913,4,1,22,52,0,0
77026,326.086956521739,4,1,22,52,1,0
77026,-108.695652173913,4,1,22,52,0,0
77678,325.732899022801,4,1,22,52,1,0
77678,-108.695652173913,4,1,22,52,0,0
84190,326.086956521739,4,1,22,52,1,0
84190,-108.695652173913,4,1,22,52,0,0
88442,319.148936170213,4,1,22,52,1,0
88442,-108.695652173913,4,1,22,52,0,0
89399,326.086956521739,4,1,22,52,1,0
89888,-108.695652173913,4,1,22,52,0,0
94626,326.086956521739,4,1,22,72,1,0
94626,-108.695652173913,4,1,22,72,0,0
96581,-98.0392156862745,4,1,22,72,0,0
96826,-98.0392156862745,4,1,22,5,0,0
96907,-89.2857142857143,4,1,22,72,0,0
97152,-89.2857142857143,4,1,22,5,0,0
97230,326.086956521739,4,1,22,5,1,0
97233,-89.2857142857143,4,1,22,82,0,0
102125,326.086956521739,4,1,22,82,1,0
102451,326.086956521739,4,1,22,82,1,0
102451,-89.2857142857143,4,1,22,82,0,0
106350,326.086956521739,4,1,22,82,1,0
106676,-89.2857142857143,4,1,22,82,0,0
107670,326.086956521739,4,1,22,82,1,0
110278,-89.2857142857143,4,1,22,82,0,0
111907,326.086956521739,4,1,22,82,1,0
112885,327.868852459016,4,1,22,82,1,0
112885,-89.2857142857143,4,1,22,82,0,0
114185,326.086956521739,4,1,22,82,1,0
114348,-89.2857142857143,4,1,22,82,0,0
116467,329.67032967033,4,1,22,82,1,0
116796,329.67032967033,4,1,22,82,1,0
118114,324.324324324324,4,1,22,82,1,0
120711,326.086956521739,4,1,22,82,1,0
120711,-98.0392156862745,4,1,22,62,0,0
124950,307.692307692308,4,1,22,62,1,0
125257,352.941176470588,4,1,22,62,1,0
125609,315.789473684211,4,1,22,62,1,0
125609,-98.0392156862745,4,1,22,62,0,0
125928,326.086956521739,4,1,22,52,1,0
125929,-108.695652173913,4,1,22,52,0,0
133751,326.086956521739,4,1,22,52,1,0
133751,-108.695652173913,4,1,22,52,0,0
135059,326.086956521739,4,1,22,52,1,0
135711,324.324324324324,4,1,22,52,1,0
136353,326.086956521739,4,1,22,52,1,0
136353,-121.951219512195,4,1,22,52,0,0
139619,326.086956521739,4,1,22,52,1,0
139619,-121.951219512195,4,1,22,52,0,0
140280,326.086956521739,4,1,22,52,1,0
140280,-121.951219512195,4,1,22,52,0,0
141576,326.086956521739,4,1,22,52,1,0
141576,-121.951219512195,4,1,22,52,0,0
146808,326.086956521739,4,1,22,52,1,0
146808,-108.695652173913,4,1,22,52,0,0
148112,325.20325203252,4,1,22,52,1,0
148112,-108.695652173913,4,1,22,52,0,0
153315,327.868852459016,4,1,22,52,1,0
153315,-108.695652173913,4,1,22,52,0,0
154628,326.086956521739,4,1,22,52,1,0
154628,-108.695652173913,4,1,22,52,0,0
161149,324.324324324324,4,1,22,52,1,0
162449,324.324324324324,4,1,22,52,1,0
162449,-108.695652173913,4,1,22,52,0,0
163746,326.975476839237,4,1,22,52,1,0
163746,-108.695652173913,4,1,22,52,0,0
165053,326.086956521739,4,1,22,52,1,0
165053,-108.695652173913,4,1,22,52,0,0
170270,327.868852459016,4,1,22,52,1,0
170270,-108.695652173913,4,1,22,72,0,0
172237,-108.695652173913,4,1,22,72,0,0
172483,-98.0392156862745,4,1,22,5,0,0
172565,-108.695652173913,4,1,22,72,0,0
172891,325.55615843733,4,1,22,82,1,0
172891,-89.2857142857143,4,1,22,82,0,0
175169,342.857142857143,4,1,22,82,1,0
175511,325.909831613254,4,1,22,82,1,0
175511,-89.2857142857143,4,1,22,82,0,0
178118,323.79924446843,4,1,22,82,1,0
179089,-89.2857142857143,4,1,22,82,0,0
180381,326.086956521739,4,1,22,82,1,0
180381,-89.2857142857143,4,1,22,82,0,0
180707,326.086956521739,4,1,22,82,1,0
180707,-89.2857142857143,4,1,22,82,0,0
187236,326.086956521739,4,1,22,82,1,0
188540,324.324324324324,4,1,22,82,1,0
188540,-89.2857142857143,4,1,22,82,0,0
189837,333.333333333333,4,1,22,82,1,0
190503,324.324324324324,4,1,22,82,1,0
190503,-89.2857142857143,4,1,22,82,0,0
191151,326.086956521739,7,1,22,72,1,0
191151,-192.307692307692,4,1,22,72,0,0
191232,-192.307692307692,7,1,22,62,0,0
194421,326.086956521739,7,1,22,62,1,0
195718,327.868852459016,7,1,22,62,1,0
195718,-192.307692307692,7,1,22,62,0,0
196701,326.086956521739,7,1,22,62,1,0
197998,326.086956521739,7,1,22,62,1,0
197998,-192.307692307692,7,1,22,62,0,0
200280,-138.888888888889,7,1,22,52,0,0
202555,326.086956521739,7,1,22,52,1,0
202555,-138.888888888889,7,1,22,52,0,0
203559,322.58064516129,7,1,22,52,1,0
204526,300,7,1,22,52,1,0
204832,326.086956521739,7,1,22,52,1,0
204832,-138.888888888889,7,1,22,52,0,0
207123,326.086956521739,7,1,22,52,1,0
207775,328.767123287671,7,1,22,52,1,0
208103,-138.888888888889,7,1,22,52,0,0
208761,315.789473684211,7,1,22,52,1,0
209411,326.086956521739,4,1,22,52,1,0
225063,-108.695652173913,4,2,22,52,0,0
229465,-89.2857142857143,4,2,22,52,0,0
230117,-108.695652173913,4,2,22,52,0,0
231258,310.880829015544,4,2,22,52,1,0
231258,-108.695652173913,4,2,22,52,0,0
231568,326.086956521739,4,2,22,52,1,0
231568,-108.695652173913,4,2,22,52,0,0
234665,-89.2857142857143,4,2,22,52,0,0
235318,-108.695652173913,4,2,22,52,0,0
237454,326.086956521739,4,2,22,52,1,0
237454,-108.695652173913,4,2,22,52,0,0
238106,326.086956521739,4,2,22,52,1,0
238106,-108.695652173913,4,2,22,52,0,0
239899,-89.2857142857143,4,2,22,52,0,0
240548,-108.695652173913,4,2,22,52,0,0
245114,-89.2857142857143,4,2,22,52,0,0
245932,326.086956521739,4,2,22,52,1,0
245932,-138.888888888889,4,2,22,52,0,0
246013,-138.888888888889,4,2,22,42,0,0
253755,-138.888888888889,4,2,22,52,0,0
255042,329.67032967033,4,1,22,52,1,0
255042,-108.695652173913,4,1,22,62,0,0
256360,-98.0392156862745,4,1,22,62,0,0
256686,326.086956521739,4,1,22,62,1,0
256686,-98.0392156862745,4,1,22,62,0,0
257663,325.909831613254,4,1,22,62,1,0
261573,-98.0392156862745,4,1,22,62,0,0
266788,325.20325203252,4,1,22,62,1,0
266788,-98.0392156862745,4,1,22,62,0,0
270690,326.975476839237,4,1,22,62,1,0
271997,-98.0392156862745,4,1,22,62,0,0
274613,326.086956521739,4,1,22,62,1,0
277221,-98.0392156862745,4,1,22,62,0,0
281153,326.086956521739,4,1,22,62,1,0
282457,-98.0392156862745,4,1,22,62,0,0
285392,320.855614973262,4,1,22,62,1,0
286354,322.58064516129,4,1,22,62,1,0
288289,326.086956521739,4,1,22,62,1,0
289267,338.983050847458,4,1,22,62,1,0
289605,326.086956521739,4,1,22,62,1,0
290278,326.086956521739,4,1,22,52,1,0
290278,-192.307692307692,4,1,22,52,0,0
295486,326.975476839237,4,1,22,52,1,0
295486,-98.0392156862744,4,1,22,62,0,0
299409,300,4,1,22,62,1,0
299709,366.97247706422,4,1,22,62,1,0
299892,294.117647058824,4,1,22,62,1,0
300186,382.165605095541,4,1,22,62,1,0
300377,322.58064516129,4,1,22,62,1,0
300699,326.26427406199,4,2,22,62,1,0
300699,-312.5,4,2,22,52,0,0
300780,-312.5,4,2,22,32,0,0
311139,-161.290322580645,4,2,22,42,0,0
316359,326.086956521739,4,1,22,42,1,0
316359,-108.695652173913,4,1,22,62,0,0
318978,324.324324324324,4,1,22,62,1,0
318978,-108.695652173913,4,1,22,62,0,0
320275,329.67032967033,4,1,22,62,1,0
320604,-108.695652173913,4,1,22,62,0,0
320934,326.086956521739,4,1,22,62,1,0
321579,326.086956521739,4,1,22,62,1,0
322883,324.324324324324,4,1,22,62,1,0
324180,326.086956521739,4,1,22,62,1,0
324180,-108.695652173913,4,1,22,72,0,0
326136,-192.307692307692,4,1,22,62,0,0
326218,-192.307692307692,4,1,22,32,0,0
328011,-192.307692307692,4,1,22,5,0,0
328093,-192.307692307692,4,1,22,32,0,0
328745,-161.290322580645,4,1,22,52,0,0
328989,-161.290322580645,4,1,22,5,0,0
329071,-161.290322580645,4,1,22,52,0,0
329315,-161.290322580645,4,1,22,5,0,0
329397,-121.951219512195,4,1,22,72,0,0
329968,-121.951219512195,4,1,22,5,0,0
330049,-121.951219512195,4,1,22,72,0,0
330701,-108.695652173913,4,1,22,72,0,0
333317,326.086956521739,4,1,22,72,1,0
333969,324.324324324324,4,1,22,72,1,0
333969,-108.695652173913,4,1,22,72,0,0
334617,326.086956521739,4,1,22,72,1,0
334617,-89.2857142857143,4,1,22,82,0,0
346364,325.55615843733,4,1,22,82,1,0
346364,-89.2857142857143,4,1,22,82,0,0
350275,325.909831613254,4,1,22,82,1,0
350275,-89.2857142857143,4,1,22,82,0,0
355489,326.086956521739,4,1,22,82,1,0
356467,-89.2857142857143,4,1,22,82,0,0
359399,326.086956521739,4,1,22,82,1,0
359399,-89.2857142857143,4,1,22,82,0,0
360716,326.086956521739,4,1,22,82,1,0
362020,-89.2857142857143,4,1,22,82,0,0
364622,326.086956521739,4,1,22,82,1,0
364622,-89.2857142857143,4,1,22,82,0,0
365935,322.58064516129,4,1,22,82,1,0
365935,-89.2857142857143,4,1,22,82,0,0
367225,326.086956521739,4,1,22,82,1,0
367225,-89.2857142857143,4,1,22,82,0,0
372433,326.086956521739,4,1,22,82,1,0
372433,-89.2857142857143,4,1,22,82,0,0
373737,-89.2857142857143,4,1,22,92,0,0
375052,327.868852459016,4,1,22,92,1,0
375052,-89.2857142857143,4,1,22,92,0,0
376365,336.134453781513,4,1,22,92,1,0
376365,-89.2857142857143,4,1,22,92,0,0
377373,317.460317460317,4,1,22,92,1,0
377690,317.460317460317,4,1,22,92,1,0
378007,322.58064516129,4,1,22,92,1,0
378974,326.086956521739,4,1,22,72,1,0
378974,-98.0392156862744,4,1,22,72,0,0
381573,326.086956521739,4,1,22,72,1,0
381573,-98.0392156862745,4,1,22,72,0,0
384191,326.086956521739,4,1,22,72,1,0
384191,-98.0392156862745,4,1,22,72,0,0
389408,-98.0392156862744,4,1,22,72,0,0
391035,326.086956521739,4,1,22,72,1,0
391361,-98.0392156862745,4,1,22,72,0,0
392013,326.086956521739,4,1,22,72,1,0
392339,-98.0392156862745,4,1,22,72,0,0
394624,325.732899022801,4,1,22,72,1,0
394624,-98.0392156862745,4,1,22,72,0,0
398853,327.868852459016,4,1,22,72,1,0
398853,-98.0392156862745,4,1,22,72,0,0
399841,326.086956521739,4,1,22,72,1,0
400819,-98.0392156862745,4,1,22,72,0,0
408959,326.26427406199,4,1,22,72,1,0
411813,-98.0392156862745,4,1,22,72,0,0
416777,335.195530726257,4,1,22,72,1,0
416777,-98.0392156862745,4,1,22,72,0,0
418117,322.58064516129,4,1,22,72,1,0
418117,-98.0392156862745,4,1,22,72,0,0
420052,327.868852459016,4,1,22,72,1,0
420052,-98.0392156862745,4,1,22,72,0,0
420707,333.333333333333,4,1,22,72,1,0
421204,326.086956521739,4,1,22,72,1,0
421204,-98.0392156862745,4,1,22,72,0,0
421369,326.086956521739,4,1,22,72,1,0
421369,-98.0392156862745,4,1,22,72,0,0
421550,326.086956521739,4,1,22,72,1,0
421550,-98.0392156862745,4,1,22,72,0,0
421713,-98.0392156862744,4,1,22,82,0,0
421880,326.086956521739,4,1,22,82,1,0
421880,-198.688654877806,4,1,22,82,0,0
421961,-98.0392156862744,4,1,22,72,0,0
431132,-98.0392156862744,4,1,22,22,0,0

[HitObjects]
59,118,713,5,0,0:0:0:0:
127,99,794,1,0,0:0:0:0:
198,107,875,1,0,0:0:0:0:
260,141,956,1,0,0:0:0:0:
306,195,1037,1,0,0:0:0:0:
352,249,1118,1,0,0:0:0:0:
421,262,1199,1,0,0:0:0:0:
472,212,1280,1,0,0:0:0:0:
486,142,1361,1,0,0:0:0:0:
443,84,1442,1,0,0:0:0:0:
375,60,1523,1,0,0:0:0:0:
309,89,1604,1,0,0:0:0:0:
260,141,1685,5,0,0:0:0:0:
223,202,1766,1,0,0:0:0:0:
176,256,1847,1,0,0:0:0:0:
106,275,1929,1,0,0:0:0:0:
43,244,2010,1,0,0:0:0:0:
21,177,2091,1,0,0:0:0:0:
45,111,2172,1,0,0:0:0:0:
104,74,2253,1,0,0:0:0:0:
175,70,2336,1,0,0:0:0:0:
244,71,2417,1,0,0:0:0:0:
309,89,2498,1,0,0:0:0:0:
352,143,2579,1,0,0:0:0:0:
404,193,2662,6,0,L|448:236,3,35
325,259,2988,2,0,L|287:282,3,35
249,214,3314,1,0,0:0:0:0:
179,207,3395,1,0,0:0:0:0:
115,177,3477,1,0,0:0:0:0:
71,122,3558,1,0,0:0:0:0:
94,56,3639,5,0,0:0:0:0:
158,30,3720,1,0,0:0:0:0:
216,67,3803,1,0,0:0:0:0:
262,121,3884,1,0,0:0:0:0:
277,188,3965,1,0,0:0:0:0:
271,257,4048,1,0,0:0:0:0:
242,320,4129,1,0,0:0:0:0:
182,356,4211,1,0,0:0:0:0:
111,370,4292,1,0,0:0:0:0:
49,335,4374,1,0,0:0:0:0:
61,266,4455,1,0,0:0:0:0:
121,234,4537,1,0,0:0:0:0:
187,256,4618,5,0,0:0:0:0:
244,296,4700,1,0,0:0:0:0:
309,320,4781,1,0,0:0:0:0:
379,322,4863,1,0,0:0:0:0:
437,285,4944,1,0,0:0:0:0:
468,222,5026,1,0,0:0:0:0:
450,154,5107,1,0,0:0:0:0:
387,122,5189,1,0,0:0:0:0:
314,98,5270,2,0,L|275:51,1,35.7000002178955
225,138,5433,2,0,L|221:179,1,35.7000002178955
132,62,5596,6,0,L|93:33,1,35.7000002178955
55,163,5759,2,0,L|4:203,1,35.7000002178955
203,129,5923,1,0,0:0:0:0:
265,162,6004,1,0,0:0:0:0:
334,181,6086,1,0,0:0:0:0:
403,169,6167,1,0,0:0:0:0:
465,133,6249,1,0,0:0:0:0:
494,68,6330,1,0,0:0:0:0:
448,12,6412,1,0,0:0:0:0:
377,13,6493,1,0,0:0:0:0:
324,62,6575,5,0,0:0:0:0:
279,117,6656,1,0,0:0:0:0:
246,180,6738,1,0,0:0:0:0:
205,238,6819,1,0,0:0:0:0:
147,280,6901,1,0,0:0:0:0:
76,272,6982,1,0,0:0:0:0:
37,211,7064,1,0,0:0:0:0:
67,147,7145,1,0,0:0:0:0:
137,136,7227,1,0,0:0:0:0:
200,164,7308,1,0,0:0:0:0:
255,206,7389,1,0,0:0:0:0:
310,248,7470,1,0,0:0:0:0:
374,276,7551,5,0,0:0:0:0:
438,250,7632,1,0,0:0:0:0:
477,192,7713,1,0,0:0:0:0:
474,122,7794,1,0,0:0:0:0:
408,97,7875,1,0,0:0:0:0:
341,117,7956,1,0,0:0:0:0:
294,169,8037,1,0,0:0:0:0:
248,222,8118,1,0,0:0:0:0:
187,256,8199,1,0,0:0:0:0:
116,253,8281,1,0,0:0:0:0:
67,202,8362,1,0,0:0:0:0:
84,134,8443,1,0,0:0:0:0:
143,96,8524,5,0,0:0:0:0:
212,107,8605,1,0,0:0:0:0:
245,169,8687,1,0,0:0:0:0:
276,232,8769,1,0,0:0:0:0:
310,294,8851,1,0,0:0:0:0:
365,339,8933,1,0,0:0:0:0:
434,353,9015,1,0,0:0:0:0:
495,316,9097,1,0,0:0:0:0:
509,246,9179,1,0,0:0:0:0:
475,182,9261,1,0,0:0:0:0:
408,156,9343,1,0,0:0:0:0:
336,160,9425,1,0,0:0:0:0:
268,183,9507,5,0,0:0:0:0:
215,231,9589,1,0,0:0:0:0:
155,271,9671,1,0,0:0:0:0:
77,239,9753,1,0,0:0:0:0:
64,158,9835,1,0,0:0:0:0:
97,87,9916,1,0,0:0:0:0:
162,45,9997,1,0,0:0:0:0:
239,60,10079,1,0,0:0:0:0:
289,119,10160,1,0,0:0:0:0:
326,188,10242,1,0,0:0:0:0:
394,224,10323,1,0,0:0:0:0:
463,186,10405,1,0,0:0:0:0:
468,108,10486,5,0,0:0:0:0:
404,61,10568,1,0,0:0:0:0:
332,91,10649,1,0,0:0:0:0:
273,144,10731,1,0,0:0:0:0:
241,215,10812,1,0,0:0:0:0:
181,267,10894,1,0,0:0:0:0:
105,247,10975,1,0,0:0:0:0:
61,181,11057,1,0,0:0:0:0:
87,107,11138,1,0,0:0:0:0:
135,83,11220,1,0,0:0:0:0:
188,84,11301,1,0,0:0:0:0:
241,92,11383,1,0,0:0:0:0:
285,120,11464,5,0,0:0:0:0:
327,153,11546,1,0,0:0:0:0:
369,184,11627,1,0,0:0:0:0:
417,205,11708,1,0,0:0:0:0:
467,185,11790,1,0,0:0:0:0:
493,138,11871,1,0,0:0:0:0:
466,90,11953,1,0,0:0:0:0:
414,76,12034,1,0,0:0:0:0:
360,82,12116,1,0,0:0:0:0:
327,123,12197,1,0,0:0:0:0:
301,170,12279,1,0,0:0:0:0:
279,218,12360,1,0,0:0:0:0:
253,265,12442,5,0,0:0:0:0:
218,305,12523,1,0,0:0:0:0:
169,328,12605,1,0,0:0:0:0:
116,319,12686,1,0,0:0:0:0:
81,277,12768,1,0,0:0:0:0:
73,224,12849,1,0,0:0:0:0:
102,179,12931,1,0,0:0:0:0:
153,166,13012,1,0,0:0:0:0:
205,179,13094,1,0,0:0:0:0:
253,199,13175,1,0,0:0:0:0:
304,213,13257,1,0,0:0:0:0:
355,201,13338,1,0,0:0:0:0:
403,177,13420,5,0,0:0:0:0:
440,138,13501,1,0,0:0:0:0:
448,85,13582,1,0,0:0:0:0:
406,50,13664,1,0,0:0:0:0:
352,45,13745,1,0,0:0:0:0:
307,75,13827,1,0,0:0:0:0:
276,118,13908,1,0,0:0:0:0:
246,162,13990,1,0,0:0:0:0:
209,200,14071,1,0,0:0:0:0:
163,228,14153,1,0,0:0:0:0:
109,225,14234,1,0,0:0:0:0:
68,189,14316,1,0,0:0:0:0:
66,135,14397,5,0,0:0:0:0:
98,92,14479,1,0,0:0:0:0:
145,67,14560,1,0,0:0:0:0:
143,120,14642,1,0,0:0:0:0:
142,173,14723,1,0,0:0:0:0:
146,226,14805,1,0,0:0:0:0:
161,276,14886,1,0,0:0:0:0:
194,318,14968,1,0,0:0:0:0:
246,327,15049,1,0,0:0:0:0:
296,308,15131,1,0,0:0:0:0:
347,294,15212,1,0,0:0:0:0:
381,253,15293,1,0,0:0:0:0:
420,216,15375,5,0,0:0:0:0:
449,171,15456,1,0,0:0:0:0:
462,118,15538,1,0,0:0:0:0:
445,67,15619,1,0,0:0:0:0:
408,27,15701,2,0,L|373:-4,1,35.7000002178955
292,70,15864,2,0,L|250:92,1,35.7000002178955
136,65,16027,2,0,L|95:36,1,35.7000002178955
67,168,16190,2,0,L|25:202,1,35.7000002178955
177,278,16353,5,0,0:0:0:0:
226,298,16434,1,0,0:0:0:0:
276,317,16516,1,0,0:0:0:0:
327,331,16597,1,0,0:0:0:0:
380,326,16679,1,0,0:0:0:0:
427,300,16761,1,0,0:0:0:0:
464,262,16842,1,0,0:0:0:0:
464,208,16924,1,0,0:0:0:0:
421,175,17006,1,0,0:0:0:0:
371,194,17087,1,0,0:0:0:0:
348,243,17169,1,0,0:0:0:0:
333,294,17251,1,0,0:0:0:0:
293,329,17332,5,0,0:0:0:0:
239,334,17414,1,0,0:0:0:0:
186,321,17496,1,0,0:0:0:0:
136,301,17577,1,0,0:0:0:0:
101,259,17659,1,0,0:0:0:0:
91,206,17741,1,0,0:0:0:0:
92,152,17822,1,0,0:0:0:0:
125,109,17904,1,0,0:0:0:0:
174,87,17986,1,0,0:0:0:0:
223,105,18067,1,0,0:0:0:0:
269,132,18149,1,0,0:0:0:0:
313,162,18231,1,0,0:0:0:0:
362,180,18312,5,0,0:0:0:0:
415,175,18394,1,0,0:0:0:0:
450,134,18476,1,0,0:0:0:0:
454,81,18557,1,0,0:0:0:0:
413,45,18639,1,0,0:0:0:0:
359,43,18720,1,0,0:0:0:0:
318,78,18802,1,0,0:0:0:0:
283,119,18884,1,0,0:0:0:0:
246,155,18965,1,0,0:0:0:0:
205,188,19046,1,0,0:0:0:0:
152,194,19128,1,0,0:0:0:0:
100,184,19209,1,0,0:0:0:0:
67,142,19291,5,0,0:0:0:0:
80,91,19372,1,0,0:0:0:0:
121,57,19454,1,0,0:0:0:0:
173,59,19535,1,0,0:0:0:0:
205,100,19617,1,0,0:0:0:0:
238,139,19698,1,0,0:0:0:0:
265,183,19780,1,0,0:0:0:0:
300,221,19861,1,0,0:0:0:0:
348,243,19943,1,0,0:0:0:0:
400,233,20024,1,0,0:0:0:0:
433,191,20106,1,0,0:0:0:0:
458,144,20187,1,0,0:0:0:0:
435,95,20269,5,0,0:0:0:0:
371,63,20351,1,0,0:0:0:0:
300,77,20434,1,0,0:0:0:0:
236,109,20517,1,0,0:0:0:0:
171,140,20600,1,0,0:0:0:0:
114,184,20683,1,0,0:0:0:0:
77,245,20766,1,0,0:0:0:0:
93,314,20849,1,0,0:0:0:0:
156,344,20931,1,0,0:0:0:0:
222,316,21014,1,0,0:0:0:0:
252,251,21097,1,0,0:0:0:0:
198,203,21180,1,0,0:0:0:0:
132,161,21263,5,0,0:0:0:0:
105,127,21339,1,0,0:0:0:0:
80,91,21416,1,0,0:0:0:0:
90,49,21492,1,0,0:0:0:0:
121,23,21569,2,0,B|366:42|168:224|405:223,1,357.000002178955
337,145,22547,6,0,P|321:81|306:49,1,71.400000435791
252,131,22874,2,0,B|179:216|128:74|61:187,1,214.200001307373
138,223,23526,2,0,P|183:253|232:258,1,71.400000435791
204,171,23852,2,0,P|157:148|117:146,1,71.400000435791
138,223,24179,6,0,B|105:241|63:290,1,71.400000435791
157,291,24505,2,0,P|212:262|234:240,1,71.400000435791
295,274,24831,2,0,P|326:312|364:336,1,71.400000435791
367,250,25157,2,0,P|332:201|300:190,1,71.400000435791
295,274,25484,2,0,B|219:351|187:210|86:269,1,214.200001307373
134,332,26136,5,0,0:0:0:0:
173,337,26218,1,0,0:0:0:0:
209,350,26299,1,0,0:0:0:0:
247,356,26380,1,0,0:0:0:0:
286,355,26462,1,0,0:0:0:0:
326,341,26544,1,0,0:0:0:0:
363,329,26625,1,0,0:0:0:0:
398,311,26707,1,0,0:0:0:0:
432,280,26802,6,0,B|475:239|475:239|283:286|205:165,1,357.000002178955
284,156,27777,2,0,P|319:179|355:186,2,71.400000435791
241,222,28265,2,0,P|205:243|167:249,1,71.400000435791
187,170,28590,2,0,P|224:149|254:144,1,71.400000435791
240,222,28915,2,0,P|259:265|285:280,1,71.400000435791
212,320,29241,2,0,P|158:348|135:347,1,71.400000435791
152,269,29566,5,0,0:0:0:0:
152,269,29647,2,0,P|170:233|171:221,3,35.7000002178955
201,166,30054,1,0,0:0:0:0:
259,218,30216,1,0,0:0:0:0:
320,267,30379,2,0,P|356:295|410:297,1,71.400000435791
319,349,30700,5,0,0:0:0:0:
279,350,30781,1,0,0:0:0:0:
239,344,30863,1,0,0:0:0:0:
201,333,30944,1,0,0:0:0:0:
162,322,31026,2,0,P|122:298|106:276,1,71.400000435791
173,242,31352,5,0,0:0:0:0:
194,209,31435,1,0,0:0:0:0:
220,180,31518,1,0,0:0:0:0:
244,149,31602,1,0,0:0:0:0:
270,121,31685,1,0,0:0:0:0:
303,103,31768,1,0,0:0:0:0:
341,98,31852,1,0,0:0:0:0:
376,113,31935,1,0,0:0:0:0:
411,130,32018,2,0,P|454:156|494:155,1,71.400000435791
401,243,32344,5,0,0:0:0:0:
302,200,32507,1,0,0:0:0:0:
227,276,32670,2,0,P|196:297|140:302,1,71.400000435791
203,204,32996,2,0,P|249:200|280:219,1,71.400000435791
351,270,33312,2,0,P|384:310|411:331,1,71.400000435791
460,234,33638,5,0,0:0:0:0:
358,268,33801,1,0,0:0:0:0:
266,212,33964,2,0,P|231:189|204:153,1,71.400000435791
317,149,34290,2,0,P|384:147|404:140,1,71.400000435791
310,71,34616,2,0,P|260:79|241:89,1,71.400000435791
218,192,34942,6,0,P|178:171|150:139,1,71.400000435791
182,48,35268,2,0,L|164:13,2,35.7000002178955
269,109,35594,2,0,P|319:139|353:143,1,71.400000435791
432,175,35937,2,0,B|473:192|473:192|424:286|374:183|304:250,1,214.200001307373
219,283,36585,2,0,P|180:309|134:321,1,71.400000435791
260,344,36909,2,0,P|318:360|341:359,1,71.400000435791
416,297,37234,5,0,0:0:0:0:
445,252,37315,1,0,0:0:0:0:
461,200,37396,1,0,0:0:0:0:
454,146,37477,1,0,0:0:0:0:
427,99,37558,1,0,0:0:0:0:
382,69,37639,1,0,0:0:0:0:
329,58,37720,1,0,0:0:0:0:
279,78,37801,1,0,0:0:0:0:
253,124,37882,1,0,0:0:0:0:
225,170,37964,1,0,0:0:0:0:
178,195,38045,1,0,0:0:0:0:
127,178,38126,1,0,0:0:0:0:
107,128,38207,5,0,0:0:0:0:
139,85,38288,1,0,0:0:0:0:
191,73,38369,1,0,0:0:0:0:
237,99,38450,1,0,0:0:0:0:
259,147,38531,1,0,0:0:0:0:
283,194,38612,1,0,0:0:0:0:
324,227,38693,1,0,0:0:0:0:
376,237,38774,1,0,0:0:0:0:
422,210,38855,1,0,0:0:0:0:
448,163,38936,1,0,0:0:0:0:
423,114,39018,1,0,0:0:0:0:
370,105,39099,1,0,0:0:0:0:
317,115,39181,5,0,0:0:0:0:
275,136,39262,1,0,0:0:0:0:
240,177,39344,1,0,0:0:0:0:
197,208,39425,1,0,0:0:0:0:
143,211,39507,1,0,0:0:0:0:
104,174,39588,1,0,0:0:0:0:
107,120,39670,1,0,0:0:0:0:
149,88,39751,1,0,0:0:0:0:
192,80,39843,6,0,B|250:69|270:123|270:123|226:135|205:169|200:201|208:234|225:262|244:277|282:290|314:286|344:267|358:249|373:219|376:180|344:144|344:144|402:148|438:110|438:110|486:184|438:257|438:257|458:204|421:178,1,840.000032043458,10|0,0:3|0:0,0:0:0:0:
127,273,45060,5,0,0:0:0:0:
263,231,45223,2,0,P|318:206|349:178,1,71.400000435791
228,155,45549,1,0,0:0:0:0:
199,283,45712,1,0,0:0:0:0:
251,271,45794,1,0,0:0:0:0:
287,232,45875,1,0,0:0:0:0:
320,189,45957,1,0,0:0:0:0:
335,137,46038,5,0,0:0:0:0:
305,91,46120,1,0,0:0:0:0:
257,66,46201,1,0,0:0:0:0:
203,73,46283,1,0,0:0:0:0:
161,105,46364,1,0,0:0:0:0:
181,210,46527,2,0,P|201:239|230:259,1,71.400000435791
157,180,46853,5,0,0:0:0:0:
291,204,47016,1,0,0:0:0:0:
344,208,47097,1,0,0:0:0:0:
392,231,47179,1,0,0:0:0:0:
428,271,47261,1,0,0:0:0:0:
416,322,47342,5,0,0:0:0:0:
373,355,47424,1,0,0:0:0:0:
319,353,47505,1,0,0:0:0:0:
265,347,47587,1,0,0:0:0:0:
218,321,47668,1,0,0:0:0:0:
120,276,47832,2,0,P|81:242|67:197,1,71.400000435791
177,204,48158,5,0,0:0:0:0:
283,199,48321,1,0,0:0:0:0:
314,182,48402,1,0,0:0:0:0:
339,156,48484,1,0,0:0:0:0:
356,125,48565,1,0,0:0:0:0:
358,86,48647,1,0,0:0:0:0:
334,55,48728,1,0,0:0:0:0:
303,30,48810,1,0,0:0:0:0:
226,107,48973,5,0,0:0:0:0:
191,111,49051,1,0,0:0:0:0:
156,108,49129,1,0,0:0:0:0:
122,99,49207,1,0,0:0:0:0:
91,83,49285,1,0,0:0:0:0:
164,181,49466,5,0,0:0:0:0:
194,197,49544,1,0,0:0:0:0:
228,206,49623,1,0,0:0:0:0:
263,209,49702,1,0,0:0:0:0:
298,204,49781,1,0,0:0:0:0:
202,278,49962,5,0,0:0:0:0:
167,282,50040,1,0,0:0:0:0:
132,279,50119,1,0,0:0:0:0:
98,270,50198,1,0,0:0:0:0:
67,254,50277,1,0,0:0:0:0:
