osu file format v14

[General]
AudioFilename: audio.mp3
AudioLeadIn: 0
PreviewTime: 171648
Countdown: 0
SampleSet: Normal
StackLeniency: 0.7
Mode: 0
LetterboxInBreaks: 0
EpilepsyWarning: 1
WidescreenStoryboard: 1

[Editor]
Bookmarks: 520961
DistanceSpacing: 0.1
BeatDivisor: 4
GridSize: 32
TimelineZoom: 3.699998

[Metadata]
Title:ULTIMATE SACRIFICE
TitleUnicode:ULTIMATE SACRIFICE
Artist:GALNERYUS
ArtistUnicode:GALNERYUS
Creator:Toumei Dragon
Version:The Sword of Promised Victory
Source:
Tags:japanese SYU SHO TAKA FUMIYA YUHKI VAP marathon rock male vocals metal makgooksoo GhostFY [-Chocola-] koreapenguin Oono Masatoshi slyk
BeatmapID:2815315
BeatmapSetID:1360496

[Difficulty]
HPDrainRate:5
CircleSize:4.2
OverallDifficulty:9.5
ApproachRate:9.7
SliderMultiplier:2.02
SliderTickRate:1

[Events]
//Background and Video events
0,0,"7d6852d74d8f00818d60994d3055a656d0788c5b.jpg",0,0
//Break Periods
2,318660,323838
2,446833,456550
//Storyboard Layer 0 (Background)
//Storyboard Layer 1 (Fail)
//Storyboard Layer 2 (Pass)
//Storyboard Layer 3 (Foreground)
//Storyboard Layer 4 (Overlay)
//Storyboard Sound Samples

[TimingPoints]
1017,779.220779220779,3,2,99,20,1,0
33751,416.666666666667,4,2,99,20,1,0
33751,-250,4,2,99,20,0,0
34159,779.220779220779,4,2,99,20,1,0
34159,-125,4,2,99,20,0,0
58121,-125,4,2,99,25,0,0
58315,-125,4,2,99,30,0,0
90839,332.963374028857,4,2,97,60,1,0
90839,-125,4,2,97,60,0,0
91837,326.086956521739,4,1,1,80,1,0
91837,-250.000000000001,4,1,1,80,0,0
95423,-166.666666666667,4,1,1,80,0,0
95750,329.67032967033,4,1,1,80,1,0
95750,-100,4,1,1,80,0,0
96079,-100,4,1,2,80,0,0
96244,-100,4,1,3,80,0,0
96409,-100,4,1,1,80,0,0
96739,315.789473684211,4,1,3,80,1,0
96739,-100,4,1,3,80,0,0
96896,-100,4,1,4,80,0,0
97054,327.868852459016,4,1,1,80,1,0
97054,-166.666666666667,4,1,1,80,0,0
98365,326.086956521739,4,1,1,80,1,0
98365,-166.666666666667,4,1,1,80,0,0
99669,312.5,4,1,1,80,1,0
99825,-166.666666666667,4,1,2,80,0,0
99981,-166.666666666667,4,1,1,80,0,0
100294,333.333333333333,4,1,1,80,1,0
100294,-166.666666666667,4,1,1,80,0,0
100960,324.763193504736,4,1,1,80,1,0
100960,-100,4,1,1,80,0,0
101447,-100,4,1,2,80,0,0
101609,-100,4,1,1,80,0,0
101934,-100,4,1,3,80,0,0
102259,326.086956521739,4,1,4,80,1,0
102259,-100,4,1,4,80,0,0
102585,-100,4,1,1,80,0,0
104215,-83.3333333333333,4,1,2,80,0,0
104297,-83.3333333333333,4,1,1,80,0,0
105519,-100,4,1,2,80,0,0
105601,-100,4,1,1,80,0,0
107313,-100,4,1,3,80,0,0
107394,-100,4,1,4,80,0,0
107476,-83.3333333333333,4,1,1,80,0,0
109432,-83.3333333333333,4,1,2,80,0,0
109514,-83.3333333333333,4,1,1,80,0,0
110085,-166.666666666667,4,1,1,80,0,0
110411,-166.666666666667,4,1,2,80,0,0
110574,-100,4,1,3,80,0,0
110737,-166.666666666667,4,1,2,80,0,0
110818,-166.666666666667,4,1,1,80,0,0
111063,-166.666666666667,4,1,3,80,0,0
111226,-100,4,1,4,80,0,0
111389,-100,4,1,3,80,0,0
111715,-100,4,1,4,80,0,0
112041,-100,4,1,2,80,0,0
112123,-100,4,1,3,80,0,0
112367,-100,4,1,4,80,0,0
112693,-100,4,1,1,80,0,0
115139,-100,4,1,2,80,0,0
115302,-100,4,1,2,80,0,0
115384,-100,4,1,1,80,0,0
116606,-100,4,1,2,80,0,0
116769,-100,4,1,3,80,0,0
116932,-100,4,1,2,80,0,0
117095,-100,4,1,3,80,0,0
117259,-100,4,1,2,80,0,0
117422,-100,4,1,2,80,0,0
117585,-100,4,1,3,80,0,0
117748,-100,4,1,4,80,0,0
117911,324.324324324324,4,1,1,80,1,0
117911,-100,4,1,1,80,0,0
119208,326.086956521739,4,1,1,80,1,0
119208,-100,4,1,1,80,0,0
120349,-100,4,1,2,80,0,0
120512,328.767123287671,4,1,2,80,1,0
120512,-100,4,1,2,80,0,0
120594,-100,4,1,1,80,0,0
121827,325.379609544469,4,1,1,80,1,0
121827,-100,4,1,1,80,0,0
123128,329.67032967033,4,1,3,80,1,0
123128,-100,4,1,3,80,0,0
123457,-100,4,1,4,80,0,0
123787,-100,4,1,1,80,0,0
124446,324.324324324324,4,1,2,80,1,0
124446,-100,4,1,2,80,0,0
124770,-100,4,1,3,80,0,0
124932,-100,4,1,4,80,0,0
125094,-100,4,1,2,80,0,0
125175,-100,4,1,1,80,0,0
125743,326.086956521739,4,1,1,80,1,0
125743,-66.6666666666667,4,1,1,80,0,0
126069,-83.3333333333333,4,1,1,80,0,0
126395,-100,4,1,2,80,0,0
126476,-100,4,1,1,80,0,0
126884,-100,4,1,2,80,0,0
127047,-100,4,1,1,80,0,0
127699,-100,4,1,2,80,0,0
127781,-100,4,1,1,80,0,0
128351,-133.333333333333,4,1,1,75,0,0
131612,324.324324324324,4,1,1,75,1,0
131612,-133.333333333333,4,1,1,75,0,0
132260,326.086956521739,4,1,1,75,1,0
132260,-133.333333333333,4,1,1,75,0,0
134868,329.67032967033,4,1,1,75,1,0
134868,-133.333333333333,4,1,1,75,0,0
136186,324.324324324324,4,1,1,75,1,0
136186,-133.333333333333,4,1,1,75,0,0
137483,322.147651006711,4,1,1,75,1,0
137483,-133.333333333333,4,1,1,75,0,0
138284,-100,4,1,3,75,0,0
138447,-83.3333333333333,4,1,1,75,0,0
138771,331.491712707182,4,1,1,75,1,0
138771,-111.111111111111,4,1,1,75,0,0
140096,324.324324324324,4,1,1,75,1,0
140096,-111.111111111111,4,1,1,75,0,0
142690,326.086956521739,4,1,1,75,1,0
142690,-111.111111111111,4,1,1,75,0,0
143994,329.67032967033,4,1,1,75,1,0
143994,-111.111111111111,4,1,1,75,0,0
146466,285.714285714286,4,1,1,75,1,0
146608,323.450134770889,4,1,1,75,1,0
146608,-111.111111111111,4,1,1,75,0,0
148306,-100,4,1,1,75,0,0
148548,342.857142857143,4,1,3,75,1,0
148548,-100,4,1,3,75,0,0
148890,-100,4,1,4,75,0,0
149233,322.58064516129,4,1,1,65,1,0
149233,-100,4,1,1,65,0,0
149394,-200,4,1,1,65,0,0
149878,-100,4,1,1,65,0,0
150362,-200,4,1,1,65,0,0
151168,326.086956521739,4,1,1,65,1,0
151168,-100,4,1,1,65,0,0
151820,331.491712707182,4,1,2,65,1,0
151820,-100,4,1,2,65,0,0
151985,-200,4,1,1,65,0,0
152482,324.324324324324,4,1,1,65,1,0
152482,-100,4,1,1,65,0,0
152968,-200,4,1,1,65,0,0
153130,324.324324324324,4,1,1,65,1,0
153454,-142.857142857143,4,1,4,65,0,0
153778,-100,4,1,1,65,0,0
154102,-200,4,1,1,65,0,0
154427,331.491712707182,4,1,1,65,1,0
154427,-100,4,1,1,65,0,0
154592,-200,4,1,1,65,0,0
155089,322.58064516129,4,1,1,65,1,0
155089,-100,4,1,1,65,0,0
155572,-200,4,1,1,65,0,0
155734,322.58064516129,4,1,1,65,1,0
156379,-100,4,1,1,65,0,0
157024,337.078651685393,4,1,1,65,1,0
157192,-200,4,1,1,65,0,0
157698,331.491712707182,4,1,1,65,1,0
157698,-100,4,1,1,65,0,0
158360,322.58064516129,4,1,2,65,1,0
158360,-100,4,1,2,65,0,0
158440,-100,4,1,1,65,0,0
158601,-142.857142857143,4,1,3,65,0,0
158682,-100,4,1,1,65,0,0
159327,-142.857142857143,4,1,2,65,0,0
159489,-142.857142857143,4,1,3,65,0,0
159650,342.857142857143,4,1,4,65,1,0
159650,-142.857142857143,4,1,4,65,0,0
159992,322.58064516129,4,1,2,65,1,0
159992,-111.111111111111,4,1,2,65,0,0
160153,-111.111111111111,4,1,1,65,0,0
160959,322.58064516129,4,1,1,65,1,0
160959,-111.111111111111,4,1,1,65,0,0
161442,-111.111111111111,4,1,2,65,0,0
161604,-111.111111111111,4,1,1,65,0,0
162249,333.333333333333,4,1,3,65,1,0
162249,-111.111111111111,4,1,3,65,0,0
162415,-125,4,1,4,65,0,0
162582,324.324324324324,4,1,1,65,1,0
162582,-111.111111111111,4,1,1,65,0,0
163554,326.086956521739,4,1,1,65,1,0
163554,-111.111111111111,4,1,1,65,0,0
164043,-111.111111111111,4,1,2,65,0,0
164206,-111.111111111111,4,1,1,65,0,0
164858,-111.111111111111,4,1,4,65,0,0
165184,352.941176470588,4,1,2,65,1,0
165184,-111.111111111111,4,1,2,65,0,0
165360,-111.111111111111,4,1,1,65,0,0
165536,319.148936170213,4,1,1,65,1,0
165536,-111.111111111111,4,1,1,65,0,0
166174,329.67032967033,4,1,1,65,1,0
166174,-111.111111111111,4,1,1,65,0,0
166833,-111.111111111111,4,1,2,65,0,0
166998,-111.111111111111,4,1,1,65,0,0
167492,314.13612565445,4,1,1,65,1,0
167806,329.67032967033,4,1,1,65,1,0
168795,326.086956521739,4,1,1,65,1,0
169936,-125,4,1,3,65,0,0
170099,-100,4,1,1,75,0,0
170262,-100,4,1,2,75,0,0
170425,-100,4,1,3,75,0,0
170588,-100,4,1,2,75,0,0
170751,-100,4,1,3,75,0,0
170914,-100,4,1,4,75,0,0
171077,322.58064516129,4,1,1,75,1,0
171077,-100,4,1,1,75,0,0
171399,322.58064516129,4,1,2,75,1,0
171399,-100,4,1,2,75,0,0
171721,-250,4,1,3,55,0,0
172689,329.67032967033,4,1,1,100,1,0
172689,-100,4,1,1,100,0,0
174007,326.086956521739,4,1,1,100,1,0
174007,-100,4,1,1,100,0,0
175311,324.324324324324,4,1,2,100,1,0
175311,-100,4,1,2,100,0,0
175392,-100,4,1,1,100,0,0
177743,-100,4,1,2,100,0,0
177905,-100,4,1,1,100,0,0
179202,333.333333333333,4,1,1,100,1,0
179202,-100,4,1,1,100,0,0
179535,326.086956521739,4,1,1,100,1,0
179535,-100,4,1,1,100,0,0
180513,329.67032967033,4,1,2,100,1,0
180513,-100,4,1,2,100,0,0
180595,-100,4,1,1,100,0,0
181172,326.086956521739,4,1,1,100,1,0
182150,-100,4,1,2,100,0,0
182313,-100,4,1,3,100,0,0
182476,320.855614973262,4,1,1,100,1,0
182476,-100,4,1,1,100,0,0
182636,-100,4,1,2,100,0,0
182796,-100,4,1,3,100,0,0
182957,-100,4,1,4,100,0,0
183117,-100,4,1,1,100,0,0
183438,327.868852459016,4,1,1,100,1,0
183438,-100,4,1,1,100,0,0
184421,327.868852459016,4,1,1,100,1,0
186388,-100,4,1,2,100,0,0
186470,-100,4,1,1,100,0,0
187043,326.619488296135,4,1,2,100,1,0
187043,-100,4,1,2,100,0,0
187124,-100,4,1,1,100,0,0
190309,-100,4,1,3,100,0,0
190635,-83.3333333333333,4,1,1,100,0,0
190799,-83.3333333333333,4,1,2,100,0,0
190962,326.086956521739,4,1,1,100,1,0
190962,-100,4,1,1,100,0,0
191288,-100,4,1,2,100,0,0
191451,-100,4,1,3,100,0,0
191614,-100,4,1,2,100,0,0
191695,-100,4,1,1,100,0,0
192103,-100,4,1,3,100,0,0
192266,-100,4,1,1,100,0,0
192429,-100,4,1,4,100,0,0
192592,-100,4,1,1,100,0,0
192755,-100,4,1,2,100,0,0
192918,-100,4,1,2,100,0,0
193000,-100,4,1,1,100,0,0
193244,-100,4,1,2,100,0,0
193489,-100,4,1,1,100,0,0
193570,331.491712707182,4,1,1,100,1,1
193570,-83.3333333333333,4,1,1,100,0,1
194232,325.20325203252,4,1,1,100,1,1
194882,325.20325203252,4,1,1,100,1,1
195207,-83.3333333333333,4,1,1,100,0,1
196182,-83.3333333333333,4,1,2,100,0,1
196264,-83.3333333333333,4,1,1,100,0,1
198621,-83.3333333333333,4,1,3,100,0,1
198784,326.086956521739,4,1,1,100,1,1
198784,-83.3333333333333,4,1,1,100,0,1
201392,-83.3333333333333,4,1,2,100,0,1
201474,-83.3333333333333,4,1,1,100,0,1
203104,-83.3333333333333,4,1,2,100,0,1
203349,326.975476839237,4,1,1,100,1,1
203349,-100,4,1,1,100,0,1
203512,-100,4,1,2,100,0,1
203675,-100,4,1,3,100,0,1
203839,-100,4,1,4,100,0,1
204002,326.441784548422,4,1,1,100,1,1
204002,-83.3333333333333,4,1,1,100,0,1
206613,327.868852459016,4,1,2,100,1,1
206613,-83.3333333333333,4,1,2,100,0,1
206694,-83.3333333333333,4,1,1,100,0,1
207596,326.086956521739,4,1,1,100,1,1
207596,-83.3333333333333,4,1,1,100,0,1
207922,326.086956521739,4,1,2,100,1,1
207922,-83.3333333333333,4,1,2,100,0,1
208003,-83.3333333333333,4,1,1,100,0,1
210530,-83.3333333333333,4,1,2,100,0,1
210693,-83.3333333333333,4,1,1,100,0,1
210856,-83.3333333333333,4,1,3,100,0,1
211019,-83.3333333333333,4,1,4,100,0,1
211182,-66.6666666666667,4,1,1,100,0,1
211508,-100,4,1,2,100,0,1
211672,-100,4,1,3,100,0,1
211835,-100,4,1,2,80,0,0
211916,-100,4,1,1,80,0,0
213139,324.324324324324,4,1,1,80,1,0
215733,326.086956521739,4,1,1,80,1,0
216059,-100,4,1,3,80,0,0
216222,-100,4,1,4,80,0,0
216385,-100,4,1,1,80,0,0
217363,-100,4,1,3,80,0,0
217689,-100,4,1,4,80,0,0
217852,-100,4,1,1,80,0,0
218015,-100,4,1,2,80,0,0
218341,328.767123287671,4,1,1,80,1,0
218341,-100,4,1,1,80,0,0
218998,-100,4,1,2,80,0,0
219080,-100,4,1,1,80,0,0
219327,-100,4,1,2,80,0,0
219491,-100,4,1,3,80,0,0
219656,326.975476839237,4,1,4,80,1,0
219656,-66.6666666666667,4,1,4,80,0,0
219819,-66.6666666666667,4,1,1,80,0,0
219982,-83.3333333333333,4,1,4,80,0,0
220146,-100,4,1,1,80,0,0
220473,-100,4,1,2,80,0,0
220636,-100,4,1,1,80,0,0
220800,-100,4,1,3,80,0,0
220963,-100,4,1,1,80,0,0
221617,324.851109907959,4,1,2,80,1,0
221617,-66.6666666666667,4,1,2,80,0,0
221860,-100,4,1,1,80,0,0
222104,-66.6666666666667,4,1,1,80,0,0
222266,327.868852459016,4,1,1,80,1,0
222266,-133.333333333333,4,1,1,80,0,0
223413,300,4,1,1,80,1,0
223413,-133.333333333333,4,1,1,80,0,0
223563,333.333333333333,4,1,1,80,1,0
223896,319.148936170213,4,1,1,80,1,0
224215,326.086956521739,4,1,1,80,1,0
224215,-133.333333333333,4,1,1,80,0,0
224867,325.20325203252,4,1,1,80,1,0
224867,-133.333333333333,4,1,1,80,0,0
226167,327.510917030568,4,1,1,80,1,0
226167,-133.333333333333,4,1,1,80,0,0
228787,329.67032967033,4,1,1,80,1,0
228787,-133.333333333333,4,1,1,80,0,0
229446,321.71581769437,4,1,1,80,1,0
229446,-133.333333333333,4,1,1,80,0,0
230089,326.086956521739,4,1,1,80,1,0
230089,-133.333333333333,4,1,1,80,0,0
231067,322.58064516129,4,1,1,80,1,0
231067,-133.333333333333,4,1,1,80,0,0
231389,315.789473684211,4,1,1,80,1,0
231389,-133.333333333333,4,1,1,80,0,0
231704,320.855614973262,4,1,1,80,1,0
232024,328.767123287671,4,1,1,80,1,0
232188,-100,4,1,2,80,0,0
232352,-100,4,1,1,80,0,0
232517,-100,4,1,2,80,0,0
232681,-100,4,1,3,80,0,0
232845,-100,4,1,4,80,0,0
233010,337.078651685393,4,1,1,80,1,0
233010,-111.111111111111,4,1,1,80,0,0
233347,324.324324324324,4,1,1,80,1,0
233347,-111.111111111111,4,1,1,80,0,0
233995,327.868852459016,4,1,1,80,1,0
233995,-111.111111111111,4,1,1,80,0,0
235306,324.324324324324,4,1,1,80,1,0
235306,-111.111111111111,4,1,1,80,0,0
236603,322.58064516129,4,1,1,80,1,0
236603,-111.111111111111,4,1,1,80,0,0
237893,333.333333333333,4,1,1,80,1,0
237893,-111.111111111111,4,1,1,80,0,0
239226,326.086956521739,4,1,1,80,1,0
239226,-111.111111111111,4,1,1,80,0,0
241834,322.58064516129,4,1,3,80,1,0
241834,-100,4,1,3,80,0,0
242156,-100,4,1,1,80,0,0
242479,-100,4,1,3,80,0,0
242801,331.491712707182,4,1,4,80,1,0
242801,-100,4,1,4,80,0,0
243132,331.491712707182,4,1,1,65,1,0
243132,-133.333333333333,4,1,1,65,0,0
243794,319.148936170213,4,1,1,65,1,0
244113,326.086956521739,4,1,1,65,1,0
244113,-133.333333333333,4,1,1,65,0,0
244439,326.086956521739,4,1,1,65,1,0
244439,-133.333333333333,4,1,1,65,0,0
247047,322.58064516129,4,1,1,65,1,0
247369,327.868852459016,4,1,1,65,1,0
247369,-133.333333333333,4,1,1,65,0,0
248024,-100,4,1,1,65,0,0
248352,327.868852459016,4,1,1,65,1,0
248352,-133.333333333333,4,1,1,65,0,0
249007,322.58064516129,4,1,1,65,1,0
249007,-133.333333333333,4,1,1,65,0,0
249652,326.086956521739,4,1,1,65,1,0
249652,-133.333333333333,4,1,1,65,0,0
250956,-133.333333333333,4,1,2,65,0,0
251119,-133.333333333333,4,1,1,65,0,0
251608,319.148936170213,4,1,1,65,1,0
251608,-133.333333333333,4,1,1,65,0,0
252246,348.837209302326,4,1,1,75,1,0
252246,-125,4,1,1,75,0,0
252594,322.58064516129,4,1,1,75,1,0
252594,-125,4,1,1,75,0,0
253077,-125,4,1,2,75,0,0
253239,-125,4,1,3,75,0,0
253400,-125,4,1,4,75,0,0
253561,327.868852459016,4,1,4,65,1,0
253561,-125,4,1,4,65,0,0
253888,348.837209302326,4,1,1,65,1,0
253888,-111.111111111111,4,1,1,65,0,0
254236,307.692307692308,4,1,1,65,1,0
254543,325.20325203252,4,1,1,65,1,0
254543,-111.111111111111,4,1,1,65,0,0
254868,325.20325203252,4,1,1,65,1,0
254868,-111.111111111111,4,1,1,65,0,0
255843,319.148936170213,4,1,1,65,1,0
255843,-111.111111111111,4,1,1,65,0,0
256162,319.148936170213,4,1,4,65,1,0
256162,-111.111111111111,4,1,4,65,0,0
256481,344.827586206897,4,1,2,65,1,0
256481,-111.111111111111,4,1,2,65,0,0
256653,-111.111111111111,4,1,1,65,0,0
256825,326.086956521739,4,1,1,65,1,0
256825,-111.111111111111,4,1,1,65,0,0
257477,325.20325203252,4,1,1,65,1,0
257477,-111.111111111111,4,1,1,65,0,0
258777,-111.111111111111,4,1,4,65,0,0
259103,337.078651685393,4,1,1,65,1,0
259103,-111.111111111111,4,1,1,65,0,0
259440,326.975476839237,4,1,1,65,1,0
259440,-111.111111111111,4,1,1,65,0,0
260093,326.975476839237,4,1,3,65,1,0
260093,-111.111111111111,4,1,3,65,0,0
260419,-111.111111111111,4,1,2,65,0,0
260583,-111.111111111111,4,1,1,65,0,0
261073,320.855614973262,4,1,1,65,1,0
261073,-111.111111111111,4,1,1,65,0,0
261393,331.491712707182,4,1,1,80,1,0
261393,-125,4,1,1,80,0,0
261890,-125,4,1,4,80,0,0
262055,310.880829015544,4,1,1,80,1,0
262055,-125,4,1,1,80,0,0
262365,329.67032967033,4,1,1,80,1,0
262694,320.855614973262,4,1,3,80,1,0
262694,-125,4,1,3,80,0,0
262854,-125,4,1,4,80,0,0
263014,312.5,4,1,1,80,1,0
263014,-125,4,1,1,80,0,0
263326,337.078651685393,4,1,1,80,1,0
263326,-125,4,1,1,80,0,0
263664,-100,4,1,1,80,0,0
263831,352.941176470588,4,1,1,80,1,0
263831,-100,4,1,1,80,0,0
264007,320.855614973262,4,1,1,100,1,0
264167,-83.3333333333333,4,1,3,100,0,0
264327,-83.3333333333333,4,1,4,100,0,0
264488,-83.3333333333333,4,1,5,100,0,0
264648,-83.3333333333333,4,1,3,100,0,0
264809,-83.3333333333333,4,1,4,100,0,0
264969,-83.3333333333333,4,1,1,100,0,0
265129,-83.3333333333333,4,1,2,100,0,0
265290,-83.3333333333333,4,1,1,100,0,0
265611,326.086956521739,4,1,2,100,1,0
265611,-100,4,1,2,100,0,0
265937,-100,4,1,3,100,0,0
266263,331.491712707182,4,1,4,100,1,0
266263,-83.3333333333333,4,1,4,100,0,0
266594,331.491712707182,4,1,1,100,1,0
266594,-100,4,1,1,100,0,0
267919,322.58064516129,4,1,1,100,1,0
269209,326.086956521739,4,1,1,100,1,0
269209,-100,4,1,1,100,0,0
269292,-100,4,1,1,100,0,0
271165,-100,4,1,1,100,0,0
271328,-100,4,1,1,100,0,0
271491,-100,4,1,1,100,0,0
271817,325.909831613254,4,1,1,100,1,0
271817,-100,4,1,1,100,0,0
274424,327.868852459016,4,1,5,100,1,0
274424,-100,4,1,5,100,0,0
274505,-100,4,1,5,100,0,0
275735,329.67032967033,4,1,1,100,1,0
276064,-100,4,1,2,100,0,0
276229,-100,4,1,3,100,0,0
276394,326.086956521739,4,1,1,100,1,0
276394,-100,4,1,1,100,0,0
276557,-100,4,1,2,100,0,0
276720,-100,4,1,3,100,0,0
276883,-100,4,1,4,100,0,0
277046,326.086956521739,4,1,1,100,1,0
277046,-100,4,1,1,100,0,0
278350,323.275862068966,4,1,5,100,1,0
278350,-100,4,1,5,100,0,0
278430,-100,4,1,1,100,0,0
279643,326.477309826967,4,1,1,100,1,0
280295,-100,4,1,5,100,0,0
280377,-100,4,1,1,100,0,0
282254,326.086956521739,4,1,1,100,1,0
282254,-100,4,1,1,100,0,0
283558,328.317373461012,4,1,5,100,1,0
283558,-100,4,1,5,100,0,0
283640,-100,4,1,1,100,0,0
284542,-83.3333333333333,4,1,2,100,0,0
284707,-83.3333333333333,4,1,3,100,0,0
284871,326.086956521739,4,1,4,100,1,0
284871,-100,4,1,4,100,0,0
285034,-100,4,1,1,100,0,0
285360,-100,4,1,3,100,0,0
285523,-100,4,1,4,100,0,0
285686,-100,4,1,1,100,0,0
286012,-100,4,1,3,100,0,0
286175,-100,4,1,1,100,0,0
286338,-100,4,1,3,100,0,0
286501,-100,4,1,4,100,0,0
286664,-100,4,1,1,100,0,0
286827,324.324324324324,4,1,3,100,1,0
286827,-100,4,1,3,100,0,0
286989,-100,4,1,4,100,0,0
287151,-100,4,1,1,100,0,0
287313,-100,4,1,2,100,0,0
287394,-100,4,1,1,100,0,0
287475,325.909831613254,4,1,1,100,1,1
287475,-83.3333333333333,4,1,1,100,0,1
289919,-83.3333333333333,4,1,2,100,0,1
290082,-83.3333333333333,4,1,5,100,0,1
290163,-83.3333333333333,4,1,1,100,0,1
292200,-83.3333333333333,4,1,3,100,0,1
292363,-83.3333333333333,4,1,1,100,0,1
292526,-83.3333333333333,4,1,4,100,0,1
292689,-83.3333333333333,4,1,1,100,0,1
294645,329.67032967033,4,1,1,100,1,1
294645,-83.3333333333333,4,1,1,100,0,1
295304,326.086956521739,4,1,5,100,1,1
295304,-83.3333333333333,4,1,5,100,0,1
295385,-83.3333333333333,4,1,1,100,0,1
296445,-83.3333333333333,4,1,2,100,0,1
296608,-83.3333333333333,4,1,1,100,0,1
296934,-83.3333333333333,4,1,2,100,0,1
297097,-83.3333333333333,4,1,3,100,0,1
297260,-83.3333333333333,4,1,1,100,0,1
297423,-83.3333333333333,4,1,2,100,0,1
297586,-83.3333333333333,4,1,3,100,0,1
297749,-83.3333333333333,4,1,4,100,0,1
297912,-83.3333333333333,4,1,1,100,0,1
299217,327.868852459016,4,1,5,100,1,1
299217,-83.3333333333333,4,1,5,100,0,1
299298,-83.3333333333333,4,1,1,100,0,1
300528,325.379609544469,4,1,1,100,1,1
300528,-83.3333333333333,4,1,1,100,0,1
301178,-83.3333333333333,4,1,5,100,0,1
301260,-83.3333333333333,4,1,1,100,0,1
303131,326.086956521739,4,1,1,100,1,1
303131,-83.3333333333333,4,1,1,100,0,1
304435,329.67032967033,4,1,3,100,1,1
304435,-83.3333333333333,4,1,3,100,0,1
304764,-83.3333333333333,4,1,1,100,0,1
305094,-83.3333333333333,4,1,3,100,0,1
305424,-83.3333333333333,4,1,4,100,0,1
305753,320.855614973262,4,1,1,100,1,0
305753,-100,4,1,1,100,0,0
306394,-90.9090909090909,4,1,1,100,0,0
306715,326.086956521739,4,1,1,100,1,0
306715,-90.9090909090909,4,1,1,100,0,0
307041,326.086956521739,4,1,1,100,1,0
307041,-83.3333333333333,4,1,1,100,0,0
308345,327.510917030568,4,1,5,100,1,0
308345,-90.9090909090909,4,1,5,100,0,0
308426,-90.9090909090909,4,1,1,100,0,0
309000,-83.3333333333333,4,1,1,100,0,0
309655,-76.9230769230769,4,1,1,100,0,0
310622,-111.111111111111,4,1,3,100,0,0
310785,-111.111111111111,4,1,4,100,0,0
310965,326.086956521739,4,1,1,100,1,0
310965,-83.3333333333333,4,1,1,100,0,0
311617,322.58064516129,4,1,1,100,1,0
311617,-76.9230769230769,4,1,1,100,0,0
312262,326.086956521739,4,1,5,100,1,0
312262,-71.4285714285714,4,1,5,100,0,0
312343,-71.4285714285714,4,1,1,100,0,0
313403,-111.111111111111,4,1,2,100,0,0
313566,-100,4,1,1,100,0,0
314218,-111.111111111111,4,1,3,100,0,0
314544,327.868852459016,4,1,1,100,1,0
314544,-111.111111111111,4,1,1,100,0,0
314871,-111.111111111111,4,1,2,100,0,0
315199,320.855614973262,4,1,4,100,1,0
315199,-111.111111111111,4,1,4,100,0,0
315519,329.67032967033,4,1,1,100,1,0
315519,-142.857142857143,4,1,1,100,0,0
315848,-142.857142857143,4,1,5,100,0,0
316167,326.086956521739,7,1,1,80,1,0
318460,324.324324324324,7,1,1,80,1,0
318460,-100,7,1,1,80,0,0
320405,331.491712707182,7,1,1,80,1,0
320736,326.086956521739,7,1,1,80,1,0
322692,337.078651685393,7,1,1,80,1,0
323029,326.086956521739,7,1,1,70,1,0
324333,-142.857142857143,7,1,1,70,0,0
324496,-142.857142857143,7,1,1,70,0,0
325311,322.58064516129,7,1,1,70,1,0
325311,-142.857142857143,7,1,1,70,0,0
326923,333.333333333333,7,1,1,70,1,0
326923,-142.857142857143,7,1,1,70,0,0
327256,326.086956521739,7,1,1,70,1,0
327582,325.732899022801,7,1,5,70,1,0
327582,-142.857142857143,7,1,5,70,0,0
327663,-142.857142857143,7,1,1,70,0,0
329862,325.20325203252,7,1,1,70,1,0
329862,-142.857142857143,7,1,1,70,0,0
331813,337.078651685393,7,1,1,70,1,0
332150,322.58064516129,7,1,5,70,1,0
332150,-142.857142857143,7,1,5,70,0,0
332230,-142.857142857143,7,1,1,70,0,0
332795,326.086956521739,7,1,1,70,1,0
333121,331.491712707182,7,1,1,70,1,0
333121,-142.857142857143,7,1,1,70,0,0
334115,320.855614973262,7,1,1,70,1,0
334435,326.086956521739,4,1,1,80,1,0
334435,-100,7,1,1,50,0,0
335087,-117.647058823529,4,1,1,50,0,0
335413,327.868852459016,4,1,1,50,1,0
335740,327.868852459016,4,1,1,50,1,0
335740,-142.857142857143,4,1,1,50,0,0
336395,-100,4,1,1,50,0,0
336723,-142.857142857143,4,1,3,50,0,0
337051,-142.857142857143,4,1,1,50,0,0
337707,324.324324324324,4,1,1,50,1,0
337707,-117.647058823529,4,1,1,50,0,0
338355,324.324324324324,4,1,1,5,1,0
338355,-142.857142857143,4,1,1,5,0,0
338517,-142.857142857143,4,1,1,50,0,0
339327,-142.857142857143,4,1,3,50,0,0
339652,329.218106995885,4,1,1,50,1,0
339652,-142.857142857143,4,1,1,50,0,0
340310,-117.647058823529,4,1,1,50,0,0
341627,320.855614973262,4,1,1,50,1,0
341627,-142.857142857143,4,1,1,50,0,0
342268,325.732899022801,4,1,1,50,1,0
342268,-100,4,1,1,50,0,0
344222,332.409972299169,4,1,1,50,1,0
344886,315.789473684211,4,1,1,70,1,0
344886,-125,4,1,1,70,0,0
345517,326.086956521739,4,1,1,70,1,0
345517,-111.111111111111,4,1,1,70,0,0
346495,330.578512396694,4,1,1,70,1,0
346495,-111.111111111111,4,1,1,70,0,0
346825,-125,4,1,1,70,0,0
347486,333.333333333333,4,1,5,70,1,0
347486,-100,4,1,5,70,0,0
347569,-100,4,1,1,70,0,0
348152,327.868852459016,4,1,1,70,1,0
348152,-100,4,1,1,70,0,0
348807,315.789473684211,4,1,1,70,1,0
348807,-125,4,1,1,70,0,0
349754,326.086956521739,4,1,2,70,1,0
349754,-125,4,1,2,70,0,0
350080,329.67032967033,4,1,1,70,1,0
350080,-125,4,1,1,70,0,0
350739,340.909090909091,4,1,1,70,1,0
350739,-111.111111111111,4,1,1,70,0,0
351420,306.122448979592,4,1,1,70,1,0
351420,-125,4,1,1,70,0,0
351726,326.086956521739,4,1,1,70,1,0
351726,-125,4,1,1,70,0,0
352704,326.086956521739,4,1,1,70,1,0
353030,329.67032967033,4,1,1,70,1,0
353030,-125,4,1,1,70,0,0
353689,320.855614973262,4,1,1,70,1,0
353849,-125,4,1,3,70,0,0
354009,314.13612565445,4,1,1,80,1,0
354009,-100,4,1,1,80,0,0
354323,319.148936170213,4,1,1,80,1,0
354642,327.868852459016,4,1,2,80,1,0
354642,-100,4,1,2,80,0,0
354969,-100,4,1,4,80,0,0
355296,-90.9090909090909,4,1,1,80,0,0
355297,333.333333333333,4,1,1,80,1,0
355297,-90.9090909090909,4,1,1,80,0,0
356297,-76.9230769230769,4,1,1,80,0,0
356630,320.855614973262,4,1,1,80,1,0
356630,-76.9230769230769,4,1,1,80,0,0
357592,-90.9090909090909,4,1,1,80,0,0
357913,326.086956521739,4,1,1,80,1,0
358565,-100,4,1,5,80,0,0
358646,-100,4,1,1,80,0,0
359217,331.491712707182,4,1,1,80,1,0
359879,326.086956521739,4,1,1,80,1,0
360531,325.954094798316,4,1,1,80,1,0
362486,-71.4285714285714,4,1,1,80,0,0
363138,319.148936170213,4,1,1,80,1,0
363776,329.127811300055,4,1,1,80,1,0
364434,320.855614973262,4,1,1,80,1,0
364434,-66.6666666666667,4,1,1,80,0,0
365396,327.868852459016,4,1,3,80,1,0
365396,-100,4,1,3,80,0,0
365723,329.67032967033,4,1,1,80,1,0
365723,-83.3333333333333,4,1,1,80,0,0
367041,-100,4,1,1,80,0,0
367701,324.324324324324,4,1,1,80,1,0
368349,326.441784548422,4,1,1,80,1,0
368349,-83.3333333333333,4,1,1,80,0,0
369001,-83.3333333333333,4,1,5,80,0,0
369165,-83.3333333333333,4,1,1,80,0,0
369654,-76.9230769230769,4,1,1,80,0,0
370960,326.086956521739,4,1,1,80,1,0
370960,-100,4,1,1,80,0,0
373568,324.851109907959,4,1,5,80,1,0
373568,-100,4,1,5,80,0,0
373649,-100,4,1,1,80,0,0
374867,326.086956521739,4,1,1,80,1,0
375356,-100,4,1,3,80,0,0
375519,-100,4,1,1,80,0,0
376171,370.37037037037,4,1,1,80,1,0
376171,-83.3333333333333,4,1,1,85,0,0
376356,329.67032967033,4,1,4,85,1,0
376356,-83.3333333333333,4,1,4,85,0,0
376520,329.67032967033,4,1,4,85,1,0
377344,310.880829015544,4,1,3,85,1,0
377344,-83.3333333333333,4,1,3,85,0,0
377499,310.880829015544,4,1,3,85,1,0
377965,327.868852459016,4,1,3,85,1,0
378128,327.868852459016,4,1,3,85,1,0
378455,-83.3333333333333,4,1,1,85,0,0
378783,328.407224958949,4,1,1,85,1,0
378947,-83.3333333333333,4,1,5,85,0,0
379111,-83.3333333333333,4,1,4,85,0,0
379932,-83.3333333333333,4,1,1,85,0,0
380425,326.086956521739,4,1,1,85,1,0
380751,-83.3333333333333,4,1,3,85,0,0
380914,-83.3333333333333,4,1,1,85,0,0
381240,-83.3333333333333,4,1,2,85,0,0
381403,326.086956521739,4,1,2,85,1,0
381566,-83.3333333333333,4,1,1,85,0,0
381729,-83.3333333333333,4,1,4,85,0,0
382544,-83.3333333333333,4,1,1,85,0,0
383033,320.855614973262,4,1,1,85,1,0
383033,-83.3333333333333,4,1,1,85,0,0
383353,-83.3333333333333,4,1,3,85,0,0
383514,-83.3333333333333,4,1,1,85,0,0
383674,337.078651685393,4,1,1,85,1,0
384179,-83.3333333333333,4,1,5,85,0,0
384348,322.58064516129,4,1,4,85,1,0
384348,-66.6666666666667,4,1,4,85,0,0
384670,-83.3333333333333,4,1,4,85,0,0
384831,-66.6666666666667,4,1,4,85,0,0
385154,-83.3333333333333,4,1,1,85,0,0
385315,322.58064516129,4,1,1,85,1,0
385315,-83.3333333333333,4,1,1,85,0,0
385476,-83.3333333333333,4,1,2,85,0,0
385798,-83.3333333333333,4,1,3,85,0,0
386121,-83.3333333333333,4,1,4,85,0,0
386605,333.333333333333,4,1,4,85,1,0
386771,-76.9230769230769,4,1,3,100,0,1
387605,-76.9230769230769,4,1,1,100,0,1
387938,319.148936170213,4,1,1,100,1,1
389214,326.086956521739,4,1,1,100,1,1
389377,-76.9230769230769,4,1,3,100,0,1
390192,-76.9230769230769,4,1,1,100,0,1
390518,324.324324324324,4,1,1,100,1,1
391490,329.67032967033,4,1,1,100,1,1
391819,325.379609544469,4,1,1,100,1,1
391981,-76.9230769230769,4,1,3,100,0,1
392795,-76.9230769230769,4,1,1,100,0,1
394422,331.491712707182,4,1,1,100,1,1
394587,-76.9230769230769,4,1,3,100,0,1
394753,-66.6666666666667,4,1,3,100,0,1
395084,315.789473684211,4,1,4,100,1,1
395084,-76.9230769230769,4,1,4,100,0,1
395241,-66.6666666666667,4,1,4,100,0,1
395399,352.941176470588,4,1,4,100,1,1
395575,-83.3333333333333,4,1,1,100,0,1
395751,333.333333333333,4,1,1,100,1,1
396084,314.13612565445,4,1,1,100,1,1
396084,-83.3333333333333,4,1,1,100,0,1
396712,326.086956521739,4,1,1,100,1,1
396712,-83.3333333333333,4,1,1,100,0,1
397038,326.086956521739,4,1,1,70,1,0
397038,-133.333333333333,4,1,1,70,0,0
398342,-133.333333333333,4,1,5,70,0,0
398423,-133.333333333333,4,1,1,70,0,0
398994,-100,4,1,3,70,0,0
399239,-100,4,1,1,70,0,0
399646,329.67032967033,4,1,3,80,1,0
399646,-100,4,1,3,80,0,0
399975,-100,4,1,1,80,0,0
400470,-100,4,1,5,80,0,0
400552,-100,4,1,1,80,0,0
400964,322.58064516129,4,1,1,80,1,0
401447,-100,4,1,5,80,0,0
401609,-100,4,1,4,80,0,0
401931,-83.3333333333333,4,1,3,80,0,0
402254,326.086956521739,4,1,3,80,1,0
402743,330.578512396694,4,1,3,80,1,0
402908,-66.6666666666667,4,1,6,80,0,0
402990,-66.6666666666667,4,1,3,80,0,0
403238,317.460317460317,4,1,3,80,1,0
403238,-83.3333333333333,4,1,3,80,0,0
403555,329.218106995885,4,1,3,80,1,0
404048,330.578512396694,4,1,3,80,1,0
404213,-66.6666666666667,4,1,6,80,0,0
404543,331.491712707182,4,1,2,80,1,0
404543,-83.3333333333333,4,1,2,80,0,0
404874,324.851109907959,4,1,3,80,1,0
404874,-66.6666666666667,4,1,3,80,0,0
405361,-100,4,1,4,80,0,0
405523,-100,4,1,1,80,0,0
406010,-100,4,1,3,80,0,0
406173,326.797385620915,4,1,5,40,1,0
406173,-100,4,1,5,40,0,0
406254,-100,4,1,1,50,0,0
406499,-100,4,1,1,60,0,0
406663,-100,4,1,1,80,0,0
406826,-100,4,1,1,70,0,0
407153,319.148936170213,4,1,2,90,1,0
407153,-100,4,1,2,90,0,0
407472,329.67032967033,4,1,1,100,1,1
407472,-66.6666666666667,4,1,1,100,0,1
408790,324.324324324324,4,1,1,100,1,1
408790,-66.6666666666667,4,1,1,100,0,1
410087,329.67032967033,4,1,1,100,1,1
410087,-66.6666666666667,4,1,1,100,0,1
410416,-76.9230769230769,4,1,1,100,0,1
410746,324.324324324324,4,1,1,100,1,1
410746,-90.9090909090909,4,1,1,100,0,1
411070,-111.111111111111,4,1,1,100,0,1
411394,324.324324324324,4,1,1,100,1,1
412529,-83.3333333333333,4,1,2,100,0,1
412691,327.868852459016,4,1,1,100,1,1
412691,-83.3333333333333,4,1,1,100,0,1
414002,322.58064516129,4,1,1,100,1,1
414002,-83.3333333333333,4,1,1,100,0,1
415937,331.491712707182,4,1,1,100,1,1
416599,326.086956521739,4,1,1,100,1,1
417577,-83.3333333333333,4,1,1,100,0,1
417903,326.975476839237,4,1,1,100,1,1
417903,-76.9230769230769,4,1,1,100,0,1
420518,-71.4285714285714,4,1,1,100,0,1
421172,-76.9230769230769,4,1,1,100,0,1
421826,324.675324675325,4,1,1,100,1,1
421826,-83.3333333333333,4,1,1,100,0,1
423124,329.67032967033,4,1,1,100,1,1
423783,326.086956521739,4,1,1,100,1,1
424435,325.20325203252,4,1,1,100,1,1
424435,-83.3333333333333,4,1,1,100,0,1
427036,326.797385620915,4,1,1,100,1,1
428343,329.67032967033,4,1,1,100,1,1
428837,-83.3333333333333,4,1,5,100,0,1
428919,-83.3333333333333,4,1,1,100,0,1
429661,322.58064516129,4,1,1,100,1,1
430306,329.67032967033,4,1,1,100,1,1
430306,-66.6666666666667,4,1,1,100,0,1
430635,-83.3333333333333,4,1,3,100,0,1
430965,333.333333333333,4,1,1,100,1,1
430965,-100,4,1,1,100,0,1
431131,-100,4,1,4,100,0,1
431965,312.5,4,1,4,100,1,1
432277,319.148936170213,4,1,4,100,1,1
432436,-100,4,1,1,100,0,1
432755,-100,4,1,5,100,0,1
432915,-100,4,1,1,100,0,1
433234,329.67032967033,4,1,1,100,1,1
433563,326.086956521739,4,1,1,100,1,1
433726,-100,4,1,4,100,0,1
434704,-100,4,1,1,100,0,1
435356,-83.3333333333333,4,1,2,100,0,1
435519,-83.3333333333333,4,1,3,100,0,1
435682,-100,4,1,2,100,0,1
435845,-100,4,1,1,100,0,1
436008,-100,4,1,2,100,0,1
436171,-100,4,1,1,80,0,0
437476,327.868852459016,4,1,1,80,1,0
438131,326.086956521739,4,1,1,80,1,0
438131,-100,4,1,1,80,0,0
438783,326.086956521739,4,1,1,80,1,0
440087,324.324324324324,4,1,3,80,1,0
440087,-100,4,1,3,80,0,0
440249,-100,4,1,1,80,0,0
440411,-100,4,1,3,80,0,0
440573,-100,4,1,1,80,0,0
441384,329.67032967033,4,1,3,80,1,0
441384,-100,4,1,3,80,0,0
441713,-100,4,1,4,80,0,0
442043,-100,4,1,1,80,0,0
442702,321.71581769437,4,1,2,80,1,0
442702,-100,4,1,2,80,0,0
443023,-100,4,1,3,80,0,0
443184,-100,4,1,4,80,0,0
443345,-100,4,1,1,80,0,0
443988,327.868852459016,4,1,1,80,1,0
443988,-66.6666666666667,4,1,1,80,0,0
444315,-83.3333333333333,4,1,1,80,0,0
444643,-100,4,1,5,80,0,0
444971,-125,4,1,1,80,0,0
445627,333.333333333333,4,1,1,80,1,0
445960,340.909090909091,4,1,3,80,1,0
445960,-100,4,1,3,80,0,0
446002,-100,4,1,3,5,0,0
446130,-100,4,1,3,80,0,0
446173,-100,4,1,3,5,0,0
446300,333.333333333333,4,1,4,80,1,0
446300,-100,4,1,4,80,0,0
446341,-100,4,1,4,5,0,0
446466,-100,4,1,4,80,0,0
446508,-100,4,1,4,5,0,0
446633,326.086956521739,4,1,1,80,1,0
446633,-333.333333333333,4,1,1,80,0,0
457045,326.086956521739,4,2,98,50,1,0
457045,-250,4,2,98,50,0,0
457452,-250,4,2,98,5,0,0
457534,-250,4,2,98,50,0,0
457941,-250,4,2,98,5,0,0
458023,-250,4,2,98,50,0,0
458186,-250,4,2,98,5,0,0
458349,-166.666666666667,4,2,98,50,0,0
458593,-166.666666666667,4,2,98,5,0,0
458675,-166.666666666667,4,2,98,50,0,0
458920,-166.666666666667,4,2,98,5,0,0
459001,-133.333333333333,4,2,98,50,0,0
459653,-250,4,2,98,50,0,0
459898,-250,4,2,98,5,0,0
459979,-250,4,2,98,50,0,0
460142,-250,4,2,98,50,0,0
460550,-250,4,2,98,5,0,0
460631,-250,4,2,98,50,0,0
460795,-250,4,2,98,5,0,0
460958,-250,4,2,98,50,0,0
461365,-250,4,2,98,5,0,0
461447,-250,4,2,98,50,0,0
461691,-250,4,2,98,5,0,0
461773,-250,4,2,98,50,0,0
462262,-200,4,2,98,50,0,0
462670,-200,4,2,98,5,0,0
462751,-200,4,2,98,50,0,0
463159,-200,4,2,98,5,0,0
463240,-133.333333333333,4,2,98,50,0,0
463485,-200,4,2,98,5,0,0
463566,-250,4,2,98,50,0,0
463811,-250,4,2,98,5,0,0
463892,-250,4,2,98,50,0,0
464137,-133.333333333333,4,2,98,5,0,0
464218,-133.333333333333,4,2,98,50,0,0
464463,-133.333333333333,4,2,98,5,0,0
464545,-133.333333333333,4,2,98,50,0,0
464789,-133.333333333333,4,2,98,5,0,0
464871,325.20325203252,4,1,4,85,1,0
464871,-66.6666666666667,4,1,4,85,0,0
465114,-66.6666666666667,4,1,4,95,0,0
465196,-66.6666666666667,4,1,4,85,0,0
466171,327.868852459016,4,1,1,85,1,1
466171,-125,4,1,1,85,0,1
466826,326.086956521739,4,1,1,85,1,1
466826,-100,4,1,1,85,0,1
467478,324.324324324324,4,1,1,80,1,0
467478,-166.666666666667,4,1,1,80,0,0
468450,327.868852459016,4,1,1,80,1,0
468450,-166.666666666667,4,1,1,80,0,0
468777,327.868852459016,4,1,1,80,1,0
469432,-100,4,1,1,80,0,0
469473,-100,4,1,1,5,0,0
469596,-100,4,1,1,80,0,0
469637,-100,4,1,1,5,0,0
469760,-66.6666666666667,4,1,1,80,0,0
470088,329.67032967033,4,1,5,80,1,0
470088,-166.666666666667,4,1,5,80,0,0
470170,-166.666666666667,4,1,1,80,0,0
471077,-125,4,1,1,80,0,0
471736,320.855614973262,4,1,1,80,1,0
472056,-125,4,1,1,80,0,0
472377,-66.6666666666667,4,1,1,80,0,0
472698,329.67032967033,4,1,1,80,1,0
472698,-166.666666666667,4,1,1,80,0,0
473687,326.086956521739,4,1,1,80,1,0
473687,-125,4,1,1,80,0,0
474529,-125,4,1,1,80,0,0
474583,-125,4,1,1,5,0,0
474665,320.855614973262,4,1,1,80,1,0
474825,-125,4,1,1,80,0,0
474985,-66.6666666666667,4,1,1,80,0,0
475306,325.20325203252,4,1,5,80,1,0
475306,-166.666666666667,4,1,5,80,0,0
475387,-166.666666666667,4,1,1,80,0,0
476281,327.868852459016,4,1,1,80,1,0
476281,-125,4,1,1,80,0,0
476608,327.868852459016,4,1,1,80,1,0
477263,-125,4,1,1,80,0,0
477591,333.333333333333,4,1,1,80,1,0
477757,-125,4,1,2,80,0,0
477924,320.855614973262,4,1,4,80,1,0
477924,-111.111111111111,4,1,4,80,0,0
478405,-111.111111111111,4,1,1,80,0,0
478565,329.67032967033,4,1,1,80,1,0
478565,-111.111111111111,4,1,1,80,0,0
479224,322.58064516129,4,1,1,80,1,0
479224,-111.111111111111,4,1,1,80,0,0
480514,329.67032967033,4,1,4,80,1,0
480514,-111.111111111111,4,1,4,80,0,0
480843,-111.111111111111,4,1,5,80,0,0
481008,-111.111111111111,4,1,1,80,0,0
481832,326.086956521739,4,1,1,80,1,0
481832,-111.111111111111,4,1,1,80,0,0
482484,317.460317460317,4,1,1,80,1,0
482484,-111.111111111111,4,1,1,80,0,0
483118,337.078651685393,4,1,4,80,1,0
483118,-111.111111111111,4,1,4,80,0,0
483623,-111.111111111111,4,1,1,80,0,0
483792,315.789473684211,4,1,1,80,1,0
483792,-111.111111111111,4,1,1,80,0,0
484423,340.909090909091,4,1,4,80,1,0
484423,-111.111111111111,4,1,4,80,0,0
484763,-111.111111111111,4,1,5,80,0,0
484934,-111.111111111111,4,1,1,80,0,0
485104,322.58064516129,4,1,1,80,1,0
485104,-111.111111111111,4,1,1,80,0,0
485749,324.324324324324,4,1,1,80,1,0
487046,-111.111111111111,4,1,5,80,0,0
487127,-111.111111111111,4,1,1,80,0,0
487370,333.333333333333,4,1,1,80,1,0
488370,315.789473684211,4,1,1,100,1,1
488370,-66.6666666666667,4,1,1,100,0,1
488527,-66.6666666666667,4,1,3,100,0,1
488685,-66.6666666666667,4,1,4,100,0,1
488843,-66.6666666666667,4,1,1,100,0,1
489001,-66.6666666666667,4,1,3,100,0,1
489159,-66.6666666666667,4,1,4,100,0,1
489317,335.195530726257,4,1,5,100,1,1
489317,-66.6666666666667,4,1,5,100,0,1
489652,324.324324324324,4,1,1,80,1,0
489652,-125,4,1,1,80,0,0
490624,-125,4,1,5,80,0,0
490949,326.086956521739,4,1,3,80,1,0
490949,-250,4,1,3,80,0,0
493394,-200,4,1,4,80,0,0
493557,-200,4,1,1,80,0,0
494535,338.983050847458,4,1,1,80,1,0
494535,-83.3333333333333,4,1,1,80,0,0
494873,326.086956521739,4,1,1,80,1,0
494873,-100,4,1,1,80,0,0
495362,-100,4,1,3,80,0,0
495525,-100,4,1,7,80,0,0
495851,-100,4,1,1,80,0,0
496177,335.195530726257,4,1,5,80,1,0
496177,-125,4,1,5,80,0,0
496260,-125,4,1,1,80,0,0
496847,326.086956521739,4,1,1,80,1,0
496847,-125,4,1,1,80,0,0
497499,322.58064516129,4,1,1,80,1,0
497499,-125,4,1,1,80,0,0
498466,-83.3333333333333,4,1,1,80,0,0
498789,320.855614973262,4,1,1,80,1,0
498789,-100,4,1,1,80,0,0
498949,-100,4,1,2,80,0,0
499270,-100,4,1,1,80,0,0
499430,-100,4,1,3,80,0,0
499751,327.868852459016,4,1,1,80,1,0
499751,-100,4,1,1,80,0,0
500078,327.868852459016,4,1,5,80,1,0
500078,-100,4,1,5,80,0,0
500159,-100,4,1,1,80,0,0
500241,-125,4,1,2,80,0,0
500405,-125,4,1,3,80,0,0
500569,-125,4,1,4,80,0,0
500733,-125,4,1,1,80,0,0
501389,326.086956521739,4,1,4,80,1,0
501389,-100,4,1,4,80,0,0
501878,-100,4,1,1,80,0,0
504649,-100,4,1,5,80,0,0
504731,-100,4,1,1,80,0,0
507910,327.868852459016,4,1,5,80,1,0
507910,-100,4,1,5,80,0,0
507991,-100,4,1,1,80,0,0
508729,-100,4,1,3,80,0,0
508893,324.324324324324,4,1,1,80,1,0
508893,-83.3333333333333,4,1,1,80,0,0
509217,326.619488296135,4,1,1,80,1,0
509217,-100,4,1,1,80,0,0
509543,-100,4,1,2,80,0,0
509706,-100,4,1,3,80,0,0
509870,-100,4,1,4,80,0,0
510033,-100,4,1,5,80,0,0
510115,-100,4,1,1,80,0,0
510360,-100,4,1,3,80,0,0
510523,-100,4,1,1,80,0,0
510686,-100,4,1,3,80,0,0
510850,-100,4,1,4,80,0,0
511013,-100,4,1,1,80,0,0
511176,-100,4,1,3,80,0,0
511340,-100,4,1,4,80,0,0
511503,-100,4,1,2,80,0,0
511829,-83.3333333333333,4,1,1,100,0,1
513136,324.324324324324,4,1,1,100,1,1
513460,-83.3333333333333,4,1,1,100,0,1
514271,-83.3333333333333,4,1,3,100,0,1
514433,326.086956521739,4,1,5,100,1,1
514433,-83.3333333333333,4,1,5,100,0,1
514514,-83.3333333333333,4,1,1,100,0,1
517041,328.767123287671,4,1,1,100,1,1
517041,-83.3333333333333,4,1,1,100,0,1
518356,327.153762268266,4,1,1,100,1,1
518683,-83.3333333333333,4,1,1,100,0,1
519010,-83.3333333333333,4,1,1,100,0,1
519337,-83.3333333333333,4,1,1,100,0,1
519664,324.324324324324,4,1,1,100,1,1
519664,-66.6666666666667,4,1,5,100,0,1
519745,-66.6666666666667,4,1,1,100,0,1
520799,-66.6666666666667,4,1,3,100,0,1
520961,-66.6666666666667,4,1,1,100,0,1
521285,-66.6666666666667,4,1,2,100,0,1
521447,-66.6666666666667,4,1,3,100,0,1
521609,-66.6666666666667,4,1,5,100,0,1
521772,-66.6666666666667,4,1,2,100,0,1
521934,-66.6666666666667,4,1,3,100,0,1
522096,-66.6666666666667,4,1,4,100,0,1
522258,327.868852459016,4,1,1,100,1,1
522258,-83.3333333333333,4,1,1,100,0,1
523569,326.086956521739,4,1,1,100,1,1
524221,-83.3333333333333,4,1,1,100,0,1
525525,-83.3333333333333,4,1,5,100,0,1
526177,325.20325203252,4,1,1,100,1,1
526177,-83.3333333333333,4,1,1,100,0,1
527477,326.708412741628,4,1,5,100,1,1
527477,-83.3333333333333,4,1,5,100,0,1
527558,-83.3333333333333,4,1,1,100,0,1
529927,-83.3333333333333,4,1,3,100,0,1
530090,326.086956521739,4,1,1,100,1,1
530090,-83.3333333333333,4,1,1,100,0,1
531394,323.974082073434,4,1,4,100,1,1
531394,-100,4,1,4,100,0,1
531717,-66.6666666666667,4,1,7,100,0,1
531798,-83.3333333333333,4,1,1,100,0,1
531960,-83.3333333333333,4,1,1,5,0,1
532041,-83.3333333333333,4,1,1,100,0,1
532689,328.407224958949,4,1,1,100,1,1
534002,327.242977911099,4,1,5,100,1,1
534002,-83.3333333333333,4,1,5,100,0,1
534083,-83.3333333333333,4,1,1,100,0,1
534983,-83.3333333333333,4,1,5,100,0,1
535147,-100,4,1,2,100,0,1
535270,-100,4,1,1,100,0,0
535310,-66.6666666666667,4,1,1,100,0,1
535638,-66.6666666666667,4,1,4,100,0,1
535720,-66.6666666666667,4,1,1,100,0,1
536129,-66.6666666666667,4,1,2,100,0,1
536292,-66.6666666666667,4,1,6,100,0,1
536456,-66.6666666666667,4,1,4,100,0,1
536619,324.324324324324,4,1,4,100,1,1
536781,-66.6666666666667,4,1,1,100,0,1
537105,-66.6666666666667,4,1,6,100,0,1
537591,-83.3333333333333,4,1,3,100,0,1
537754,-66.6666666666667,4,1,4,100,0,1
537875,-66.6666666666667,4,1,1,100,0,0
537916,326.086956521739,4,1,5,100,1,1
537916,-66.6666666666667,4,1,5,100,0,1
538242,-66.6666666666667,4,1,2,100,0,1
538568,-66.6666666666667,4,1,1,100,0,1
538812,-66.6666666666667,4,1,3,100,0,1
538894,-66.6666666666667,4,1,1,100,0,1
539057,-66.6666666666667,4,1,4,100,0,1
539220,-83.3333333333333,4,1,5,100,0,1
539464,-83.3333333333333,4,1,2,100,0,1
539709,-83.3333333333333,4,1,1,100,0,1
539872,-83.3333333333333,4,1,4,100,0,1
540035,-83.3333333333333,4,1,2,100,0,1
540361,-83.3333333333333,4,1,3,100,0,1
540524,323.450134770889,4,1,1,85,1,0
540524,-100,4,1,1,85,0,0
543111,326.086956521739,4,1,1,85,1,0
544415,327.868852459016,4,1,1,85,1,0
545726,326.975476839237,4,1,5,85,1,0
545726,-100,4,1,5,85,0,0
545807,-100,4,1,1,85,0,0
548341,326.086956521739,4,1,5,85,1,0
548341,-100,4,1,5,85,0,0
548422,-100,4,1,1,85,0,0
550297,328.407224958949,4,1,1,85,1,0
550789,-100,4,1,3,85,0,0
550953,327.689787001638,4,1,1,85,1,0
550953,-100,4,1,1,85,0,0
553574,322.58064516129,4,1,1,85,1,0
554207,-100,4,1,5,85,0,0
554864,325.644504748982,4,1,1,85,1,0
554864,-100,4,1,1,85,0,0
557469,327.868852459016,4,1,1,85,1,0
558616,-100,4,1,2,85,0,0
558780,326.086956521739,4,1,5,85,1,0
558780,-100,4,1,5,85,0,0
558861,-100,4,1,1,85,0,0
559758,319.148936170213,4,1,5,85,1,0
559758,-100,4,1,5,85,0,0
559837,-100,4,1,1,85,0,0
560077,324.324324324324,4,1,1,85,1,0
560239,-83.3333333333333,4,1,3,85,0,0
560401,-83.3333333333333,4,1,1,85,0,0
560563,-83.3333333333333,4,1,3,85,0,0
560725,327.868852459016,4,1,1,85,1,0
560725,-83.3333333333333,4,1,1,85,0,0
561052,-66.6666666666667,4,1,2,85,0,0
561380,327.868852459016,4,2,41,100,1,1
561380,-83.3333333333333,4,2,41,100,0,1
561462,-83.3333333333333,4,1,1,100,0,1
562691,333.333333333333,4,1,5,100,1,1
562691,-83.3333333333333,4,1,5,100,0,1
563357,321.71581769437,4,1,5,100,1,1
564000,326.975476839237,4,1,5,100,1,1
565634,326.086956521739,4,1,5,100,1,1
565634,-83.3333333333333,4,1,5,100,0,1
566449,-83.3333333333333,4,1,3,100,0,1
566612,324.324324324324,4,2,41,100,1,1
566612,-66.6666666666667,4,2,41,100,0,1
566693,-66.6666666666667,4,1,1,100,0,1
567909,326.619488296135,4,1,1,100,1,1
569215,325.732899022801,4,1,5,100,1,1
569215,-83.3333333333333,4,1,5,100,0,1
571495,-83.3333333333333,4,1,2,100,0,1
571657,-83.3333333333333,4,1,3,100,0,1
571820,326.797385620915,4,2,41,100,1,1
571820,-66.6666666666667,4,2,41,100,0,1
571901,-66.6666666666667,4,1,1,100,0,1
573127,-83.3333333333333,4,1,1,100,0,1
574434,329.218106995885,4,1,1,100,1,1
574434,-83.3333333333333,4,1,1,100,0,1
575092,-83.3333333333333,4,1,5,100,0,1
575750,325.46786004882,4,1,1,100,1,1
575750,-66.6666666666667,4,1,1,100,0,1
576889,-66.6666666666667,4,1,3,100,0,1
577051,-83.3333333333333,4,2,41,100,0,1
577133,-83.3333333333333,4,1,1,100,0,1
578353,326.086956521739,4,1,5,100,1,1
578353,-83.3333333333333,4,1,5,100,0,1
579657,327.868852459016,4,2,41,100,1,1
579657,-83.3333333333333,4,2,41,100,0,1
579738,-83.3333333333333,4,1,1,100,0,1
580968,-83.3333333333333,4,1,5,100,0,1
581050,-83.3333333333333,4,1,1,100,0,1
581624,320.855614973262,4,1,1,100,1,1
582265,329.67032967033,4,1,1,100,1,1
582429,-83.3333333333333,4,1,2,100,0,1
582594,-83.3333333333333,4,1,3,100,0,1
583254,-83.3333333333333,4,1,4,100,0,1
583583,312.5,4,1,5,100,1,1
583583,-83.3333333333333,4,1,5,100,0,1
583739,-83.3333333333333,4,1,1,100,0,1
584208,320.855614973262,4,1,1,100,1,1
584314,-83.3333333333333,4,1,2,100,0,1
584528,338.983050847458,4,1,5,100,1,1
584528,-83.3333333333333,4,1,5,100,0,1
584640,-83.3333333333333,4,1,3,100,0,1
584866,326.086956521739,4,1,1,85,1,0
584866,-125,4,1,1,85,0,0
585844,340.909090909091,4,1,1,85,1,0
585844,-66.6666666666667,4,1,1,85,0,0
586184,-66.6666666666667,4,1,5,85,0,0
586355,-125,4,1,1,85,0,0
586696,310.880829015544,4,1,1,85,1,0
587162,326.086956521739,4,1,1,85,1,0
587162,-66.6666666666667,4,1,1,85,0,0
587488,319.148936170213,4,1,1,85,1,0
587488,-125,4,1,1,85,0,0
587966,340.909090909091,4,1,1,85,1,0
587966,-125,4,1,1,85,0,0
588477,310.880829015544,4,1,1,85,1,0
588787,342.857142857143,4,1,7,85,1,0
588787,-125,4,1,7,85,0,0
588958,-125,4,1,1,85,0,0
589301,324.324324324324,4,1,1,85,1,0
589787,-66.6666666666667,4,1,1,85,0,0
590111,318.302387267905,4,1,1,85,1,0
590111,-125,4,1,1,85,0,0
591384,329.67032967033,4,1,5,85,1,0
591384,-125,4,1,5,85,0,0
591548,-125,4,1,1,85,0,0
592373,-66.6666666666667,4,1,1,85,0,0
592702,309.278350515464,4,1,1,85,1,0
592702,-125,4,1,1,85,0,0
593165,359.281437125748,4,1,1,85,1,0
593165,-125,4,1,1,85,0,0
593703,301.507537688442,4,1,1,85,1,0
594004,327.868852459016,4,1,5,85,1,0
594004,-125,4,1,5,85,0,0
594167,-125,4,1,1,85,0,0
594823,-125,4,1,2,85,0,0
594987,-125,4,1,3,85,0,0
595151,-125,4,1,4,85,0,0
595315,321.371183717193,4,1,1,85,1,0
595315,-125,4,1,1,85,0,0
596279,-66.6666666666667,4,1,1,85,0,0
596600,329.67032967033,4,1,5,85,1,0
596600,-125,4,1,5,85,0,0
596764,-125,4,1,1,85,0,0
597918,325.20325203252,4,1,1,85,1,0
597918,-125,4,1,1,85,0,0
598893,-66.6666666666667,4,1,1,85,0,0
599056,-125,4,1,3,85,0,0
599137,-125,4,1,3,5,0,0
599218,327.868852459016,4,1,7,85,1,0
599218,-125,4,1,7,85,0,0
599381,-125,4,1,1,85,0,0
600529,324.324324324324,4,1,1,85,1,0
600529,-125,4,1,1,85,0,0
601501,-66.6666666666667,4,1,1,85,0,0
601826,326.797385620915,4,1,5,85,1,0
601826,-125,4,1,5,85,0,0
601989,-125,4,1,1,85,0,0
603133,329.67032967033,4,1,1,85,1,0
603133,-125,4,1,1,85,0,0
604122,310.880829015544,4,1,1,85,1,0
604432,331.491712707182,4,1,1,85,1,0
604763,-125,4,1,6,85,0,0
605094,323.450134770889,4,1,6,85,1,0
605255,-125,4,1,2,85,0,0
605417,-125,4,1,3,85,0,0
605579,-125,4,1,4,85,0,0
605740,337.078651685393,4,1,1,85,1,0
605740,-111.111111111111,4,1,1,85,0,0
606414,321.71581769437,4,1,1,85,1,0
607057,324.324324324324,4,1,1,85,1,0
607057,-111.111111111111,4,1,1,85,0,0
608029,342.857142857143,4,1,1,85,1,0
608371,322.58064516129,4,1,1,85,1,0
608371,-111.111111111111,4,1,1,85,0,0
610306,337.078651685393,4,1,1,85,1,0
610306,-111.111111111111,4,1,1,85,0,0
610980,320.855614973262,4,1,5,85,1,0
610980,-111.111111111111,4,1,5,85,0,0
611060,-111.111111111111,4,1,1,85,0,0
611621,326.086956521739,4,1,1,85,1,0
612273,318.302387267905,4,1,1,85,1,0
613227,348.837209302326,4,1,1,85,1,0
613575,327.868852459016,4,1,1,85,1,0
614886,312.5,4,1,1,85,1,0
614886,-83.3333333333333,4,1,1,85,0,0
615511,329.218106995885,4,1,1,85,1,0
615675,-111.111111111111,4,1,3,85,0,0
615840,-111.111111111111,4,1,4,85,0,0
616169,328.767123287671,4,1,1,85,1,0
616169,-125,4,1,1,85,0,0
618799,325.732899022801,4,1,5,85,1,0
618799,-125,4,1,5,85,0,0
618880,-125,4,1,1,85,0,0
620101,322.58064516129,4,1,1,85,1,0
620101,-125,4,1,1,85,0,0
621068,-125,4,1,3,85,0,0
621380,333.333333333333,4,1,1,85,1,0
621391,332.409972299169,4,1,1,85,1,0
621391,-125,4,1,1,85,0,0
622713,326.086956521739,4,1,1,85,1,0
622720,320,4,1,1,85,1,0
622720,-125,4,1,1,85,0,0
623680,-125,4,1,4,85,0,0
623720,-125,4,1,4,5,0,0
623840,-125,4,1,4,85,0,0
623880,-125,4,1,4,5,0,0
624000,333.333333333333,4,1,1,85,1,0
624000,-125,4,1,1,85,0,0
625333,320.855614973262,4,1,1,85,1,0
625333,-125,4,1,1,85,0,0
625974,329.67032967033,4,1,1,85,1,0
625974,-125,4,1,1,85,0,0
626633,329.67032967033,4,1,5,85,1,0
626633,-125,4,1,5,85,0,0
626962,-125,4,1,1,85,0,0
627622,322.58064516129,4,1,1,85,1,0
627622,-125,4,1,1,85,0,0
627944,341.880341880342,4,1,1,75,1,0
627944,-125,4,1,1,75,0,0
628285,363.636363636364,4,1,1,75,1,0
628285,-125,4,1,1,75,0,0
628648,359.281437125748,4,1,1,75,1,0
628648,-125,4,1,1,75,0,0
629004,375,4,1,1,75,1,0
629007,394.736842105263,4,1,1,75,1,0
629007,-125,4,1,1,75,0,0
629401,375,4,1,1,75,1,0
629401,-125,4,1,1,75,0,0
629776,361.44578313253,4,1,1,75,1,0
630137,375,4,1,1,75,1,0
630137,-125,4,1,1,75,0,0
630887,396.039603960396,4,1,5,75,1,0
630887,-142.857142857143,4,1,5,75,0,0
631283,377.358490566038,4,1,1,75,1,0
631283,-142.857142857143,4,1,1,75,0,0
631660,437.956204379562,4,1,1,75,1,0
631660,-142.857142857143,4,1,1,75,0,0
631878,483.870967741935,4,1,1,75,1,0
632119,461.538461538462,4,1,1,75,1,0
632349,535.714285714286,4,1,3,75,1,0
632349,-250,4,1,3,75,0,0
632616,652.173913043478,4,1,1,75,1,0
632616,-186.915887850467,4,1,1,75,0,0
636509,-200,4,1,1,60,0,0
638811,-200,4,1,1,50,0,0
639789,-200,4,1,1,45,0,0
640442,-200,4,1,1,35,0,0
641420,-200,4,1,1,27,0,0
642724,-200,4,1,1,21,0,0
644355,-200,4,1,1,17,0,0
646311,-200,4,1,1,12,0,0
647616,-200,4,1,1,8,0,0
649246,-200,4,2,98,5,0,0
649409,-200,4,1,1,5,0,0
651579,923.076923076923,4,2,28,40,1,0
651579,-142.857142857143,4,2,28,40,0,0
651636,-142.857142857143,4,2,17,40,0,0
651694,-142.857142857143,4,2,19,40,0,0
652040,857.142857142857,4,2,28,40,1,0
652040,-142.857142857143,4,2,28,40,0,0
652468,769.230769230769,4,2,17,40,1,0
652468,-142.857142857143,4,2,17,40,0,0
652852,-142.857142857143,4,2,19,40,0,0
653237,789.473684210526,4,2,20,40,1,0
653237,-142.857142857143,4,2,20,40,0,0
653631,-142.857142857143,4,2,28,40,0,0
654026,-142.857142857143,4,2,29,40,0,0
654421,-142.857142857143,4,2,20,40,0,0
654815,789.473684210526,4,2,17,40,1,0
654815,-142.857142857143,3,2,17,40,0,0
655209,-142.857142857143,3,2,18,40,0,0
655604,-142.857142857143,3,2,26,40,0,0
655999,-142.857142857143,3,2,17,40,0,0
656347,810.810810810811,3,2,11,40,1,0
656347,-142.857142857143,3,2,11,40,0,0
656752,-142.857142857143,3,2,18,40,0,0
657157,-142.857142857143,3,2,19,40,0,0
657563,-142.857142857143,3,2,11,40,0,0
657968,-142.857142857143,3,2,26,40,0,0
658374,-142.857142857143,3,2,16,40,0,0
658779,779.220779220779,4,2,24,40,1,0
658779,-142.857142857143,4,2,24,40,0,0
659168,-142.857142857143,4,2,26,40,0,0
659558,-142.857142857143,4,2,28,40,0,0
659947,-142.857142857143,4,2,16,40,0,0
660337,-142.857142857143,4,2,17,40,0,0
660727,-142.857142857143,4,2,11,40,0,0
661116,-142.857142857143,4,2,17,40,0,0
661506,-142.857142857143,4,2,26,40,0,0
661936,779.220779220779,4,2,19,40,1,0
661936,-142.857142857143,4,2,19,40,0,0
662325,-142.857142857143,4,2,26,40,0,0
662715,-142.857142857143,4,2,20,40,0,0
663104,-142.857142857143,4,2,11,40,0,0
663494,-142.857142857143,4,2,17,40,0,0
663689,-142.857142857143,4,2,20,40,0,0
663884,-142.857142857143,4,2,19,40,0,0
664078,-142.857142857143,4,2,25,40,0,0
664273,789.473684210526,4,2,19,40,1,0
664273,-142.857142857143,4,2,19,40,0,0
664667,-142.857142857143,4,2,28,40,0,0
665062,-142.857142857143,4,2,17,40,0,0
665456,-142.857142857143,4,2,19,40,0,0
665851,-142.857142857143,4,2,20,40,0,0
666245,-142.857142857143,4,2,28,40,0,0
666641,-142.857142857143,4,2,29,40,0,0
667034,-142.857142857143,4,2,20,40,0,0
667430,-142.857142857143,4,2,17,40,0,0
667825,-142.857142857143,4,2,18,40,0,0
668219,-142.857142857143,4,2,26,40,0,0
668615,-142.857142857143,4,2,17,40,0,0
669009,-142.857142857143,4,2,11,40,0,0
669403,-142.857142857143,4,2,18,40,0,0
669799,-142.857142857143,4,2,19,40,0,0
670192,-142.857142857143,4,2,11,40,0,0
670588,-142.857142857143,4,2,26,40,0,0
670982,-142.857142857143,4,2,16,40,0,0
671378,-142.857142857143,4,2,24,40,0,0
671771,-142.857142857143,4,2,26,40,0,0
672167,-142.857142857143,4,2,28,40,0,0
672561,-142.857142857143,4,2,16,40,0,0
672957,-142.857142857143,4,2,17,40,0,0
673351,-142.857142857143,4,2,11,40,0,0
673746,-142.857142857143,4,2,17,40,0,0
674141,-142.857142857143,4,2,26,40,0,0
674536,-142.857142857143,4,2,19,40,0,0
674929,-142.857142857143,4,2,26,40,0,0
675325,-142.857142857143,4,2,20,40,0,0
675719,-142.857142857143,4,2,11,40,0,0
676114,-142.857142857143,4,2,12,40,0,0
676509,-142.857142857143,4,2,11,50,0,0
676904,-142.857142857143,4,2,23,50,0,0
677298,-142.857142857143,4,2,22,50,0,0
677693,-142.857142857143,4,2,19,50,0,0
678088,-142.857142857143,4,2,23,50,0,0
678483,-142.857142857143,4,2,25,50,0,0
678878,-142.857142857143,4,2,11,50,0,0
679273,-142.857142857143,4,2,12,50,0,0
679666,-142.857142857143,4,2,25,50,0,0
680062,-142.857142857143,4,2,19,50,0,0
680456,-142.857142857143,4,2,22,50,0,0
680851,-142.857142857143,4,2,13,50,0,0
681245,-142.857142857143,4,2,19,50,0,0
681641,-142.857142857143,4,2,15,50,0,0
682036,-142.857142857143,4,2,22,50,0,0
682430,-142.857142857143,4,2,23,50,0,0
682825,-142.857142857143,4,2,15,50,0,0
683220,-142.857142857143,4,2,13,50,0,0
683615,-142.857142857143,4,2,18,50,0,0
684009,-142.857142857143,4,2,26,50,0,0
684404,-142.857142857143,4,2,13,50,0,0
684799,-142.857142857143,4,2,11,50,0,0
685194,-142.857142857143,4,2,18,50,0,0
685588,-142.857142857143,4,2,19,50,0,0
685982,-142.857142857143,4,2,15,50,0,0
686378,-142.857142857143,4,2,19,50,0,0
686773,-142.857142857143,4,2,13,50,0,0
687167,-142.857142857143,4,2,23,50,0,0
687561,-142.857142857143,4,2,13,50,0,0
687957,-142.857142857143,4,2,25,50,0,0
688351,-142.857142857143,4,2,15,50,0,0
688746,-142.857142857143,4,2,19,50,0,0
688944,-142.857142857143,4,2,25,50,0,0
689141,-142.857142857143,4,2,23,50,0,0
689338,-142.857142857143,4,2,27,50,0,0
689536,-142.857142857143,4,2,23,50,0,0
689930,-142.857142857143,4,2,11,50,0,0
690325,-142.857142857143,4,2,19,50,0,0
690720,-142.857142857143,4,2,23,50,0,0
691115,-142.857142857143,4,2,25,50,0,0
691509,-142.857142857143,4,2,11,50,0,0
691904,-142.857142857143,4,2,12,50,0,0
692298,-142.857142857143,4,2,25,50,0,0
692694,-142.857142857143,4,2,19,50,0,0
693088,-142.857142857143,4,2,22,50,0,0
693483,-142.857142857143,4,2,13,50,0,0
693877,-142.857142857143,4,2,19,50,0,0
694273,-142.857142857143,4,2,15,50,0,0
694667,-142.857142857143,4,2,22,50,0,0
695062,-142.857142857143,4,2,23,50,0,0
695456,-142.857142857143,4,2,15,50,0,0
695851,-142.857142857143,4,2,13,50,0,0
696245,-142.857142857143,4,2,18,50,0,0
696640,-142.857142857143,4,2,26,50,0,0
697036,-142.857142857143,4,2,13,50,0,0
697430,-142.857142857143,4,2,11,50,0,0
697825,-142.857142857143,4,2,18,50,0,0
698219,-142.857142857143,4,2,19,50,0,0
698613,-142.857142857143,4,2,15,50,0,0
699025,833.333333333333,4,2,19,50,1,0
699025,-142.857142857143,4,2,19,50,0,0
699441,-142.857142857143,4,2,13,50,0,0
699858,-142.857142857143,4,2,23,50,0,0
700275,-142.857142857143,4,2,13,50,0,0
700691,-142.857142857143,4,2,14,50,0,0
701108,-142.857142857143,4,2,19,50,0,0
701525,-142.857142857143,4,2,13,50,0,0
701941,-142.857142857143,4,2,23,50,0,0
702358,882.352941176471,4,2,12,50,1,0
702358,-142.857142857143,4,2,12,50,0,0
702799,-142.857142857143,4,2,25,50,0,0
703240,-142.857142857143,4,2,19,50,0,0
703681,-142.857142857143,4,2,25,50,0,0
704122,-142.857142857143,4,2,12,50,0,0
704563,-142.857142857143,4,2,25,50,0,0
705027,845.070422535211,4,2,19,50,1,0
705027,-142.857142857143,4,2,19,50,0,0
705449,-142.857142857143,4,2,25,50,0,0
705887,1006.71140939597,4,2,12,50,1,0
705887,-142.857142857143,4,2,12,50,0,0
706390,-142.857142857143,4,2,25,50,0,0
706893,-142.857142857143,4,2,19,50,0,0
707397,-142.857142857143,4,2,25,50,0,0
707900,-142.857142857143,4,2,19,50,0,0
708403,-142.857142857143,4,2,25,50,0,0
708907,944.88188976378,4,2,12,50,1,0
708907,-142.857142857143,4,2,12,50,0,0
709379,-142.857142857143,4,2,25,50,0,0
709851,1090.90909090909,4,2,25,50,1,0
709851,-142.857142857143,4,2,25,50,0,0
709987,-142.857142857143,4,2,12,50,0,0
710122,-142.857142857143,4,2,21,50,0,0
710260,-142.857142857143,4,2,31,50,0,0
710396,-142.857142857143,4,2,30,50,0,0
710532,-500,4,2,99,50,0,0
718578,-500,4,1,1,5,0,0

[Colours]
Combo1 : 226,22,84
Combo2 : 128,128,128
Combo3 : 201,203,118
Combo4 : 233,51,31

[HitObjects]
403,172,90839,5,2,0:0:0:0:
49,278,91171,1,2,0:0:0:0:
393,295,91504,1,2,0:0:0:0:
233,88,91837,6,8,B|232:37|150:-14|48:40|68:150|156:196|277:187|345:119|345:119|317:147|324:184,1,525.2,4|0,0:0|0:0,0:0:0:0:
403,172,94119,1,10,0:0:0:0:
142,234,94282,1,8,0:0:0:0:
357,339,94445,6,0,L|364:251,2,80.8,4|0|0,0:0|0:0|0:0,0:0:0:0:
181,206,95423,2,0,P|216:229|290:209,1,121.19999630127,2|2,0:3|0:0,0:0:0:0:
309,120,95914,5,8,0:0:0:0:
264,56,95997,1,8,0:0:0:0:
191,43,96079,1,10,0:0:0:0:
133,80,96162,1,8,0:0:0:0:
112,140,96244,1,8,0:0:0:0:
130,196,96326,1,8,0:0:0:0:
172,231,96409,1,10,0:0:0:0:
183,278,96491,1,8,0:0:0:0:
170,319,96574,1,8,0:0:0:0:
142,343,96656,1,8,0:0:0:0:
112,354,96739,1,10,0:0:0:0:
86,352,96817,1,8,0:0:0:0:
66,347,96896,1,8,0:0:0:0:
53,339,96975,1,8,0:0:0:0:
45,333,97054,6,0,L|244:313,1,181.799994451904,6|0,0:0|0:0,0:0:0:0:
313,364,97709,2,0,L|438:351,1,121.19999630127,2|10,0:3|0:0,0:0:0:0:
235,315,98201,1,2,0:0:0:0:
460,233,98365,6,0,B|411:276|411:276|289:250,1,181.799994451904,4|2,0:0|0:3,0:0:0:0:
388,172,99017,1,2,0:3:0:0:
391,181,99343,1,10,0:0:0:0:
157,266,99506,1,2,0:0:0:0:
313,124,99669,5,10,0:0:0:0:
245,267,99825,1,8,0:0:0:0:
245,267,99903,1,8,0:0:0:0:
245,267,99981,2,0,L|249:314,1,30.2999990753174,10|0,0:0|0:0,0:0:0:0:
391,181,100137,1,8,0:0:0:0:
235,67,100294,1,2,0:0:0:0:
235,67,100377,1,0,0:0:0:0:
235,67,100460,2,0,L|192:75,1,30.2999990753174,8|0,0:0|0:0,0:0:0:0:
117,150,100627,2,0,L|131:108,1,30.2999990753174,8|0,0:0|0:0,0:0:0:0:
104,6,100794,2,0,L|132:39,1,30.2999990753174,2|0,0:0|0:0,0:0:0:0:
312,196,100960,5,10,0:0:0:0:
321,196,101041,2,0,L|372:193,1,50.5,8|0,0:0|0:0,0:0:0:0:
388,71,101203,1,10,0:0:0:0:
397,71,101284,2,0,L|448:74,1,50.5,8|0,0:0|0:0,0:0:0:0:
404,276,101447,5,10,0:0:0:0:
333,302,101528,1,8,0:0:0:0:
266,284,101609,1,10,0:0:0:0:
228,235,101690,1,8,0:0:0:0:
225,179,101771,1,8,0:0:0:0:
248,136,101853,1,8,0:0:0:0:
283,110,101934,1,10,0:0:0:0:
300,77,102015,1,8,0:0:0:0:
301,45,102096,1,8,0:0:0:0:
293,22,102177,1,8,0:0:0:0:
283,6,102259,5,10,0:0:0:0:
270,7,102340,1,8,0:0:0:0:
257,7,102422,1,8,0:0:0:0:
244,8,102503,1,8,0:0:0:0:
231,9,102585,2,0,L|174:16,3,50.5,6|0|2|0,1:1|0:0|0:3|0:0,0:0:0:0:
65,96,102911,5,8,0:0:0:0:
43,126,102992,1,0,0:0:0:0:
42,163,103074,1,2,0:3:0:0:
61,195,103155,1,0,0:0:0:0:
94,212,103237,1,10,0:0:0:0:
126,229,103318,1,0,0:0:0:0:
145,261,103400,1,10,0:3:0:0:
144,297,103481,1,8,0:0:0:0:
123,329,103563,6,0,P|96:330|70:317,3,50.5,6|0|2|0,0:0|0:0|0:3|0:0,0:0:0:0:
223,232,103889,1,8,0:0:0:0:
248,204,103970,1,0,0:0:0:0:
282,189,104052,1,2,0:3:0:0:
320,189,104134,1,0,0:0:0:0:
354,205,104215,6,0,P|392:212|420:200,3,60.5999981506348,6|0|2|0,1:1|0:0|0:3|0:0,0:0:0:0:
512,295,104541,2,0,P|499:257|475:239,3,60.5999981506348,8|0|2|0,0:0|0:0|0:3|0:0,0:0:0:0:
512,127,104867,5,6,0:0:0:0:
481,75,104949,1,0,0:0:0:0:
428,46,105030,1,2,0:3:0:0:
368,47,105112,1,0,0:0:0:0:
317,78,105193,2,0,P|295:92|242:84,3,60.5999981506348,8|0|2|0,0:0|0:0|0:3|0:0,0:0:0:0:
84,210,105519,5,6,0:1:0:0:
118,226,105601,1,0,0:0:0:0:
155,228,105682,1,2,0:3:0:0:
191,215,105764,1,0,0:0:0:0:
219,190,105845,2,0,P|257:173|295:171,3,50.5,8|0|2|0,0:0|0:0|0:3|0:0,0:0:0:0:
423,215,106172,5,6,0:0:0:0:
450,252,106253,1,0,0:0:0:0:
450,299,106335,1,2,0:3:0:0:
423,338,106416,1,0,0:0:0:0:
377,350,106498,1,8,0:0:0:0:
333,334,106579,1,0,0:0:0:0:
307,295,106661,1,2,0:3:0:0:
309,249,106742,1,0,0:0:0:0:
340,215,106824,1,2,0:0:0:0:
370,180,106905,1,0,0:0:0:0:
372,134,106987,1,2,0:3:0:0:
347,95,107068,1,0,0:0:0:0:
303,79,107150,5,8,0:0:0:0:
252,93,107231,1,8,0:0:0:0:
221,136,107313,1,8,0:0:0:0:
221,188,107394,1,8,0:0:0:0:
252,230,107476,5,6,0:1:0:0:
278,173,107557,1,0,0:0:0:0:
247,119,107639,1,2,0:3:0:0:
185,111,107720,1,0,0:0:0:0:
144,158,107802,5,8,0:0:0:0:
195,167,107884,1,0,0:0:0:0:
237,138,107965,1,2,0:3:0:0:
248,87,108047,1,0,0:0:0:0:
219,44,108128,5,2,0:0:0:0:
195,79,108210,1,0,0:0:0:0:
197,121,108291,1,2,0:3:0:0:
223,154,108373,1,0,0:0:0:0:
263,166,108454,5,8,0:0:0:0:
254,137,108536,1,0,0:0:0:0:
229,117,108617,1,2,0:3:0:0:
200,107,108699,1,0,0:0:0:0:
168,113,108780,5,6,0:0:0:0:
209,145,108862,1,0,0:0:0:0:
255,147,108943,1,2,0:3:0:0:
291,128,109025,1,0,0:0:0:0:
313,99,109106,1,8,0:0:0:0:
340,85,109188,1,0,0:0:0:0:
366,84,109269,1,2,0:3:0:0:
385,91,109351,1,0,0:0:0:0:
398,99,109432,5,6,0:1:0:0:
357,131,109514,1,8,0:0:0:0:
311,133,109595,1,10,0:3:0:0:
275,114,109677,1,0,0:0:0:0:
253,85,109759,1,8,0:0:0:0:
226,71,109840,1,8,0:0:0:0:
200,70,109922,1,10,0:3:0:0:
181,77,110003,1,8,0:0:0:0:
168,85,110085,6,0,L|174:140,1,30.2999990753174,6|2,0:0|0:0,0:0:0:0:
191,238,110248,1,8,0:0:0:0:
190,232,110329,1,8,0:0:0:0:
189,226,110411,2,0,L|183:170,3,30.2999990753174,10|8|8|8,0:0|0:0|0:0|0:0,0:0:0:0:
88,55,110737,6,0,L|94:110,1,30.2999990753174,6|2,0:1|0:0,0:0:0:0:
111,208,110900,1,8,0:0:0:0:
110,202,110981,1,8,0:0:0:0:
109,196,111063,2,0,L|103:140,3,30.2999990753174,10|8|8|8,0:0|0:0|0:0|0:0,0:0:0:0:
8,25,111389,6,0,L|14:80,1,50.5,4|2,0:0|0:0,0:0:0:0:
176,64,111552,2,0,L|170:119,1,50.5,8|8,0:0|0:0,0:0:0:0:
31,210,111715,1,10,0:0:0:0:
30,204,111797,1,8,0:0:0:0:
29,198,111878,2,0,L|23:143,1,50.5,2|2,0:0|0:0,0:0:0:0:
120,300,112041,5,6,0:1:0:0:
150,322,112123,1,2,0:0:0:0:
187,326,112204,1,8,0:0:0:0:
221,311,112286,1,8,0:0:0:0:
243,281,112367,1,10,0:0:0:0:
265,251,112449,1,8,0:0:0:0:
299,236,112530,1,8,0:0:0:0:
336,240,112612,1,8,0:0:0:0:
367,263,112693,6,0,L|363:200,2,50.5,6|0|10,0:0|0:0|0:3,0:0:0:0:
459,296,112938,2,0,L|455:346,2,50.5,0|2|0,0:0|0:0|0:0,0:0:0:0:
512,212,113182,2,0,L|508:161,1,50.5,10|0,0:3|0:0,0:0:0:0:
388,112,113345,5,2,0:0:0:0:
361,83,113427,1,0,0:0:0:0:
327,69,113509,1,10,0:3:0:0:
290,69,113590,1,0,0:0:0:0:
256,86,113672,1,2,0:0:0:0:
232,114,113753,1,0,0:0:0:0:
222,151,113835,1,10,0:3:0:0:
229,187,113916,1,0,0:0:0:0:
250,219,113998,5,2,0:0:0:0:
220,241,114079,1,0,0:0:0:0:
183,245,114161,1,10,0:3:0:0:
149,230,114242,1,0,0:0:0:0:
127,200,114324,1,2,0:0:0:0:
105,170,114405,1,0,0:0:0:0:
71,155,114487,1,10,0:3:0:0:
34,159,114568,1,0,0:0:0:0:
3,182,114650,6,0,L|-6:100,1,50.5,2|0,0:0|0:0,0:0:0:0:
55,32,114813,2,0,L|61:82,1,50.5,10|0,0:3|0:0,0:0:0:0:
127,200,114976,2,0,L|133:150,1,50.5,10|8,0:0|0:0,0:0:0:0:
181,43,115139,2,0,L|187:93,1,50.5,8|8,0:0|0:0,0:0:0:0:
260,247,115302,5,6,0:1:0:0:
288,270,115384,1,0,0:0:0:0:
325,278,115465,1,10,0:3:0:0:
361,268,115547,1,0,0:0:0:0:
388,242,115628,1,2,0:0:0:0:
400,206,115710,1,0,0:0:0:0:
394,169,115791,1,10,0:3:0:0:
371,139,115873,1,0,0:0:0:0:
336,123,115954,6,0,P|305:130|288:145,1,50.5,2|0,0:0|0:0,0:0:0:0:
219,109,116117,2,0,P|209:139|214:161,1,50.5,10|0,0:3|0:0,0:0:0:0:
136,281,116280,2,0,P|167:274|184:259,1,50.5,2|0,0:0|0:0,0:0:0:0:
253,295,116443,2,0,P|262:264|257:242,1,50.5,10|0,0:3|0:0,0:0:0:0:
127,200,116606,5,14,0:0:0:0:
103,197,116688,1,8,0:0:0:0:
79,196,116769,1,8,0:0:0:0:
55,195,116851,1,8,0:0:0:0:
33,170,116932,5,10,0:0:0:0:
67,164,117014,1,8,0:0:0:0:
104,163,117095,1,8,0:0:0:0:
140,162,117177,1,8,0:0:0:0:
178,187,117259,5,14,0:1:0:0:
224,178,117340,1,8,0:0:0:0:
274,177,117422,1,10,0:0:0:0:
322,176,117503,1,8,0:0:0:0:
372,192,117585,5,10,0:0:0:0:
406,151,117666,1,8,0:0:0:0:
406,98,117748,1,10,0:0:0:0:
372,59,117829,1,8,0:0:0:0:
319,53,117911,6,0,L|257:62,2,50.5,6|0|10,0:0|0:0|0:3,0:0:0:0:
193,172,118154,2,0,L|216:113,2,50.5,0|2|0,0:0|0:0|0:0,0:0:0:0:
153,5,118397,2,0,L|191:54,1,50.5,10|0,0:3|0:0,0:0:0:0:
344,196,118559,5,2,0:0:0:0:
349,233,118640,1,0,0:0:0:0:
334,268,118721,1,10,0:3:0:0:
305,290,118802,1,0,0:0:0:0:
267,294,118883,1,2,0:0:0:0:
233,279,118965,1,0,0:0:0:0:
211,249,119046,1,10,0:3:0:0:
208,211,119127,1,0,0:0:0:0:
224,178,119208,5,2,0:0:0:0:
194,200,119289,1,0,0:0:0:0:
156,204,119371,1,10,0:3:0:0:
122,190,119452,1,0,0:0:0:0:
100,159,119534,1,2,0:0:0:0:
95,122,119615,1,0,0:0:0:0:
111,88,119697,1,10,0:3:0:0:
142,67,119778,1,0,0:0:0:0:
178,64,119860,6,0,L|228:70,1,50.5,2|0,0:0|0:0,0:0:0:0:
274,148,120023,2,0,L|223:141,1,50.5,10|0,0:3|0:0,0:0:0:0:
105,210,120186,2,0,L|155:203,1,50.5,10|8,0:0|0:0,0:0:0:0:
219,270,120349,2,0,L|168:276,1,50.5,8|8,0:0|0:0,0:0:0:0:
56,355,120512,5,6,0:1:0:0:
34,325,120594,1,0,0:0:0:0:
30,288,120676,1,10,0:3:0:0:
45,254,120758,1,0,0:0:0:0:
75,232,120840,1,2,0:0:0:0:
105,210,120922,1,0,0:0:0:0:
120,176,121005,1,10,0:3:0:0:
116,139,121087,1,0,0:0:0:0:
93,108,121169,6,0,L|175:99,1,50.5,2|0,0:0|0:0,0:0:0:0:
231,29,121333,2,0,L|180:34,1,50.5,10|0,0:3|0:0,0:0:0:0:
199,164,121498,2,0,L|249:169,1,50.5,2|0,0:0|0:0,0:0:0:0:
337,103,121662,2,0,L|286:97,1,50.5,10|0,0:3|0:0,0:0:0:0:
225,302,121827,5,2,0:0:0:0:
255,294,121908,1,2,0:0:0:0:
285,297,121989,1,8,0:0:0:0:
312,311,122071,1,8,0:0:0:0:
332,333,122152,1,2,0:0:0:0:
356,359,122233,1,2,0:0:0:0:
388,375,122315,1,8,0:0:0:0:
422,378,122396,1,8,0:0:0:0:
455,368,122477,5,8,0:0:0:0:
453,329,122559,1,8,0:0:0:0:
450,290,122640,1,2,0:0:0:0:
447,250,122721,1,0,0:0:0:0:
479,228,122803,5,10,0:0:0:0:
482,182,122884,1,8,0:0:0:0:
486,137,122965,1,10,0:0:0:0:
490,92,123047,1,8,0:0:0:0:
493,46,123128,5,10,0:0:0:0:
453,12,123210,1,8,0:0:0:0:
402,0,123292,1,8,0:0:0:0:
351,14,123375,1,2,0:0:0:0:
312,50,123457,1,10,0:0:0:0:
273,86,123540,1,8,0:0:0:0:
222,100,123622,1,8,0:0:0:0:
171,88,123704,1,2,0:0:0:0:
131,54,123787,5,8,0:0:0:0:
182,16,123869,1,8,0:0:0:0:
247,14,123952,1,8,0:0:0:0:
301,48,124034,1,2,0:0:0:0:
325,107,124117,1,8,0:0:0:0:
312,170,124199,1,8,0:0:0:0:
265,214,124281,1,8,0:0:0:0:
202,222,124364,1,2,0:0:0:0:
144,197,124446,5,14,0:0:0:0:
189,138,124527,1,8,0:0:0:0:
262,119,124608,1,8,0:0:0:0:
331,147,124689,1,10,0:0:0:0:
367,212,124770,1,10,0:0:0:0:
360,286,124851,1,8,0:0:0:0:
307,340,124932,1,8,0:0:0:0:
234,353,125013,1,10,0:0:0:0:
168,320,125094,5,14,0:0:0:0:
165,236,125175,1,8,0:0:0:0:
196,157,125256,1,8,0:0:0:0:
269,111,125337,1,2,0:0:0:0:
354,102,125418,1,10,0:0:0:0:
433,134,125500,1,8,0:0:0:0:
480,206,125581,1,8,0:0:0:0:
489,292,125662,1,10,0:0:0:0:
450,367,125743,6,0,P|418:339|404:288,1,75.7500028896333,6|0,0:0|0:0,0:0:0:0:
309,261,125906,2,0,P|317:219|354:181,1,75.7500028896333,8|0,0:0|0:0,0:0:0:0:
161,378,126069,6,0,P|158:342|180:304,1,60.5999981506348,10|8,0:0|0:0,0:0:0:0:
139,231,126232,2,0,P|168:211|212:210,1,60.5999981506348,10|8,0:0|0:0,0:0:0:0:
337,193,126395,6,0,P|363:187|387:164,1,50.5,6|0,0:1|0:0,0:0:0:0:
257,92,126558,2,0,P|274:112|307:121,1,50.5,8|0,0:0|0:0,0:0:0:0:
484,26,126721,5,10,0:0:0:0:
476,76,126802,1,8,0:0:0:0:
469,116,126884,1,10,0:0:0:0:
465,140,126965,1,8,0:0:0:0:
461,161,127047,6,0,L|447:240,1,50.5,6|0,0:0|0:0,0:0:0:0:
333,372,127210,1,8,0:0:0:0:
333,372,127291,1,0,0:0:0:0:
333,372,127373,5,10,0:0:0:0:
312,368,127454,1,8,0:0:0:0:
288,364,127536,1,10,0:0:0:0:
248,357,127618,1,8,0:0:0:0:
198,349,127699,2,0,L|142:340,1,50.5,6|0,0:1|0:0,0:0:0:0:
10,161,127862,5,8,0:0:0:0:
61,131,127944,1,0,0:0:0:0:
120,144,128025,1,10,0:0:0:0:
153,193,128107,1,0,0:0:0:0:
188,242,128188,1,10,0:0:0:0:
244,254,128270,1,8,0:0:0:0:
298,227,128351,5,6,0:0:0:0:
111,308,128514,1,10,0:3:0:0:
364,366,128677,2,0,L|370:266,1,75.7500028896333,2|10,0:0|0:3,0:0:0:0:
293,151,129003,2,0,L|297:226,1,75.7500028896333,2|10,0:0|0:3,0:0:0:0:
441,200,129329,1,2,0:0:0:0:
436,196,129411,1,0,0:0:0:0:
430,191,129493,2,0,L|432:153,1,37.8750014448166,10|0,0:3|0:0,0:0:0:0:
377,89,129656,5,2,0:0:0:0:
511,177,129819,1,10,0:3:0:0:
368,290,129982,1,2,0:0:0:0:
350,287,130063,1,0,0:0:0:0:
331,285,130145,1,10,0:3:0:0:
152,352,130308,2,0,L|41:364,1,75.7500028896333,2|10,0:0|0:3,0:0:0:0:
230,163,130634,1,2,0:0:0:0:
230,163,130715,1,0,0:0:0:0:
230,163,130797,1,10,0:3:0:0:
75,279,130960,6,0,L|-35:266,1,75.7500028896333,2|10,0:0|0:3,0:0:0:0:
234,341,131286,1,2,0:0:0:0:
252,338,131368,1,0,0:0:0:0:
271,336,131449,1,10,0:3:0:0:
121,195,131612,1,2,0:0:0:0:
253,89,131774,1,10,0:3:0:0:
261,84,131855,2,0,L|266:37,1,37.8750014448166,0|2,0:0|0:0,0:0:0:0:
353,159,132017,1,0,0:0:0:0:
345,154,132098,2,0,L|340:116,1,37.8750014448166,10|0,0:3|0:0,0:0:0:0:
207,224,132260,6,0,L|199:118,1,75.7500028896333,2|10,0:0|0:3,0:0:0:0:
336,274,132586,1,2,0:0:0:0:
337,255,132667,1,0,0:0:0:0:
338,236,132749,1,10,0:3:0:0:
153,288,132912,1,2,0:0:0:0:
283,103,133075,1,10,0:3:0:0:
281,112,133156,2,0,L|274:168,1,37.8750014448166,0|2,0:0|0:0,0:0:0:0:
209,233,133319,1,0,0:0:0:0:
207,224,133401,2,0,L|203:187,1,37.8750014448166,10|0,0:0|0:0,0:0:0:0:
180,31,133564,6,0,L|193:137,1,75.7500028896333,2|10,0:0|0:3,0:0:0:0:
344,199,133890,1,2,0:0:0:0:
341,217,133971,1,0,0:0:0:0:
339,236,134053,1,10,0:3:0:0:
346,44,134216,1,2,0:0:0:0:
202,186,134379,1,10,0:3:0:0:
430,240,134542,1,2,0:0:0:0:
425,235,134624,1,0,0:0:0:0:
419,230,134705,2,0,L|422:192,1,37.8750014448166,10|0,0:3|0:0,0:0:0:0:
383,122,134868,5,2,0:0:0:0:
451,313,135032,1,10,0:3:0:0:
257,259,135197,1,2,0:0:0:0:
239,262,135280,1,0,0:0:0:0:
220,264,135362,1,10,0:3:0:0:
44,134,135527,2,0,L|149:150,1,75.7500028896333,2|10,0:0|0:3,0:0:0:0:
235,53,135857,1,2,0:0:0:0:
253,50,135939,1,0,0:0:0:0:
272,48,136021,1,10,0:3:0:0:
154,67,136186,5,2,0:0:0:0:
353,31,136348,1,10,0:3:0:0:
236,161,136510,1,2,0:0:0:0:
217,159,136591,1,0,0:0:0:0:
199,156,136672,1,10,0:3:0:0:
327,282,136834,2,0,L|307:177,1,75.7500028896333,2|10,0:0|0:3,0:0:0:0:
218,341,137158,1,2,0:0:0:0:
237,339,137240,1,0,0:0:0:0:
255,336,137321,1,10,0:3:0:0:
132,218,137483,6,0,L|146:292,1,75.7500028896333,2|10,0:0|0:3,0:0:0:0:
243,124,137805,1,2,0:0:0:0:
239,143,137885,1,0,0:0:0:0:
236,161,137966,1,10,0:3:0:0:
363,321,138127,5,10,0:0:0:0:
417,329,138207,1,8,0:0:0:0:
463,298,138288,1,8,0:0:0:0:
474,243,138368,1,8,0:0:0:0:
444,196,138449,2,0,B|410:147|410:147|435:39,1,121.19999630127,10|0,0:0|0:0,0:0:0:0:
461,11,138691,1,0,0:0:0:0:
446,20,138771,6,0,B|406:44|406:44|336:34,1,90.8999972259522,6|10,0:0|0:3,0:0:0:0:
235,166,139102,1,2,0:0:0:0:
239,143,139185,1,0,0:0:0:0:
243,120,139268,1,10,0:3:0:0:
160,292,139433,2,0,L|150:187,1,90.8999972259522,2|10,0:0|0:3,0:0:0:0:
74,110,139682,1,0,0:0:0:0:
81,119,139765,2,0,L|72:209,1,90.8999972259522,2|10,0:0|0:3,0:0:0:0:
60,340,140096,5,2,0:0:0:0:
252,250,140258,1,10,0:3:0:0:
167,75,140420,1,2,0:0:0:0:
167,75,140501,1,0,0:0:0:0:
167,75,140582,2,0,L|158:165,1,90.8999972259522,10|2,0:3|0:0,0:0:0:0:
72,209,140825,1,0,0:0:0:0:
81,215,140906,2,0,L|89:305,1,90.8999972259522,10|2,0:3|0:0,0:0:0:0:
148,354,141150,1,0,0:0:0:0:
155,362,141231,1,10,0:3:0:0:
319,194,141393,5,2,0:0:0:0:
89,305,141555,1,10,0:3:0:0:
284,344,141717,1,2,0:0:0:0:
307,348,141798,1,0,0:0:0:0:
330,351,141879,1,10,0:3:0:0:
424,107,142041,2,0,L|437:198,1,90.8999972259522,2|10,0:0|0:3,0:0:0:0:
396,301,142285,1,0,0:0:0:0:
391,291,142366,2,0,L|405:202,1,90.8999972259522,2|10,0:0|0:3,0:0:0:0:
475,266,142690,5,2,0:0:0:0:
348,138,142853,1,10,0:3:0:0:
284,344,143016,1,2,0:0:0:0:
284,344,143097,1,0,0:0:0:0:
284,344,143179,1,10,0:3:0:0:
165,149,143342,2,0,L|193:41,1,90.8999972259522,2|10,0:0|0:3,0:0:0:0:
184,48,143586,1,0,0:0:0:0:
180,38,143668,1,2,0:0:0:0:
427,106,143831,1,10,0:0:0:0:
249,248,143994,5,6,0:0:0:0:
322,29,144158,1,10,0:3:0:0:
165,149,144323,1,2,0:0:0:0:
142,153,144406,1,0,0:0:0:0:
119,156,144488,1,10,0:3:0:0:
217,328,144653,2,0,P|267:334|311:307,1,90.8999972259522,2|10,0:0|0:3,0:0:0:0:
382,325,144900,1,0,0:0:0:0:
393,322,144983,2,0,P|423:281|421:230,1,90.8999972259522,2|10,0:0|0:3,0:0:0:0:
468,175,145230,1,0,0:0:0:0:
466,164,145312,5,2,0:0:0:0:
249,248,145477,1,10,0:3:0:0:
391,100,145642,1,2,0:0:0:0:
387,77,145724,1,0,0:0:0:0:
384,54,145807,1,10,0:3:0:0:
209,6,145972,2,0,L|225:117,1,90.8999972259522,2|10,0:0|0:3,0:0:0:0:
168,176,146219,1,0,0:0:0:0:
175,168,146301,2,0,L|246:111,1,90.8999972259522,2|10,0:0|0:3,0:0:0:0:
137,81,146608,5,2,0:0:0:0:
381,31,146769,1,10,0:3:0:0:
302,267,146931,1,2,0:0:0:0:
302,267,147012,1,0,0:0:0:0:
302,267,147093,1,10,0:3:0:0:
75,169,147254,2,0,L|98:286,1,90.8999972259522,2|10,0:0|0:3,0:0:0:0:
178,255,147497,1,0,0:0:0:0:
170,261,147578,2,0,L|153:352,1,90.8999972259522,2|10,0:0|0:3,0:0:0:0:
0,231,147901,5,2,0:0:0:0:
240,322,148063,1,10,0:3:0:0:
77,180,148225,5,10,0:0:0:0:
75,169,148306,2,0,L|60:66,1,101,8|10,0:0|0:0,0:0:0:0:
144,54,148548,5,10,0:0:0:0:
216,0,148662,5,8,0:0:0:0:
297,18,148776,5,8,0:0:0:0:
332,91,148890,5,10,0:0:0:0:
356,160,149005,5,8,0:0:0:0:
404,188,149119,5,8,0:0:0:0:
458,183,149233,6,0,L|450:245,1,50.5,6|0,0:0|0:0,0:0:0:0:
459,303,149394,2,0,L|472:203,1,101,2|2,0:0|0:0,0:0:0:0:
512,372,149797,1,0,0:0:0:0:
507,368,149878,2,0,B|464:343|464:343|418:365|418:365|349:348,1,151.5,8|0,0:0|0:0,0:0:0:0:
92,133,150200,6,0,L|100:182,1,50.5,2|0,0:0|0:0,0:0:0:0:
142,258,150362,2,0,L|123:148,1,101,2|2,0:0|0:0,0:0:0:0:
146,144,150765,1,0,0:0:0:0:
171,150,150845,1,2,0:0:0:0:
195,157,150926,1,0,0:0:0:0:
219,163,151007,1,2,0:0:0:0:
244,170,151087,1,0,0:0:0:0:
268,177,151168,6,0,L|260:123,1,50.5,8|0,0:0|0:0,0:0:0:0:
248,47,151331,1,2,0:0:0:0:
281,259,151494,1,2,0:0:0:0:
283,268,151820,6,0,L|332:276,1,50.5,6|0,0:1|0:0,0:0:0:0:
354,300,151985,2,0,L|255:284,1,101,2|2,0:0|0:0,0:0:0:0:
424,362,152400,1,0,0:0:0:0:
418,354,152482,2,0,B|395:308|395:308|436:192,1,151.5,8|0,0:0|0:0,0:0:0:0:
287,16,152806,6,0,L|295:73,1,50.5,2|0,0:0|0:0,0:0:0:0:
264,125,152968,2,0,L|278:24,1,101,2|2,0:0|0:0,0:0:0:0:
262,6,153373,1,0,0:0:0:0:
250,28,153454,1,10,0:0:0:0:
231,45,153535,1,8,0:0:0:0:
208,54,153616,1,0,0:0:0:0:
183,53,153697,1,8,0:0:0:0:
160,44,153778,6,0,P|101:32|30:101,1,151.5,10|0,0:0|0:0,0:0:0:0:
5,160,154102,2,0,L|28:245,1,75.75,2|0,0:0|0:0,0:0:0:0:
224,350,154427,6,0,B|238:320|238:320|230:290,1,50.5,6|0,0:0|0:0,0:0:0:0:
191,239,154592,2,0,B|237:274|237:274|294:263,1,101,2|2,0:0|0:0,0:0:0:0:
336,208,155007,1,0,0:0:0:0:
343,200,155089,2,0,P|396:174|458:262,1,151.5,8|0,0:0|0:0,0:0:0:0:
312,342,155411,6,0,L|302:287,1,50.5,2|0,0:0|0:0,0:0:0:0:
242,237,155572,2,0,L|258:122,1,101,2|2,0:0|0:0,0:0:0:0:
273,118,155975,1,0,0:0:0:0:
288,137,156056,1,2,0:0:0:0:
309,151,156137,1,2,0:0:0:0:
334,157,156217,1,0,0:0:0:0:
359,156,156298,1,0,0:0:0:0:
382,146,156379,6,0,L|389:86,1,50.5,10|0,0:0|0:0,0:0:0:0:
392,16,156540,1,2,0:0:0:0:
379,231,156701,1,2,0:0:0:0:
379,231,157024,6,0,P|352:250|323:254,1,50.5,6|0,0:0|0:0,0:0:0:0:
280,316,157192,2,0,B|282:292|298:274|298:274|277:252|265:209,1,101,2|2,0:0|0:0,0:0:0:0:
247,150,157613,1,0,0:0:0:0:
237,154,157698,2,0,B|198:170|192:204|192:204|151:179|96:209,1,151.5,8|0,0:0|0:0,0:0:0:0:
39,232,158029,5,10,0:0:0:0:
270,227,158195,1,2,0:0:0:0:
162,20,158360,1,14,0:1:0:0:
112,15,158440,1,8,0:0:0:0:
69,41,158521,1,8,0:0:0:0:
50,87,158601,1,8,0:0:0:0:
62,135,158682,6,0,L|135:147,1,50.5,10|0,0:0|0:0,0:0:0:0:
191,29,158843,2,0,L|263:17,1,50.5,2|0,0:0|0:0,0:0:0:0:
196,182,159005,2,0,L|268:193,1,50.5,14|0,0:0|0:0,0:0:0:0:
322,8,159166,2,0,L|394:-3,1,50.5,2|0,0:0|0:0,0:0:0:0:
475,204,159327,5,10,0:0:0:0:
434,236,159408,1,8,0:0:0:0:
388,238,159489,1,10,0:0:0:0:
352,219,159569,1,8,0:0:0:0:
330,190,159650,1,10,0:0:0:0:
303,176,159735,1,10,0:0:0:0:
277,175,159821,1,10,0:0:0:0:
258,182,159907,1,10,0:0:0:0:
245,190,159992,6,0,L|255:298,1,90.8999972259522,6|0,0:1|0:0,0:0:0:0:
418,78,160314,1,2,0:0:0:0:
253,280,160475,1,2,0:0:0:0:
500,134,160637,2,0,L|508:43,1,90.8999972259522,10|0,0:0|0:0,0:0:0:0:
253,93,160959,1,2,0:0:0:0:
507,43,161120,1,2,0:0:0:0:
245,190,161281,6,0,L|154:182,1,90.8999972259522,10|2,0:0|0:0,0:0:0:0:
406,326,161604,2,0,L|505:317,1,90.8999972259522,2|2,0:0|0:0,0:0:0:0:
239,272,161926,1,10,0:0:0:0:
496,317,162088,1,0,0:0:0:0:
374,106,162249,1,10,0:0:0:0:
371,126,162332,1,10,0:0:0:0:
368,146,162415,1,10,0:0:0:0:
365,166,162499,1,10,0:0:0:0:
362,186,162582,6,0,L|461:177,1,90.8999972259522,14|2,0:0|0:0,0:0:0:0:
314,21,162906,1,2,0:0:0:0:
239,272,163068,1,2,0:0:0:0:
46,118,163230,2,0,P|28:73|37:27,1,90.8999972259522,10|0,0:0|0:0,0:0:0:0:
125,235,163554,1,2,0:0:0:0:
237,0,163717,1,2,0:0:0:0:
308,218,163880,6,0,P|326:263|316:308,1,90.8999972259522,8|2,0:0|0:0,0:0:0:0:
59,287,164206,2,0,P|41:242|59:186,1,90.8999972259522,2|2,0:0|0:0,0:0:0:0:
318,303,164532,1,8,0:0:0:0:
125,235,164695,1,0,0:0:0:0:
353,136,164858,1,10,0:0:0:0:
375,132,164939,1,10,0:0:0:0:
397,128,165021,1,10,0:0:0:0:
420,124,165102,1,10,0:0:0:0:
442,120,165184,6,0,L|429:222,1,90.8999972259522,6|2,0:1|0:0,0:0:0:0:
196,94,165536,1,2,0:0:0:0:
430,210,165695,1,2,0:0:0:0:
252,12,165855,2,0,L|161:4,1,90.8999972259522,10|2,0:0|0:0,0:0:0:0:
5,174,166174,1,6,0:0:0:0:
27,172,166256,1,0,0:0:0:0:
50,170,166338,1,2,0:0:0:0:
72,168,166421,1,2,0:0:0:0:
95,166,166503,6,0,L|209:187,1,90.8999972259522,10|2,0:0|0:0,0:0:0:0:
289,366,166833,1,6,0:1:0:0:
397,128,166998,1,2,0:0:0:0:
196,302,167163,2,0,L|106:318,1,90.8999972259522,8|0,0:0|0:0,0:0:0:0:
336,188,167492,5,6,0:0:0:0:
253,115,167649,1,2,0:0:0:0:
272,277,167806,1,10,0:0:0:0:
189,208,167970,1,2,0:0:0:0:
373,214,168135,5,2,0:0:0:0:
281,74,168300,1,2,0:0:0:0:
247,318,168465,1,10,0:0:0:0:
152,185,168630,1,2,0:0:0:0:
397,255,168795,5,2,0:0:0:0:
327,49,168958,1,2,0:0:0:0:
202,343,169121,1,10,0:0:0:0:
127,144,169284,1,2,0:0:0:0:
399,306,169447,5,10,0:0:0:0:
382,44,169610,1,2,0:0:0:0:
146,346,169773,1,14,0:0:0:0:
116,94,169936,1,10,0:1:0:0:
116,94,170017,1,8,0:0:0:0:
116,94,170099,86,0,L|129:153,1,50.5,14|8,0:0|0:0,0:0:0:0:
327,132,170262,2,0,L|313:191,1,50.5,10|8,0:0|0:0,0:0:0:0:
192,280,170425,1,10,0:0:0:0:
287,43,170588,1,6,0:1:0:0:
419,306,170751,2,0,L|405:246,1,50.5,10|8,0:0|0:0,0:0:0:0:
213,268,170914,2,0,L|226:208,1,50.5,10|8,0:0|0:0,0:0:0:0:
384,57,171077,69,14,0:0:0:0:
305,360,171238,1,10,0:0:0:0:
305,360,171318,1,8,0:0:0:0:
305,360,171399,1,6,0:1:0:0:
213,268,171721,6,0,L|202:172,2,80.8
248,341,172689,5,6,0:0:0:0:
286,352,172771,1,0,0:0:0:0:
324,349,172853,1,0,0:0:0:0:
355,326,172936,1,0,0:0:0:0:
374,291,173018,1,10,0:0:0:0:
370,253,173101,1,0,0:0:0:0:
351,218,173183,1,0,0:0:0:0:
321,195,173265,1,0,0:0:0:0:
305,161,173348,1,2,0:0:0:0:
305,123,173430,1,0,0:0:0:0:
324,88,173513,1,0,0:0:0:0:
359,69,173595,1,0,0:0:0:0:
397,69,173678,1,10,0:0:0:0:
432,84,173760,1,0,0:0:0:0:
454,115,173842,1,0,0:0:0:0:
462,153,173925,1,0,0:0:0:0:
452,191,174007,5,2,0:0:0:0:
421,165,174088,1,0,0:0:0:0:
383,156,174170,1,0,0:0:0:0:
348,169,174251,1,0,0:0:0:0:
321,195,174333,6,0,P|298:215|275:222,3,50.5,10|0|0|0,0:0|0:0|0:0|0:0,0:0:0:0:
173,146,174659,2,0,P|202:156|219:172,3,50.5,2|0|0|0,0:0|0:0|0:0|0:0,0:0:0:0:
205,299,174985,2,0,P|198:268|204:245,3,50.5,10|0|0|0,0:0|0:0|0:0|0:0,0:0:0:0:
354,23,175311,5,6,0:1:0:0:
393,32,175392,1,0,0:0:0:0:
423,58,175473,1,0,0:0:0:0:
438,94,175554,1,0,0:0:0:0:
436,132,175635,1,10,0:0:0:0:
414,167,175716,1,0,0:0:0:0:
381,186,175797,1,0,0:0:0:0:
342,186,175878,1,0,0:0:0:0:
306,170,175959,1,2,0:0:0:0:
282,140,176040,1,0,0:0:0:0:
276,101,176121,1,0,0:0:0:0:
288,62,176202,1,0,0:0:0:0:
318,35,176283,5,10,0:0:0:0:
319,84,176365,1,0,0:0:0:0:
291,125,176446,1,0,0:0:0:0:
245,143,176527,1,0,0:0:0:0:
197,129,176608,1,2,0:0:0:0:
166,91,176689,1,0,0:0:0:0:
163,41,176770,2,0,L|226:28,1,50.5
40,135,176932,5,10,0:0:0:0:
26,170,177013,1,0,0:0:0:0:
31,207,177094,1,0,0:0:0:0:
57,235,177175,1,0,0:0:0:0:
92,247,177256,1,2,0:0:0:0:
130,241,177338,1,2,0:0:0:0:
164,258,177419,1,2,0:0:0:0:
179,292,177500,1,0,0:0:0:0:
170,329,177581,6,0,L|121:320,1,50.5,10|8,0:0|0:0,0:0:0:0:
327,187,177743,2,0,L|394:176,1,50.5,8|8,0:0|0:0,0:0:0:0:
205,75,177905,5,6,0:0:0:0:
231,47,177986,1,0,0:0:0:0:
266,34,178067,1,0,0:0:0:0:
303,37,178148,1,0,0:0:0:0:
336,56,178229,1,10,0:0:0:0:
357,86,178311,1,0,0:0:0:0:
363,123,178392,1,0,0:0:0:0:
353,159,178473,1,0,0:0:0:0:
327,187,178554,1,2,0:0:0:0:
301,215,178635,1,0,0:0:0:0:
291,251,178716,1,0,0:0:0:0:
297,288,178797,1,0,0:0:0:0:
318,318,178878,1,10,0:0:0:0:
351,337,178959,1,0,0:0:0:0:
388,340,179040,1,0,0:0:0:0:
423,327,179121,1,0,0:0:0:0:
448,298,179202,5,2,0:0:0:0:
448,260,179285,1,0,0:0:0:0:
449,222,179368,1,0,0:0:0:0:
450,184,179452,1,0,0:0:0:0:
451,146,179535,6,0,L|381:153,3,50.5,10|0|0|0,0:0|0:0|0:0|0:0,0:0:0:0:
297,288,179861,2,0,L|227:281,3,50.5,2|0|0|0,0:0|0:0|0:0|0:0,0:0:0:0:
342,96,180187,2,0,L|272:103,3,50.5,10|0|0|0,0:0|0:0|0:0|0:0,0:0:0:0:
84,124,180512,5,6,0:1:0:0:
64,155,180595,1,0,0:0:0:0:
66,194,180677,1,0,0:0:0:0:
84,227,180760,1,0,0:0:0:0:
118,246,180842,1,10,0:0:0:0:
155,244,180925,1,0,0:0:0:0:
187,224,181007,1,0,0:0:0:0:
206,191,181089,1,0,0:0:0:0:
204,154,181172,1,2,0:0:0:0:
221,121,181253,1,0,0:0:0:0:
253,102,181335,1,0,0:0:0:0:
291,101,181416,1,0,0:0:0:0:
324,118,181498,1,10,0:0:0:0:
344,151,181579,1,0,0:0:0:0:
343,188,181661,1,0,0:0:0:0:
325,222,181742,1,0,0:0:0:0:
292,240,181824,6,0,L|291:302,1,50.5,10|8,0:0|0:0,0:0:0:0:
372,379,181987,2,0,L|371:328,1,50.5,8|0,0:0|0:0,0:0:0:0:
425,146,182150,2,0,L|424:197,1,50.5,10|8,0:0|0:0,0:0:0:0:
501,270,182313,2,0,L|500:219,1,50.5,8|8,0:0|0:0,0:0:0:0:
222,340,182476,5,10,0:0:0:0:
146,362,182556,1,8,0:0:0:0:
80,329,182636,1,8,0:0:0:0:
57,265,182716,1,8,0:0:0:0:
78,204,182796,1,10,0:0:0:0:
126,171,182877,1,8,0:0:0:0:
179,168,182957,1,8,0:0:0:0:
223,188,183037,1,8,0:0:0:0:
251,228,183117,1,6,0:0:0:0:
292,240,183197,1,0,0:0:0:0:
328,230,183278,1,0,0:0:0:0:
350,207,183358,1,0,0:0:0:0:
360,183,183438,6,0,L|352:97,3,50.5,10|0|0|0,0:0|0:0|0:0|0:0,0:0:0:0:
439,203,183765,1,2,0:0:0:0:
444,194,183847,2,0,L|436:108,1,50.5
272,60,184011,1,0,0:0:0:0:
267,69,184093,2,0,L|275:155,1,50.5,10|0,0:0|0:0,0:0:0:0:
422,15,184257,2,0,L|430:101,1,50.5
368,262,184421,5,2,0:0:0:0:
338,238,184502,1,0,0:0:0:0:
302,230,184584,1,0,0:0:0:0:
265,239,184666,1,0,0:0:0:0:
237,264,184748,1,10,0:0:0:0:
209,288,184830,1,0,0:0:0:0:
173,298,184912,1,0,0:0:0:0:
136,290,184994,1,0,0:0:0:0:
107,266,185076,6,0,L|115:196,3,50.5,2|0|0|0,0:0|0:0|0:0|0:0,0:0:0:0:
31,112,185404,2,0,L|87:153,3,50.5,10|0|0|0,0:0|0:0|0:0|0:0,0:0:0:0:
201,15,185732,5,6,0:1:0:0:
252,15,185814,1,0,0:0:0:0:
293,44,185896,1,0,0:0:0:0:
308,92,185978,1,0,0:0:0:0:
293,140,186060,1,10,0:0:0:0:
252,170,186142,1,0,0:0:0:0:
201,170,186224,1,0,0:0:0:0:
161,140,186306,1,0,0:0:0:0:
145,92,186388,5,6,0:0:0:0:
106,92,186470,1,0,0:0:0:0:
75,113,186552,1,0,0:0:0:0:
64,149,186634,1,0,0:0:0:0:
75,185,186716,1,10,0:0:0:0:
106,208,186798,1,0,0:0:0:0:
145,208,186880,1,0,0:0:0:0:
175,185,186961,1,0,0:0:0:0:
187,149,187043,5,6,0:1:0:0:
238,149,187124,1,0,0:0:0:0:
279,178,187206,1,0,0:0:0:0:
294,226,187287,1,0,0:0:0:0:
279,274,187369,1,10,0:0:0:0:
238,304,187451,1,0,0:0:0:0:
187,304,187532,1,0,0:0:0:0:
147,274,187614,1,0,0:0:0:0:
107,244,187696,1,2,0:0:0:0:
56,244,187777,1,2,0:0:0:0:
15,274,187859,1,2,0:0:0:0:
0,322,187941,1,0,0:0:0:0:
15,370,188022,2,0,L|80:377,3,50.5,10|0|0|0,0:0|0:0|0:0|0:0,0:0:0:0:
253,323,188349,5,6,0:0:0:0:
301,335,188431,1,0,0:0:0:0:
348,316,188512,1,0,0:0:0:0:
372,271,188594,1,0,0:0:0:0:
365,221,188676,1,10,0:0:0:0:
331,183,188757,1,0,0:0:0:0:
280,177,188839,1,0,0:0:0:0:
241,144,188921,1,0,0:0:0:0:
233,94,189002,1,2,0:0:0:0:
257,49,189084,1,0,0:0:0:0:
303,27,189166,1,0,0:0:0:0:
351,38,189247,1,0,0:0:0:0:
383,76,189329,2,0,L|380:127,3,50.5,10|0|0|0,0:0|0:0|0:0|0:0,0:0:0:0:
263,223,189655,5,6,0:0:0:0:
222,252,189737,1,0,0:0:0:0:
173,259,189819,1,0,0:0:0:0:
126,245,189900,1,0,0:0:0:0:
91,213,189982,1,10,0:0:0:0:
75,163,190064,1,0,0:0:0:0:
83,116,190145,1,0,0:0:0:0:
115,78,190227,1,0,0:0:0:0:
159,56,190309,1,10,0:0:0:0:
208,58,190390,1,8,0:0:0:0:
250,83,190472,1,8,0:0:0:0:
278,126,190554,1,0,0:0:0:0:
280,177,190635,6,0,L|269:238,1,60.5999981506348,10|8,0:0|0:0,0:0:0:0:
72,279,190799,2,0,L|81:219,1,60.5999981506348,8|8,0:0|0:0,0:0:0:0:
291,168,190962,5,6,0:0:0:0:
356,141,191043,1,2,0:0:0:0:
422,168,191125,1,8,0:0:0:0:
449,234,191206,1,8,0:0:0:0:
422,299,191288,1,10,0:0:0:0:
356,326,191369,1,8,0:0:0:0:
291,299,191451,2,0,L|227:309,1,50.5,8|8,0:0|0:0,0:0:0:0:
153,115,191614,5,6,0:1:0:0:
94,90,191695,1,2,0:0:0:0:
35,115,191777,1,8,0:0:0:0:
10,174,191858,1,8,0:0:0:0:
35,232,191940,1,10,0:0:0:0:
94,257,192021,1,8,0:0:0:0:
153,232,192103,2,0,L|210:241,1,50.5,8|0,0:0|0:0,0:0:0:0:
253,58,192266,5,14,0:0:0:0:
299,37,192347,1,8,0:0:0:0:
345,58,192429,1,8,0:0:0:0:
365,104,192510,1,8,0:0:0:0:
345,150,192592,6,0,L|347:199,3,50.5,10|8|8|8,0:0|0:0|0:0|0:0,0:0:0:0:
277,311,192918,2,0,L|323:280,3,50.5,14|8|8|8,0:1|0:0|0:0|0:0,0:0:0:0:
451,289,193244,2,0,L|401:264,3,50.5,10|8|8|8,0:0|0:0|0:0|0:0,0:0:0:0:
210,345,193570,5,6,0:0:0:0:
149,334,193652,1,0,0:0:0:0:
119,283,193735,1,0,0:0:0:0:
130,223,193818,1,0,0:0:0:0:
176,186,193901,1,10,0:0:0:0:
236,189,193984,1,0,0:0:0:0:
275,234,194067,1,0,0:0:0:0:
332,249,194150,1,0,0:0:0:0:
390,235,194232,1,10,0:0:0:0:
429,187,194313,1,0,0:0:0:0:
435,127,194394,1,0,0:0:0:0:
405,75,194475,1,0,0:0:0:0:
352,47,194557,1,10,0:0:0:0:
292,56,194638,1,0,0:0:0:0:
247,97,194719,1,0,0:0:0:0:
187,93,194801,1,0,0:0:0:0:
149,47,194882,5,10,0:0:0:0:
199,15,194963,1,0,0:0:0:0:
258,22,195044,1,0,0:0:0:0:
304,60,195125,1,0,0:0:0:0:
314,119,195207,6,0,L|308:182,3,60.5999981506348,10|0|0|0,0:0|0:0|0:0|0:0,0:0:0:0:
225,266,195532,2,0,L|231:204,3,60.5999981506348,10|0|0|0,0:0|0:0|0:0|0:0,0:0:0:0:
395,83,195857,2,0,L|388:143,3,60.5999981506348,10|0|0|0,0:0|0:0|0:0|0:0,0:0:0:0:
472,297,196182,5,6,0:1:0:0:
435,248,196264,1,0,0:0:0:0:
380,226,196345,1,0,0:0:0:0:
321,236,196426,1,0,0:0:0:0:
276,276,196508,1,10,0:0:0:0:
254,332,196589,1,0,0:0:0:0:
200,360,196670,1,0,0:0:0:0:
141,347,196751,1,0,0:0:0:0:
103,300,196833,1,10,0:0:0:0:
105,239,196914,1,0,0:0:0:0:
146,194,196995,1,0,0:0:0:0:
206,185,197077,1,0,0:0:0:0:
258,218,197158,5,10,0:0:0:0:
330,231,197239,1,0,0:0:0:0:
393,195,197321,1,0,0:0:0:0:
417,126,197402,1,0,0:0:0:0:
393,58,197483,1,10,0:0:0:0:
330,21,197564,1,0,0:0:0:0:
258,34,197646,2,0,L|184:37,1,60.5999981506348
94,166,197808,5,10,0:0:0:0:
55,211,197890,1,0,0:0:0:0:
55,271,197971,1,0,0:0:0:0:
94,317,198052,1,0,0:0:0:0:
154,328,198134,1,10,0:0:0:0:
206,298,198215,1,2,0:0:0:0:
225,241,198296,1,2,0:0:0:0:
206,185,198377,1,0,0:0:0:0:
154,155,198459,6,0,L|82:167,1,60.5999981506348,10|8,0:0|0:0,0:0:0:0:
23,338,198621,2,0,L|82:328,1,60.5999981506348,8|8,0:0|0:0,0:0:0:0:
65,37,198784,5,6,0:0:0:0:
20,75,198865,1,0,0:0:0:0:
1,129,198947,1,0,0:0:0:0:
12,188,199028,1,0,0:0:0:0:
55,231,199110,1,10,0:0:0:0:
113,246,199191,1,0,0:0:0:0:
169,230,199273,1,0,0:0:0:0:
206,185,199354,1,0,0:0:0:0:
220,128,199436,1,10,0:0:0:0:
260,84,199517,1,0,0:0:0:0:
316,71,199599,1,0,0:0:0:0:
373,87,199680,1,0,0:0:0:0:
416,129,199762,1,10,0:0:0:0:
425,188,199843,1,0,0:0:0:0:
405,242,199925,1,0,0:0:0:0:
359,278,200006,1,0,0:0:0:0:
301,283,200088,5,10,0:0:0:0:
346,247,200169,1,0,0:0:0:0:
405,242,200251,1,0,0:0:0:0:
456,271,200332,1,0,0:0:0:0:
476,327,200414,6,0,L|400:344,3,60.5999981506348,10|0|0|0,0:0|0:0|0:0|0:0,0:0:0:0:
343,173,200740,2,0,L|267:156,3,60.5999981506348,10|0|0|0,0:0|0:0|0:0|0:0,0:0:0:0:
279,364,201066,2,0,L|203:381,3,60.5999981506348,10|0|0|0,0:0|0:0|0:0|0:0,0:0:0:0:
29,318,201392,1,6,1:1:0:0:
5,279,201474,1,0,0:0:0:0:
6,232,201555,1,0,0:0:0:0:
29,191,201637,1,0,0:0:0:0:
71,168,201718,1,10,0:0:0:0:
116,170,201800,1,0,0:0:0:0:
156,195,201881,1,0,0:0:0:0:
179,236,201963,1,0,0:0:0:0:
177,281,202044,1,10,0:0:0:0:
198,322,202126,1,0,0:0:0:0:
237,346,202207,1,0,0:0:0:0:
284,347,202289,1,0,0:0:0:0:
325,326,202370,1,10,0:0:0:0:
350,285,202452,1,0,0:0:0:0:
348,239,202534,1,0,0:0:0:0:
326,197,202615,1,0,0:0:0:0:
285,175,202697,6,0,L|284:256,1,60.5999981506348,10|2,0:0|0:0,0:0:0:0:
350,345,202860,2,0,L|349:284,1,60.5999981506348,2|0,0:0|0:0,0:0:0:0:
206,216,203023,2,0,L|206:276,1,60.5999981506348,10|8,0:0|0:0,0:0:0:0:
428,308,203186,2,0,L|428:247,1,60.5999981506348,8|8,0:0|0:0,0:0:0:0:
428,85,203349,5,10,0:0:0:0:
378,14,203430,1,8,0:0:0:0:
298,0,203512,1,8,0:0:0:0:
234,40,203594,1,8,0:0:0:0:
211,107,203675,1,10,0:0:0:0:
231,168,203757,1,8,0:0:0:0:
277,207,203839,1,8,0:0:0:0:
289,258,203921,1,8,0:0:0:0:
275,303,204002,1,6,0:0:0:0:
244,330,204083,1,0,0:0:0:0:
211,342,204165,1,0,0:0:0:0:
182,340,204246,1,0,0:0:0:0:
160,334,204328,6,0,L|156:263,3,60.5999981506348,10|0|0|0,0:0|0:0|0:0|0:0,0:0:0:0:
39,179,204654,1,10,0:0:0:0:
49,184,204736,2,0,L|112:216,1,60.5999981506348
243,156,204899,1,0,0:0:0:0:
234,162,204981,2,0,L|174:200,1,60.5999981506348,10|0,0:0|0:0,0:0:0:0:
84,346,205144,2,0,L|80:275,1,60.5999981506348
42,73,205307,5,10,0:0:0:0:
78,100,205389,1,0,0:0:0:0:
121,111,205470,1,0,0:0:0:0:
166,99,205552,1,0,0:0:0:0:
200,69,205634,1,10,0:0:0:0:
234,40,205715,1,0,0:0:0:0:
277,28,205797,1,0,0:0:0:0:
322,38,205879,1,0,0:0:0:0:
357,67,205960,6,0,L|346:150,3,60.5999981506348,10|0|0|0,0:0|0:0|0:0|0:0,0:0:0:0:
240,222,206287,2,0,L|233:160,3,60.5999981506348,10|0|0|0,0:0|0:0|0:0|0:0,0:0:0:0:
446,0,206613,5,6,1:1:0:0:
437,59,206694,1,0,0:0:0:0:
429,120,206776,1,0,0:0:0:0:
421,180,206858,1,0,0:0:0:0:
413,241,206940,2,0,L|402:324,3,60.5999981506348,10|0|0|0,0:0|0:0|0:0|0:0,0:0:0:0:
303,327,207268,5,6,0:0:0:0:
259,309,207350,1,0,0:0:0:0:
216,312,207432,1,0,0:0:0:0:
175,331,207514,1,0,0:0:0:0:
145,364,207596,2,0,L|134:275,3,60.5999981506348,10|0|0|0,0:0|0:0|0:0|0:0,0:0:0:0:
149,109,207922,5,6,0:1:0:0:
89,124,208003,1,0,0:0:0:0:
51,171,208085,1,0,0:0:0:0:
48,231,208166,1,0,0:0:0:0:
81,282,208248,1,10,0:0:0:0:
138,304,208329,1,0,0:0:0:0:
197,288,208411,1,0,0:0:0:0:
234,241,208492,1,0,0:0:0:0:
271,194,208574,1,10,0:0:0:0:
330,178,208655,1,0,0:0:0:0:
387,200,208737,1,0,0:0:0:0:
419,251,208818,1,0,0:0:0:0:
416,311,208900,2,0,L|339:321,3,60.5999981506348,10|0|0|0,0:0|0:0|0:0|0:0,0:0:0:0:
205,367,209226,5,6,0:0:0:0:
146,380,209307,1,0,0:0:0:0:
90,357,209389,1,0,0:0:0:0:
61,303,209470,1,0,0:0:0:0:
69,243,209552,1,10,0:0:0:0:
110,198,209633,1,0,0:0:0:0:
171,190,209715,1,0,0:0:0:0:
218,151,209797,1,0,0:0:0:0:
228,90,209878,1,10,0:0:0:0:
199,36,209960,1,0,0:0:0:0:
144,10,210041,1,0,0:0:0:0:
86,22,210123,1,0,0:0:0:0:
47,68,210204,2,0,L|51:141,3,60.5999981506348,10|0|0|0,0:0|0:0|0:0|0:0,0:0:0:0:
145,296,210530,6,0,L|140:232,1,60.5999981506348,14|8,1:1|0:0,0:0:0:0:
127,97,210693,2,0,L|131:165,1,60.5999981506348,8|8,0:0|0:0,0:0:0:0:
257,253,210856,1,10,0:0:0:0:
311,277,210938,1,8,0:0:0:0:
369,257,211019,2,0,L|439:236,1,60.5999981506348,8|8,0:0|0:0,0:0:0:0:
316,56,211182,6,0,L|243:78,1,75.7500028896333,14|8,0:0|0:0,0:0:0:0:
436,203,211345,2,0,L|509:181,1,75.7500028896333,8|8,0:0|0:0,0:0:0:0:
203,157,211508,5,10,0:0:0:0:
161,219,211590,1,8,0:0:0:0:
169,294,211672,1,8,0:0:0:0:
219,352,211753,1,8,0:0:0:0:
294,361,211835,6,0,L|298:297,2,50.5,6|0|10,1:1|0:0|0:3,0:0:0:0:
369,257,212079,2,0,L|372:308,2,50.5,0|2|0,0:0|0:0|0:0,0:0:0:0:
446,374,212324,2,0,L|449:324,1,50.5,10|0,0:3|0:0,0:0:0:0:
489,124,212487,5,2,0:0:0:0:
455,106,212568,1,0,0:0:0:0:
418,106,212650,1,10,0:3:0:0:
384,122,212731,1,0,0:0:0:0:
362,152,212813,1,2,0:0:0:0:
340,182,212894,1,0,0:0:0:0:
306,198,212976,1,10,0:3:0:0:
269,198,213057,1,0,0:0:0:0:
236,181,213139,5,2,0:0:0:0:
228,147,213220,1,0,0:0:0:0:
204,120,213301,1,10,0:3:0:0:
171,108,213382,1,0,0:0:0:0:
136,112,213463,1,2,0:0:0:0:
107,132,213544,1,0,0:0:0:0:
90,164,213625,1,10,0:3:0:0:
90,199,213706,1,0,0:0:0:0:
107,230,213787,6,0,L|110:298,1,50.5,2|0,0:0|0:0,0:0:0:0:
186,346,213949,2,0,L|183:295,1,50.5,10|0,0:3|0:0,0:0:0:0:
235,180,214111,2,0,L|229:231,1,50.5,2|0,0:0|0:0,0:0:0:0:
293,330,214274,2,0,L|295:279,1,50.5,10|0,0:3|0:0,0:0:0:0:
364,120,214436,5,2,0:0:0:0:
394,98,214517,1,0,0:0:0:0:
432,94,214598,1,10,0:3:0:0:
466,108,214679,1,0,0:0:0:0:
488,139,214760,1,2,0:0:0:0:
493,176,214841,1,0,0:0:0:0:
477,210,214922,1,10,0:3:0:0:
446,231,215003,1,0,0:0:0:0:
410,234,215084,6,0,L|360:228,1,50.5,2|0,0:0|0:0,0:0:0:0:
314,150,215247,2,0,L|365:157,1,50.5,10|0,0:3|0:0,0:0:0:0:
483,88,215409,2,0,L|433:95,1,50.5,2|0,0:0|0:0,0:0:0:0:
369,28,215571,2,0,L|420:22,1,50.5,10|0,0:3|0:0,0:0:0:0:
301,288,215733,5,10,0:0:0:0:
271,280,215814,1,8,0:0:0:0:
241,283,215896,1,10,0:0:0:0:
214,297,215977,1,8,0:0:0:0:
194,319,216059,1,10,0:0:0:0:
170,345,216140,1,8,0:0:0:0:
138,361,216222,1,10,0:0:0:0:
104,364,216303,1,8,0:0:0:0:
71,354,216385,5,2,0:0:0:0:
73,315,216466,1,0,0:0:0:0:
76,276,216548,1,10,0:0:0:0:
79,236,216629,1,0,0:0:0:0:
47,214,216711,5,2,0:0:0:0:
44,168,216792,1,0,0:0:0:0:
40,123,216874,1,10,0:0:0:0:
36,78,216955,1,8,0:0:0:0:
33,32,217037,5,10,0:0:0:0:
73,2,217118,1,8,0:0:0:0:
122,0,217200,1,10,0:0:0:0:
170,7,217281,1,0,0:0:0:0:
207,41,217363,1,10,0:0:0:0:
225,87,217444,1,8,0:0:0:0:
221,137,217526,1,10,0:0:0:0:
195,180,217608,1,8,0:0:0:0:
153,207,217689,5,10,0:0:0:0:
149,143,217771,1,8,0:0:0:0:
184,88,217852,1,0,0:0:0:0:
243,64,217934,1,8,0:0:0:0:
305,77,218015,1,10,0:0:0:0:
349,125,218097,1,8,0:0:0:0:
358,188,218178,1,0,0:0:0:0:
328,244,218260,1,8,0:0:0:0:
275,277,218341,5,6,0:0:0:0:
270,201,218423,1,0,0:0:0:0:
310,137,218505,1,10,0:0:0:0:
379,109,218587,1,0,0:0:0:0:
451,124,218669,1,2,0:0:0:0:
502,180,218751,1,0,0:0:0:0:
512,253,218834,1,10,0:0:0:0:
478,318,218916,1,8,0:0:0:0:
411,351,218998,5,14,1:1:0:0:
320,342,219080,1,8,0:0:0:0:
255,290,219162,1,10,0:0:0:0:
231,210,219245,1,8,0:0:0:0:
261,128,219327,1,10,0:0:0:0:
329,79,219409,1,8,0:0:0:0:
411,78,219491,1,10,0:0:0:0:
484,124,219573,1,8,0:0:0:0:
512,208,219656,6,0,L|406:213,1,75.7500028896333,10|8,0:0|0:0,0:0:0:0:
330,287,219819,2,0,L|254:290,1,75.7500028896333,10|8,0:0|0:0,0:0:0:0:
145,187,219982,6,0,L|83:180,1,60.5999981506348,10|8,0:0|0:0,0:0:0:0:
9,339,220146,2,0,L|67:330,1,50.5,10|8,0:0|0:0,0:0:0:0:
236,269,220309,6,0,L|286:260,1,50.5,10|8,0:0|0:0,0:0:0:0:
156,175,220473,2,0,L|95:162,1,50.5,10|8,0:0|0:0,0:0:0:0:
196,356,220636,5,10,0:0:0:0:
246,348,220718,1,8,0:0:0:0:
286,341,220800,1,10,0:0:0:0:
310,337,220882,1,8,0:0:0:0:
331,333,220963,6,0,L|410:319,1,50.5,12|0,0:0|0:0,0:0:0:0:
156,175,221127,1,2,0:0:0:0:
465,68,221454,5,2,0:0:0:0:
465,68,221536,1,2,0:0:0:0:
465,68,221617,6,0,B|403:107|403:107|308:71,1,151.500005779267,6|0,0:0|0:0,0:0:0:0:
260,34,221860,2,0,B|222:10|222:10|163:32,1,101
107,122,222104,2,0,B|132:140|132:140|122:118|120:57,1,75.7500028896333
90,28,222266,5,6,0:0:0:0:
329,79,222429,1,10,0:3:0:0:
102,197,222593,2,0,L|106:121,1,75.7500028896333,2|10,0:0|0:3,0:0:0:0:
253,262,222921,2,0,L|249:193,1,37.8750014448166,2|0,0:0|0:0,0:0:0:0:
199,9,223085,1,10,0:3:0:0:
201,37,223167,1,0,0:0:0:0:
203,66,223249,1,2,0:0:0:0:
205,94,223331,1,0,0:0:0:0:
207,123,223413,2,0,L|209:161,1,37.8750014448166,10|0,0:3|0:0,0:0:0:0:
170,229,223563,5,2,0:0:0:0:
286,80,223729,1,10,0:3:0:0:
100,157,223896,1,2,0:0:0:0:
81,159,223975,1,0,0:0:0:0:
63,162,224055,1,10,0:3:0:0:
253,262,224215,2,0,L|321:268,1,37.8750014448166,2|0,0:0|0:0,0:0:0:0:
345,205,224378,1,10,0:3:0:0:
353,204,224459,2,0,L|421:198,1,37.8750014448166,0|2,0:0|0:0,0:0:0:0:
446,270,224622,1,0,0:0:0:0:
454,271,224704,2,0,L|522:277,1,37.8750014448166,10|0,0:3|0:0,0:0:0:0:
503,139,224867,6,0,L|393:126,1,75.7500028896333,2|10,0:0|0:3,0:0:0:0:
278,43,225192,1,2,0:0:0:0:
260,46,225273,1,0,0:0:0:0:
241,48,225354,1,10,0:3:0:0:
390,200,225517,1,2,0:0:0:0:
259,295,225680,1,10,0:3:0:0:
251,300,225761,2,0,L|246:347,1,37.8750014448166,0|2,0:0|0:0,0:0:0:0:
159,225,225923,1,0,0:0:0:0:
167,230,226005,2,0,L|172:268,1,37.8750014448166,10|0,0:3|0:0,0:0:0:0:
305,160,226167,6,0,L|313:266,1,75.7500028896333,2|10,0:0|0:3,0:0:0:0:
176,110,226494,1,2,0:0:0:0:
175,129,226576,1,0,0:0:0:0:
174,148,226658,1,10,0:3:0:0:
359,96,226822,1,2,0:0:0:0:
229,281,226985,1,10,0:3:0:0:
231,272,227067,2,0,L|238:216,1,37.8750014448166,0|2,0:0|0:0,0:0:0:0:
303,152,227231,1,0,0:0:0:0:
305,161,227313,2,0,L|309:198,1,37.8750014448166,10|0,0:3|0:0,0:0:0:0:
332,353,227477,6,0,L|319:247,1,75.7500028896333,2|10,0:0|0:3,0:0:0:0:
168,185,227804,1,2,0:0:0:0:
171,167,227886,1,0,0:0:0:0:
173,148,227968,1,10,0:3:0:0:
166,340,228132,1,2,0:0:0:0:
310,198,228295,1,10,0:3:0:0:
338,201,228377,1,0,0:0:0:0:
366,204,228459,1,2,0:0:0:0:
394,208,228541,1,0,0:0:0:0:
422,211,228623,2,0,L|478:205,1,37.8750014448166,2|0,0:3|0:0,0:0:0:0:
282,195,228787,5,2,0:0:0:0:
512,133,228951,1,10,0:3:0:0:
291,114,229116,1,2,0:0:0:0:
272,116,229199,1,0,0:0:0:0:
254,119,229281,1,10,0:3:0:0:
360,283,229446,2,0,L|322:277,1,37.8750014448166,2|0,0:0|0:0,0:0:0:0:
262,333,229606,1,10,0:3:0:0:
254,328,229687,2,0,L|240:292,1,37.8750014448166,0|2,0:0|0:0,0:0:0:0:
161,268,229848,1,0,0:0:0:0:
162,258,229928,2,0,L|185:228,1,37.8750014448166,10|0,0:3|0:0,0:0:0:0:
267,216,230089,5,2,0:0:0:0:
164,366,230252,1,10,0:3:0:0:
360,283,230415,1,2,0:0:0:0:
379,281,230496,1,0,0:0:0:0:
397,278,230578,1,10,0:3:0:0:
278,104,230741,2,0,L|290:165,1,37.8750014448166,2|0,0:0|0:0,0:0:0:0:
146,216,230904,1,10,0:3:0:0:
117,219,230985,1,0,0:0:0:0:
89,222,231067,1,2,0:0:0:0:
61,226,231147,1,0,0:0:0:0:
33,229,231228,2,0,L|44:177,1,37.8750014448166,10|0,0:3|0:0,0:0:0:0:
198,44,231389,6,0,L|184:118,1,75.7500028896333,2|10,0:0|0:3,0:0:0:0:
259,252,231704,1,2,0:0:0:0:
264,234,231784,1,0,0:0:0:0:
267,216,231864,1,10,0:3:0:0:
56,54,232024,5,10,0:0:0:0:
14,105,232106,1,8,0:0:0:0:
13,162,232188,1,10,0:0:0:0:
36,210,232270,1,8,0:0:0:0:
73,237,232352,1,10,0:0:0:0:
91,271,232434,1,8,0:0:0:0:
92,305,232517,1,10,0:0:0:0:
83,329,232599,1,8,0:0:0:0:
73,345,232681,5,10,0:0:0:0:
89,340,232763,1,8,0:0:0:0:
105,338,232845,1,10,0:0:0:0:
122,340,232928,1,8,0:0:0:0:
138,346,233010,1,10,0:0:0:0:
152,355,233094,1,8,0:0:0:0:
164,367,233178,5,14,0:0:0:0:
274,193,233347,2,0,L|383:204,1,90.8999972259522,2|10,0:0|0:3,0:0:0:0:
410,275,233590,1,0,0:0:0:0:
419,282,233671,2,0,L|509:273,1,90.8999972259522,2|10,0:0|0:3,0:0:0:0:
464,81,233995,5,2,0:0:0:0:
274,193,234158,1,10,0:3:0:0:
400,365,234322,1,2,0:0:0:0:
400,365,234404,1,0,0:0:0:0:
400,365,234486,2,0,L|409:275,1,90.8999972259522,10|0,0:3|0:0,0:0:0:0:
483,203,234732,1,0,0:0:0:0:
474,197,234814,2,0,L|466:107,1,90.8999972259522,10|0,0:3|0:0,0:0:0:0:
415,44,235060,1,0,0:0:0:0:
408,36,235142,1,10,0:3:0:0:
261,200,235306,5,2,0:0:0:0:
465,106,235468,1,10,0:3:0:0:
247,69,235630,1,2,0:0:0:0:
224,65,235711,1,0,0:0:0:0:
201,62,235792,1,10,0:3:0:0:
90,234,235954,2,0,L|184:212,1,90.8999972259522,2|10,0:0|0:3,0:0:0:0:
276,182,236197,1,0,0:0:0:0:
268,193,236278,2,0,L|177:181,1,90.8999972259522,2|10,0:0|0:3,0:0:0:0:
32,109,236603,5,2,0:0:0:0:
203,282,236764,1,10,0:3:0:0:
290,34,236925,1,2,0:0:0:0:
290,34,237006,1,0,0:0:0:0:
290,34,237086,1,10,0:3:0:0:
347,235,237248,2,0,L|319:343,1,90.8999972259522,2|10,0:0|0:3,0:0:0:0:
333,345,237490,1,2,0:0:0:0:
337,355,237570,1,2,0:0:0:0:
310,118,237732,1,10,0:0:0:0:
156,381,237893,5,6,0:0:0:0:
229,162,238059,1,10,0:3:0:0:
403,294,238226,1,2,0:0:0:0:
426,290,238309,1,0,0:0:0:0:
449,287,238393,1,10,0:3:0:0:
357,87,238559,2,0,P|307:81|263:108,1,90.8999972259522,2|10,0:0|0:3,0:0:0:0:
192,90,238809,1,0,0:0:0:0:
181,93,238893,2,0,P|151:134|153:185,1,90.8999972259522,2|10,0:0|0:3,0:0:0:0:
106,240,239143,1,0,0:0:0:0:
108,251,239226,5,2,0:0:0:0:
327,160,239389,1,10,0:3:0:0:
181,309,239552,1,2,0:0:0:0:
185,332,239633,1,0,0:0:0:0:
188,355,239715,1,10,0:3:0:0:
376,369,239878,2,0,L|360:258,1,90.8999972259522,2|10,0:0|0:3,0:0:0:0:
417,199,240122,1,0,0:0:0:0:
410,207,240204,2,0,L|339:264,1,90.8999972259522,2|10,0:0|0:3,0:0:0:0:
149,172,240530,5,2,0:0:0:0:
363,279,240693,1,10,0:3:0:0:
188,355,240856,1,2,0:0:0:0:
188,355,240937,1,0,0:0:0:0:
188,355,241019,1,10,0:3:0:0:
410,207,241182,2,0,L|387:90,1,90.8999972259522,2|10,0:0|0:3,0:0:0:0:
307,121,241427,1,0,0:0:0:0:
315,115,241508,2,0,L|332:24,1,90.8999972259522,2|10,0:0|0:3,0:0:0:0:
485,145,241834,5,10,0:0:0:0:
485,145,241914,1,8,0:0:0:0:
485,145,241995,1,10,0:0:0:0:
241,46,242156,1,2,0:0:0:0:
410,207,242317,1,10,0:0:0:0:
410,207,242398,1,8,0:0:0:0:
410,207,242479,2,0,L|419:275,3,50.5,10|8|10|8,0:0|0:0|0:0|0:0,0:0:0:0:
257,334,242801,5,8,0:0:0:0:
207,326,242883,1,8,0:0:0:0:
157,319,242966,1,10,0:0:0:0:
107,312,243049,1,8,0:0:0:0:
53,284,243132,5,4,0:0:0:0:
52,272,243297,1,0,0:0:0:0:
274,354,243463,2,0,L|364:368,1,75.7500028896333,10|0,0:0|0:0,0:0:0:0:
98,201,243794,1,0,0:0:0:0:
97,189,243953,1,0,0:0:0:0:
348,276,244113,2,0,L|438:262,1,75.7500028896333,8|0,0:0|0:0,0:0:0:0:
143,118,244439,5,0,0:0:0:0:
142,106,244602,1,0,0:0:0:0:
401,176,244765,2,0,L|491:190,1,75.7500028896333,10|0,0:0|0:0,0:0:0:0:
261,337,245091,2,0,L|186:348,2,75.7500028896333,10|0|0,0:0|0:0|0:0,0:0:0:0:
101,359,245580,1,0,0:0:0:0:
349,319,245743,5,6,0:1:0:0:
135,282,245906,1,0,0:0:0:0:
363,233,246069,2,0,L|377:148,1,75.7500028896333,10|0,0:0|0:0,0:0:0:0:
190,66,246395,1,2,0:0:0:0:
53,284,246558,1,0,0:0:0:0:
276,91,246721,2,0,L|267:3,1,75.7500028896333,10|0,0:0|0:0,0:0:0:0:
217,311,247047,5,2,0:0:0:0:
190,66,247208,1,0,0:0:0:0:
332,291,247369,2,0,P|378:294|411:279,1,75.7500028896333,10|2,0:0|0:0,0:0:0:0:
424,259,247614,1,2,0:0:0:0:
428,252,247696,1,2,0:0:0:0:
276,91,247860,1,0,0:0:0:0:
222,336,248024,6,0,B|275:354|275:354|370:296,1,151.5,10|0,0:1|0:0,0:0:0:0:
424,259,248352,5,6,0:0:0:0:
142,298,248515,1,0,0:0:0:0:
366,116,248679,2,0,L|360:212,1,75.7500028896333,10|0,0:0|0:0,0:0:0:0:
434,340,249007,1,2,0:0:0:0:
437,350,249168,1,0,0:0:0:0:
187,199,249329,2,0,P|163:159|164:118,1,75.7500028896333,10|0,0:0|0:0,0:0:0:0:
388,17,249652,5,2,0:0:0:0:
391,27,249815,1,0,0:0:0:0:
493,218,249978,2,0,L|476:299,1,75.7500028896333,10|0,0:0|0:0,0:0:0:0:
251,141,250304,2,0,L|235:66,1,75.7500028896333,2|0,0:0|0:0,0:0:0:0:
499,82,250630,2,0,L|475:195,1,113.62500433445,10|0,0:0|0:0,0:0:0:0:
456,270,250956,5,6,0:1:0:0:
251,141,251119,1,0,0:0:0:0:
305,357,251282,2,0,L|321:282,1,75.7500028896333,10|0,0:0|0:0,0:0:0:0:
115,153,251608,1,2,0:0:0:0:
320,282,251767,1,0,0:0:0:0:
266,66,251927,2,0,L|250:141,1,75.7500028896333,10|0,0:0|0:0,0:0:0:0:
87,261,252246,6,0,L|141:255,1,40.4,10|0,0:0|0:0,0:0:0:0:
250,140,252420,1,8,0:0:0:0:
257,142,252507,1,0,0:0:0:0:
264,144,252594,2,0,L|318:138,1,40.4,10|8,0:0|0:0,0:0:0:0:
398,252,252755,2,0,L|452:258,1,40.4,8|0,0:0|0:0,0:0:0:0:
510,125,252916,5,10,0:0:0:0:
484,52,252997,1,8,0:0:0:0:
426,12,253077,1,10,0:0:0:0:
363,17,253158,1,8,0:0:0:0:
319,50,253239,1,10,0:0:0:0:
301,95,253319,1,8,0:0:0:0:
304,139,253400,1,10,0:0:0:0:
288,173,253481,1,8,0:0:0:0:
265,194,253561,1,8,0:0:0:0:
242,203,253642,1,8,0:0:0:0:
224,206,253724,1,8,0:0:0:0:
212,204,253806,1,8,0:0:0:0:
205,197,253888,6,0,L|196:93,1,90.8999972259522,14|0,0:0|0:0,0:0:0:0:
412,189,254236,1,2,0:0:0:0:
197,106,254389,1,2,0:0:0:0:
426,12,254543,2,0,L|418:103,1,90.8999972259522,10|0,0:0|0:0,0:0:0:0:
188,22,254868,1,2,0:0:0:0:
426,12,255030,1,0,0:0:0:0:
295,204,255193,6,0,L|204:196,1,90.8999972259522,10|0,0:0|0:0,0:0:0:0:
21,104,255518,2,0,L|111:95,1,90.8999972259522,2|0,0:0|0:0,0:0:0:0:
245,282,255843,1,10,0:0:0:0:
7,323,256002,1,0,0:0:0:0:
122,109,256162,1,10,0:0:0:0:
125,129,256241,1,8,0:0:0:0:
128,149,256321,1,8,0:0:0:0:
131,169,256401,1,8,0:0:0:0:
134,189,256481,6,0,L|35:180,1,90.8999972259522,6|0,0:1|0:0,0:0:0:0:
194,25,256825,1,2,0:0:0:0:
245,282,256988,1,2,0:0:0:0:
471,131,257151,2,0,P|489:86|480:40,1,90.8999972259522,10|0,0:0|0:0,0:0:0:0:
392,248,257477,1,2,0:0:0:0:
280,13,257639,1,0,0:0:0:0:
164,234,257802,6,0,L|156:324,1,90.8999972259522,10|2,0:0|0:0,0:0:0:0:
383,160,258127,2,0,L|375:70,1,90.8999972259522,2|0,0:0|0:0,0:0:0:0:
194,25,258452,1,10,0:0:0:0:
245,282,258615,1,0,0:0:0:0:
53,150,258777,1,10,0:0:0:0:
75,146,258859,1,8,0:0:0:0:
97,142,258940,1,8,0:0:0:0:
120,138,259021,1,8,0:0:0:0:
142,134,259103,6,0,L|129:236,1,90.8999972259522,14|0,0:0|0:0,0:0:0:0:
364,108,259440,1,2,0:0:0:0:
130,224,259603,1,2,0:0:0:0:
308,26,259766,2,0,L|399:18,1,90.8999972259522,10|0,0:0|0:0,0:0:0:0:
512,190,260093,1,10,0:0:0:0:
490,188,260174,1,8,0:0:0:0:
467,186,260256,1,8,0:0:0:0:
445,184,260338,1,8,0:0:0:0:
422,182,260419,6,0,L|308:203,1,90.8999972259522,6|0,0:1|0:0,0:0:0:0:
228,379,260746,1,2,0:0:0:0:
120,141,260910,1,2,0:0:0:0:
321,315,261073,2,0,L|411:331,1,90.8999972259522,10|2,0:0|0:0,0:0:0:0:
160,25,261393,21,6,0:0:0:0:
160,25,261558,1,2,0:0:0:0:
128,34,261724,1,10,0:0:0:0:
90,61,261890,1,10,0:0:0:0:
59,121,262055,1,10,0:0:0:0:
58,216,262210,1,2,0:0:0:0:
119,319,262365,1,10,0:0:0:0:
228,379,262529,1,2,0:0:0:0:
363,375,262694,1,10,0:0:0:0:
478,268,262854,1,10,0:0:0:0:
489,95,263014,1,10,0:0:0:0:
324,4,263170,1,2,0:0:0:0:
199,194,263326,5,10,0:0:0:0:
148,207,263410,1,8,0:0:0:0:
98,220,263494,2,0,L|57:215,1,40.4,10|0,0:0|0:0,0:0:0:0:
277,129,263663,1,10,0:0:0:0:
338,144,263747,1,8,0:0:0:0:
399,159,263831,2,0,L|467:150,1,50.5,10|0,0:0|0:0,0:0:0:0:
223,325,264007,5,14,0:0:0:0:
151,365,264087,1,8,0:0:0:0:
71,353,264167,1,10,0:0:0:0:
16,294,264247,1,8,0:0:0:0:
13,212,264327,2,0,P|38:141|58:127,1,60.5999981506348,10|8,0:0|0:0,0:0:0:0:
264,235,264488,5,14,0:1:0:0:
335,276,264568,1,8,0:0:0:0:
414,262,264648,1,10,0:0:0:0:
469,204,264728,1,8,0:0:0:0:
472,123,264809,2,0,P|445:52|425:38,1,60.5999981506348,10|8,0:0|0:0,0:0:0:0:
245,14,264969,5,14,0:0:0:0:
252,93,265049,1,8,0:0:0:0:
260,174,265129,2,0,L|264:252,1,60.5999981506348,10|8,0:0|0:0,0:0:0:0:
54,105,265290,5,14,0:0:0:0:
54,105,265370,1,8,0:0:0:0:
54,105,265450,1,10,0:0:0:0:
47,114,265531,1,8,0:0:0:0:
39,128,265611,1,10,0:0:0:0:
33,149,265692,1,8,0:0:0:0:
31,176,265774,1,10,0:0:0:0:
43,208,265855,1,8,0:0:0:0:
68,237,265937,1,10,0:1:0:0:
111,251,266018,1,8,0:0:0:0:
161,239,266100,1,10,0:0:0:0:
198,195,266181,1,8,0:0:0:0:
257,176,266263,1,10,0:0:0:0:
320,198,266345,1,8,0:0:0:0:
359,259,266428,1,10,0:0:0:0:
345,336,266511,1,8,0:0:0:0:
270,383,266594,5,6,0:0:0:0:
245,354,266676,1,0,0:0:0:0:
231,319,266759,1,0,0:0:0:0:
230,282,266842,1,0,0:0:0:0:
242,246,266925,1,10,0:0:0:0:
265,216,267008,1,0,0:0:0:0:
297,197,267091,1,0,0:0:0:0:
334,189,267174,1,0,0:0:0:0:
371,195,267256,1,2,0:0:0:0:
408,201,267339,1,0,0:0:0:0:
445,193,267422,1,0,0:0:0:0:
477,174,267505,1,0,0:0:0:0:
500,144,267588,1,10,0:0:0:0:
512,108,267671,1,0,0:0:0:0:
511,71,267754,1,0,0:0:0:0:
497,36,267837,1,0,0:0:0:0:
472,7,267919,5,2,0:0:0:0:
434,11,267999,1,0,0:0:0:0:
396,15,268080,1,0,0:0:0:0:
359,19,268160,1,0,0:0:0:0:
321,23,268241,6,0,L|312:91,3,50.5,10|0|0|0,0:0|0:0|0:0|0:0,0:0:0:0:
207,149,268564,2,0,L|270:123,3,50.5,2|0|0|0,0:0|0:0|0:0|0:0,0:0:0:0:
373,185,268886,2,0,L|319:143,3,50.5,10|8|8|8,0:0|0:0|0:0|0:0,0:0:0:0:
154,60,269209,5,6,0:1:0:0:
115,57,269290,1,0,0:0:0:0:
81,73,269372,1,0,0:0:0:0:
57,103,269453,1,0,0:0:0:0:
50,140,269535,1,10,0:0:0:0:
61,176,269616,1,0,0:0:0:0:
88,203,269698,1,0,0:0:0:0:
125,214,269779,1,0,0:0:0:0:
162,208,269861,1,2,0:0:0:0:
192,184,269942,1,0,0:0:0:0:
207,150,270024,1,0,0:0:0:0:
205,111,270105,1,0,0:0:0:0:
185,79,270187,5,10,0:0:0:0:
198,31,270268,1,0,0:0:0:0:
240,4,270350,1,0,0:0:0:0:
289,11,270431,1,0,0:0:0:0:
321,48,270513,1,2,0:0:0:0:
322,97,270594,1,0,0:0:0:0:
290,135,270676,2,0,L|232:125,1,50.5
22,217,270839,5,10,0:0:0:0:
52,192,270920,1,0,0:0:0:0:
89,187,271002,1,0,0:0:0:0:
124,198,271084,1,0,0:0:0:0:
148,223,271165,1,10,0:0:0:0:
175,251,271247,1,8,0:0:0:0:
210,262,271328,1,8,0:0:0:0:
247,257,271410,1,8,0:0:0:0:
275,233,271491,6,0,L|270:295,1,50.5,10|8,0:0|0:0,0:0:0:0:
89,322,271654,2,0,L|84:271,1,50.5,8|8,0:0|0:0,0:0:0:0:
265,364,271817,5,6,0:0:0:0:
297,383,271898,1,0,0:0:0:0:
334,377,271979,1,0,0:0:0:0:
364,356,272061,1,0,0:0:0:0:
383,322,272142,1,10,0:0:0:0:
387,286,272224,1,0,0:0:0:0:
373,251,272305,1,0,0:0:0:0:
347,225,272387,1,0,0:0:0:0:
311,213,272468,1,2,0:0:0:0:
273,202,272550,1,0,0:0:0:0:
247,176,272631,1,0,0:0:0:0:
234,141,272713,1,0,0:0:0:0:
237,105,272794,1,10,0:0:0:0:
256,71,272876,1,0,0:0:0:0:
286,50,272957,1,0,0:0:0:0:
324,45,273039,1,0,0:0:0:0:
359,57,273120,5,2,0:0:0:0:
394,69,273202,1,0,0:0:0:0:
432,64,273283,1,0,0:0:0:0:
462,43,273365,1,0,0:0:0:0:
481,10,273446,6,0,L|488:87,3,50.5,10|0|0|0,0:0|0:0|0:0|0:0,0:0:0:0:
369,146,273772,2,0,L|362:223,3,50.5,2|0|0|0,0:0|0:0|0:0|0:0,0:0:0:0:
501,249,274098,2,0,L|508:326,3,50.5,10|0|0|0,0:0|0:0|0:0|0:0,0:0:0:0:
288,369,274424,5,6,0:1:0:0:
250,371,274505,1,0,0:0:0:0:
214,359,274587,1,0,0:0:0:0:
186,334,274669,1,0,0:0:0:0:
172,300,274751,1,10,0:0:0:0:
172,263,274833,1,0,0:0:0:0:
186,229,274915,1,0,0:0:0:0:
214,204,274997,1,0,0:0:0:0:
250,192,275079,1,2,0:0:0:0:
286,180,275161,1,0,0:0:0:0:
314,155,275243,1,0,0:0:0:0:
328,121,275325,1,0,0:0:0:0:
328,84,275407,1,10,0:0:0:0:
314,50,275489,1,0,0:0:0:0:
286,25,275571,1,0,0:0:0:0:
250,13,275653,1,0,0:0:0:0:
212,15,275735,6,0,L|218:97,1,50.5,10|8,0:0|0:0,0:0:0:0:
339,187,275899,2,0,L|342:136,1,50.5,8|8,0:0|0:0,0:0:0:0:
132,65,276064,2,0,L|135:115,1,50.5,10|8,0:0|0:0,0:0:0:0:
404,25,276229,2,0,L|400:75,1,50.5,10|8,0:0|0:0,0:0:0:0:
391,330,276394,5,10,0:0:0:0:
448,275,276475,1,8,0:0:0:0:
449,202,276557,1,10,0:0:0:0:
405,150,276638,1,8,0:0:0:0:
343,137,276720,1,10,0:0:0:0:
290,163,276801,1,8,0:0:0:0:
261,209,276883,1,10,0:0:0:0:
216,226,276964,1,8,0:0:0:0:
173,220,277046,1,6,0:0:0:0:
146,195,277127,1,0,0:0:0:0:
131,166,277209,1,0,0:0:0:0:
129,140,277290,1,0,0:0:0:0:
131,120,277372,6,0,L|203:130,3,50.5,10|0|0|0,0:0|0:0|0:0|0:0,0:0:0:0:
253,81,277698,1,2,0:0:0:0:
262,82,277779,2,0,L|334:92,1,50.5
86,187,277942,1,0,0:0:0:0:
95,188,278024,2,0,L|167:198,1,50.5,10|0,0:0|0:0,0:0:0:0:
151,0,278187,2,0,L|223:10,1,50.5
251,200,278350,5,6,0:0:0:0:
281,224,278430,1,0,0:0:0:0:
317,232,278511,1,0,0:0:0:0:
354,223,278592,1,0,0:0:0:0:
382,198,278673,1,10,0:0:0:0:
410,174,278754,1,0,0:0:0:0:
446,164,278834,1,0,0:0:0:0:
483,172,278915,1,0,0:0:0:0:
512,196,278996,6,0,L|504:266,3,50.5,2|0|0|0,0:0|0:0|0:0|0:0,0:0:0:0:
435,354,279319,2,0,L|429:303,3,50.5,10|0|0|0,0:0|0:0|0:0|0:0,0:0:0:0:
405,75,279643,5,6,0:0:0:0:
439,114,279724,1,0,0:0:0:0:
446,164,279806,1,0,0:0:0:0:
425,210,279887,1,0,0:0:0:0:
382,237,279969,1,10,0:0:0:0:
332,237,280051,1,0,0:0:0:0:
289,210,280132,1,0,0:0:0:0:
268,164,280215,1,0,0:0:0:0:
276,114,280295,5,6,0:1:0:0:
282,76,280377,1,0,0:0:0:0:
266,42,280459,1,0,0:0:0:0:
233,22,280540,1,0,0:0:0:0:
196,22,280622,1,10,0:0:0:0:
163,42,280704,1,0,0:0:0:0:
148,76,280785,1,0,0:0:0:0:
153,114,280867,1,0,0:0:0:0:
178,143,280948,5,6,0:0:0:0:
218,173,281030,1,0,0:0:0:0:
248,214,281112,1,0,0:0:0:0:
258,263,281193,1,0,0:0:0:0:
248,313,281275,1,10,0:0:0:0:
218,353,281357,1,0,0:0:0:0:
174,379,281438,1,0,0:0:0:0:
124,384,281520,1,0,0:0:0:0:
76,368,281601,1,2,0:0:0:0:
38,334,281683,1,2,0:0:0:0:
18,288,281765,1,2,0:0:0:0:
18,238,281846,1,0,0:0:0:0:
38,192,281928,2,0,L|109:208,3,50.5,10|0|0|0,0:0|0:0|0:0|0:0,0:0:0:0:
248,313,282254,5,6,0:0:0:0:
296,325,282335,1,0,0:0:0:0:
343,306,282417,1,0,0:0:0:0:
367,261,282498,1,0,0:0:0:0:
360,211,282580,1,10,0:0:0:0:
326,173,282661,1,0,0:0:0:0:
275,167,282743,1,0,0:0:0:0:
236,134,282824,1,0,0:0:0:0:
228,84,282906,1,2,0:0:0:0:
252,39,282987,1,0,0:0:0:0:
298,17,283069,1,0,0:0:0:0:
346,28,283150,1,0,0:0:0:0:
378,66,283232,2,0,L|375:117,3,50.5,10|0|0|0,0:0|0:0|0:0|0:0,0:0:0:0:
248,313,283558,5,6,0:1:0:0:
197,313,283640,1,0,0:0:0:0:
156,284,283722,1,0,0:0:0:0:
141,236,283804,1,0,0:0:0:0:
156,188,283886,1,10,0:0:0:0:
197,158,283968,1,0,0:0:0:0:
248,158,284050,1,0,0:0:0:0:
288,188,284132,1,0,0:0:0:0:
328,218,284214,1,10,0:0:0:0:
379,218,284296,1,8,0:0:0:0:
420,188,284378,1,10,0:0:0:0:
435,140,284460,1,8,0:0:0:0:
420,92,284542,2,0,L|355:85,1,60.5999981506348,10|8,0:0|0:0,0:0:0:0:
265,234,284707,2,0,L|330:227,1,60.5999981506348,10|8,0:0|0:0,0:0:0:0:
469,19,284871,6,0,L|404:12,1,50.5,14|8,0:0|0:0,0:0:0:0:
134,103,285034,1,10,0:0:0:0:
107,169,285115,1,8,0:0:0:0:
134,234,285197,1,10,0:0:0:0:
200,261,285278,1,8,0:0:0:0:
265,234,285360,2,0,L|329:244,1,50.5,10|8,0:0|0:0,0:0:0:0:
253,43,285523,6,0,L|189:53,1,50.5,14|8,0:1|0:0,0:0:0:0:
32,136,285686,1,10,0:0:0:0:
7,195,285767,1,8,0:0:0:0:
32,253,285849,1,10,0:0:0:0:
91,278,285930,1,8,0:0:0:0:
150,253,286012,2,0,L|207:262,1,50.5,10|0,0:0|0:0,0:0:0:0:
284,142,286175,5,14,0:0:0:0:
330,121,286256,1,8,0:0:0:0:
376,142,286338,1,10,0:0:0:0:
396,188,286419,1,8,0:0:0:0:
376,234,286501,6,0,L|326:226,3,50.5,10|8|10|8,0:0|0:0|0:1|0:0,0:0:0:0:
265,94,286827,2,0,L|283:141,3,50.5,10|8|10|8,0:0|0:0|0:0|0:0,0:0:0:0:
199,260,287151,2,0,L|230:220,3,50.5,14|8|10|8,0:0|0:0|0:0|0:0,0:0:0:0:
337,40,287475,5,6,0:0:0:0:
398,51,287556,1,0,0:0:0:0:
428,102,287637,1,0,0:0:0:0:
417,162,287719,1,0,0:0:0:0:
371,199,287800,1,10,0:0:0:0:
311,196,287882,1,0,0:0:0:0:
272,151,287963,1,0,0:0:0:0:
215,136,288045,1,0,0:0:0:0:
157,150,288126,1,10,0:0:0:0:
118,198,288208,1,0,0:0:0:0:
112,258,288289,1,0,0:0:0:0:
142,310,288371,1,0,0:0:0:0:
195,338,288452,1,10,0:0:0:0:
235,294,288534,1,0,0:0:0:0:
293,277,288615,1,0,0:0:0:0:
350,294,288697,1,0,0:0:0:0:
391,338,288778,5,10,0:0:0:0:
447,354,288860,1,0,0:0:0:0:
498,324,288941,1,0,0:0:0:0:
512,267,289023,1,0,0:0:0:0:
483,216,289104,6,0,L|489:156,3,60.5999981506348,10|0|0|0,0:0|0:0|0:0|0:0,0:0:0:0:
350,294,289430,2,0,L|356:234,3,60.5999981506348,10|0|0|0,0:0|0:0|0:0|0:0,0:0:0:0:
217,372,289756,2,0,L|223:312,3,60.5999981506348,10|0|0|0,0:0|0:0|0:0|0:0,0:0:0:0:
414,358,290082,5,6,0:1:0:0:
460,321,290163,1,0,0:0:0:0:
466,262,290245,1,0,0:0:0:0:
429,216,290326,1,0,0:0:0:0:
371,209,290408,1,10,0:0:0:0:
321,244,290489,1,0,0:0:0:0:
261,244,290571,1,0,0:0:0:0:
212,208,290652,1,0,0:0:0:0:
193,151,290734,1,10,0:0:0:0:
212,93,290815,1,0,0:0:0:0:
261,58,290897,1,0,0:0:0:0:
321,58,290978,1,0,0:0:0:0:
371,93,291060,5,10,0:0:0:0:
313,136,291141,1,0,0:0:0:0:
241,132,291222,1,0,0:0:0:0:
191,81,291304,1,0,0:0:0:0:
133,38,291385,1,10,0:0:0:0:
61,42,291467,1,0,0:0:0:0:
11,93,291548,2,0,L|17:169,1,60.5999981506348
86,315,291711,5,10,0:0:0:0:
142,340,291793,1,0,0:0:0:0:
204,336,291874,1,0,0:0:0:0:
258,306,291956,1,0,0:0:0:0:
293,254,292037,1,10,0:0:0:0:
328,204,292119,1,8,0:0:0:0:
381,172,292200,1,0,0:0:0:0:
443,170,292282,1,0,0:0:0:0:
500,195,292363,6,0,L|506:118,1,60.5999981506348,10|8,0:0|0:0,0:0:0:0:
266,76,292526,2,0,L|270:136,1,60.5999981506348,10|8,0:0|0:0,0:0:0:0:
371,333,292689,5,6,0:0:0:0:
431,338,292771,1,0,0:0:0:0:
485,311,292852,1,0,0:0:0:0:
510,255,292933,1,0,0:0:0:0:
500,195,293015,1,10,0:0:0:0:
457,154,293096,1,0,0:0:0:0:
397,145,293178,1,0,0:0:0:0:
345,174,293259,1,0,0:0:0:0:
316,229,293341,1,10,0:0:0:0:
290,284,293422,1,0,0:0:0:0:
237,312,293504,1,0,0:0:0:0:
176,304,293585,1,0,0:0:0:0:
134,261,293667,1,10,0:0:0:0:
125,203,293748,1,0,0:0:0:0:
150,146,293830,1,0,0:0:0:0:
202,119,293911,1,0,0:0:0:0:
264,125,293993,5,10,0:0:0:0:
325,136,294074,1,0,0:0:0:0:
380,114,294156,1,0,0:0:0:0:
409,59,294237,1,0,0:0:0:0:
406,1,294319,6,0,P|372:0|334:24,3,60.5999981506348,10|0|0|0,0:0|0:0|0:0|0:0,0:0:0:0:
262,26,294645,2,0,P|244:54|245:99,3,60.5999981506348,10|0|0|0,0:0|0:0|0:0|0:0,0:0:0:0:
211,163,294974,2,0,P|227:192|266:213,3,60.5999981506348,10|0|0|0,0:0|0:0|0:0|0:0,0:0:0:0:
341,220,295304,5,6,0:1:0:0:
361,179,295385,1,0,0:0:0:0:
356,132,295467,1,0,0:0:0:0:
329,93,295548,1,0,0:0:0:0:
286,74,295630,1,10,0:0:0:0:
241,80,295711,1,0,0:0:0:0:
203,108,295793,1,0,0:0:0:0:
184,151,295874,1,0,0:0:0:0:
190,196,295956,1,10,0:0:0:0:
172,238,296037,1,0,0:0:0:0:
136,266,296119,1,0,0:0:0:0:
89,271,296200,1,0,0:0:0:0:
46,253,296282,1,10,0:0:0:0:
18,215,296363,1,0,0:0:0:0:
16,169,296445,1,10,0:0:0:0:
34,125,296526,1,8,0:0:0:0:
73,99,296608,6,0,L|81:179,1,60.5999981506348,10|8,0:0|0:0,0:0:0:0:
203,14,296771,2,0,L|195:94,1,60.5999981506348,10|8,0:0|0:0,0:0:0:0:
259,241,296934,2,0,L|251:161,1,60.5999981506348,10|8,0:0|0:0,0:0:0:0:
129,326,297097,2,0,L|137:246,1,60.5999981506348,10|8,0:0|0:0,0:0:0:0:
73,99,297260,5,10,0:0:0:0:
123,28,297342,1,8,0:0:0:0:
203,14,297423,1,10,0:0:0:0:
267,54,297505,1,8,0:0:0:0:
290,121,297586,1,10,0:0:0:0:
270,182,297668,1,8,0:0:0:0:
224,221,297749,1,10,0:0:0:0:
212,272,297831,1,8,0:0:0:0:
226,317,297912,1,6,0:0:0:0:
257,344,297994,1,0,0:0:0:0:
290,356,298075,1,0,0:0:0:0:
319,354,298157,1,0,0:0:0:0:
341,348,298238,6,0,L|345:277,3,60.5999981506348,10|0|0|0,0:0|0:0|0:0|0:0,0:0:0:0:
391,224,298564,1,10,0:0:0:0:
392,216,298646,2,0,L|396:145,1,60.5999981506348
442,92,298809,1,0,0:0:0:0:
443,84,298890,2,0,L|447:13,1,60.5999981506348,10|0,0:0|0:0,0:0:0:0:
309,177,299054,2,0,L|313:106,1,60.5999981506348
119,39,299217,5,14,0:0:0:0:
124,82,299298,1,0,0:0:0:0:
129,127,299380,1,0,0:0:0:0:
134,172,299462,1,0,0:0:0:0:
112,185,299544,5,10,0:0:0:0:
109,210,299626,1,0,0:0:0:0:
106,235,299708,1,0,0:0:0:0:
103,260,299790,1,0,0:0:0:0:
95,310,299872,5,14,0:0:0:0:
144,343,299954,1,0,0:0:0:0:
205,340,300036,1,0,0:0:0:0:
254,305,300118,1,0,0:0:0:0:
268,247,300200,6,0,L|259:176,3,60.5999981506348,10|0|0|0,0:0|0:0|0:0|0:0,0:0:0:0:
294,40,300528,5,6,0:0:0:0:
352,22,300609,1,0,0:0:0:0:
410,41,300690,1,0,0:0:0:0:
444,90,300772,1,0,0:0:0:0:
446,152,300853,2,0,L|438:212,3,60.5999981506348,10|0|0|0,0:0|0:0|0:0|0:0,0:0:0:0:
344,299,301178,5,6,0:1:0:0:
301,280,301260,1,0,0:0:0:0:
257,283,301341,1,0,0:0:0:0:
219,306,301422,1,0,0:0:0:0:
196,345,301504,2,0,L|126:332,3,60.5999981506348,10|0|0|0,0:0|0:0|0:0|0:0,0:0:0:0:
9,141,301829,5,6,0:0:0:0:
56,179,301910,1,0,0:0:0:0:
117,191,301992,1,0,0:0:0:0:
177,176,302073,1,0,0:0:0:0:
224,135,302154,1,10,0:0:0:0:
272,100,302236,1,0,0:0:0:0:
332,93,302317,1,0,0:0:0:0:
387,116,302398,1,0,0:0:0:0:
424,163,302480,1,10,0:0:0:0:
433,223,302561,1,2,0:0:0:0:
413,279,302642,1,2,0:0:0:0:
367,318,302724,1,0,0:0:0:0:
308,330,302805,2,0,L|238:317,3,60.5999981506348,10|0|0|0,0:0|0:0|0:0|0:0,0:0:0:0:
99,353,303131,5,14,0:0:0:0:
38,342,303212,1,0,0:0:0:0:
8,291,303294,1,0,0:0:0:0:
19,231,303375,1,0,0:0:0:0:
65,194,303457,1,10,0:0:0:0:
125,197,303538,1,0,0:0:0:0:
164,242,303620,1,0,0:0:0:0:
221,257,303701,1,0,0:0:0:0:
279,243,303783,1,10,0:0:0:0:
318,195,303864,1,0,0:0:0:0:
324,135,303946,1,0,0:0:0:0:
294,83,304027,1,0,0:0:0:0:
241,55,304109,2,0,L|171:68,3,60.5999981506348,10|8|10|0,0:0|0:0|0:0|0:0,0:0:0:0:
34,272,304435,5,10,0:1:0:0:
60,286,304517,1,8,0:0:0:0:
97,290,304599,1,10,0:0:0:0:
135,277,304682,1,8,0:0:0:0:
164,242,304764,1,14,0:0:0:0:
172,191,304847,1,0,0:0:0:0:
145,141,304929,1,0,0:0:0:0:
87,119,305011,1,0,0:0:0:0:
24,143,305094,5,10,0:0:0:0:
71,199,305176,1,8,0:0:0:0:
140,218,305259,1,10,0:0:0:0:
209,198,305341,1,8,0:0:0:0:
252,141,305424,1,10,0:0:0:0:
299,86,305506,1,8,0:0:0:0:
368,67,305588,1,10,0:0:0:0:
437,87,305671,1,8,0:0:0:0:
480,143,305753,6,0,L|474:224,1,50.5,14|0,0:0|0:0,0:0:0:0:
399,354,305913,2,0,L|396:303,1,50.5,2|0,0:0|0:0,0:0:0:0:
299,207,306073,2,0,L|344:229,1,50.5,8|0,0:0|0:0,0:0:0:0:
476,193,306234,2,0,L|433:221,1,50.5,2|0,0:0|0:0,0:0:0:0:
291,47,306394,6,0,L|284:133,1,55.5500016952515,8|0,0:0|0:0,0:0:0:0:
205,274,306555,2,0,L|201:219,1,55.5500016952515,2|0,0:0|0:0,0:0:0:0:
98,117,306715,2,0,L|146:141,1,55.5500016952515,8|0,0:0|0:0,0:0:0:0:
287,102,306878,2,0,L|241:132,1,55.5500016952515,2|0,0:0|0:0,0:0:0:0:
67,257,307041,6,0,L|116:224,1,60.5999981506348,8|0,0:0|0:0,0:0:0:0:
181,4,307204,2,0,L|184:63,1,60.5999981506348,2|0,0:0|0:0,0:0:0:0:
344,229,307367,2,0,L|290:202,1,60.5999981506348,8|0,0:0|0:0,0:0:0:0:
94,56,307530,2,0,L|97:115,1,60.5999981506348,10|0,0:0|0:0,0:0:0:0:
230,313,307693,6,0,L|240:131,1,181.799994451904,2|0,0:0|0:0,0:0:0:0:
243,58,308019,1,8,0:0:0:0:
296,31,308100,1,0,0:0:0:0:
353,46,308182,1,2,0:0:0:0:
387,94,308263,1,0,0:0:0:0:
381,153,308345,6,0,B|354:168|354:168|316:160,1,55.5500016952515,12|0,0:1|0:0,0:0:0:0:
208,18,308508,2,0,B|234:33|234:33|246:70,1,55.5500016952515,2|0,0:0|0:0,0:0:0:0:
178,236,308672,2,0,B|178:205|178:205|204:176,1,55.5500016952515,8|0,0:0|0:0,0:0:0:0:
386,160,308836,2,0,B|359:175|359:175|321:167,1,55.5500016952515
228,265,309000,6,0,P|201:242|167:234,1,60.5999981506348,8|0,0:0|0:0,0:0:0:0:
96,84,309163,2,0,P|90:118|100:152,1,60.5999981506348
6,289,309327,2,0,P|38:277|62:251,1,60.5999981506348,8|0,0:0|0:0,0:0:0:0:
79,0,309491,2,0,P|46:11|22:37,1,60.5999981506348,2|0,0:0|0:0,0:0:0:0:
215,165,309655,6,0,L|287:169,1,65.6499969947816,8|0,0:0|0:0,0:0:0:0:
453,32,309818,2,0,L|387:35,1,65.6499969947816,2|0,0:0|0:0,0:0:0:0:
169,81,309982,2,0,L|241:77,1,65.6499969947816,8|0,0:0|0:0,0:0:0:0:
487,118,310146,2,0,L|421:114,1,65.6499969947816,10|0,0:0|0:0,0:0:0:0:
106,244,310310,5,8,0:0:0:0:
168,196,310391,1,8,0:0:0:0:
237,193,310473,1,10,0:0:0:0:
291,221,310555,1,8,0:0:0:0:
324,264,310637,1,10,0:0:0:0:
363,280,310719,1,8,0:0:0:0:
403,287,310801,1,10,0:0:0:0:
432,276,310883,1,8,0:0:0:0:
451,264,310965,6,0,L|443:181,1,60.5999981506348,12|0,0:0|0:0,0:0:0:0:
376,94,311128,2,0,L|370:154,1,60.5999981506348,2|0,0:0|0:0,0:0:0:0:
368,340,311291,2,0,L|360:257,1,60.5999981506348,8|0,0:0|0:0,0:0:0:0:
290,142,311454,2,0,L|284:202,1,60.5999981506348,2|0,0:0|0:0,0:0:0:0:
504,302,311617,6,0,L|447:261,1,65.6499969947816,8|0,0:0|0:0,0:0:0:0:
382,28,311778,2,0,L|375:97,1,65.6499969947816,2|0,0:0|0:0,0:0:0:0:
206,271,311939,2,0,L|269:242,1,65.6499969947816,8|0,0:0|0:0,0:0:0:0:
459,64,312100,2,0,L|452:133,1,65.6499969947816,2|0,0:0|0:0,0:0:0:0:
211,170,312262,6,0,P|204:131|222:95,1,70.6999978424073,12|0,0:0|0:0,0:0:0:0:
382,28,312425,2,0,P|351:52|311:55,1,70.6999978424073,2|0,0:0|0:0,0:0:0:0:
118,16,312588,2,0,P|156:9|192:27,1,70.6999978424073,8|0,0:0|0:0,0:0:0:0:
357,136,312751,2,0,P|324:148|289:141,1,70.6999978424073,10|0,0:0|0:0,0:0:0:0:
45,58,312914,5,8,0:0:0:0:
205,270,313077,2,0,L|198:317,2,47.1333318949382,2|0|0,0:0|0:0|0:0,0:0:0:0:
217,187,313240,1,8,0:0:0:0:
28,340,313403,1,10,0:0:0:0:
305,376,313566,5,4,0:0:0:0:
342,343,313647,1,0,0:0:0:0:
356,295,313729,1,2,0:0:0:0:
343,247,313810,1,0,0:0:0:0:
307,213,313892,1,8,0:0:0:0:
266,184,313973,1,8,0:0:0:0:
251,135,314055,1,2,0:0:0:0:
266,87,314137,1,8,0:0:0:0:
307,58,314218,1,10,0:0:0:0:
358,58,314300,1,8,0:0:0:0:
399,87,314381,1,10,0:0:0:0:
414,135,314463,1,8,0:0:0:0:
399,184,314544,2,0,L|340:179,3,45.4499986129761,10|8|10|8,0:0|0:0|0:0|0:0,0:0:0:0:
117,84,314871,5,10,0:1:0:0:
52,117,314953,1,8,0:0:0:0:
35,179,315035,1,10,0:0:0:0:
59,231,315117,1,8,0:0:0:0:
104,252,315199,1,10,0:0:0:0:
156,246,315279,1,8,0:0:0:0:
188,216,315359,1,10,0:0:0:0:
193,182,315439,1,8,0:0:0:0:
183,157,315519,6,0,L|93:169,2,47.1333318949382,14|8|8,0:0|0:0|0:0,0:0:0:0:
344,261,315848,2,0,L|434:273,2,47.1333318949382,14|8|8,0:1|0:0|0:0,0:0:0:0:
160,363,316167,5,4,0:0:0:0:
256,192,316248,12,4,318460,0:0:0:0:
375,303,324333,5,2,0:0:0:0:
240,209,324496,1,8,0:0:0:0:
240,209,324577,1,8,0:0:0:0:
240,209,324659,2,0,L|145:225,1,70.6999978424073,8|2,0:0|0:0,0:0:0:0:
251,125,324985,1,8,0:0:0:0:
86,229,325148,1,10,0:0:0:0:
323,173,325311,6,0,P|335:106|295:50,2,141.399995684815,6|2|8,0:0|0:0|0:0,0:0:0:0:
173,292,326278,1,2,0:0:0:0:
388,96,326440,2,0,L|373:260,1,141.399995684815,0|2,0:0|0:0,0:0:0:0:
253,276,326923,2,0,L|300:269,2,47.1333318949382,8|8|8,0:0|0:0|0:0,0:0:0:0:
173,292,327256,1,0,0:0:0:0:
366,317,327419,1,8,0:0:0:0:
252,44,327582,6,0,L|267:208,2,141.399995684815,6|2|8,0:1|0:0|0:0,0:0:0:0:
277,267,328559,1,2,0:0:0:0:
49,164,328722,2,0,L|129:172,1,70.6999978424073,2|0,0:0|0:0,0:0:0:0:
220,327,329047,1,2,0:0:0:0:
177,93,329210,2,0,L|257:101,1,70.6999978424073,10|2,0:0|0:0,0:0:0:0:
70,251,329536,1,8,0:0:0:0:
228,17,329699,1,8,0:0:0:0:
292,247,329862,6,0,B|238:242|238:242|211:261|211:261|139:254,2,141.399995684815,6|2|8,0:0|0:0|0:0,0:0:0:0:
70,251,330837,1,2,0:0:0:0:
262,325,331000,2,0,B|316:331|316:331|343:312|343:312|397:317,1,141.399995684815,2|2,0:0|0:0,0:0:0:0:
484,242,331488,2,0,L|479:290,2,47.1333318949382,8|8|8,0:0|0:0|0:0,0:0:0:0:
471,371,331813,1,0,0:0:0:0:
494,155,331981,1,8,0:0:0:0:
262,325,332150,6,0,L|112:306,2,141.399995684815,6|2|8,0:1|0:0|0:0,0:0:0:0:
39,296,333121,1,2,0:0:0:0:
199,156,333286,2,0,L|277:147,1,70.6999978424073,2|4,0:0|0:1,0:0:0:0:
315,261,333618,1,8,0:0:0:0:
315,261,333701,1,8,0:0:0:0:
315,261,333783,5,2,0:0:0:0:
414,147,333949,1,8,0:0:0:0:
228,70,334115,1,2,0:0:0:0:
262,325,334275,1,8,0:0:0:0:
488,190,334435,6,0,P|497:126|387:69,1,202,6|2,0:0|0:0,0:0:0:0:
232,46,334924,1,0,0:0:0:0:
259,284,335087,2,0,B|292:222|292:222|258:113,1,171.700003274918,8|2,0:0|0:0,0:0:0:0:
43,209,335576,1,0,0:0:0:0:
229,360,335740,6,0,B|267:378|304:355|297:351|328:333|366:350,1,141.399995684815,2|0,0:0|0:0,0:0:0:0:
152,327,336231,1,0,0:0:0:0:
415,269,336395,2,0,P|451:204|358:121,1,202,8|8,0:0|0:0,0:0:0:0:
318,174,336805,1,8,0:0:0:0:
301,179,336887,1,8,0:0:0:0:
284,178,336969,1,8,0:0:0:0:
267,172,337051,6,0,B|219:145|219:145|126:167,1,141.399995684815,2|2,0:0|0:0,0:0:0:0:
0,296,337543,1,0,0:0:0:0:
248,342,337707,2,0,L|268:161,1,171.700003274918,8|2,0:0|0:0,0:0:0:0:
188,56,338193,6,0,L|339:72,1,128.775002456188,2|0,0:0|0:0,0:0:0:0:
345,78,338517,2,0,L|197:97,1,141.399995684815
119,112,338922,1,0,0:0:0:0:
119,112,339003,1,8,0:0:0:0:
428,65,339327,1,10,0:0:0:0:
299,333,339652,6,0,P|325:266|310:194,1,141.399995684815,6|2,0:0|0:0,0:0:0:0:
209,359,340145,1,0,0:0:0:0:
66,172,340310,2,0,L|255:154,1,171.700003274918,8|0,0:0|0:0,0:0:0:0:
383,34,340804,1,2,0:0:0:0:
494,211,340968,6,0,L|399:202,1,85.8500016374588,2|2,0:0|0:0,0:0:0:0:
356,151,341215,1,0,0:0:0:0:
346,150,341298,2,0,L|251:158,1,85.8500016374588,2|0,0:0|0:0,0:0:0:0:
44,264,341627,2,0,L|214:280,1,141.399995684815,8|2,0:0|0:0,0:0:0:0:
298,73,342108,1,2,0:0:0:0:
444,258,342268,6,0,B|381:229|381:229|333:258|333:258|253:239,1,202,2|0,0:0|0:0,0:0:0:0:
258,241,342756,1,2,0:0:0:0:
498,177,342919,2,0,P|508:136|481:66,1,101,8|0,0:0|0:0,0:0:0:0:
254,55,343245,1,2,0:0:0:0:
492,80,343408,1,2,0:0:0:0:
239,53,343733,5,8,0:0:0:0:
346,296,343896,2,0,L|355:193,1,101,2|2,0:0|0:0,0:0:0:0:
411,147,344140,1,0,0:0:0:0:
411,136,344222,2,0,L|402:33,1,101,8|2,0:0|0:0,0:0:0:0:
264,241,344554,1,8,0:0:0:0:
492,80,344720,1,10,0:0:0:0:
506,316,344886,6,0,L|342:295,1,161.6,6|2,0:0|0:0,0:0:0:0:
147,373,345359,1,0,0:0:0:0:
147,373,345438,1,0,0:0:0:0:
147,373,345517,2,0,L|135:266,1,90.8999972259522,8|2,0:0|0:0,0:0:0:0:
217,129,345843,2,0,L|206:219,1,90.8999972259522,2|0,0:0|0:0,0:0:0:0:
238,369,346169,5,2,0:0:0:0:
92,198,346332,1,0,0:0:0:0:
308,306,346495,2,0,L|405:323,1,90.8999972259522,2|0,0:0|0:0,0:0:0:0:
494,143,346825,2,0,B|317:163,1,161.6,8|2,0:0|0:0,0:0:0:0:
249,0,347321,1,2,0:0:0:0:
249,0,347404,1,0,0:0:0:0:
249,0,347486,6,0,B|261:38|250:74|250:74|267:111|267:111|240:150|256:205,1,202,6|2,0:1|0:0,0:0:0:0:
87,277,347986,1,2,0:0:0:0:
87,277,348069,1,0,0:0:0:0:
87,277,348152,2,0,P|122:249|123:175,1,101,8|0,0:0|0:0,0:0:0:0:
121,34,348479,2,0,P|127:78|191:116,1,101,2|0,0:0|0:0,0:0:0:0:
314,184,348807,5,2,0:0:0:0:
62,137,348964,1,8,0:0:0:0:
281,272,349122,2,0,L|388:264,1,80.8,2|2,0:0|0:0,0:0:0:0:
441,84,349438,5,8,0:0:0:0:
421,106,349517,1,8,0:0:0:0:
412,135,349596,1,8,0:0:0:0:
416,165,349675,1,8,0:0:0:0:
433,190,349754,5,8,0:0:0:0:
461,155,349835,1,8,0:0:0:0:
474,112,349917,1,8,0:0:0:0:
468,67,349998,1,8,0:0:0:0:
443,29,350080,6,0,L|251:54,1,161.6,6|2,0:0|0:0,0:0:0:0:
222,264,350574,1,2,0:0:0:0:
222,264,350656,1,0,0:0:0:0:
222,264,350739,2,0,P|259:176|215:109,1,181.799994451904,8|2,0:0|0:0,0:0:0:0:
138,77,351250,1,2,0:0:0:0:
95,200,351420,6,0,L|189:186,1,80.8,2|8,0:0|0:0,0:0:0:0:
377,294,351726,1,2,0:0:0:0:
174,188,351889,1,2,0:0:0:0:
399,124,352052,2,0,L|389:204,1,80.8,8|2,0:0|0:0,0:0:0:0:
408,43,352378,1,8,0:0:0:0:
247,233,352541,1,10,0:0:0:0:
207,38,352704,5,2,0:0:0:0:
389,204,352867,1,8,0:0:0:0:
408,43,353030,2,0,L|398:123,1,80.8,2|2,0:0|0:0,0:0:0:0:
202,306,353359,1,8,0:0:0:0:
292,160,353524,1,2,0:0:0:0:
292,160,353606,1,2,0:0:0:0:
292,160,353689,1,8,0:0:0:0:
373,310,353849,1,10,0:0:0:0:
355,96,354009,5,10,0:0:0:0:
308,74,354087,1,8,0:0:0:0:
257,78,354166,1,8,0:0:0:0:
216,108,354244,1,8,0:0:0:0:
202,156,354323,2,0,L|208:215,1,50.5,2|8,0:0|0:0,0:0:0:0:
279,295,354482,2,0,L|284:244,1,50.5,8|8,0:0|0:0,0:0:0:0:
126,339,354642,5,10,0:0:0:0:
77,329,354723,1,8,0:0:0:0:
45,291,354805,1,8,0:0:0:0:
44,242,354887,1,8,0:0:0:0:
75,203,354969,5,10,0:0:0:0:
100,175,355051,1,8,0:0:0:0:
110,138,355133,1,8,0:0:0:0:
104,101,355215,1,8,0:0:0:0:
82,71,355297,6,0,B|157:101|157:101|212:77|212:77|218:78|218:78|291:43,1,222.200006781006,6|8,0:0|0:0,0:0:0:0:
512,270,355797,2,0,B|417:257|417:257|411:267|408:256|408:256|285:236,1,222.200006781006,2|0,0:0|0:0,0:0:0:0:
286,45,356297,2,0,P|311:98|267:164,1,131.299993989563,8|0,0:0|0:0,0:0:0:0:
64,314,356630,6,0,B|163:330|163:330|165:341|165:341|169:330|169:330|227:303|227:303|231:311|231:311|232:302|232:302|302:323|302:323|308:330|308:330|315:321|315:321|410:284,1,393.89998196869,2|2,0:0|0:0,0:0:0:0:
480,161,357271,1,2,0:0:0:0:
229,263,357432,1,0,0:0:0:0:
443,350,357592,2,0,B|446:290|446:290|442:287|442:287|445:229,1,111.100003390503,8|0,0:0|0:0,0:0:0:0:
326,104,357913,5,6,0:0:0:0:
386,134,357994,1,0,0:0:0:0:
399,199,358076,1,0,0:0:0:0:
366,252,358157,1,0,0:0:0:0:
311,265,358239,1,10,0:0:0:0:
263,245,358320,1,0,0:0:0:0:
240,206,358402,1,0,0:0:0:0:
240,166,358483,1,0,0:0:0:0:
253,140,358565,5,6,1:1:0:0:
326,152,358646,1,0,0:0:0:0:
365,214,358728,1,2,0:0:0:0:
353,286,358809,1,0,0:0:0:0:
297,325,358891,1,10,0:0:0:0:
235,322,358972,1,0,0:0:0:0:
189,287,359054,1,0,0:0:0:0:
173,240,359135,1,0,0:0:0:0:
181,201,359217,5,6,0:0:0:0:
227,135,359299,1,0,0:0:0:0:
209,56,359382,1,0,0:0:0:0:
144,8,359465,1,0,0:0:0:0:
69,23,359548,1,10,0:0:0:0:
24,74,359631,1,0,0:0:0:0:
15,136,359714,1,0,0:0:0:0:
38,185,359797,1,0,0:0:0:0:
80,212,359879,5,2,0:0:0:0:
105,209,359960,1,0,0:0:0:0:
130,206,360042,1,2,0:0:0:0:
155,203,360123,1,0,0:0:0:0:
181,182,360205,5,10,0:0:0:0:
199,183,360286,1,0,0:0:0:0:
217,185,360368,1,0,0:0:0:0:
235,187,360449,1,0,0:0:0:0:
267,205,360531,5,6,0:0:0:0:
267,205,360612,1,0,0:0:0:0:
267,205,360693,2,0,L|257:132,1,50.5
322,96,360856,1,10,0:0:0:0:
322,96,360938,1,0,0:0:0:0:
322,96,361019,2,0,L|312:23,1,50.5
212,314,361182,5,2,0:0:0:0:
212,314,361264,1,0,0:0:0:0:
212,314,361345,2,0,L|202:241,1,50.5,2|0,0:0|0:0,0:0:0:0:
396,190,361508,1,10,0:0:0:0:
396,190,361590,1,0,0:0:0:0:
396,190,361671,2,0,L|386:117,1,50.5
267,58,361834,5,2,0:0:0:0:
235,49,361916,1,0,0:0:0:0:
203,54,361997,1,0,0:0:0:0:
172,45,362079,1,0,0:0:0:0:
141,36,362160,1,10,0:0:0:0:
115,39,362242,1,0,0:0:0:0:
96,35,362323,1,0,0:0:0:0:
84,31,362405,1,0,0:0:0:0:
78,30,362486,6,0,B|12:26|12:26|6:24|6:24|9:30|9:30|26:116|26:116|26:123|26:123|30:119|30:119|270:58,1,424.199987054444,2|0,0:0|0:0,0:0:0:0:
200,262,363138,5,6,0:0:0:0:
349,39,363297,1,0,0:0:0:0:
318,225,363457,1,10,0:0:0:0:
164,0,363616,1,0,0:0:0:0:
333,132,363776,5,2,0:0:0:0:
78,30,363940,1,2,0:0:0:0:
82,299,364105,1,10,0:0:0:0:
349,39,364269,1,0,0:0:0:0:
337,368,364434,6,0,P|352:335|349:290,1,75.7500028896333,2|0,0:0|0:0,0:0:0:0:
479,217,364594,2,0,P|458:188|418:168,1,75.7500028896333,2|0,0:0|0:0,0:0:0:0:
417,14,364754,2,8,P|381:18|344:43,1,75.7500028896333,10|0,0:0|0:0,0:0:0:0:
113,189,364915,6,0,B|173:191|204:199|204:199|257:167|257:167|304:181|337:179,1,227.2500086689,2|0,0:0|0:0,0:0:0:0:
397,135,365236,1,10,0:0:0:0:
106,93,365396,5,10,0:0:0:0:
39,124,365477,1,8,0:0:0:0:
11,192,365559,1,8,0:0:0:0:
37,262,365641,1,8,0:0:0:0:
103,295,365723,6,0,B|195:303|195:303|200:307|200:307|203:301|203:301|236:280|236:280|241:275|241:275|247:278|247:278|352:288,1,242.399992602539,6|10,0:0|0:0,0:0:0:0:
459,125,366217,1,0,0:0:0:0:
459,125,366382,2,0,B|422:122|395:85|395:85|393:79|393:79|390:85|390:85|355:122|353:177|392:229,1,242.399992602539,2|10,0:0|0:0,0:0:0:0:
472,42,366876,1,2,0:0:0:0:
158,139,367041,6,0,P|206:162|228:227,1,101,2|0,0:0|0:0,0:0:0:0:
198,382,367371,2,0,P|194:328|239:277,1,101,10|0,0:0|0:0,0:0:0:0:
389,225,367701,2,0,P|344:255|277:241,1,101,2|2,0:0|0:0,0:0:0:0:
68,173,368025,1,10,0:0:0:0:
326,174,368187,1,0,0:0:0:0:
142,380,368349,6,0,B|138:328|156:302|156:302|136:240|136:240|166:205|158:139,1,242.399992602539,6|10,0:0|0:0,0:0:0:0:
389,225,368838,1,0,0:0:0:0:
219,88,369001,2,0,P|174:65|104:85,1,121.19999630127,6|2,0:1|0:0,0:0:0:0:
332,288,369328,2,0,P|377:311|447:291,1,121.19999630127,10|0,0:0|0:0,0:0:0:0:
500,83,369654,6,0,B|439:90|439:90|433:86|433:86|366:94,1,131.299993989563,6|0,0:0|0:0,0:0:0:0:
243,285,369981,1,10,0:0:0:0:
370,93,370144,1,0,0:0:0:0:
288,357,370307,2,0,P|223:370|170:328,1,131.299993989563,2|2,0:0|0:0,0:0:0:0:
219,88,370634,1,10,0:0:0:0:
243,285,370797,1,0,0:0:0:0:
136,37,370960,6,0,L|126:110,3,50.5,6|0|0|0,0:0|0:0|0:0|0:0,0:0:0:0:
47,140,371286,2,0,L|57:213,3,50.5,10|0|0|0,0:0|0:0|0:0|0:0,0:0:0:0:
143,296,371612,5,2,0:0:0:0:
193,290,371693,1,0,0:0:0:0:
243,285,371775,1,2,0:0:0:0:
293,280,371856,1,0,0:0:0:0:
343,274,371938,2,0,L|403:285,3,50.5,10|0|0|0,0:0|0:0|0:0|0:0,0:0:0:0:
463,175,372264,6,0,L|452:240,3,50.5,2|0|0|0,0:0|0:0|0:0|0:0,0:0:0:0:
380,65,372590,2,0,L|391:130,3,50.5,10|0|0|0,0:0|0:0|0:0|0:0,0:0:0:0:
322,185,372916,5,2,0:0:0:0:
296,181,372998,1,0,0:0:0:0:
271,178,373079,1,2,0:0:0:0:
246,174,373161,1,0,0:0:0:0:
219,155,373242,1,10,0:0:0:0:
199,157,373324,1,0,0:0:0:0:
180,159,373405,1,0,0:0:0:0:
162,162,373487,1,0,0:0:0:0:
144,165,373568,5,6,0:1:0:0:
120,183,373649,1,0,0:0:0:0:
106,220,373730,1,0,0:0:0:0:
115,266,373811,1,0,0:0:0:0:
153,304,373892,1,10,0:0:0:0:
213,310,373974,1,0,0:0:0:0:
262,270,374055,1,0,0:0:0:0:
271,203,374136,1,0,0:0:0:0:
219,155,374217,5,2,0:0:0:0:
167,107,374298,1,0,0:0:0:0:
176,40,374380,1,2,0:0:0:0:
225,0,374461,1,0,0:0:0:0:
285,6,374542,1,10,0:0:0:0:
323,44,374623,1,0,0:0:0:0:
332,90,374704,1,0,0:0:0:0:
318,127,374786,1,0,0:0:0:0:
294,145,374867,5,6,0:0:0:0:
41,95,375030,1,8,0:0:0:0:
220,310,375193,2,0,L|231:195,1,101,10|10,0:0|0:0,0:0:0:0:
229,209,375437,1,8,0:0:0:0:
229,209,375519,1,10,0:0:0:0:
63,344,375682,1,8,0:0:0:0:
356,94,375845,5,14,0:1:0:0:
346,174,375926,1,8,0:0:0:0:
338,255,376008,1,10,0:0:0:0:
329,337,376089,1,8,0:0:0:0:
328,350,376171,5,0,0:0:0:0:
66,141,376356,5,12,0:0:0:0:
420,223,376520,1,10,0:0:0:0:
119,316,376849,5,10,0:0:0:0:
368,50,377014,1,8,0:0:0:0:
298,358,377344,5,8,0:0:0:0:
191,8,377654,1,8,0:0:0:0:
420,223,377965,5,8,0:0:0:0:
66,141,378128,1,2,0:0:0:0:
119,316,378291,1,8,0:0:0:0:
119,316,378373,1,8,0:0:0:0:
119,316,378455,1,10,0:0:0:0:
368,50,378619,5,10,0:0:0:0:
358,94,378701,1,8,0:0:0:0:
348,139,378783,1,8,0:0:0:0:
339,184,378865,1,8,0:0:0:0:
329,228,378947,5,14,0:1:0:0:
168,108,379111,2,0,L|19:127,1,121.19999630127,10|8,0:0|0:0,0:0:0:0:
266,22,379439,1,2,0:0:0:0:
329,228,379604,2,0,L|453:209,1,121.19999630127,8|10,0:0|0:0,0:0:0:0:
170,250,379932,5,8,0:0:0:0:
447,209,380096,1,2,0:0:0:0:
167,108,380260,1,8,0:0:0:0:
471,53,380425,1,2,0:0:0:0:
297,307,380588,5,8,0:0:0:0:
258,15,380751,1,10,0:0:0:0:
258,15,380832,1,8,0:0:0:0:
258,15,380914,1,10,0:0:0:0:
485,203,381077,1,2,0:0:0:0:
220,258,381240,5,10,0:0:0:0:
212,212,381321,1,8,0:0:0:0:
206,166,381403,1,8,0:0:0:0:
201,120,381484,1,8,0:0:0:0:
195,76,381566,5,14,0:0:0:0:
319,319,381729,2,0,L|446:289,1,121.19999630127,10|8,0:0|0:0,0:0:0:0:
385,73,382055,1,2,0:0:0:0:
198,277,382218,2,0,L|61:253,1,121.19999630127,8|10,0:0|0:0,0:0:0:0:
384,186,382544,6,0,P|403:130|375:61,1,121.19999630127,8|2,0:0|0:0,0:0:0:0:
79,142,382870,2,0,P|60:198|88:267,1,121.19999630127,8|2,0:0|0:0,0:0:0:0:
294,345,383193,2,0,L|305:201,1,121.19999630127,8|8,0:0|0:0,0:0:0:0:
308,144,383434,1,8,0:0:0:0:
308,144,383514,1,10,0:0:0:0:
79,255,383674,1,2,0:0:0:0:
387,376,383842,5,8,0:0:0:0:
390,330,383926,1,8,0:0:0:0:
393,285,384011,1,10,0:0:0:0:
397,240,384095,1,8,0:0:0:0:
400,194,384179,2,0,L|405:128,1,60.5999981506348,14|0,0:1|0:0,0:0:0:0:
297,19,384348,6,0,P|248:15|263:117,1,151.500005779267,10|8,0:0|0:0,0:0:0:0:
307,219,384589,1,0,0:0:0:0:
302,205,384670,2,0,P|271:191|206:201,1,60.5999981506348,10|0,0:0|0:0,0:0:0:0:
124,61,384831,6,0,P|96:101|191:139,1,151.500005779267,8|10,0:0|0:0,0:0:0:0:
178,319,385073,1,0,0:0:0:0:
187,307,385154,2,0,P|183:273|142:221,1,60.5999981506348,8|8,0:0|0:0,0:0:0:0:
27,211,385315,2,0,P|58:224|123:215,1,60.5999981506348,8|8,0:0|0:0,0:0:0:0:
244,188,385476,5,10,0:0:0:0:
280,140,385556,1,8,0:0:0:0:
277,81,385637,1,8,0:0:0:0:
236,38,385718,1,8,0:0:0:0:
177,32,385798,5,10,0:0:0:0:
149,67,385879,1,8,0:0:0:0:
106,82,385960,1,8,0:0:0:0:
62,73,386040,1,8,0:0:0:0:
30,42,386121,5,10,0:0:0:0:
31,72,386202,1,8,0:0:0:0:
33,102,386282,1,8,0:0:0:0:
35,133,386363,1,8,0:0:0:0:
59,157,386444,5,2,0:0:0:0:
57,179,386524,1,2,0:0:0:0:
56,202,386605,1,0,0:0:0:0:
55,225,386688,1,0,0:0:0:0:
53,247,386771,6,0,L|163:256,1,65.6499969947816,12|0,0:0|0:0,0:0:0:0:
262,382,386938,2,0,L|203:253,1,131.299993989563,10|2,0:0|0:0,0:0:0:0:
267,55,387271,2,0,P|259:107|288:144,1,65.6499969947816,10|0,0:0|0:0,0:0:0:0:
436,222,387438,2,0,P|379:177|323:186,1,131.299993989563,8|10,0:0|0:0,0:0:0:0:
118,252,387771,1,10,0:0:0:0:
118,252,387855,1,8,0:0:0:0:
118,252,387938,5,10,0:0:0:0:
344,89,388097,1,2,0:0:0:0:
344,89,388177,1,0,0:0:0:0:
344,89,388257,1,10,0:0:0:0:
347,346,388416,1,2,0:0:0:0:
267,55,388576,1,8,0:0:0:0:
118,252,388735,1,2,0:0:0:0:
115,276,388815,1,2,0:0:0:0:
113,300,388895,1,8,0:0:0:0:
395,277,389055,1,2,0:0:0:0:
393,253,389134,1,2,0:0:0:0:
390,229,389214,1,2,0:0:0:0:
190,21,389377,5,12,0:1:0:0:
0,240,389540,2,0,P|56:269|118:252,1,131.299993989563,10|2,0:0|0:0,0:0:0:0:
182,189,389784,1,0,0:0:0:0:
193,189,389866,2,0,P|250:159|311:177,1,131.299993989563,10|8,0:0|0:0,0:0:0:0:
398,241,390110,1,0,0:0:0:0:
390,229,390192,2,0,L|406:137,1,65.6499969947816,10|0,0:0|0:0,0:0:0:0:
337,17,390355,5,8,0:0:0:0:
295,299,390518,1,2,0:0:0:0:
512,121,390680,1,8,0:0:0:0:
512,121,390761,1,8,0:0:0:0:
512,121,390842,1,10,0:0:0:0:
200,52,391004,1,10,0:0:0:0:
391,349,391166,1,8,0:0:0:0:
394,299,391247,1,8,0:0:0:0:
398,250,391328,1,10,0:0:0:0:
401,201,391409,1,8,0:0:0:0:
405,152,391490,1,8,0:0:0:0:
183,331,391654,1,2,0:0:0:0:
488,284,391819,5,2,0:0:0:0:
199,54,391981,1,12,0:0:0:0:
294,378,392144,1,10,0:0:0:0:
294,378,392225,1,0,0:0:0:0:
294,378,392307,1,2,0:0:0:0:
405,152,392469,1,10,0:0:0:0:
101,283,392632,2,0,P|79:222|97:157,1,131.299993989563,8|2,0:0|0:0,0:0:0:0:
391,349,392957,1,8,0:0:0:0:
391,349,393039,1,8,0:0:0:0:
391,349,393120,5,2,0:0:0:0:
95,159,393283,1,8,0:0:0:0:
356,61,393445,1,2,0:0:0:0:
246,383,393608,2,0,L|258:239,1,131.299993989563,8|2,0:0|0:0,0:0:0:0:
262,172,393852,1,0,0:0:0:0:
262,172,393933,1,10,0:0:0:0:
19,327,394096,1,2,0:0:0:0:
355,306,394259,1,8,0:0:0:0:
112,100,394422,5,10,0:0:0:0:
115,117,394504,1,2,0:0:0:0:
118,134,394587,2,0,L|129:214,1,65.6499969947816,6|0,0:0|0:0,0:0:0:0:
79,328,394753,2,0,B|143:276|143:276|211:301,1,151.500005779267,10|8,0:0|0:0,0:0:0:0:
407,356,395084,2,0,P|426:322|419:265,1,65.6499969947816,10|0,0:0|0:0,0:0:0:0:
344,158,395241,2,0,P|325:85|385:17,1,151.500005779267,8|10,0:0|0:0,0:0:0:0:
423,102,395487,1,8,0:0:0:0:
409,100,395575,5,8,0:0:0:0:
126,199,395751,1,2,0:0:0:0:
437,104,395917,5,8,0:0:0:0:
126,20,396084,1,2,0:0:0:0:
321,293,396241,6,0,L|336:162,1,121.19999630127,8|2,0:0|0:0,0:0:0:0:
346,86,396476,1,2,0:0:0:0:
346,86,396555,1,8,0:0:0:0:
107,206,396712,1,2,0:0:0:0:
219,1,396875,2,0,L|279:15,1,60.5999981506348,8|8,0:0|0:0,0:0:0:0:
293,308,397038,5,6,0:0:0:0:
281,291,397119,1,0,0:0:0:0:
253,281,397201,1,0,0:0:0:0:
221,288,397282,1,0,0:0:0:0:
193,316,397364,1,10,0:0:0:0:
181,333,397445,1,8,0:0:0:0:
155,343,397527,1,8,0:0:0:0:
122,336,397608,1,8,0:0:0:0:
95,310,397690,6,0,L|105:261,1,37.8750014448166,2|0,0:0|0:0,0:0:0:0:
122,198,397853,2,0,L|132:149,1,37.8750014448166,8|8,0:0|0:0,0:0:0:0:
359,135,398016,5,10,0:0:0:0:
321,162,398097,1,8,0:0:0:0:
277,152,398179,1,0,0:0:0:0:
252,126,398260,1,0,0:0:0:0:
248,89,398342,1,6,0:1:0:0:
231,63,398423,1,2,0:0:0:0:
207,48,398505,1,2,0:0:0:0:
182,52,398586,1,0,0:0:0:0:
169,64,398668,5,10,0:0:0:0:
152,99,398749,1,8,0:0:0:0:
161,135,398831,1,8,0:0:0:0:
188,158,398913,1,8,0:0:0:0:
226,159,398994,1,10,0:0:0:0:
255,127,399076,1,8,0:0:0:0:
296,116,399157,1,8,0:0:0:0:
339,127,399240,1,8,0:0:0:0:
369,158,399320,5,10,0:0:0:0:
388,197,399402,1,8,0:0:0:0:
383,250,399483,1,8,0:0:0:0:
340,294,399565,1,0,0:0:0:0:
279,309,399646,1,10,0:0:0:0:
214,280,399728,1,8,0:0:0:0:
181,212,399810,1,8,0:0:0:0:
201,135,399893,1,0,0:0:0:0:
276,91,399975,5,14,0:1:0:0:
296,133,400058,1,8,0:0:0:0:
291,192,400140,1,8,0:0:0:0:
244,240,400222,1,8,0:0:0:0:
177,257,400305,1,10,0:0:0:0:
105,225,400387,1,2,0:0:0:0:
69,150,400470,1,6,0:1:0:0:
91,65,400552,1,0,0:0:0:0:
173,17,400635,5,10,0:0:0:0:
182,40,400717,1,8,0:0:0:0:
184,65,400799,1,8,0:0:0:0:
180,90,400882,1,8,0:0:0:0:
169,113,400964,5,6,0:0:0:0:
174,101,401044,1,2,0:0:0:0:
184,86,401125,1,2,0:0:0:0:
204,71,401205,1,0,0:0:0:0:
233,56,401286,1,10,0:0:0:0:
273,56,401367,1,8,0:0:0:0:
314,70,401447,1,12,0:0:0:0:
348,110,401528,1,8,0:0:0:0:
357,168,401609,1,10,0:0:0:0:
326,227,401689,1,8,0:0:0:0:
330,298,401770,1,8,0:0:0:0:
380,355,401851,1,8,0:0:0:0:
464,371,401931,2,0,L|458:280,3,60.5999981506348,10|8|8|8,0:0|0:0|0:0|0:0,0:0:0:0:
199,229,402254,5,2,0:0:0:0:
176,217,402335,1,0,0:0:0:0:
150,221,402417,1,12,0:0:0:0:
126,212,402498,1,8,0:0:0:0:
348,110,402743,1,2,0:0:0:0:
373,96,402825,1,0,0:0:0:0:
401,101,402908,1,12,0:1:0:0:
428,91,402990,1,8,0:0:0:0:
130,68,403238,6,0,L|110:-18,3,60.5999981506348,2|0|0|8,0:0|0:0|0:0|0:0,0:0:0:0:
357,194,403555,5,2,0:0:0:0:
328,242,403637,1,2,0:0:0:0:
338,296,403719,1,12,0:0:0:0:
319,349,403801,1,8,0:0:0:0:
126,212,404048,1,2,0:0:0:0:
94,159,404130,1,2,0:0:0:0:
105,99,404213,1,12,0:1:0:0:
85,40,404295,1,8,0:0:0:0:
361,51,404543,6,0,L|343:127,3,60.5999981506348,10|8|8|8,0:0|0:0|0:0|0:0,0:0:0:0:
126,212,404874,5,10,0:0:0:0:
192,180,404955,1,8,0:0:0:0:
261,206,405036,1,8,0:0:0:0:
290,274,405117,1,8,0:0:0:0:
262,342,405198,5,10,0:0:0:0:
212,308,405280,1,8,0:0:0:0:
203,250,405361,1,8,0:0:0:0:
239,202,405442,1,8,0:0:0:0:
297,195,405523,5,14,0:0:0:0:
293,243,405604,1,0,0:0:0:0:
256,273,405686,1,0,0:0:0:0:
208,267,405767,1,0,0:0:0:0:
179,230,405848,5,14,0:0:0:0:
214,214,405929,1,0,0:0:0:0:
250,228,406010,1,10,0:0:0:0:
264,263,406092,1,0,0:0:0:0:
251,298,406173,5,14,0:1:0:0:
245,283,406254,1,8,0:0:0:0:
240,258,406336,1,10,0:0:0:0:
238,222,406418,1,8,0:0:0:0:
250,180,406499,1,10,0:0:0:0:
282,144,406581,1,8,0:0:0:0:
332,117,406663,1,10,0:0:0:0:
397,119,406744,1,8,0:0:0:0:
455,162,406826,5,10,0:0:0:0:
431,174,406908,1,8,0:0:0:0:
399,185,406989,1,8,0:0:0:0:
356,184,407071,1,8,0:0:0:0:
311,162,407153,1,10,0:0:0:0:
274,111,407232,1,8,0:0:0:0:
213,80,407312,1,8,0:0:0:0:
135,83,407392,1,8,0:0:0:0:
67,137,407472,5,14,0:0:0:0:
111,197,407554,1,0,0:0:0:0:
180,225,407636,1,2,0:0:0:0:
252,212,407719,1,0,0:0:0:0:
311,162,407801,2,0,L|315:61,1,75.7500028896333,10|0,0:0|0:0,0:0:0:0:
426,275,407966,5,2,0:0:0:0:
382,335,408048,1,2,0:0:0:0:
313,363,408131,1,10,0:0:0:0:
241,350,408213,1,0,0:0:0:0:
182,300,408296,2,0,L|178:199,1,75.7500028896333
402,21,408461,5,10,0:0:0:0:
432,90,408543,1,0,0:0:0:0:
386,151,408625,2,0,L|302:162,1,75.7500028896333,2|0,0:0|0:0,0:0:0:0:
183,44,408790,5,10,0:0:0:0:
108,51,408871,1,0,0:0:0:0:
58,105,408952,1,2,0:0:0:0:
56,179,409033,1,0,0:0:0:0:
104,235,409114,2,0,L|179:224,1,75.7500028896333,10|0,0:0|0:0,0:0:0:0:
310,160,409276,5,2,0:0:0:0:
384,169,409357,1,0,0:0:0:0:
432,225,409438,1,10,0:0:0:0:
432,299,409519,1,0,0:0:0:0:
382,353,409600,2,0,L|307:340,1,75.7500028896333,2|0,0:0|0:0,0:0:0:0:
178,224,409762,5,10,0:0:0:0:
153,152,409844,1,8,0:0:0:0:
189,85,409925,2,0,L|192:5,1,75.7500028896333,10|8,0:0|0:0,0:0:0:0:
386,151,410087,5,8,0:0:0:0:
385,151,410169,1,0,0:0:0:0:
385,151,410251,2,0,L|301:162,1,75.7500028896333,2|0,0:0|0:0,0:0:0:0:
221,272,410416,1,8,0:0:0:0:
221,272,410499,1,0,0:0:0:0:
221,272,410581,2,0,L|167:212,1,65.6499969947816,2|0,0:0|0:0,0:0:0:0:
69,159,410746,5,8,0:0:0:0:
69,158,410827,1,0,0:0:0:0:
69,158,410908,2,0,L|94:82,1,55.5500016952515,2|0,0:0|0:0,0:0:0:0:
124,23,411070,1,8,0:0:0:0:
124,22,411151,1,0,0:0:0:0:
124,22,411232,2,0,L|195:2,1,45.4499986129761,2|0,0:0|0:0,0:0:0:0:
333,36,411394,5,10,0:0:0:0:
327,81,411475,1,0,0:0:0:0:
322,126,411556,1,2,0:0:0:0:
317,171,411637,1,0,0:0:0:0:
292,208,411718,5,8,0:0:0:0:
296,244,411799,1,0,0:0:0:0:
300,280,411880,1,2,0:0:0:0:
304,316,411961,1,0,0:0:0:0:
287,344,412042,5,8,0:0:0:0:
256,335,412123,1,0,0:0:0:0:
224,340,412204,1,10,0:0:0:0:
193,331,412285,1,8,0:0:0:0:
162,322,412366,1,10,0:0:0:0:
136,325,412448,1,8,0:0:0:0:
117,321,412529,1,8,0:0:0:0:
105,317,412610,1,8,0:0:0:0:
99,316,412691,6,0,B|96:258|116:228|116:228|95:167|95:167|120:130|120:68,1,242.399992602539,14|8,0:0|0:0,0:0:0:0:
348,20,413182,5,2,0:0:0:0:
361,46,413264,1,2,0:0:0:0:
368,83,413346,1,10,0:0:0:0:
357,127,413428,1,0,0:0:0:0:
322,170,413510,1,2,0:0:0:0:
287,213,413592,1,0,0:0:0:0:
276,257,413674,1,10,0:0:0:0:
283,294,413756,1,0,0:0:0:0:
296,320,413838,1,2,0:0:0:0:
314,334,413920,1,0,0:0:0:0:
332,339,414002,2,0,L|413:332,1,60.5999981506348,8|8,0:0|0:0,0:0:0:0:
486,201,414163,5,2,0:0:0:0:
475,194,414243,1,0,0:0:0:0:
458,188,414324,1,2,0:0:0:0:
436,189,414405,1,2,0:0:0:0:
412,201,414485,1,8,0:0:0:0:
393,226,414566,1,2,0:0:0:0:
363,242,414647,1,8,0:0:0:0:
323,240,414727,1,0,0:0:0:0:
287,213,414808,1,2,0:0:0:0:
261,171,414889,1,0,0:0:0:0:
209,148,414969,1,8,0:0:0:0:
149,161,415050,1,0,0:0:0:0:
110,213,415131,1,2,0:0:0:0:
118,283,415211,1,0,0:0:0:0:
176,330,415292,5,10,0:0:0:0:
180,333,415372,1,8,0:0:0:0:
185,336,415453,2,0,L|253:324,1,60.5999981506348,2|2,0:0|0:0,0:0:0:0:
410,158,415614,5,10,0:0:0:0:
406,161,415695,1,8,0:0:0:0:
402,165,415776,2,0,L|334:153,1,60.5999981506348,2|2,0:0|0:0,0:0:0:0:
243,10,415937,5,8,0:0:0:0:
183,55,416019,1,0,0:0:0:0:
169,130,416102,1,2,0:0:0:0:
212,191,416185,1,2,0:0:0:0:
286,204,416268,5,8,0:0:0:0:
261,134,416351,1,8,0:0:0:0:
193,101,416434,1,8,0:0:0:0:
119,116,416517,1,2,0:0:0:0:
71,175,416599,1,10,0:0:0:0:
75,250,416680,1,8,0:0:0:0:
126,305,416762,1,8,0:0:0:0:
201,313,416843,1,2,0:0:0:0:
265,276,416925,5,2,0:0:0:0:
288,198,417006,1,2,0:0:0:0:
343,139,417088,1,8,0:0:0:0:
423,130,417169,1,8,0:0:0:0:
490,175,417251,1,10,0:0:0:0:
511,254,417332,1,8,0:0:0:0:
473,326,417414,1,8,0:0:0:0:
398,360,417495,1,2,0:0:0:0:
322,333,417577,2,0,L|326:249,3,60.5999981506348,10|8|8|8,0:0|0:0|0:0|0:0,0:0:0:0:
214,93,417903,6,0,L|140:107,2,65.6499969947816,14|0|2,0:0|0:0|0:0,0:0:0:0:
338,23,418148,1,10,0:0:0:0:
365,64,418229,2,0,L|440:79,1,65.6499969947816,0|2,0:0|0:0,0:0:0:0:
251,151,418393,1,10,0:0:0:0:
224,192,418475,2,0,L|149:206,1,65.6499969947816,0|2,0:0|0:0,0:0:0:0:
359,142,418638,1,10,0:0:0:0:
386,183,418720,2,0,L|461:198,1,65.6499969947816,0|2,0:0|0:0,0:0:0:0:
271,261,418883,1,10,0:0:0:0:
244,302,418965,1,2,0:0:0:0:
217,343,419047,2,0,L|142:357,1,65.6499969947816,2|8,0:0|0:0,0:0:0:0:
2,206,419210,6,0,P|8:132|107:83,1,131.299993989563,10|2,0:0|0:0,0:0:0:0:
149,105,419456,1,10,0:0:0:0:
194,124,419537,2,0,L|274:118,1,65.6499969947816,0|2,0:0|0:0,0:0:0:0:
364,63,419701,1,10,0:0:0:0:
411,78,419783,2,0,P|432:104|451:155,1,65.6499969947816,0|2,0:0|0:0,0:0:0:0:
509,239,419946,1,10,0:0:0:0:
487,283,420028,2,0,P|461:303|410:322,1,65.6499969947816,2|2,0:0|0:0,0:0:0:0:
254,384,420191,1,10,0:0:0:0:
204,342,420273,1,2,0:0:0:0:
190,279,420355,1,2,0:0:0:0:
217,221,420437,1,8,0:0:0:0:
275,191,420518,6,0,P|292:149|273:108,1,70.6999978424073,10|0,0:0|0:0,0:0:0:0:
388,111,420682,1,0,0:0:0:0:
385,59,420764,2,0,P|375:23|337:-9,1,70.6999978424073,8|2,0:0|0:0,0:0:0:0:
251,47,420927,1,0,0:0:0:0:
198,50,421009,2,0,P|162:58|128:100,1,70.6999978424073,8|0,0:0|0:0,0:0:0:0:
86,236,421172,6,0,L|258:216,1,131.299993989563,10|0,0:0|0:0,0:0:0:0:
315,282,421417,1,8,0:0:0:0:
359,260,421499,2,0,L|401:161,1,65.6499969947816,2|0,0:0|0:0,0:0:0:0:
474,139,421663,1,8,0:0:0:0:
496,97,421744,1,0,0:0:0:0:
486,51,421826,6,0,P|456:119|481:194,1,121.19999630127,8|8,0:0|0:0,0:0:0:0:
511,290,422069,1,8,0:0:0:0:
476,319,422150,2,0,L|409:316,1,60.5999981506348,2|2,0:0|0:0,0:0:0:0:
385,199,422313,1,8,0:0:0:0:
350,171,422394,2,0,L|277:174,1,60.5999981506348,2|10,0:0|0:0,0:0:0:0:
166,308,422556,1,0,0:0:0:0:
128,336,422637,2,0,L|64:332,1,60.5999981506348,2|0,0:0|0:0,0:0:0:0:
26,116,422800,5,10,0:0:0:0:
44,59,422881,1,0,0:0:0:0:
95,28,422962,1,2,0:0:0:0:
153,37,423043,1,0,0:0:0:0:
193,81,423124,5,14,0:0:0:0:
214,94,423206,1,0,0:0:0:0:
238,97,423288,1,2,0:0:0:0:
261,89,423371,1,0,0:0:0:0:
280,73,423453,1,10,0:0:0:0:
299,60,423536,1,0,0:0:0:0:
323,57,423618,1,2,0:0:0:0:
346,65,423700,1,0,0:0:0:0:
364,81,423783,5,10,0:0:0:0:
360,118,423864,1,0,0:0:0:0:
357,156,423946,1,2,0:0:0:0:
354,194,424027,1,0,0:0:0:0:
351,231,424109,1,10,0:0:0:0:
347,269,424190,1,0,0:0:0:0:
344,307,424272,1,2,0:0:0:0:
341,345,424353,1,0,0:0:0:0:
338,382,424435,6,0,L|250:376,1,60.5999981506348,8|0,0:0|0:0,0:0:0:0:
92,178,424597,1,2,0:0:0:0:
81,175,424678,1,2,0:0:0:0:
69,173,424760,1,8,0:0:0:0:
58,173,424841,1,0,0:0:0:0:
44,172,424922,5,2,0:0:0:0:
82,232,425004,1,2,0:0:0:0:
151,258,425085,1,2,0:0:0:0:
221,237,425166,1,2,0:0:0:0:
267,178,425248,1,8,0:0:0:0:
313,121,425329,1,0,0:0:0:0:
386,102,425410,1,10,0:0:0:0:
454,128,425491,1,0,0:0:0:0:
492,195,425573,2,0,L|471:280,1,60.5999981506348,2|2,0:0|0:0,0:0:0:0:
218,354,425735,5,12,0:0:0:0:
167,295,425817,1,8,0:0:0:0:
153,218,425898,1,2,0:0:0:0:
177,145,425979,1,2,0:0:0:0:
236,94,426061,1,8,0:0:0:0:
312,77,426142,1,8,0:0:0:0:
386,102,426223,5,10,0:0:0:0:
326,149,426304,1,2,0:0:0:0:
251,140,426386,1,2,0:0:0:0:
202,82,426467,1,2,0:0:0:0:
213,7,426548,5,8,0:0:0:0:
263,43,426630,1,2,0:0:0:0:
280,102,426711,1,2,0:0:0:0:
259,162,426792,1,2,0:0:0:0:
209,199,426874,5,8,0:0:0:0:
216,149,426955,1,10,0:0:0:0:
250,113,427036,1,2,0:0:0:0:
297,95,427117,1,2,0:0:0:0:
345,104,427199,5,8,0:0:0:0:
317,130,427281,1,2,0:0:0:0:
279,139,427362,1,2,0:0:0:0:
242,134,427444,1,2,0:0:0:0:
209,115,427526,5,10,0:0:0:0:
258,68,427607,1,10,0:0:0:0:
321,72,427689,1,2,0:0:0:0:
359,113,427771,1,2,0:0:0:0:
366,163,427852,1,8,0:0:0:0:
348,200,427934,1,0,0:0:0:0:
318,223,428016,1,2,0:0:0:0:
289,231,428098,1,0,0:0:0:0:
265,229,428179,1,8,0:0:0:0:
248,222,428261,1,0,0:0:0:0:
238,214,428343,5,14,0:0:0:0:
228,206,428425,1,8,0:0:0:0:
211,199,428507,1,8,0:0:0:0:
187,197,428590,1,8,0:0:0:0:
158,205,428672,1,2,0:0:0:0:
128,228,428755,1,2,0:0:0:0:
110,265,428837,5,14,0:1:0:0:
123,258,428919,1,8,0:0:0:0:
142,245,429002,1,8,0:0:0:0:
160,220,429084,1,8,0:0:0:0:
168,183,429167,1,2,0:0:0:0:
162,136,429249,1,2,0:0:0:0:
133,93,429332,5,12,0:0:0:0:
160,112,429414,1,8,0:0:0:0:
201,121,429496,1,2,0:0:0:0:
252,115,429579,1,2,0:0:0:0:
300,83,429661,5,6,0:0:0:0:
284,39,429741,1,2,0:0:0:0:
239,0,429822,1,8,0:0:0:0:
172,0,429902,1,8,0:0:0:0:
112,35,429983,1,8,0:0:0:0:
84,109,430064,1,8,0:0:0:0:
111,187,430144,1,2,0:0:0:0:
187,232,430225,1,2,0:0:0:0:
279,208,430306,2,0,L|291:113,1,75.7500028896333,8|8,0:0|0:0,0:0:0:0:
463,2,430470,5,2,0:0:0:0:
450,92,430553,1,2,0:0:0:0:
438,182,430635,1,10,0:0:0:0:
425,272,430718,1,8,0:0:0:0:
413,362,430800,5,8,0:0:0:0:
389,356,430882,1,8,0:0:0:0:
368,344,430965,1,10,0:0:0:0:
351,327,431048,1,0,0:0:0:0:
340,305,431131,6,0,L|212:292,1,101,12|10,0:0|0:0,0:0:0:0:
438,182,431465,1,2,0:0:0:0:
188,139,431631,2,0,L|306:131,1,101,10|8,0:0|0:0,0:0:0:0:
425,272,431965,1,2,0:0:0:0:
312,20,432121,1,2,0:0:0:0:
231,322,432277,1,8,0:0:0:0:
231,322,432356,1,8,0:0:0:0:
231,322,432436,5,10,0:0:0:0:
450,92,432596,1,2,0:0:0:0:
450,92,432675,1,0,0:0:0:0:
450,92,432755,1,12,0:1:0:0:
340,305,432915,1,2,0:0:0:0:
172,49,433074,1,8,0:0:0:0:
235,344,433234,1,2,0:0:0:0:
293,104,433398,1,8,0:0:0:0:
132,300,433563,1,2,0:0:0:0:
126,275,433644,1,2,0:0:0:0:
119,250,433726,5,12,0:0:0:0:
36,59,433889,2,0,L|156:39,1,101,10|2,0:0|0:0,0:0:0:0:
293,104,434215,1,10,0:0:0:0:
253,305,434378,2,0,L|154:322,1,101,8|10,0:0|0:0,0:0:0:0:
154,321,434622,1,8,0:0:0:0:
154,321,434704,5,10,0:0:0:0:
404,288,434867,1,2,0:0:0:0:
298,54,435030,1,8,0:0:0:0:
295,79,435111,1,8,0:0:0:0:
293,104,435193,1,2,0:0:0:0:
291,129,435274,1,0,0:0:0:0:
289,154,435356,2,0,L|282:224,1,60.5999981506348,8|8,0:0|0:0,0:0:0:0:
253,305,435519,2,0,L|246:244,1,60.5999981506348,10|8,0:0|0:0,0:0:0:0:
85,45,435682,5,8,0:0:0:0:
35,98,435764,1,8,0:0:0:0:
22,170,435845,1,10,0:0:0:0:
50,237,435927,1,8,0:0:0:0:
110,279,436008,1,8,0:0:0:0:
183,281,436090,1,8,0:0:0:0:
246,244,436171,6,0,L|310:248,2,50.5,6|0|10,0:0|0:0|0:3,0:0:0:0:
366,173,436416,2,0,L|430:169,2,50.5,0|2|0,0:0|0:0|0:0,0:0:0:0:
512,262,436660,2,0,L|476:208,1,50.5,10|0,0:3|0:0,0:0:0:0:
435,54,436823,5,2,0:0:0:0:
401,36,436905,1,0,0:0:0:0:
364,36,436986,1,10,0:3:0:0:
330,52,437068,1,0,0:0:0:0:
308,82,437149,1,2,0:0:0:0:
286,112,437231,1,0,0:0:0:0:
252,128,437313,1,10,0:3:0:0:
215,128,437394,1,0,0:0:0:0:
182,111,437476,5,2,0:0:0:0:
174,77,437557,1,0,0:0:0:0:
150,50,437639,1,10,0:3:0:0:
117,38,437721,1,0,0:0:0:0:
82,42,437803,1,2,0:0:0:0:
53,62,437885,1,0,0:0:0:0:
36,94,437967,1,10,0:3:0:0:
36,129,438049,1,0,0:0:0:0:
53,160,438131,6,0,L|56:228,1,50.5,2|0,0:0|0:0,0:0:0:0:
25,291,438294,2,0,L|85:322,1,50.5,10|0,0:3|0:0,0:0:0:0:
124,380,438457,2,0,L|181:343,1,50.5,2|0,0:0|0:0,0:0:0:0:
250,338,438620,2,0,L|247:269,1,50.5,10|8,0:3|0:0,0:0:0:0:
281,196,438783,5,2,0:0:0:0:
311,218,438864,1,0,0:0:0:0:
349,222,438946,1,10,0:3:0:0:
383,208,439027,1,0,0:0:0:0:
405,177,439109,1,2,0:0:0:0:
410,140,439190,1,0,0:0:0:0:
394,106,439272,1,10,0:3:0:0:
363,85,439353,1,0,0:0:0:0:
327,82,439435,6,0,L|277:88,1,50.5,2|0,0:0|0:0,0:0:0:0:
244,205,439598,2,0,L|193:198,1,50.5,10|0,0:3|0:0,0:0:0:0:
347,0,439761,2,0,L|297:6,1,50.5,2|0,0:0|0:0,0:0:0:0:
191,91,439924,2,0,L|141:85,1,50.5,10|0,0:3|0:0,0:0:0:0:
14,35,440087,5,10,0:0:0:0:
16,70,440168,1,8,0:0:0:0:
19,106,440249,1,10,0:0:0:0:
22,141,440330,1,8,0:0:0:0:
25,177,440411,1,10,0:0:0:0:
28,213,440492,1,8,0:0:0:0:
31,248,440573,1,10,0:0:0:0:
34,284,440654,1,0,0:0:0:0:
37,320,440735,5,10,0:0:0:0:
75,315,440816,1,8,0:0:0:0:
111,298,440897,1,8,0:0:0:0:
139,267,440978,1,8,0:0:0:0:
155,229,441059,5,10,0:0:0:0:
196,206,441141,1,8,0:0:0:0:
241,201,441222,1,8,0:0:0:0:
285,213,441303,1,2,0:0:0:0:
317,244,441384,5,10,0:0:0:0:
345,285,441466,1,8,0:0:0:0:
396,295,441548,1,8,0:0:0:0:
442,272,441631,1,2,0:0:0:0:
464,225,441713,1,10,0:0:0:0:
448,176,441796,1,8,0:0:0:0:
404,149,441878,1,8,0:0:0:0:
353,157,441960,1,2,0:0:0:0:
317,193,442043,5,10,0:0:0:0:
317,254,442125,1,8,0:0:0:0:
285,309,442208,1,8,0:0:0:0:
228,332,442290,1,2,0:0:0:0:
168,311,442373,1,10,0:0:0:0:
136,258,442455,1,8,0:0:0:0:
150,194,442537,1,8,0:0:0:0:
200,154,442620,1,2,0:0:0:0:
262,160,442702,5,14,0:0:0:0:
302,219,442782,1,8,0:0:0:0:
377,234,442862,1,8,0:0:0:0:
444,200,442943,1,8,0:0:0:0:
476,132,443023,1,10,0:0:0:0:
453,60,443104,1,8,0:0:0:0:
389,21,443184,1,10,0:0:0:0:
314,32,443265,1,8,0:0:0:0:
262,85,443345,5,14,0:1:0:0:
262,171,443425,1,8,0:0:0:0:
217,249,443506,1,8,0:0:0:0:
138,281,443586,1,0,0:0:0:0:
54,251,443667,1,10,0:0:0:0:
9,177,443747,1,8,0:0:0:0:
28,87,443828,1,8,0:0:0:0:
98,31,443908,1,8,0:0:0:0:
185,40,443988,6,0,L|276:96,1,75.7500028896333,6|0,0:0|0:0,0:0:0:0:
434,80,444151,2,0,L|343:136,1,75.7500028896333,8|0,0:0|0:0,0:0:0:0:
201,146,444315,6,0,L|287:199,1,60.5999981506348,10|8,0:0|0:0,0:0:0:0:
415,179,444479,2,0,L|328:232,1,60.5999981506348,10|8,0:0|0:0,0:0:0:0:
212,250,444643,6,0,L|274:288,1,50.5,6|0,0:1|0:0,0:0:0:0:
404,273,444807,2,0,L|341:311,1,50.5,8|0,0:0|0:0,0:0:0:0:
242,352,444971,6,0,L|286:379,1,40.4,10|8,0:0|0:0,0:0:0:0:
397,364,445135,2,0,L|352:391,1,40.4,10|8,0:0|0:0,0:0:0:0:
161,319,445299,5,6,0:0:0:0:
415,179,445463,1,8,0:0:0:0:
185,89,445627,5,10,0:0:0:0:
193,139,445710,1,8,0:0:0:0:
200,179,445793,1,10,0:0:0:0:
204,203,445877,1,8,0:0:0:0:
208,224,445960,6,0,L|214:267,1,25.25,10|0,0:0|0:0,0:0:0:0:
303,147,446130,2,0,L|297:190,1,25.25,8|0,0:0|0:0,0:0:0:0:
119,197,446300,2,0,L|113:240,1,25.25,10|0,0:0|0:0,0:0:0:0:
24,120,446466,2,0,L|30:163,1,25.25,8|0,0:0|0:0,0:0:0:0:
162,319,446633,5,6,0:0:0:0:
77,216,457045,38,0,L|188:225,1,101,2|0,0:0|0:0,0:0:0:0:
203,257,457534,2,0,L|314:248,1,101,2|0,0:0|0:0,0:0:0:0:
375,221,458023,2,0,L|323:215,1,40.4,2|0,0:0|0:0,0:0:0:0:
455,0,458349,6,0,L|447:90,1,90.8999972259522,2|0,0:0|0:0,0:0:0:0:
407,118,458675,2,0,L|414:208,1,90.8999972259522,2|0,0:0|0:0,0:0:0:0:
460,281,459001,6,0,P|428:252|340:263,2,113.62500433445,2|2|2,0:0|0:0|0:0,0:0:0:0:
239,174,459653,6,0,P|213:177|173:150,1,60.6,2|0,0:0|0:0,0:0:0:0:
169,133,459979,1,2,0:0:0:0:
109,293,460142,2,0,L|102:192,1,101,2|0,0:0|0:0,0:0:0:0:
79,121,460631,2,0,L|73:177,1,40.4
252,326,460958,6,0,B|291:346|291:346|347:325,1,101
357,298,461447,2,0,B|396:278|396:278|418:289,1,60.6
410,365,461773,5,2,0:0:0:0:
467,220,461936,1,2,0:0:0:0:
421,374,462099,1,2,0:0:0:0:
481,208,462262,6,0,L|473:73,1,126.25,2|0,0:0|0:0,0:0:0:0:
504,5,462751,2,0,P|467:52|404:42,1,126.25,2|0,0:0|0:0,0:0:0:0:
332,5,463240,2,0,P|275:-3|226:65,1,113.62500433445,2|0,0:0|0:0,0:0:0:0:
169,76,463566,6,0,P|156:48|157:14,1,60.6,2|0,0:0|0:0,0:0:0:0:
246,113,463892,2,0,P|258:140|258:175,1,60.6,2|0,0:0|0:0,0:0:0:0:
206,241,464218,2,0,P|153:250|100:197,1,113.62500433445,2|0,0:0|0:0,0:0:0:0:
299,280,464545,2,0,P|352:289|405:236,1,113.62500433445,2|0,0:0|0:0,0:0:0:0:
268,361,464871,6,0,B|258:308|276:283|276:283|259:248|259:248|285:205|265:110,1,227.2500086689,6|0,0:0|0:0,0:0:0:0:
251,63,465196,1,10,0:0:0:0:
350,243,465358,1,8,0:0:0:0:
151,209,465521,1,10,0:0:0:0:
379,107,465684,1,8,0:0:0:0:
238,304,465846,1,10,0:0:0:0:
165,35,466009,1,8,0:0:0:0:
414,309,466171,5,10,0:0:0:0:
18,201,466334,1,8,0:0:0:0:
442,52,466498,1,10,0:0:0:0:
185,369,466662,1,8,0:0:0:0:
147,164,466826,5,10,0:0:0:0:
236,144,466934,5,8,0:0:0:0:
302,196,467043,5,8,0:0:0:0:
313,277,467152,5,10,0:0:0:0:
287,346,467260,5,8,0:0:0:0:
239,374,467369,5,8,0:0:0:0:
185,369,467478,6,0,B|193:329|207:307|207:307|188:262|188:262|205:230|200:184,1,181.799994451904,6|2,0:0|0:0,0:0:0:0:
178,118,468045,1,0,0:0:0:0:
178,118,468126,1,8,0:0:0:0:
510,83,468288,1,2,0:0:0:0:
485,77,468369,1,2,0:0:0:0:
460,70,468450,2,0,B|386:27|386:27|317:78|317:78|229:61,1,242.4,8|2,0:0|0:0,0:0:0:0:
200,197,469268,5,2,0:0:0:0:
200,197,469350,1,2,0:0:0:0:
200,197,469432,2,0,L|153:204,1,25.25,8|0,0:0|0:0,0:0:0:0:
0,153,469596,2,0,L|24:157,1,25.25,8|0,0:0|0:0,0:0:0:0:
126,293,469760,6,0,P|136:204|7:166,1,227.2500086689,2|0,0:0|0:0,0:0:0:0:
56,238,470088,6,0,B|106:243|128:227|128:227|185:250|185:250|221:239|248:246,1,181.799994451904,6|2,0:1|0:0,0:0:0:0:
381,378,470912,1,2,0:0:0:0:
381,378,470994,1,2,0:0:0:0:
381,378,471077,2,0,L|402:118,1,242.4,8|2,0:0|0:0,0:0:0:0:
185,88,471896,5,2,0:0:0:0:
407,51,472056,1,8,0:0:0:0:
163,177,472217,1,2,0:0:0:0:
163,177,472297,1,2,0:0:0:0:
163,177,472377,6,0,P|100:132|157:2,1,227.2500086689,8|0,0:0|0:0,0:0:0:0:
185,88,472698,6,0,L|192:297,1,181.799994451904,6|2,0:0|0:0,0:0:0:0:
374,360,473522,1,0,0:0:0:0:
374,360,473604,1,0,0:0:0:0:
374,360,473687,2,0,P|446:343|414:209,1,242.4,10|2,0:0|0:0,0:0:0:0:
364,128,474529,6,0,L|362:165,1,26.9333333333333
186,334,474825,1,2,0:0:0:0:
161,328,474905,1,2,0:0:0:0:
136,321,474985,2,0,L|113:76,1,227.2500086689,8|0,0:0|0:0,0:0:0:0:
16,55,475306,6,0,B|83:81|83:81|191:17,1,181.799994451904,6|2,0:1|0:0,0:0:0:0:
492,153,476119,1,2,0:0:0:0:
467,147,476200,1,2,0:0:0:0:
442,140,476281,2,0,B|395:137|363:104|363:104|302:142|302:142|266:116|210:124,1,242.4,8|2,0:0|0:0,0:0:0:0:
369,204,476935,1,8,0:0:0:0:
293,51,477099,1,2,0:0:0:0:
78,221,477263,5,10,0:0:0:0:
129,263,477345,1,0,0:0:0:0:
186,264,477427,1,2,0:0:0:0:
234,241,477509,1,0,0:0:0:0:
261,204,477591,1,8,0:0:0:0:
295,186,477674,1,8,0:0:0:0:
329,185,477757,1,10,0:0:0:0:
353,194,477841,1,8,0:0:0:0:
369,204,477924,5,10,0:0:0:0:
370,185,478004,1,10,0:0:0:0:
372,167,478084,1,10,0:0:0:0:
374,149,478164,1,10,0:0:0:0:
376,131,478244,6,0,L|385:29,1,90.8999972259522,14|2,0:0|0:0,0:0:0:0:
158,177,478565,1,10,0:0:0:0:
383,40,478729,1,2,0:0:0:0:
408,289,478894,2,0,L|294:269,1,90.8999972259522,10|2,0:0|0:0,0:0:0:0:
227,49,479224,1,10,0:0:0:0:
471,168,479385,1,2,0:0:0:0:
302,362,479546,6,0,L|322:248,1,90.8999972259522,10|2,0:0|0:0,0:0:0:0:
469,60,479869,2,0,L|453:149,1,90.8999972259522,10|0,0:0|0:0,0:0:0:0:
222,301,480191,1,10,0:0:0:0:
510,234,480353,1,0,0:0:0:0:
315,78,480514,1,10,0:0:0:0:
318,98,480596,1,8,0:0:0:0:
322,118,480678,1,8,0:0:0:0:
325,139,480761,1,8,0:0:0:0:
329,159,480843,6,0,L|434:147,1,90.8999972259522,6|2,0:1|0:0,0:0:0:0:
188,182,481173,1,10,0:0:0:0:
419,148,481338,1,2,0:0:0:0:
217,0,481503,2,0,L|233:89,1,90.8999972259522,10|2,0:0|0:0,0:0:0:0:
325,288,481832,1,10,0:0:0:0:
397,27,481995,1,2,0:0:0:0:
188,182,482158,6,0,L|83:170,1,90.8999972259522,10|2,0:0|0:0,0:0:0:0:
384,347,482484,2,0,L|489:335,1,90.8999972259522,10|2,0:0|0:0,0:0:0:0:
233,89,482801,1,10,0:0:0:0:
493,240,482960,1,2,0:0:0:0:
258,286,483118,1,10,0:0:0:0:
238,283,483202,1,8,0:0:0:0:
218,279,483286,1,8,0:0:0:0:
197,276,483370,1,8,0:0:0:0:
177,272,483455,6,0,L|189:167,1,90.8999972259522,14|2,0:0|0:0,0:0:0:0:
420,99,483792,1,10,0:0:0:0:
187,181,483949,1,2,0:0:0:0:
504,155,484107,2,0,L|514:53,1,90.8999972259522,10|2,0:0|0:0,0:0:0:0:
219,8,484423,1,10,0:0:0:0:
222,28,484508,1,8,0:0:0:0:
226,48,484593,1,8,0:0:0:0:
229,69,484678,1,8,0:0:0:0:
233,89,484763,6,0,L|338:77,1,90.8999972259522,6|2,0:1|0:0,0:0:0:0:
442,269,485104,1,10,0:0:0:0:
323,78,485265,1,2,0:0:0:0:
329,379,485426,2,0,L|341:274,1,90.8999972259522,10|0,0:0|0:0,0:0:0:0:
429,14,485749,5,6,0:0:0:0:
427,53,485830,1,2,0:0:0:0:
424,92,485911,1,8,0:0:0:0:
421,132,485992,1,0,0:0:0:0:
453,154,486073,5,2,0:0:0:0:
456,200,486154,1,2,0:0:0:0:
460,245,486235,1,8,0:0:0:0:
464,290,486316,1,0,0:0:0:0:
467,336,486397,5,2,0:0:0:0:
427,370,486478,1,2,0:0:0:0:
376,382,486559,1,8,0:0:0:0:
325,368,486640,1,8,0:0:0:0:
286,332,486721,1,2,0:0:0:0:
247,296,486803,1,2,0:0:0:0:
196,282,486884,1,8,0:0:0:0:
145,294,486965,1,8,0:0:0:0:
105,328,487046,5,14,0:1:0:0:
156,366,487127,1,8,0:0:0:0:
221,368,487208,1,2,0:0:0:0:
275,334,487289,1,8,0:0:0:0:
299,275,487370,1,8,0:0:0:0:
286,212,487453,1,8,0:0:0:0:
239,168,487536,1,2,0:0:0:0:
176,160,487620,1,8,0:0:0:0:
118,185,487703,5,8,0:0:0:0:
163,244,487786,1,8,0:0:0:0:
236,263,487870,1,2,0:0:0:0:
305,235,487953,1,0,0:0:0:0:
341,170,488036,1,8,0:0:0:0:
334,96,488120,1,8,0:0:0:0:
281,42,488203,1,2,0:0:0:0:
208,29,488286,1,8,0:0:0:0:
138,52,488370,5,14,0:0:0:0:
134,136,488448,1,8,0:0:0:0:
163,215,488527,1,10,0:0:0:0:
236,263,488606,1,8,0:0:0:0:
320,273,488685,2,0,L|397:252,1,75.7500028896333,10|8,0:0|0:0,0:0:0:0:
465,88,488843,5,14,0:0:0:0:
393,43,488922,1,8,0:0:0:0:
309,32,489001,1,10,0:0:0:0:
233,71,489080,1,8,0:0:0:0:
182,141,489159,2,0,L|162:218,1,75.7500028896333,10|8,0:0|0:0,0:0:0:0:
361,370,489317,5,14,0:1:0:0:
427,303,489400,1,8,0:0:0:0:
457,213,489484,1,10,0:0:0:0:
445,121,489568,1,8,0:0:0:0:
393,43,489652,1,14,0:0:0:0:
86,192,489976,5,2,0:0:0:0:
309,32,490300,1,4,0:0:0:0:
151,366,490624,1,6,0:1:0:0:
330,125,490949,6,0,B|398:120|407:47|407:47|507:146|445:245|445:245|385:203|312:239|302:319|345:360,1,565.6,6|8,0:0|0:0,0:0:0:0:
401,306,493394,1,8,0:0:0:0:
73,253,493557,6,0,B|128:249|162:270|162:270|224:248|224:248|261:274|324:274,1,252.5,6|2,2:1|0:0,0:0:0:0:
346,251,494454,5,0,0:0:0:0:
354,250,494535,2,0,P|375:166|287:120,1,181.799994451904,8|0,0:0|0:0,0:0:0:0:
222,132,494873,1,6,0:0:0:0:
462,188,495036,1,8,0:0:0:0:
177,239,495199,5,10,0:0:0:0:
117,188,495280,1,8,0:0:0:0:
110,114,495362,1,8,0:0:0:0:
152,60,495443,1,8,0:0:0:0:
214,44,495525,1,14,0:1:0:0:
268,67,495606,1,8,0:0:0:0:
299,112,495688,1,10,0:0:0:0:
345,127,495769,1,8,0:0:0:0:
387,117,495851,1,14,0:0:0:0:
413,92,495932,1,8,0:0:0:0:
427,63,496014,1,10,0:0:0:0:
427,37,496095,1,8,0:0:0:0:
424,16,496177,6,0,L|242:42,1,161.6,6|8,0:1|0:0,0:0:0:0:
204,97,496679,1,2,0:0:0:0:
338,181,496847,2,0,L|258:169,1,80.8,2|2,0:0|0:0,0:0:0:0:
258,169,497091,1,0,0:0:0:0:
258,169,497173,5,8,0:0:0:0:
416,194,497336,1,2,0:0:0:0:
204,97,497499,1,0,0:0:0:0:
283,267,497660,2,0,L|364:259,1,80.8,2|8,0:0|0:0,0:0:0:0:
447,271,497982,1,0,0:0:0:0:
409,113,498144,6,0,L|415:194,1,80.8,2|2,0:0|0:0,0:0:0:0:
148,336,498466,2,0,P|117:286|140:220,1,121.19999630127,8|8,0:0|0:0,0:0:0:0:
185,168,498708,1,0,0:0:0:0:
195,162,498789,6,0,P|226:112|202:51,1,101,6|8,0:0|0:0,0:0:0:0:
90,94,499029,1,8,0:0:0:0:
99,100,499109,2,0,P|137:107|158:91,1,50.5,10|8,0:0|0:0,0:0:0:0:
289,17,499270,2,0,L|413:3,1,101,2|8,0:0|0:0,0:0:0:0:
488,97,499510,1,8,0:0:0:0:
491,88,499591,2,0,L|453:37,1,50.5,10|8,0:0|0:0,0:0:0:0:
295,173,499751,2,0,L|171:159,1,101,10|8,0:0|0:0,0:0:0:0:
46,28,499996,1,0,0:0:0:0:
39,36,500078,6,0,L|49:114,2,50.5,14|8|10,0:1|0:0|0:0,0:0:0:0:
115,183,500323,2,0,L|105:261,2,40.4,8|10|8,0:0|0:0|0:0,0:0:0:0:
11,297,500569,2,0,L|83:266,1,40.4,10|8,0:0|0:0,0:0:0:0:
161,330,500733,5,14,0:0:0:0:
234,304,500815,1,8,0:0:0:0:
274,246,500897,1,10,0:0:0:0:
269,183,500979,1,8,0:0:0:0:
236,139,501061,1,10,0:0:0:0:
191,121,501143,1,8,0:0:0:0:
147,124,501225,1,10,0:0:0:0:
113,108,501307,1,8,0:0:0:0:
92,85,501389,1,10,0:0:0:0:
83,62,501470,1,8,0:0:0:0:
80,44,501552,1,8,0:0:0:0:
82,32,501633,1,8,0:0:0:0:
89,25,501715,6,0,L|175:17,3,50.5,14|0|0|0,0:0|0:0|0:0|0:0,0:0:0:0:
204,75,502041,1,2,0:0:0:0:
214,76,502122,2,0,L|300:84,1,50.5
318,22,502285,1,0,0:0:0:0:
330,19,502367,2,0,L|416:11,1,50.5,10|0,0:0|0:0,0:0:0:0:
474,114,502530,2,0,L|424:43,1,50.5
353,206,502693,5,2,0:0:0:0:
323,230,502774,1,0,0:0:0:0:
287,238,502856,1,0,0:0:0:0:
250,229,502937,1,0,0:0:0:0:
222,204,503019,1,10,0:0:0:0:
194,180,503100,1,0,0:0:0:0:
158,170,503182,1,0,0:0:0:0:
121,178,503264,1,0,0:0:0:0:
92,202,503345,6,0,L|100:272,3,50.5,2|0|0|0,0:0|0:0|0:0|0:0,0:0:0:0:
200,340,503671,2,0,L|135:311,3,50.5,10|0|0|0,0:0|0:0|0:0|0:0,0:0:0:0:
16,146,503997,5,6,0:0:0:0:
15,95,504079,1,0,0:0:0:0:
45,54,504160,1,0,0:0:0:0:
92,39,504242,1,0,0:0:0:0:
140,54,504323,1,10,0:0:0:0:
170,95,504405,1,0,0:0:0:0:
170,146,504486,1,0,0:0:0:0:
140,186,504568,1,0,0:0:0:0:
92,202,504649,5,6,0:1:0:0:
129,205,504731,1,0,0:0:0:0:
167,209,504812,1,0,0:0:0:0:
205,212,504894,1,0,0:0:0:0:
242,216,504975,1,10,0:0:0:0:
280,219,505057,1,0,0:0:0:0:
318,223,505139,1,0,0:0:0:0:
355,226,505220,1,0,0:0:0:0:
393,230,505302,5,6,0:0:0:0:
402,278,505383,1,0,0:0:0:0:
383,325,505465,1,0,0:0:0:0:
339,349,505546,1,0,0:0:0:0:
288,344,505628,1,10,0:0:0:0:
251,310,505709,1,0,0:0:0:0:
240,261,505791,1,0,0:0:0:0:
260,216,505872,1,0,0:0:0:0:
282,170,505954,1,2,0:0:0:0:
271,120,506035,1,2,0:0:0:0:
233,86,506117,1,2,0:0:0:0:
183,82,506198,1,0,0:0:0:0:
139,106,506280,2,0,L|145:171,3,50.5,10|0|0|0,0:0|0:0|0:0|0:0,0:0:0:0:
270,304,506606,5,6,0:1:0:0:
314,328,506687,1,0,0:0:0:0:
362,320,506769,1,0,0:0:0:0:
395,281,506850,1,0,0:0:0:0:
395,231,506932,1,10,0:0:0:0:
362,193,507014,1,0,0:0:0:0:
314,184,507095,1,0,0:0:0:0:
265,175,507177,1,0,0:0:0:0:
233,136,507258,1,2,0:0:0:0:
233,86,507340,1,0,0:0:0:0:
265,48,507421,1,0,0:0:0:0:
314,40,507503,1,0,0:0:0:0:
351,65,507584,2,0,P|382:71|408:62,3,50.5,10|0|0|0,0:0|0:0|0:0|0:0,0:0:0:0:
206,232,507910,5,6,0:0:0:0:
165,261,507991,1,0,0:0:0:0:
116,268,508073,1,0,0:0:0:0:
69,254,508155,1,0,0:0:0:0:
34,222,508237,1,10,0:0:0:0:
18,172,508319,1,0,0:0:0:0:
26,125,508401,1,0,0:0:0:0:
58,87,508483,1,0,0:0:0:0:
102,65,508565,1,2,0:0:0:0:
151,67,508647,1,0,0:0:0:0:
193,92,508729,1,10,0:0:0:0:
221,135,508811,1,8,0:0:0:0:
223,186,508893,6,0,L|141:173,1,60.5999981506348,10|8,0:0|0:0,0:0:0:0:
370,44,509055,2,0,L|452:31,1,60.5999981506348,8|8,0:0|0:0,0:0:0:0:
242,249,509217,2,0,L|229:167,1,50.5,2|0,0:0|0:0,0:0:0:0:
450,47,509380,5,14,0:1:0:0:
442,117,509461,1,8,0:0:0:0:
435,188,509543,1,10,0:0:0:0:
427,258,509625,1,8,0:0:0:0:
420,329,509706,2,0,L|361:321,1,50.5,10|8,0:0|0:0,0:0:0:0:
191,255,509870,2,0,L|250:247,1,50.5,10|0,0:0|0:0,0:0:0:0:
300,11,510033,5,14,0:0:0:0:
308,73,510115,1,8,0:0:0:0:
314,137,510196,1,10,0:0:0:0:
321,200,510278,1,8,0:0:0:0:
327,264,510360,2,0,L|276:270,1,50.5,10|8,0:0|0:0,0:0:0:0:
127,354,510523,5,14,0:1:0:0:
77,350,510605,1,8,0:0:0:0:
37,320,510686,1,10,0:0:0:0:
20,273,510768,1,8,0:0:0:0:
32,225,510850,6,0,L|82:218,3,50.5,10|8|10|8,0:0|0:0|0:0|0:0,0:0:0:0:
209,172,511176,2,0,L|158:165,3,50.5,10|8|10|8,0:0|0:0|0:0|0:0,0:0:0:0:
7,145,511503,2,0,L|57:138,3,50.5,14|8|8|8,0:1|0:0|0:0|0:0,0:0:0:0:
269,0,511829,5,14,0:0:0:0:
330,11,511911,1,0,0:0:0:0:
360,62,511993,1,0,0:0:0:0:
349,122,512074,1,0,0:0:0:0:
303,159,512156,1,10,0:0:0:0:
243,156,512238,1,0,0:0:0:0:
204,111,512319,1,0,0:0:0:0:
165,66,512401,1,0,0:0:0:0:
105,63,512483,1,10,0:0:0:0:
59,100,512564,1,0,0:0:0:0:
48,160,512646,1,0,0:0:0:0:
78,211,512728,1,0,0:0:0:0:
139,222,512809,1,10,0:0:0:0:
188,187,512891,1,0,0:0:0:0:
248,187,512973,1,0,0:0:0:0:
298,222,513054,1,0,0:0:0:0:
316,280,513136,5,10,0:0:0:0:
298,338,513217,1,0,0:0:0:0:
248,373,513298,1,0,0:0:0:0:
188,373,513379,1,0,0:0:0:0:
139,338,513460,6,0,L|202:329,3,60.5999981506348,10|0|0|0,0:0|0:0|0:0|0:0,0:0:0:0:
336,384,513784,2,0,L|296:333,3,60.5999981506348,10|0|0|0,0:0|0:0|0:0|0:0,0:0:0:0:
277,190,514108,2,0,L|253:249,3,60.5999981506348,10|8|10|8,0:0|0:0|0:0|0:0,0:0:0:0:
417,380,514433,5,14,0:1:0:0:
468,350,514514,1,0,0:0:0:0:
490,295,514596,1,0,0:0:0:0:
475,237,514677,1,0,0:0:0:0:
429,200,514759,1,10,0:0:0:0:
383,162,514840,1,0,0:0:0:0:
368,105,514922,1,0,0:0:0:0:
390,49,515003,1,0,0:0:0:0:
442,20,515085,2,0,L|446:93,3,60.5999981506348,10|0|0|0,0:0|0:0|0:0|0:0,0:0:0:0:
332,264,515411,5,10,0:0:0:0:
262,304,515492,1,0,0:0:0:0:
182,310,515574,1,0,0:0:0:0:
108,279,515655,1,0,0:0:0:0:
56,219,515737,1,10,0:0:0:0:
36,142,515818,1,0,0:0:0:0:
52,63,515900,2,0,L|123:70,1,60.5999981506348
308,43,516063,5,10,0:0:0:0:
347,88,516144,1,0,0:0:0:0:
347,148,516226,1,0,0:0:0:0:
308,194,516308,1,0,0:0:0:0:
248,205,516389,1,10,0:0:0:0:
196,175,516471,1,2,0:0:0:0:
177,118,516552,1,2,0:0:0:0:
196,62,516634,1,0,0:0:0:0:
248,32,516715,6,0,L|320:44,1,60.5999981506348,10|8,0:0|0:0,0:0:0:0:
379,218,516878,2,0,L|320:208,1,60.5999981506348,8|8,0:0|0:0,0:0:0:0:
413,0,517041,5,14,0:0:0:0:
464,30,517123,1,0,0:0:0:0:
486,85,517205,1,0,0:0:0:0:
471,143,517287,1,0,0:0:0:0:
425,180,517369,1,10,0:0:0:0:
379,218,517451,1,0,0:0:0:0:
364,275,517534,1,0,0:0:0:0:
386,331,517616,1,0,0:0:0:0:
438,365,517698,1,10,0:0:0:0:
486,328,517780,1,0,0:0:0:0:
498,267,517862,1,0,0:0:0:0:
476,211,517945,1,0,0:0:0:0:
425,180,518027,1,10,0:0:0:0:
364,184,518109,1,0,0:0:0:0:
318,222,518191,1,0,0:0:0:0:
303,281,518273,1,0,0:0:0:0:
326,337,518356,5,10,0:0:0:0:
278,372,518437,1,0,0:0:0:0:
219,372,518519,1,0,0:0:0:0:
172,336,518601,1,0,0:0:0:0:
157,278,518683,6,0,L|176:201,3,60.5999981506348,10|0|0|0,0:0|0:0|0:0|0:0,0:0:0:0:
78,95,519010,2,0,L|135:149,3,60.5999981506348,10|0|0|0,0:0|0:0|0:0|0:0,0:0:0:0:
276,117,519337,2,0,L|200:139,3,60.5999981506348,10|0|0|0,0:0|0:0|0:0|0:0,0:0:0:0:
282,274,519664,5,14,0:1:0:0:
355,312,519745,1,0,0:0:0:0:
436,295,519826,1,0,0:0:0:0:
488,229,519907,1,0,0:0:0:0:
485,146,519988,1,10,0:0:0:0:
429,84,520069,1,0,0:0:0:0:
347,73,520150,1,0,0:0:0:0:
276,117,520231,1,0,0:0:0:0:
251,196,520312,1,10,0:0:0:0:
180,239,520393,1,0,0:0:0:0:
98,228,520474,1,0,0:0:0:0:
42,166,520555,1,0,0:0:0:0:
39,83,520636,1,10,0:0:0:0:
90,17,520718,1,0,0:0:0:0:
172,0,520799,1,8,0:0:0:0:
245,39,520880,1,8,0:0:0:0:
276,117,520961,6,0,L|262:193,1,75.7500028896333,14|8,0:0|0:0,0:0:0:0:
49,254,521123,2,0,L|35:179,1,75.7500028896333,8|8,0:0|0:0,0:0:0:0:
349,173,521285,2,0,L|335:249,1,75.7500028896333,10|8,0:0|0:0,0:0:0:0:
145,337,521447,2,0,L|131:262,1,75.7500028896333,10|8,0:0|0:0,0:0:0:0:
445,32,521609,5,14,0:1:0:0:
433,112,521691,1,8,0:0:0:0:
422,193,521772,1,10,0:0:0:0:
410,274,521853,1,8,0:0:0:0:
400,355,521934,5,10,0:0:0:0:
378,350,522015,1,8,0:0:0:0:
359,339,522096,1,10,0:0:0:0:
344,324,522177,1,8,0:0:0:0:
334,304,522258,6,0,L|231:295,3,60.5999981506348,14|0|0|0,0:0|0:0|0:0|0:0,0:0:0:0:
133,219,522585,2,0,L|247:229,3,60.5999981506348,10|0|0|0,0:0|0:0|0:0|0:0,0:0:0:0:
274,299,522913,1,10,0:0:0:0:
281,290,522995,2,0,L|347:197,1,60.5999981506348
421,208,523159,1,0,0:0:0:0:
417,198,523241,2,0,L|369:95,1,60.5999981506348,10|0,0:0|0:0,0:0:0:0:
261,84,523405,2,0,L|374:93,1,60.5999981506348
404,300,523569,5,10,0:0:0:0:
368,273,523650,1,0,0:0:0:0:
325,262,523732,1,0,0:0:0:0:
280,274,523813,1,0,0:0:0:0:
246,304,523895,1,10,0:0:0:0:
212,333,523976,1,0,0:0:0:0:
169,345,524058,1,0,0:0:0:0:
124,335,524139,1,0,0:0:0:0:
89,306,524221,6,0,L|100:223,3,60.5999981506348,10|0|0|0,0:0|0:0|0:0|0:0,0:0:0:0:
206,151,524547,2,0,L|213:213,3,60.5999981506348,10|0|0|0,0:0|0:0|0:0|0:0,0:0:0:0:
0,373,524873,5,14,0:0:0:0:
9,314,524954,1,0,0:0:0:0:
17,253,525036,1,0,0:0:0:0:
25,193,525117,1,0,0:0:0:0:
33,132,525199,2,0,L|44:49,3,60.5999981506348,10|0|0|0,0:0|0:0|0:0|0:0,0:0:0:0:
143,46,525525,5,14,0:1:0:0:
187,64,525607,1,0,0:0:0:0:
230,61,525688,1,0,0:0:0:0:
271,42,525770,1,0,0:0:0:0:
301,9,525851,2,0,L|312:98,3,60.5999981506348,10|0|0|0,0:0|0:0|0:0|0:0,0:0:0:0:
297,264,526177,5,14,0:0:0:0:
357,249,526258,1,0,0:0:0:0:
395,202,526339,1,0,0:0:0:0:
398,142,526420,1,0,0:0:0:0:
365,91,526502,1,10,0:0:0:0:
308,69,526583,1,0,0:0:0:0:
249,85,526664,1,0,0:0:0:0:
212,132,526746,1,0,0:0:0:0:
175,179,526827,1,10,0:0:0:0:
116,195,526908,1,2,0:0:0:0:
59,173,526990,1,2,0:0:0:0:
27,122,527071,1,0,0:0:0:0:
30,62,527152,2,0,L|107:52,3,60.5999981506348,10|8|8|8,0:0|0:0|0:0|0:0,0:0:0:0:
94,272,527477,5,14,0:1:0:0:
135,232,527558,1,0,0:0:0:0:
193,218,527640,1,0,0:0:0:0:
249,237,527722,1,0,0:0:0:0:
285,284,527803,1,10,0:0:0:0:
326,327,527885,1,0,0:0:0:0:
382,344,527967,1,0,0:0:0:0:
439,330,528048,1,0,0:0:0:0:
486,296,528130,1,10,0:0:0:0:
506,242,528212,1,0,0:0:0:0:
498,185,528293,1,0,0:0:0:0:
468,135,528375,1,0,0:0:0:0:
416,110,528457,1,10,0:0:0:0:
359,110,528538,1,0,0:0:0:0:
306,134,528620,1,0,0:0:0:0:
274,182,528702,1,0,0:0:0:0:
267,243,528783,5,10,0:0:0:0:
308,268,528865,1,0,0:0:0:0:
358,276,528947,1,0,0:0:0:0:
406,262,529028,1,0,0:0:0:0:
445,230,529110,1,10,0:0:0:0:
467,185,529192,1,0,0:0:0:0:
468,135,529273,1,0,0:0:0:0:
449,88,529355,1,0,0:0:0:0:
413,53,529437,1,10,0:0:0:0:
367,36,529518,1,0,0:0:0:0:
317,40,529600,1,0,0:0:0:0:
273,64,529682,1,0,0:0:0:0:
241,102,529763,6,0,P|207:119|180:118,1,60.5999981506348,10|8,0:0|0:0,0:0:0:0:
128,37,529927,2,0,P|94:20|67:21,1,60.5999981506348,10|8,0:0|0:0,0:0:0:0:
7,232,530090,5,14,0:0:0:0:
35,261,530171,1,0,0:0:0:0:
72,276,530253,1,0,0:0:0:0:
113,275,530334,1,0,0:0:0:0:
150,258,530416,1,10,0:0:0:0:
176,227,530497,1,0,0:0:0:0:
187,187,530579,1,0,0:0:0:0:
198,148,530660,1,0,0:0:0:0:
225,117,530742,1,10,0:0:0:0:
261,99,530823,1,0,0:0:0:0:
302,97,530905,1,0,0:0:0:0:
340,113,530986,1,0,0:0:0:0:
368,143,531068,1,10,0:0:0:0:
397,173,531149,1,0,0:0:0:0:
435,189,531231,1,0,0:0:0:0:
475,187,531312,1,0,0:0:0:0:
512,170,531394,5,10,0:0:0:0:
509,182,531474,1,8,0:0:0:0:
507,194,531555,1,8,0:0:0:0:
505,207,531636,1,8,0:0:0:0:
503,219,531717,6,0,B|420:222|420:222|379:183|379:183|289:184,1,227.2500086689,14|0,0:1|0:0,0:0:0:0:
112,100,532041,1,10,0:0:0:0:
121,110,532122,1,0,0:0:0:0:
130,120,532203,2,0,L|199:118,1,60.5999981506348
291,183,532365,1,10,0:0:0:0:
282,193,532446,1,0,0:0:0:0:
273,203,532527,2,0,L|204:201,1,60.5999981506348
71,334,532689,5,14,0:0:0:0:
126,316,532771,1,0,0:0:0:0:
183,330,532853,1,0,0:0:0:0:
224,372,532935,1,0,0:0:0:0:
283,384,533017,1,10,0:0:0:0:
338,367,533099,1,0,0:0:0:0:
372,320,533181,1,0,0:0:0:0:
384,263,533263,1,0,0:0:0:0:
362,208,533345,1,10,0:0:0:0:
316,173,533427,1,0,0:0:0:0:
256,165,533510,1,0,0:0:0:0:
215,124,533592,1,0,0:0:0:0:
211,67,533674,1,10,0:0:0:0:
242,17,533756,1,0,0:0:0:0:
298,2,533838,1,0,0:0:0:0:
353,20,533920,1,0,0:0:0:0:
380,73,534002,5,14,0:1:0:0:
330,105,534083,1,0,0:0:0:0:
271,105,534165,1,0,0:0:0:0:
220,76,534247,1,0,0:0:0:0:
173,39,534329,1,10,0:0:0:0:
114,34,534411,1,0,0:0:0:0:
60,57,534492,1,4,0:0:0:0:
26,105,534574,1,0,0:0:0:0:
25,166,534656,1,10,0:0:0:0:
54,218,534738,1,2,0:0:0:0:
111,235,534820,1,2,0:0:0:0:
170,223,534901,1,0,0:0:0:0:
211,179,534983,2,0,L|291:189,3,60.5999981506348,14|8|10|8,0:1|0:0|0:0|0:0,0:0:0:0:
479,180,535310,5,14,0:0:0:0:
409,153,535392,1,8,0:0:0:0:
339,174,535474,1,8,0:0:0:0:
296,234,535556,1,8,0:0:0:0:
293,308,535638,1,10,0:0:0:0:
245,364,535720,1,8,0:0:0:0:
173,382,535801,1,12,0:0:0:0:
101,358,535883,1,8,0:0:0:0:
66,292,535965,1,10,0:0:0:0:
69,217,536047,1,8,0:0:0:0:
118,161,536129,1,10,0:0:0:0:
191,143,536210,1,8,0:0:0:0:
260,169,536292,1,14,0:1:0:0:
296,234,536374,1,8,0:0:0:0:
364,261,536456,1,10,0:0:0:0:
436,240,536538,1,8,0:0:0:0:
479,180,536619,5,14,0:0:0:0:
409,153,536700,1,8,0:0:0:0:
339,174,536781,1,10,0:0:0:0:
296,234,536862,1,8,0:0:0:0:
227,262,536943,1,10,0:0:0:0:
154,248,537024,1,8,0:0:0:0:
99,197,537105,1,14,0:1:0:0:
84,124,537186,1,8,0:0:0:0:
108,53,537267,1,10,0:0:0:0:
166,7,537348,1,8,0:0:0:0:
240,2,537429,1,10,0:0:0:0:
308,32,537510,1,8,0:0:0:0:
342,99,537591,2,0,L|335:179,3,60.5999981506348,14|8|10|8,0:0|0:0|0:0|0:0,0:0:0:0:
317,308,537916,5,14,0:1:0:0:
260,248,537997,1,8,0:0:0:0:
253,166,538079,1,8,0:0:0:0:
292,95,538160,1,8,0:0:0:0:
368,61,538242,1,10,0:0:0:0:
449,78,538323,1,8,0:0:0:0:
503,140,538405,1,8,0:0:0:0:
511,223,538486,1,8,0:0:0:0:
471,292,538568,1,10,0:0:0:0:
396,327,538649,1,8,0:0:0:0:
317,308,538731,1,8,0:0:0:0:
260,248,538812,1,8,0:0:0:0:
253,166,538894,1,10,0:0:0:0:
197,104,538975,1,8,0:0:0:0:
117,86,539057,1,10,0:0:0:0:
41,120,539138,1,8,0:0:0:0:
0,190,539220,5,14,0:1:0:0:
9,273,539301,1,8,0:0:0:0:
63,335,539383,1,8,0:0:0:0:
144,351,539464,1,10,0:0:0:0:
220,320,539546,1,8,0:0:0:0:
260,248,539627,1,8,0:0:0:0:
253,166,539709,1,10,0:0:0:0:
298,95,539791,1,8,0:0:0:0:
374,53,539872,5,14,0:0:0:0:
410,144,539954,1,8,0:0:0:0:
390,241,540035,1,8,0:0:0:0:
317,308,540117,1,8,0:0:0:0:
220,320,540198,1,8,0:0:0:0:
133,274,540280,1,8,0:0:0:0:
89,185,540361,1,8,0:0:0:0:
103,88,540443,1,8,0:0:0:0:
171,18,540524,6,0,L|235:29,3,50.5,6|0|0|0,0:0|0:0|0:0|0:0,0:0:0:0:
298,95,540847,2,0,L|362:84,3,50.5,10|0|0|0,0:0|0:0|0:0|0:0,0:0:0:0:
456,9,541170,1,2,0:0:0:0:
454,18,541251,1,0,0:0:0:0:
451,27,541332,2,0,L|442:76,1,50.5
506,170,541494,1,10,0:0:0:0:
473,152,541575,1,0,0:0:0:0:
436,156,541656,1,0,0:0:0:0:
408,181,541736,1,0,0:0:0:0:
399,217,541817,6,0,L|322:208,3,50.5,2|0|0|0,0:0|0:0|0:0|0:0,0:0:0:0:
276,149,542142,2,0,L|198:158,3,50.5,10|0|0|0,0:0|0:0|0:0|0:0,0:0:0:0:
120,262,542464,1,2,0:0:0:0:
129,258,542545,1,0,0:0:0:0:
138,255,542626,2,0,L|168:182,1,50.5
143,123,542788,1,10,0:0:0:0:
119,104,542869,1,0,0:0:0:0:
89,103,542949,1,0,0:0:0:0:
64,119,543030,1,0,0:0:0:0:
52,146,543111,6,0,L|58:196,3,50.5,2|0|0|0,0:0|0:0|0:0|0:0,0:0:0:0:
138,255,543437,2,0,L|131:305,3,50.5,10|0|0|0,0:0|0:0|0:0|0:0,0:0:0:0:
192,373,543763,1,2,0:0:0:0:
217,370,543844,1,0,0:0:0:0:
242,367,543926,1,0,0:0:0:0:
267,364,544007,1,0,0:0:0:0:
292,361,544089,2,0,L|351:353,3,50.5,10|0|0|0,0:0|0:0|0:0|0:0,0:0:0:0:
379,274,544415,1,2,0:0:0:0:
354,272,544496,1,0,0:0:0:0:
329,269,544578,1,0,0:0:0:0:
304,266,544660,1,0,0:0:0:0:
279,263,544742,6,0,L|292:195,3,50.5,10|0|0|0,0:0|0:0|0:0|0:0,0:0:0:0:
404,142,545070,2,0,L|338:164,3,50.5,2|2|2|0,0:0|0:0|0:0|0:0,0:0:0:0:
237,95,545398,2,0,L|289:140,3,50.5,10|0|0|0,0:0|0:0|0:0|0:0,0:0:0:0:
464,207,545726,5,6,0:1:0:0:
485,176,545807,1,0,0:0:0:0:
491,139,545889,1,0,0:0:0:0:
480,103,545971,1,0,0:0:0:0:
455,75,546052,2,0,L|387:63,3,50.5,10|0|0|0,0:0|0:0|0:0|0:0,0:0:0:0:
326,121,546379,1,2,0:0:0:0:
321,129,546461,1,0,0:0:0:0:
316,137,546543,2,0,L|247:149,1,50.5
152,75,546706,2,0,L|201:83,3,50.5,10|0|0|0,0:0|0:0|0:0|0:0,0:0:0:0:
254,178,547033,5,2,0:0:0:0:
257,215,547115,1,0,0:0:0:0:
260,253,547197,1,0,0:0:0:0:
263,291,547279,1,0,0:0:0:0:
266,329,547360,2,0,L|201:318,3,50.5,10|0|0|0,0:0|0:0|0:0|0:0,0:0:0:0:
152,251,547687,1,2,0:0:0:0:
127,255,547769,1,0,0:0:0:0:
102,259,547851,1,0,0:0:0:0:
77,264,547933,1,0,0:0:0:0:
52,268,548014,2,0,L|61:208,3,50.5,10|0|0|0,0:0|0:0|0:0|0:0,0:0:0:0:
9,138,548341,5,6,0:1:0:0:
27,111,548422,1,0,0:0:0:0:
51,91,548504,1,0,0:0:0:0:
79,76,548585,1,0,0:0:0:0:
109,69,548667,1,10,0:0:0:0:
141,66,548748,1,0,0:0:0:0:
172,71,548830,1,0,0:0:0:0:
201,83,548911,1,0,0:0:0:0:
227,100,548993,1,2,0:0:0:0:
254,118,549074,1,0,0:0:0:0:
282,129,549156,1,0,0:0:0:0:
314,134,549237,1,0,0:0:0:0:
346,131,549319,1,10,0:0:0:0:
376,124,549400,1,0,0:0:0:0:
404,109,549482,1,0,0:0:0:0:
427,89,549563,1,0,0:0:0:0:
447,64,549645,6,0,L|442:119,3,50.5,2|0|0|0,0:0|0:0|0:0|0:0,0:0:0:0:
391,200,549971,2,0,L|396:255,3,50.5,10|0|0|0,0:0|0:0|0:0|0:0,0:0:0:0:
494,281,550297,5,2,0:0:0:0:
500,289,550379,1,8,0:0:0:0:
506,297,550461,2,0,L|501:352,1,50.5,10|0,0:0|0:0,0:0:0:0:
307,233,550625,1,10,0:0:0:0:
264,205,550707,1,8,0:0:0:0:
214,198,550789,1,10,0:0:0:0:
165,212,550871,1,8,0:0:0:0:
126,244,550953,5,6,0:0:0:0:
156,264,551034,1,0,0:0:0:0:
194,269,551116,1,0,0:0:0:0:
229,258,551198,1,0,0:0:0:0:
256,234,551280,2,0,L|251:159,3,50.5,10|0|0|0,0:0|0:0|0:0|0:0,0:0:0:0:
187,69,551608,1,2,0:0:0:0:
186,79,551690,1,0,0:0:0:0:
186,89,551772,2,0,L|181:164,1,50.5
327,155,551936,2,0,L|402:150,3,50.5,10|0|0|0,0:0|0:0|0:0|0:0,0:0:0:0:
256,234,552263,6,0,L|205:230,3,50.5,2|0|0|0,0:0|0:0|0:0|0:0,0:0:0:0:
118,126,552591,2,0,L|140:171,3,50.5,10|0|0|0,0:0|0:0|0:0|0:0,0:0:0:0:
93,299,552919,2,0,L|121:257,3,50.5,2|0|0|0,0:0|0:0|0:0|0:0,0:0:0:0:
266,243,553246,2,0,L|215:239,3,50.5,10|0|0|0,0:0|0:0|0:0|0:0,0:0:0:0:
55,204,553574,5,6,0:0:0:0:
60,166,553654,1,0,0:0:0:0:
65,128,553735,1,0,0:0:0:0:
70,91,553815,1,0,0:0:0:0:
75,53,553896,2,0,L|136:65,3,50.5,10|0|0|0,0:0|0:0|0:0|0:0,0:0:0:0:
222,143,554219,5,6,0:1:0:0:
246,149,554299,1,0,0:0:0:0:
270,144,554380,1,0,0:0:0:0:
290,128,554461,1,0,0:0:0:0:
300,105,554541,2,0,L|295:43,3,50.5,10|0|0|0,0:0|0:0|0:0|0:0,0:0:0:0:
470,137,554864,5,6,0:0:0:0:
453,169,554945,1,0,0:0:0:0:
424,195,555026,1,0,0:0:0:0:
386,206,555108,1,0,0:0:0:0:
349,197,555189,1,10,0:0:0:0:
320,177,555271,1,0,0:0:0:0:
301,145,555352,1,0,0:0:0:0:
300,105,555433,1,0,0:0:0:0:
314,70,555515,1,2,0:0:0:0:
342,46,555596,1,2,0:0:0:0:
378,37,555678,1,0,0:0:0:0:
415,41,555759,1,0,0:0:0:0:
447,63,555840,2,0,L|440:135,3,50.5,10|0|0|0,0:0|0:0|0:0|0:0,0:0:0:0:
320,177,556166,5,6,0:0:0:0:
283,187,556247,1,0,0:0:0:0:
259,217,556329,1,0,0:0:0:0:
257,255,556410,1,0,0:0:0:0:
278,287,556492,1,10,0:0:0:0:
314,301,556573,1,0,0:0:0:0:
351,291,556655,1,0,0:0:0:0:
374,261,556736,1,0,0:0:0:0:
398,231,556817,1,2,0:0:0:0:
435,221,556899,1,0,0:0:0:0:
471,235,556980,1,0,0:0:0:0:
491,267,557062,1,0,0:0:0:0:
489,305,557143,2,0,L|429:312,3,50.5,10|0|0|0,0:0|0:0|0:0|0:0,0:0:0:0:
351,171,557468,5,6,0:0:0:0:
315,165,557550,1,0,0:0:0:0:
278,160,557632,1,0,0:0:0:0:
241,155,557714,1,0,0:0:0:0:
204,149,557796,1,10,0:0:0:0:
168,144,557878,1,0,0:0:0:0:
138,114,557960,5,0,0:0:0:0:
180,108,558042,1,0,0:0:0:0:
220,103,558124,1,2,0:0:0:0:
261,96,558206,1,0,0:0:0:0:
301,90,558288,1,0,0:0:0:0:
342,85,558370,1,0,0:0:0:0:
382,78,558452,5,10,0:0:0:0:
375,127,558534,1,8,0:0:0:0:
367,177,558616,1,10,0:0:0:0:
360,227,558698,1,8,0:0:0:0:
352,282,558780,37,14,0:1:0:0:
294,279,558861,1,8,0:0:0:0:
235,277,558943,1,8,0:0:0:0:
177,273,559024,1,8,0:0:0:0:
118,270,559106,1,2,0:0:0:0:
120,260,559187,1,2,0:0:0:0:
121,250,559269,5,14,0:0:0:0:
180,248,559350,1,8,0:0:0:0:
238,246,559432,1,8,0:0:0:0:
296,242,559513,1,8,0:0:0:0:
355,238,559595,1,2,0:0:0:0:
356,229,559676,1,2,0:0:0:0:
357,219,559758,69,14,0:1:0:0:
298,217,559837,1,8,0:0:0:0:
240,214,559917,1,2,0:0:0:0:
182,211,559997,1,8,0:0:0:0:
123,207,560077,5,14,0:0:0:0:
122,198,560158,1,8,0:0:0:0:
121,188,560239,2,0,L|115:121,1,60.5999981506348,10|8,0:0|0:0,0:0:0:0:
0,22,560401,1,10,0:0:0:0:
9,25,560482,1,8,0:0:0:0:
18,29,560563,2,0,L|79:58,1,60.5999981506348,10|8,0:0|0:0,0:0:0:0:
221,7,560725,1,10,0:0:0:0:
214,14,560806,1,8,0:0:0:0:
206,20,560888,2,0,L|150:58,1,60.5999981506348,10|8,0:0|0:0,0:0:0:0:
7,141,561052,6,0,L|99:134,1,75.7500028896333,10|8,0:0|0:0,0:0:0:0:
281,25,561216,2,0,L|205:19,1,75.7500028896333,8|8,0:0|0:0,0:0:0:0:
87,265,561380,5,14,0:0:0:0:
157,292,561461,1,0,0:0:0:0:
227,271,561543,1,0,0:0:0:0:
270,211,561625,1,0,0:0:0:0:
273,137,561707,1,10,0:0:0:0:
321,81,561789,1,0,0:0:0:0:
393,63,561871,1,0,0:0:0:0:
465,87,561953,1,0,0:0:0:0:
500,153,562035,1,10,0:0:0:0:
497,228,562117,1,0,0:0:0:0:
448,284,562199,1,0,0:0:0:0:
375,302,562281,1,0,0:0:0:0:
306,276,562363,1,10,0:0:0:0:
270,211,562445,1,0,0:0:0:0:
202,184,562527,1,0,0:0:0:0:
130,205,562609,1,0,0:0:0:0:
87,265,562691,5,14,0:1:0:0:
135,299,562774,1,0,0:0:0:0:
194,313,562857,1,0,0:0:0:0:
254,301,562941,1,0,0:0:0:0:
303,265,563024,1,10,0:0:0:0:
334,212,563107,1,0,0:0:0:0:
340,151,563191,1,0,0:0:0:0:
321,93,563274,1,0,0:0:0:0:
280,48,563357,1,10,0:0:0:0:
225,24,563437,1,0,0:0:0:0:
165,24,563517,1,0,0:0:0:0:
109,48,563598,1,0,0:0:0:0:
68,93,563678,5,10,0:0:0:0:
69,108,563759,1,0,0:0:0:0:
71,123,563839,1,0,0:0:0:0:
73,138,563920,1,0,0:0:0:0:
75,153,564000,5,14,0:0:0:0:
84,108,564081,1,0,0:0:0:0:
116,76,564163,1,0,0:0:0:0:
159,61,564245,1,0,0:0:0:0:
202,70,564326,1,10,0:0:0:0:
238,99,564408,1,0,0:0:0:0:
255,140,564490,1,0,0:0:0:0:
250,185,564572,1,0,0:0:0:0:
225,221,564653,1,10,0:0:0:0:
201,259,564735,1,0,0:0:0:0:
195,303,564817,1,0,0:0:0:0:
211,345,564899,1,0,0:0:0:0:
247,373,564980,1,10,0:0:0:0:
291,381,565062,1,0,0:0:0:0:
334,366,565144,1,0,0:0:0:0:
365,334,565226,1,0,0:0:0:0:
378,291,565307,1,10,0:0:0:0:
391,248,565389,1,0,0:0:0:0:
422,216,565471,1,0,0:0:0:0:
465,201,565553,1,0,0:0:0:0:
509,209,565634,6,0,P|502:165|475:137,3,60.5999981506348,10|0|0|0,0:0|0:0|0:0|0:0,0:0:0:0:
459,65,565960,2,8,P|425:46|380:47,3,60.5999981506348,10|0|0|0,0:0|0:0|0:0|0:0,0:0:0:0:
253,0,566286,2,8,P|219:19|196:67,3,60.5999981506348,10|8|10|8,0:0|0:0|0:0|0:0,0:0:0:0:
0,194,566612,5,14,0:0:0:0:
41,264,566693,1,0,0:0:0:0:
117,298,566774,1,0,0:0:0:0:
197,280,566855,1,0,0:0:0:0:
253,218,566936,1,10,0:0:0:0:
260,136,567017,1,0,0:0:0:0:
317,76,567098,1,0,0:0:0:0:
396,57,567179,1,0,0:0:0:0:
471,92,567260,1,10,0:0:0:0:
511,161,567341,1,0,0:0:0:0:
503,244,567422,1,0,0:0:0:0:
449,306,567503,1,0,0:0:0:0:
368,323,567584,1,10,0:0:0:0:
292,289,567666,1,0,0:0:0:0:
253,218,567747,1,0,0:0:0:0:
260,136,567828,1,0,0:0:0:0:
317,76,567909,5,14,0:0:0:0:
344,141,567990,1,0,0:0:0:0:
342,215,568072,1,0,0:0:0:0:
309,278,568153,1,0,0:0:0:0:
250,322,568235,1,10,0:0:0:0:
179,334,568317,1,0,0:0:0:0:
110,314,568398,1,0,0:0:0:0:
57,265,568480,1,0,0:0:0:0:
32,194,568562,1,10,0:0:0:0:
39,123,568643,1,0,0:0:0:0:
78,61,568725,1,0,0:0:0:0:
143,25,568807,1,0,0:0:0:0:
215,19,568888,5,10,0:0:0:0:
216,37,568970,1,0,0:0:0:0:
212,56,569052,1,0,0:0:0:0:
203,72,569133,1,0,0:0:0:0:
189,85,569215,5,14,0:1:0:0:
230,50,569296,1,0,0:0:0:0:
281,40,569377,1,0,0:0:0:0:
331,58,569459,1,0,0:0:0:0:
367,94,569540,1,10,0:0:0:0:
384,144,569622,1,0,0:0:0:0:
371,195,569703,1,0,0:0:0:0:
341,237,569785,1,0,0:0:0:0:
292,258,569866,1,10,0:0:0:0:
241,250,569947,1,0,0:0:0:0:
196,223,570029,1,0,0:0:0:0:
171,176,570110,1,0,0:0:0:0:
172,122,570192,1,10,0:0:0:0:
150,75,570273,1,0,0:0:0:0:
104,51,570355,1,0,0:0:0:0:
53,62,570436,1,0,0:0:0:0:
20,101,570517,6,0,L|31:181,3,60.5999981506348,10|0|0|0,0:0|0:0|0:0|0:0,0:0:0:0:
82,282,570843,2,0,L|90:221,3,60.5999981506348,10|0|0|0,0:0|0:0|0:0|0:0,0:0:0:0:
154,71,571169,5,10,0:0:0:0:
203,52,571250,1,10,0:0:0:0:
246,58,571332,1,10,0:0:0:0:
269,75,571413,1,8,0:0:0:0:
277,91,571495,1,10,0:0:0:0:
279,106,571576,1,8,0:0:0:0:
275,119,571657,1,10,0:0:0:0:
267,125,571739,1,8,0:0:0:0:
262,129,571820,5,14,0:0:0:0:
321,86,571901,1,0,0:0:0:0:
394,86,571983,1,0,0:0:0:0:
453,129,572065,1,0,0:0:0:0:
475,198,572146,1,10,0:0:0:0:
453,268,572228,1,0,0:0:0:0:
394,310,572310,1,0,0:0:0:0:
321,310,572391,1,0,0:0:0:0:
262,268,572473,1,10,0:0:0:0:
240,198,572555,1,0,0:0:0:0:
176,163,572636,1,0,0:0:0:0:
104,177,572718,1,0,0:0:0:0:
58,234,572800,1,10,0:0:0:0:
59,307,572882,1,0,0:0:0:0:
107,361,572963,1,0,0:0:0:0:
180,373,573045,1,0,0:0:0:0:
242,335,573127,6,0,L|321:314,3,60.5999981506348,10|0|0|0,0:0|0:0|0:0|0:0,0:0:0:0:
457,273,573453,2,0,L|378:252,3,60.5999981506348,10|0|0|0,0:0|0:0|0:0|0:0,0:0:0:0:
293,117,573780,2,0,L|314:195,3,60.5999981506348,10|0|0|0,0:0|0:0|0:0|0:0,0:0:0:0:
441,331,574107,2,0,L|460:257,3,60.5999981506348,10|0|0|0,0:0|0:0|0:0|0:0,0:0:0:0:
384,96,574434,5,6,0:0:0:0:
338,37,574516,1,0,0:0:0:0:
265,27,574598,1,0,0:0:0:0:
206,71,574680,1,0,0:0:0:0:
195,144,574763,2,0,L|216:222,3,60.5999981506348,10|0|0|0,0:0|0:0|0:0|0:0,0:0:0:0:
287,367,575092,5,14,0:0:0:0:
257,319,575174,1,0,0:0:0:0:
206,297,575257,1,0,0:0:0:0:
151,308,575339,1,0,0:0:0:0:
112,348,575421,2,0,P|78:359|44:349,3,60.5999981506348,10|0|0|0,0:0|0:0|0:0|0:0,0:0:0:0:
141,112,575750,5,14,0:0:0:0:
196,52,575831,1,0,0:0:0:0:
273,24,575912,1,0,0:0:0:0:
355,35,575994,1,0,0:0:0:0:
421,79,576075,1,10,0:0:0:0:
462,153,576156,1,0,0:0:0:0:
466,232,576238,1,0,0:0:0:0:
435,307,576319,1,0,0:0:0:0:
373,358,576400,1,10,0:0:0:0:
293,376,576482,1,0,0:0:0:0:
215,360,576563,1,0,0:0:0:0:
151,308,576645,1,0,0:0:0:0:
114,238,576726,6,0,L|127:149,1,75.7500028896333,10|8,0:0|0:0,0:0:0:0:
337,297,576889,2,0,L|326:222,1,75.7500028896333,10|8,0:0|0:0,0:0:0:0:
267,45,577051,5,14,0:0:0:0:
327,1,577133,1,0,0:0:0:0:
398,1,577214,1,0,0:0:0:0:
457,45,577295,1,0,0:0:0:0:
479,112,577377,1,10,0:0:0:0:
457,180,577458,1,0,0:0:0:0:
398,223,577540,1,0,0:0:0:0:
327,223,577621,1,0,0:0:0:0:
267,181,577702,1,10,0:0:0:0:
198,190,577784,1,0,0:0:0:0:
155,245,577865,1,0,0:0:0:0:
161,316,577946,1,0,0:0:0:0:
215,360,578028,6,0,P|257:362|279:347,1,60.5999981506348,10|0,0:0|0:0,0:0:0:0:
375,275,578191,2,0,P|397:239|395:213,1,60.5999981506348
308,110,578353,5,14,0:1:0:0:
254,56,578434,1,0,0:0:0:0:
185,29,578516,1,0,0:0:0:0:
112,39,578597,1,0,0:0:0:0:
52,79,578679,1,10,0:0:0:0:
13,145,578760,1,0,0:0:0:0:
11,217,578842,1,0,0:0:0:0:
39,284,578923,1,0,0:0:0:0:
94,331,579005,1,10,0:0:0:0:
167,347,579086,1,0,0:0:0:0:
237,333,579168,1,0,0:0:0:0:
295,286,579249,1,0,0:0:0:0:
327,223,579331,6,0,P|329:181|314:159,1,60.5999981506348,10|0,0:0|0:0,0:0:0:0:
253,39,579494,2,0,P|217:17|191:19,1,60.5999981506348
7,203,579657,5,14,0:0:0:0:
19,228,579738,1,0,0:0:0:0:
37,248,579820,1,2,0:0:0:0:
61,261,579902,1,0,0:0:0:0:
88,267,579984,1,2,0:0:0:0:
115,266,580066,1,0,0:0:0:0:
140,255,580148,1,2,0:0:0:0:
161,239,580230,1,2,0:0:0:0:
176,216,580312,1,10,0:0:0:0:
185,191,580394,1,0,0:0:0:0:
185,162,580476,1,2,0:0:0:0:
176,137,580558,1,0,0:0:0:0:
161,114,580640,1,2,0:0:0:0:
140,98,580722,1,2,0:0:0:0:
115,87,580804,1,2,0:0:0:0:
88,85,580886,1,0,0:0:0:0:
61,92,580968,5,14,0:1:0:0:
74,55,581050,1,0,0:0:0:0:
100,31,581132,1,2,0:0:0:0:
131,13,581214,1,0,0:0:0:0:
166,4,581296,1,2,0:0:0:0:
202,6,581378,1,2,0:0:0:0:
235,21,581460,1,2,0:0:0:0:
263,43,581542,1,0,0:0:0:0:
283,72,581624,1,10,0:0:0:0:
295,105,581704,1,0,0:0:0:0:
295,144,581784,1,2,0:0:0:0:
283,177,581864,1,2,0:0:0:0:
263,207,581944,1,2,0:0:0:0:
235,228,582025,1,0,0:0:0:0:
202,243,582105,1,2,0:0:0:0:
166,245,582185,1,2,0:0:0:0:
131,236,582265,5,14,0:0:0:0:
165,159,582347,1,8,0:0:0:0:
239,123,582429,1,10,0:0:0:0:
312,136,582512,1,8,0:0:0:0:
361,179,582594,1,10,0:0:0:0:
382,236,582677,1,8,0:0:0:0:
378,287,582759,1,10,0:0:0:0:
358,329,582841,1,8,0:0:0:0:
330,358,582924,1,10,0:0:0:0:
300,371,583006,1,0,0:0:0:0:
274,379,583089,1,10,0:0:0:0:
254,379,583171,1,0,0:0:0:0:
236,379,583254,1,10,0:0:0:0:
224,376,583336,1,0,0:0:0:0:
215,374,583418,1,10,0:0:0:0:
208,369,583501,1,0,0:0:0:0:
202,365,583583,5,14,0:1:0:0:
512,246,583739,1,8,0:0:0:0:
176,57,583895,1,10,0:0:0:0:
474,118,584051,1,8,0:0:0:0:
202,365,584208,5,10,0:0:0:0:
148,293,584314,5,8,0:0:0:0:
166,212,584421,5,8,0:0:0:0:
239,177,584528,5,10,0:0:0:0:
308,153,584640,5,8,0:0:0:0:
336,105,584753,5,8,0:0:0:0:
331,51,584866,6,0,L|319:329,1,242.4,6|2,0:1|0:0,0:0:0:0:
164,170,585681,1,2,0:0:0:0:
164,170,585762,1,2,0:0:0:0:
164,170,585844,2,0,P|142:96|259:24,1,227.2500086689,8|0,0:0|0:0,0:0:0:0:
331,51,586184,5,6,0:1:0:0:
217,255,586355,2,0,L|27:232,1,161.6,2|2,0:0|0:0,0:0:0:0:
56,235,587006,1,2,0:0:0:0:
259,342,587162,2,0,B|343:368|343:368|485:318,1,227.2500086689,8|0,0:0|0:0,0:0:0:0:
499,205,587488,6,0,P|441:253|474:321,1,161.6,6|0,0:0|0:0,0:0:0:0:
317,234,587966,2,0,P|374:186|341:118,1,161.6,2|2,0:0|0:0,0:0:0:0:
273,81,588392,1,2,0:0:0:0:
267,76,588477,1,8,0:0:0:0:
189,50,588787,5,14,0:1:0:0:
194,296,588958,2,0,P|118:308|64:233,1,161.6,2|2,0:0|0:0,0:0:0:0:
66,249,589625,1,0,0:0:0:0:
276,344,589787,2,0,P|374:359|444:262,1,227.2500086689,8|0,0:0|0:0,0:0:0:0:
333,131,590111,6,0,P|303:193|366:278,1,161.6,6|0,0:0|0:0,0:0:0:0:
421,112,590588,2,0,P|382:55|277:67,1,161.6,2|0,0:0|0:0,0:0:0:0:
242,110,590986,1,0,0:0:0:0:
240,118,591065,1,8,0:0:0:0:
495,52,591384,5,6,0:1:0:0:
273,196,591548,2,0,B|225:218|188:194|199:183|165:165|113:178,1,161.6,2|2,0:0|0:0,0:0:0:0:
66,90,592208,1,0,0:0:0:0:
66,90,592290,1,2,0:0:0:0:
66,90,592373,2,0,L|88:323,1,227.2500086689,8|0,0:0|0:0,0:0:0:0:
196,191,592702,6,0,B|258:190|258:190|287:218|287:218|346:215,1,161.6,6|0,0:0|0:0,0:0:0:0:
387,304,593165,2,0,P|360:244|419:177,1,161.6,2|0,0:0|0:0,0:0:0:0:
488,146,593614,1,0,0:0:0:0:
496,144,593703,1,8,0:0:0:0:
288,318,594004,5,6,0:1:0:0:
326,76,594167,1,8,0:0:0:0:
451,249,594331,1,14,0:0:0:0:
243,150,594495,1,2,0:0:0:0:
243,150,594577,1,2,0:0:0:0:
243,150,594659,5,10,0:0:0:0:
437,49,594823,1,10,0:0:0:0:
371,283,594987,1,10,0:0:0:0:
237,56,595151,1,10,0:0:0:0:
161,302,595315,6,0,B|125:314|108:342|108:342|66:322|7:329,1,161.6,6|0,0:0|0:0,0:0:0:0:
190,218,595797,2,0,B|226:230|243:258|243:258|285:238|334:244,1,161.6,2|0,0:0|0:0,0:0:0:0:
408,211,596198,1,2,0:0:0:0:
415,207,596279,2,0,P|427:131|286:57,1,227.2500086689,8|0,0:0|0:0,0:0:0:0:
224,38,596600,5,6,0:1:0:0:
268,267,596764,1,2,0:0:0:0:
268,267,597094,2,0,L|282:85,1,161.6,2|0,0:0|0:0,0:0:0:0:
282,31,597506,1,2,0:0:0:0:
283,22,597589,1,8,0:0:0:0:
12,74,597918,6,0,L|196:47,1,161.6,6|0,0:0|0:0,0:0:0:0:
287,115,598405,2,0,L|446:138,1,161.6,2|0,0:0|0:0,0:0:0:0:
490,66,598812,1,2,0:0:0:0:
488,58,598893,2,0,B|449:122|449:122|486:297,1,227.2500086689,10|0,0:0|0:0,0:0:0:0:
509,352,599218,5,14,0:1:0:0:
212,297,599381,1,2,0:0:0:0:
212,297,599709,2,0,P|299:317|336:253,1,161.6,2|0,0:0|0:0,0:0:0:0:
351,186,600119,1,2,0:0:0:0:
350,177,600201,1,8,0:0:0:0:
118,300,600365,1,8,0:0:0:0:
354,333,600529,6,0,B|358:260|358:260|345:245|345:245|350:172,1,161.6,6|0,0:0|0:0,0:0:0:0:
406,98,601015,2,0,P|356:158|266:115,1,161.6,2|0,0:0|0:0,0:0:0:0:
235,79,601420,1,0,0:0:0:0:
232,71,601501,2,0,L|254:313,1,227.2500086689,8|0,0:0|0:0,0:0:0:0:
263,380,601826,5,6,0:1:0:0:
37,242,601989,1,2,0:0:0:0:
252,297,602316,2,0,B|314:312|314:312|410:262,1,161.6,2|0,0:0|0:0,0:0:0:0:
469,223,602724,1,0,0:0:0:0:
475,218,602806,1,8,0:0:0:0:
413,37,603133,6,0,L|237:82,1,161.6,6|0,0:0|0:0,0:0:0:0:
174,101,603627,1,2,0:0:0:0:
304,194,603792,2,0,L|198:167,1,80.8,8|2,0:0|0:0,0:0:0:0:
388,218,604122,1,8,0:0:0:0:
256,77,604277,1,10,0:0:0:0:
226,342,604432,5,6,0:0:0:0:
407,209,604597,1,8,0:0:0:0:
139,301,604763,1,14,0:1:0:0:
266,60,604929,1,2,0:0:0:0:
266,60,605012,1,2,0:0:0:0:
266,60,605094,5,14,0:0:0:0:
352,332,605255,1,10,0:0:0:0:
80,212,605417,1,10,0:0:0:0:
419,120,605579,1,10,0:0:0:0:
202,359,605740,6,0,L|113:346,1,90.8999972259522,6|0,0:0|0:0,0:0:0:0:
0,209,606077,2,0,L|111:193,1,90.8999972259522,2|2,0:0|0:0,0:0:0:0:
266,60,606414,1,10,0:0:0:0:
288,293,606574,1,0,0:0:0:0:
89,196,606735,1,2,0:0:0:0:
287,71,606896,1,2,0:0:0:0:
99,285,607057,5,2,0:0:0:0:
197,19,607219,2,0,L|190:123,1,90.8999972259522,8|2,0:0|0:0,0:0:0:0:
346,226,607543,1,2,0:0:0:0:
102,91,607705,2,0,L|95:195,1,90.8999972259522,8|0,0:0|0:0,0:0:0:0:
325,245,608029,1,2,0:0:0:0:
96,182,608200,1,2,0:0:0:0:
287,345,608371,6,0,P|347:333|401:337,1,90.8999972259522,2|0,0:0|0:0,0:0:0:0:
125,272,608693,2,0,P|80:261|35:260,1,90.8999972259522,2|2,0:0|0:0,0:0:0:0:
308,148,609016,1,8,0:0:0:0:
179,361,609177,1,0,0:0:0:0:
179,361,609258,1,0,0:0:0:0:
179,361,609338,1,2,0:0:0:0:
131,105,609500,1,2,0:0:0:0:
328,286,609661,5,2,0:0:0:0:
108,190,609822,2,0,P|48:200|13:219,1,90.8999972259522,8|2,0:0|0:0,0:0:0:0:
192,346,610145,1,2,0:0:0:0:
308,148,610306,2,0,L|110:100,1,181.799994451904,10|2,0:0|0:0,0:0:0:0:
22,212,610811,1,2,0:0:0:0:
192,346,610980,5,6,0:1:0:0:
231,367,611060,1,0,0:0:0:0:
276,365,611140,1,0,0:0:0:0:
312,339,611220,1,0,0:0:0:0:
330,297,611300,5,2,0:0:0:0:
365,278,611381,1,0,0:0:0:0:
405,279,611461,1,2,0:0:0:0:
437,303,611541,1,0,0:0:0:0:
454,341,611621,5,10,0:0:0:0:
488,325,611702,1,0,0:0:0:0:
509,296,611784,1,0,0:0:0:0:
510,260,611865,1,0,0:0:0:0:
493,229,611947,5,2,0:0:0:0:
462,214,612028,1,0,0:0:0:0:
443,188,612110,1,0,0:0:0:0:
442,156,612191,1,0,0:0:0:0:
457,128,612273,5,2,0:0:0:0:
447,104,612352,1,0,0:0:0:0:
429,85,612432,1,10,0:0:0:0:
405,76,612511,1,0,0:0:0:0:
380,77,612591,5,2,0:0:0:0:
371,98,612670,1,0,0:0:0:0:
355,114,612750,1,2,0:0:0:0:
334,122,612830,1,0,0:0:0:0:
312,121,612909,5,8,0:0:0:0:
313,139,612989,1,0,0:0:0:0:
314,157,613068,1,0,0:0:0:0:
316,175,613148,1,0,0:0:0:0:
304,195,613227,5,2,0:0:0:0:
302,209,613314,1,0,0:0:0:0:
301,223,613401,1,0,0:0:0:0:
299,238,613488,1,0,0:0:0:0:
299,252,613575,5,2,0:0:0:0:
305,256,613656,1,0,0:0:0:0:
312,261,613738,1,8,0:0:0:0:
321,263,613820,1,0,0:0:0:0:
333,266,613902,1,2,0:0:0:0:
351,266,613984,1,0,0:0:0:0:
371,266,614066,1,2,0:0:0:0:
397,258,614148,1,0,0:0:0:0:
427,245,614230,1,8,0:0:0:0:
455,216,614312,1,0,0:0:0:0:
475,174,614394,1,0,0:0:0:0:
479,123,614476,1,0,0:0:0:0:
458,66,614558,1,2,0:0:0:0:
409,23,614640,1,0,0:0:0:0:
336,10,614722,1,2,0:0:0:0:
262,46,614804,1,0,0:0:0:0:
228,123,614886,5,14,0:0:0:0:
475,174,615042,1,8,0:0:0:0:
475,174,615120,1,10,0:0:0:0:
475,174,615198,1,10,0:0:0:0:
307,362,615354,1,2,0:0:0:0:
158,75,615511,5,10,0:0:0:0:
426,239,615675,1,10,0:0:0:0:
115,366,615840,1,10,0:0:0:0:
262,46,616004,1,10,0:0:0:0:
328,377,616169,6,0,L|339:202,1,161.6,6|2,0:0|0:0,0:0:0:0:
270,67,616662,1,2,0:0:0:0:
257,178,616826,2,0,L|248:97,1,80.8,10|2,0:3|0:0,0:0:0:0:
426,239,617155,2,0,L|434:158,1,80.8,2|0,0:0|0:0,0:0:0:0:
340,16,617484,5,2,0:0:0:0:
512,139,617648,1,8,0:0:0:0:
316,266,617812,2,0,L|228:250,1,80.8,2|0,0:0|0:0,0:0:0:0:
54,183,618141,2,0,L|221:152,1,161.6,10|2,0:3|0:0,0:0:0:0:
340,16,618799,6,0,P|310:13|303:118,1,161.6,6|0,0:1|0:0,0:0:0:0:
417,115,619287,1,2,0:0:0:0:
275,173,619450,2,0,P|312:142|355:146,1,80.8,10|0,0:3|0:0,0:0:0:0:
402,266,619776,2,0,P|379:233|340:223,1,80.8,10|0,0:3|0:0,0:0:0:0:
147,334,620101,1,2,0:0:0:0:
333,301,620262,5,8,0:0:0:0:
107,256,620423,2,0,L|7:237,1,80.8,2|0,0:0|0:0,0:0:0:0:
245,135,620746,1,10,0:3:0:0:
66,334,620907,1,0,0:0:0:0:
45,79,621068,1,10,0:0:0:0:
83,338,621230,1,10,0:0:0:0:
304,226,621391,6,0,L|123:204,1,161.6,6|0,0:0|0:0,0:0:0:0:
84,41,621889,1,2,0:0:0:0:
68,155,622055,2,0,L|57:59,1,80.8,10|0,0:3|0:0,0:0:0:0:
143,206,622388,2,0,L|132:302,1,80.8,10|0,0:3|0:0,0:0:0:0:
218,88,622720,5,2,0:0:0:0:
55,243,622880,2,0,L|44:339,1,80.8,10|0,0:3|0:0,0:0:0:0:
68,155,623200,1,2,0:0:0:0:
227,337,623360,2,0,L|306:323,1,80.8,10|0,0:3|0:0,0:0:0:0:
426,151,623680,6,0,L|416:181,1,20.2,8|0,0:0|0:0,0:0:0:0:
282,181,623840,2,0,L|302:204,1,20.2,8|0,0:0|0:0,0:0:0:0:
512,220,624000,6,0,L|500:44,1,161.6,6|0,0:0|0:0,0:0:0:0:
422,250,624500,1,2,0:0:0:0:
396,10,624666,2,0,L|385:171,1,161.6,6|0,0:0|0:0,0:0:0:0:
385,171,625333,5,2,0:0:0:0:
205,27,625493,1,10,0:0:0:0:
295,203,625653,2,0,L|307:102,1,80.8,2|0,0:0|0:0,0:0:0:0:
142,87,625974,2,0,L|152:248,1,161.6,6|0,0:0|0:0,0:0:0:0:
152,248,626468,1,2,0:0:0:0:
274,335,626633,6,0,B|239:331|214:303|214:303|173:343|128:325,1,161.6,6|0,0:1|0:0,0:0:0:0:
130,326,627127,1,2,0:0:0:0:
284,254,627292,2,0,P|298:212|294:175,1,80.8,10|0,0:3|0:0,0:0:0:0:
221,100,627622,2,0,P|207:62|210:22,1,80.8,10|0,0:3|0:0,0:0:0:0:
364,130,627944,5,2,0:0:0:0:
209,203,628114,1,8,0:0:0:0:
379,48,628285,2,0,P|343:46|303:72,1,80.8,10|0,0:0|0:0,0:0:0:0:
228,74,628648,2,0,P|209:103|210:150,1,80.8,10|0,0:0|0:0,0:0:0:0:
175,217,629007,2,0,P|191:247|232:269,1,80.8,10|0,0:0|0:0,0:0:0:0:
272,334,629401,6,0,P|351:351|408:284,1,161.6,6|0,0:0|0:0,0:0:0:0:
404,299,629956,1,2,0:0:0:0:
456,232,630137,2,0,L|440:119,1,80.8,10|0,0:3|0:0,0:0:0:0:
377,94,630512,2,0,L|393:-19,1,80.8,10|0,0:3|0:0,0:0:0:0:
444,151,630887,6,0,P|386:117|296:129,1,141.399995684815,6|0,0:1|0:0,0:0:0:0:
239,155,631471,1,0,0:0:0:0:
239,155,631566,1,2,0:0:0:0:
239,155,631660,5,12,0:0:0:0:
101,93,631878,1,2,0:0:0:0:
0,173,632119,1,8,0:0:0:0:
0,277,632349,1,10,0:0:0:0:
61,339,632616,5,4,0:1:0:0:
256,192,632779,12,0,649246,0:0:0:0:
284,262,651579,6,0,L|287:278,2,8.83749973030091,2|2|2,0:0|0:0|0:0,0:0:0:0:
199,234,652040,5,2,0:0:0:0:
199,146,652468,1,2,0:0:0:0:
284,119,652852,1,2,0:0:0:0:
335,190,653237,6,0,L|421:206,1,70.6999978424073,6|2,0:0|0:0,0:0:0:0:
284,262,654026,2,0,L|198:278,1,70.6999978424073,2|2,0:0|0:0,0:0:0:0:
199,145,654815,5,10,0:0:0:0:
199,234,655209,1,2,0:0:0:0:
121,189,655604,1,2,0:0:0:0:
199,145,655999,1,2,0:0:0:0:
121,279,656347,6,0,P|88:275|56:253,1,70.6999978424073,6|2,0:0|0:0,0:0:0:0:
201,323,657157,2,0,P|234:319|266:297,1,70.6999978424073,2|2,0:0|0:0,0:0:0:0:
43,146,657968,5,10,0:0:0:0:
121,189,658374,1,2,0:0:0:0:
78,267,658779,1,2,0:0:0:0:
0,224,659168,1,2,0:0:0:0:
81,69,659558,6,0,P|123:102|126:142,1,70.6999978424073,6|2,0:0|0:0,0:0:0:0:
211,107,660337,2,0,P|203:159|170:182,1,70.6999978424073,2|2,0:0|0:0,0:0:0:0:
179,251,661116,6,0,L|247:235,1,70.6999978424073,10|2,0:0|0:0,0:0:0:0:
371,180,661936,2,0,L|302:164,1,70.6999978424073,2|2,0:0|0:0,0:0:0:0:
243,324,662715,2,0,L|311:308,1,70.6999978424073,6|2,0:0|0:0,0:0:0:0:
312,309,663494,5,2,0:0:0:0:
231,267,663689,1,2,0:0:0:0:
246,179,663884,1,2,0:0:0:0:
332,166,664078,1,2,0:0:0:0:
371,245,664273,5,10,0:0:0:0:
312,309,664667,1,2,0:0:0:0:
231,267,665062,1,2,0:0:0:0:
246,179,665457,1,2,0:0:0:0:
371,245,665851,6,0,L|291:237,1,70.6999978424073,6|2,0:0|0:0,0:0:0:0:
175,186,666641,2,0,L|255:178,1,70.6999978424073,2|2,0:0|0:0,0:0:0:0:
332,166,667430,5,10,0:0:0:0:
246,179,667825,1,2,0:0:0:0:
312,309,668220,1,2,0:0:0:0:
278,99,668615,1,2,0:0:0:0:
371,245,669009,6,0,P|397:281|399:319,1,70.6999978424073,6|2,0:0|0:0,0:0:0:0:
258,374,669799,2,0,P|232:338|230:300,1,70.6999978424073,2|2,0:0|0:0,0:0:0:0:
310,19,670588,5,10,0:0:0:0:
178,123,670982,1,2,0:0:0:0:
366,87,671378,1,2,0:0:0:0:
200,39,671773,1,2,0:0:0:0:
270,204,672167,6,0,L|302:114,1,70.6999978424073,6|2,0:0|0:0,0:0:0:0:
435,74,672957,2,0,L|341:91,1,70.6999978424073,2|2,0:0|0:0,0:0:0:0:
249,2,673746,6,0,P|281:26|289:58,1,70.6999978424073,10|2,0:0|0:0,0:0:0:0:
352,120,674536,2,0,P|347:159|323:182,1,70.6999978424073,2|2,0:0|0:0,0:0:0:0:
296,275,675325,2,0,P|259:290|227:281,1,70.6999978424073,6|2,0:0|0:0,0:0:0:0:
40,190,676115,5,2,0:0:0:0:
256,206,676509,1,2,0:0:0:0:
50,346,676904,5,10,0:0:0:0:
184,145,677299,1,2,0:0:0:0:
230,283,677693,1,2,0:0:0:0:
99,130,678088,1,2,0:0:0:0:
329,80,678483,6,0,L|314:170,1,70.6999978424073,6|2,0:0|0:0,0:0:0:0:
347,0,679273,1,2,0:0:0:0:
303,228,679667,1,2,0:0:0:0:
177,61,680062,5,10,0:0:0:0:
373,177,680457,2,0,L|455:168,2,70.6999978424073,2|2|2,0:0|0:0|0:0,0:0:0:0:
383,265,681641,5,6,0:0:0:0:
213,211,682036,1,2,0:0:0:0:
476,97,682430,2,0,L|461:187,1,70.6999978424073,2|2,0:0|0:0,0:0:0:0:
291,71,683220,5,10,0:0:0:0:
446,242,683615,2,0,P|396:266|362:258,2,70.6999978424073,2|2|2,0:0|0:0|0:0,0:0:0:0:
174,347,684799,5,6,0:0:0:0:
121,125,685193,1,2,0:0:0:0:
317,307,685588,2,0,L|236:299,1,70.6999978424073,2|2,0:0|0:0,0:0:0:0:
121,125,686378,5,10,0:0:0:0:
393,161,686773,1,2,0:0:0:0:
244,324,687167,5,2,0:0:0:0:
192,38,687562,1,2,0:0:0:0:
263,306,687957,6,0,L|360:312,1,70.6999978424073,6|2,0:0|0:0,0:0:0:0:
334,311,688746,5,2,0:0:0:0:
162,230,688944,1,2,0:0:0:0:
318,121,689141,1,2,0:0:0:0:
334,311,689338,1,2,0:0:0:0:
277,218,689536,5,10,0:0:0:0:
422,108,689930,1,2,0:0:0:0:
334,311,690325,1,2,0:0:0:0:
456,33,690720,1,2,0:0:0:0:
277,218,691115,6,0,L|358:212,1,70.6999978424073,6|2,0:0|0:0,0:0:0:0:
492,113,691904,2,0,L|411:107,1,70.6999978424073,2|2,0:0|0:0,0:0:0:0:
32,189,692694,5,10,0:0:0:0:
230,88,693088,1,2,0:0:0:0:
175,308,693483,1,2,0:0:0:0:
79,105,693877,1,2,0:0:0:0:
283,216,694273,6,0,P|252:232|188:215,1,70.6999978424073,6|2,0:0|0:0,0:0:0:0:
79,105,695062,2,0,P|108:123|125:187,1,70.6999978424073,2|2,0:0|0:0,0:0:0:0:
126,21,695851,5,10,0:0:0:0:
280,158,696245,1,2,0:0:0:0:
79,105,696640,1,2,0:0:0:0:
305,35,697036,1,2,0:0:0:0:
155,235,697430,6,0,L|143:139,1,70.6999978424073,6|2,0:0|0:0,0:0:0:0:
334,299,698220,2,0,L|346:203,1,70.6999978424073,2|2,0:0|0:0,0:0:0:0:
280,158,699025,5,10,0:0:0:0:
239,368,699441,1,2,0:0:0:0:
120,113,699858,5,2,0:0:0:0:
366,75,700275,1,2,0:0:0:0:
160,316,700691,5,6,0:0:0:0:
202,67,701108,2,0,L|189:152,2,70.6999978424073,2|2|2,0:0|0:0|0:0,0:0:0:0:
384,55,702358,5,10,0:0:0:0:
281,278,702799,1,2,0:0:0:0:
202,67,703240,1,2,0:0:0:0:
435,131,703681,1,2,0:0:0:0:
384,55,704122,5,10,0:0:0:0:
281,278,704563,1,2,0:0:0:0:
202,67,705027,1,2,0:0:0:0:
435,131,705449,1,2,0:0:0:0:
384,55,705887,5,10,0:0:0:0:
281,278,706390,1,2,0:0:0:0:
202,67,706893,1,2,0:0:0:0:
435,131,707397,1,2,0:0:0:0:
202,67,707900,5,10,0:0:0:0:
435,131,708403,1,2,0:0:0:0:
384,55,708907,5,2,0:0:0:0:
281,278,709379,1,2,0:0:0:0:
178,65,709851,5,6,0:0:0:0:
169,67,709987,1,2,0:0:0:0:
160,69,710123,1,2,0:0:0:0:
152,72,710260,1,2,0:0:0:0:
143,74,710396,1,6,0:0:0:0:
256,192,710532,12,0,718578,0:0:0:0:
