osu file format v14

[General]
AudioFilename: audio.mp3
AudioLeadIn: 0
PreviewTime: 486479
Countdown: 0
SampleSet: Normal
StackLeniency: 0.7
Mode: 0
LetterboxInBreaks: 0
WidescreenStoryboard: 0

[Editor]
Bookmarks: 55596,88342,98735,109170,124822,135257,145692,156127,169170,190040,208300,212214,218735,229170,239605,250040,257866,260474,263083,283953,302214,312648,321779,330909,351779,372648,383083,393518,403953,427431,432648,443083,453518,461344,463953,474387,482214,484822,487431,497866,508300,536996,557866,581344,602214,623083,625885,648110
DistanceSpacing: 0.9
BeatDivisor: 4
GridSize: 8
TimelineZoom: 4.699998

[Metadata]
Title:ULTIMATE SACRIFICE
TitleUnicode:ULTIMATE SACRIFICE
Artist:GALNERYUS
ArtistUnicode:GALNERYUS
Creator:Peptidasen
Version:RISE TO THE SKY
Source:
Tags:metal galneryus stream
BeatmapID:1908264
BeatmapSetID:913519

[Difficulty]
HPDrainRate:6
CircleSize:4.2
OverallDifficulty:9
ApproachRate:9.7
SliderMultiplier:0.8
SliderTickRate:1

[Events]
//Background and Video events
0,0,"ultimate sacrifice.png",0,0
//Break Periods
2,315157,321310
2,444613,453049
//Storyboard Layer 0 (Background)
//Storyboard Layer 1 (Fail)
//Storyboard Layer 2 (Pass)
//Storyboard Layer 3 (Foreground)
//Storyboard Layer 4 (Overlay)
//Storyboard Sound Samples

[TimingPoints]
30699,389.61038961039,4,1,0,30,1,0
54622,-83.3333333333333,4,1,0,49,0,0
55011,-66.6666666666667,4,1,0,66,0,0
55634,-66.6666666666667,4,1,0,45,0,0
72718,-117.647058823529,4,1,0,48,0,0
74277,-66.6666666666667,4,1,0,49,0,0
87346,326.086956521739,4,1,0,100,1,0
87346,-66.6666666666667,4,1,0,100,0,0
88327,326.086956521739,4,1,0,100,1,0
97431,-50,4,1,0,100,0,0
102648,-41.6666666666667,4,1,0,100,0,0
103953,-35.7142857142857,4,1,0,100,0,0
105257,-50,4,1,0,100,0,0
113735,-100,4,1,0,100,0,0
114061,-50,4,1,0,100,0,0
118300,-41.6666666666667,4,1,0,100,0,0
119605,-50,4,1,0,100,0,0
120909,-66.6666666666667,4,1,0,100,0,0
122214,-45.4545454545455,4,1,0,100,0,0
122866,-40,4,1,0,100,0,0
140800,-66.6666666666667,4,1,0,100,0,0
141779,-40,4,1,0,100,0,0
142105,-66.6666666666667,4,1,0,100,0,0
143083,-40,4,1,0,100,0,0
143409,-66.6666666666667,4,1,0,100,0,0
144387,-40,4,1,0,100,0,0
144714,-100,4,1,0,100,0,0
145692,-45.4545454545455,4,1,0,100,0,0
156127,-100,4,1,0,100,0,0
156616,-50,4,1,0,100,0,0
166561,-25,4,1,0,100,0,0
169170,-50,4,1,0,100,0,1
173409,-100,4,1,0,100,0,1
174061,-45.4545454545455,4,1,0,100,0,1
183518,-50,4,1,0,100,0,1
187431,-26.6666666666667,4,1,0,100,0,1
188735,-33.3333333333333,4,1,0,100,0,1
189387,-40,4,1,0,100,0,1
189714,-50,4,1,0,100,0,1
190040,-35.7142857142857,4,1,0,100,0,1
194279,-66.6666666666667,4,1,0,100,0,1
194768,-35.7142857142857,4,1,0,100,0,1
203735,-45.4545454545455,4,1,0,100,0,1
204387,-55.5555555555556,4,1,0,100,0,1
205692,-35.7142857142857,4,1,0,100,0,1
207648,-45.4545454545455,4,1,0,100,0,1
208300,-35.7142857142857,4,1,0,100,0,0
212214,-66.6666666666667,4,1,0,100,0,0
213518,-45.4545454545455,4,1,0,100,0,0
214822,-35.7142857142857,4,1,0,100,0,0
215474,-31.25,4,1,0,100,0,0
218735,-40,4,1,0,100,0,0
228844,-55.5555555555556,4,1,0,100,0,0
229822,-40,4,1,0,100,0,0
250040,-66.6666666666667,4,1,0,100,0,0
250366,-40,4,1,0,100,0,0
252648,-66.6666666666667,4,1,0,100,0,0
252974,-40,4,1,0,100,0,0
255257,-66.6666666666667,4,1,0,100,0,0
255583,-40,4,1,0,100,0,0
256561,-66.6666666666667,4,1,0,100,0,0
256887,-40,4,1,0,100,0,0
259822,-50,4,1,0,100,0,0
260474,-25,4,1,0,100,0,0
261942,-40,4,1,0,100,0,0
263083,-50,4,1,0,100,0,1
266670,-66.6666666666667,4,1,0,100,0,1
267811,-50,4,1,0,100,0,1
277431,-43.4782608695652,4,1,0,100,0,1
280366,-55.5555555555556,4,1,0,100,0,1
281344,-26.3157894736842,4,1,0,100,0,1
282648,-35.7142857142857,4,1,0,100,0,1
294387,-40,4,1,0,100,0,1
298300,-66.6666666666667,4,1,0,100,0,1
298953,-40,4,1,0,100,0,1
299279,-50,4,1,0,100,0,1
302214,-40,4,1,0,100,0,0
310040,-55.5555555555556,4,1,0,100,0,0
312648,-66.6666666666667,4,1,0,100,0,0
321779,-40,4,1,0,100,0,0
330909,-50,4,1,0,100,0,0
355040,-43.4782608695652,4,1,0,100,0,0
355692,-35.7142857142857,4,1,0,100,0,0
356344,-43.4782608695652,4,1,0,100,0,0
356996,-50,4,1,0,100,0,0
367431,-50,4,1,0,100,0,0
368735,-58.8235294117647,4,1,0,100,0,0
370692,-41.6666666666667,4,1,0,100,0,0
371344,-33.3333333333333,4,1,0,100,0,0
372648,-45.4545454545455,4,1,0,100,0,0
382268,-66.6666666666667,4,1,0,100,0,0
383083,-38.4615384615385,4,1,0,100,0,0
392050,-33.3333333333333,4,1,0,100,0,0
393518,-66.6666666666667,4,1,0,100,0,0
395148,-50,4,1,0,100,0,0
396453,-40,4,1,0,100,0,0
397431,-35.7142857142857,4,1,0,100,0,0
398735,-76.9230769230769,4,1,0,100,0,0
401344,-33.3333333333333,4,1,0,100,0,0
402648,-50,4,1,0,100,0,0
403953,-43.4782608695652,4,1,0,100,0,1
407866,-33.3333333333333,4,1,0,100,0,1
409659,-58.8235294117647,4,1,0,100,0,1
411779,-50,4,1,0,100,0,1
413083,-37.037037037037,4,1,0,100,0,1
414387,-43.4782608695652,4,1,0,100,0,1
419605,-50,4,1,0,100,0,1
422214,-35.7142857142857,4,1,0,100,0,1
423518,-41.6666666666667,4,1,0,100,0,1
424822,-50,4,1,0,100,0,1
426127,-27.7777777777778,4,1,0,100,0,1
426779,-35.7142857142857,4,1,0,100,0,1
427431,-33.3333333333333,4,1,0,100,0,0
431833,-40,4,1,0,100,0,0
432648,-50,4,1,0,100,0,0
436561,-66.6666666666667,4,1,0,100,0,0
437866,-50,4,1,0,100,0,0
439170,-41.6666666666667,4,1,0,100,0,0
453518,-52.6315789473684,4,1,0,100,0,0
474387,-43.4782608695652,4,1,0,100,0,0
484822,-25,4,1,0,100,0,0
486127,-40,4,1,0,100,0,0
487431,-55.5555555555556,4,1,0,100,0,0
495257,-38.4615384615385,4,1,0,100,0,0
496561,-66.6666666666667,4,1,0,100,0,0
497866,-38.4615384615385,4,1,0,100,0,1
501779,-50,4,1,0,100,0,1
503083,-37.037037037037,4,1,0,100,0,1
504387,-33.3333333333333,4,1,0,100,0,1
505692,-26.3157894736842,4,1,0,100,0,1
506996,-40,4,1,0,100,0,1
508300,-35.7142857142857,4,1,0,100,0,1
510909,-43.4782608695652,4,1,0,100,0,1
513518,-35.7142857142857,4,1,0,100,0,1
516127,-33.3333333333333,4,1,0,100,0,1
517431,-50,4,1,0,100,0,1
518735,-37.037037037037,4,1,0,100,0,1
523953,-43.4782608695652,4,1,0,100,0,1
531779,-30.3030303030303,4,1,0,100,0,1
534061,-66.6666666666667,4,1,0,100,0,1
534387,-25,4,1,0,100,0,1
536344,-50,4,1,0,100,0,1
536996,-47.6190476190476,4,1,0,100,0,0
542214,-40,4,1,0,100,0,0
548735,-58.8235294117647,4,1,0,100,0,0
552648,-41.6666666666667,4,1,0,100,0,0
555257,-29.4117647058824,4,1,0,100,0,0
556561,-41.6666666666667,4,1,0,100,0,0
557866,-41.6666666666667,4,1,0,100,0,1
563083,-35.7142857142857,4,1,0,100,0,1
568300,-43.4782608695652,4,1,0,100,0,1
572214,-29.4117647058824,4,1,0,100,0,1
573192,-41.6666666666667,4,1,0,100,0,1
576127,-33.3333333333333,4,1,0,100,0,1
577431,-31.25,4,1,0,100,0,1
578735,-50,4,1,0,100,0,1
580040,-25,4,1,0,100,0,1
581344,-40,4,1,0,69,0,0
623083,329.67032967033,4,1,0,100,1,0
623083,-50,4,1,0,100,0,0
625855,384.615384615385,4,1,0,100,1,0
625855,-66.6666666666667,4,1,0,100,0,0
629097,326.086956521739,4,1,0,100,1,0
629097,-100,4,1,0,100,0,0

[HitObjects]
210,246,30309,6,0,P|180:233|163:219,2,40
357,184,31088,1,0,0:0:0:0:
320,72,31478,1,0,0:0:0:0:
70,203,32257,5,0,0:0:0:0:
198,270,32647,1,0,0:0:0:0:
70,203,33036,1,0,0:0:0:0:
197,152,33426,1,0,0:0:0:0:
70,203,33815,6,0,B|196:253|311:207,1,240
306,209,35374,1,0,0:0:0:0:
231,276,35763,2,0,P|189:271|153:245,2,80
398,254,36932,6,0,B|376:184|402:121|402:121|367:73|305:70,1,240
303,158,38491,2,0,B|253:140|207:150|207:150|193:202|159:229|99:233,1,240
116,142,40049,6,0,P|124:102|160:61,1,80
241,60,40634,1,0,0:0:0:0:
224,172,40828,1,0,0:0:0:0:
320,243,41023,1,0,0:0:0:0:
434,199,41218,1,0,0:0:0:0:
438,78,41413,1,0,0:0:0:0:
334,38,41608,2,0,P|286:56|259:85,1,80
346,237,42192,1,2,0:0:0:0:
346,237,42289,1,0,0:0:0:0:
346,237,42387,1,2,0:0:0:0:
280,109,43166,6,0,P|241:121|212:154,1,80
232,275,43945,2,0,P|271:263|300:230,1,80
212,174,44724,1,0,0:0:0:0:
379,201,45114,1,0,0:0:0:0:
320,50,45504,1,0,0:0:0:0:
379,201,45893,1,0,0:0:0:0:
320,50,46283,6,0,L|231:62,1,80
123,174,47062,2,0,L|202:163,1,80
345,201,47841,1,0,0:0:0:0:
345,201,48231,1,0,0:0:0:0:
263,255,48426,1,0,0:0:0:0:
174,207,48621,1,0,0:0:0:0:
173,111,48815,1,0,0:0:0:0:
258,58,49010,1,0,0:0:0:0:
351,103,49205,1,0,0:0:0:0:
374,210,49400,6,0,P|385:227|311:323,1,160
305,247,50569,1,0,0:0:0:0:
303,127,50958,1,0,0:0:0:0:
192,128,51348,1,0,0:0:0:0:
194,245,51737,1,0,0:0:0:0:
94,243,52127,1,0,0:0:0:0:
174,122,52517,6,0,P|209:94|391:128,1,240
283,161,54075,1,0,0:0:0:0:
237,231,54660,6,0,L|179:240,1,47.9999985351563,2|0,0:0|0:0,0:0:0:0:
269,136,55049,2,0,L|334:149,1,60.0000022888184,2|0,0:0|0:0,0:0:0:0:
194,79,55439,1,0,0:0:0:0:
102,39,55634,6,0,B|90:105|141:154,1,120.000004577637
89,251,56413,1,0,0:0:0:0:
191,210,56802,1,0,0:0:0:0:
281,242,57192,6,0,P|279:194|242:124,1,120.000004577637
330,44,57971,1,0,0:0:0:0:
382,149,58361,1,0,0:0:0:0:
318,234,58750,6,0,L|201:204,1,120.000004577637,2|0,0:0|0:0,0:0:0:0:
102,263,59530,2,0,L|219:293,1,120.000004577637,2|0,0:0|0:0,0:0:0:0:
318,234,60309,2,0,L|201:204,1,120.000004577637,2|0,0:0|0:0,0:0:0:0:
279,64,61088,1,0,0:0:0:0:
233,152,61478,1,0,0:0:0:0:
141,173,61867,6,0,P|171:229|243:248,1,120.000004577637,2|0,0:0|0:0,0:0:0:0:
279,139,62647,2,0,P|332:162|359:215,1,120.000004577637,2|0,0:0|0:0,0:0:0:0:
272,220,63426,6,0,L|263:350,1,120.000004577637,2|0,0:0|0:0,0:0:0:0:
381,223,64205,1,0,0:0:0:0:
390,119,64595,1,0,0:0:0:0:
304,69,64984,2,0,P|234:66|178:70,1,120.000004577637,2|0,0:0|0:0,0:0:0:0:
104,154,65763,2,0,P|152:163|232:154,1,120.000004577637,2|0,0:0|0:0,0:0:0:0:
368,180,66543,5,2,0:0:0:0:
326,96,66737,1,0,0:0:0:0:
246,135,66932,1,2,0:0:0:0:
284,219,67127,2,0,P|221:247|100:265,1,180.000006866455
121,156,67906,1,2,0:0:0:0:
223,136,68101,5,0,0:0:0:0:
387,161,68491,2,0,L|453:170,1,60.0000022888184
304,210,68880,2,0,L|238:219,1,60.0000022888184
394,262,69270,1,0,0:0:0:0:
238,284,69660,5,0,0:0:0:0:
143,238,70049,1,0,0:0:0:0:
125,148,70439,1,0,0:0:0:0:
198,100,70828,1,0,0:0:0:0:
283,88,71218,6,0,P|352:90|414:97,1,120.000004577637,2|0,0:0|0:0,0:0:0:0:
346,171,71997,2,0,P|277:169|215:162,1,120.000004577637,2|0,0:0|0:0,0:0:0:0:
65,71,72776,6,0,L|29:72,2,22.666667098999,2|0|0,0:0|0:0|0:0,0:0:0:0:
153,122,73166,2,0,L|189:123,2,22.666667098999,2|0|0,0:0|0:0|0:0,0:0:0:0:
60,174,73556,2,0,L|24:175,2,22.666667098999,2|0|0,0:0|0:0|0:0,0:0:0:0:
149,214,73945,2,0,L|185:215,2,22.666667098999,2|0|0,0:0|0:0|0:0,0:0:0:0:
282,294,74335,6,0,P|335:267|366:217,1,120.000004577637
323,85,75114,1,0,0:0:0:0:
176,82,75504,1,0,0:0:0:0:
115,291,75893,5,2,0:0:0:0:
251,244,76088,1,0,0:0:0:0:
125,188,76283,1,2,0:0:0:0:
261,141,76478,1,0,0:0:0:0:
87,81,76673,5,2,0:0:0:0:
147,199,76867,1,0,0:0:0:0:
160,45,77062,5,2,0:0:0:0:
69,200,77256,1,0,0:0:0:0:
160,45,77452,6,0,B|262:46|227:108|327:108,1,180.000006866455,2|0,0:0|0:0,0:0:0:0:
398,65,78231,2,0,P|402:126|298:191,1,180.000006866455,2|0,0:0|0:0,0:0:0:0:
236,155,79010,2,0,P|232:208|343:272,1,180.000006866455,2|0,0:0|0:0,0:0:0:0:
455,248,79789,5,0,0:0:0:0:
380,121,80179,2,0,L|322:134,1,60.0000022888184
256,192,80569,12,0,85244,0:0:0:0:
110,116,87346,6,0,P|129:150|200:205,2,120.000004577637,2|2|2,0:0|0:0|0:0,0:0:0:0:
396,308,88327,6,0,B|409:234|485:181|485:181|460:115|424:71|345:23|345:23|340:78|289:111,1,480,10|0,0:0|0:0,0:0:0:0:
484,300,90609,1,8,0:0:0:0:
189,224,90772,1,8,0:0:0:0:
289,185,90935,2,0,B|283:337|124:317,1,240,10|0,0:0|0:0,0:0:0:0:
203,149,92240,5,8,0:0:0:0:
183,152,92321,1,0,0:0:0:0:
165,162,92403,1,2,0:0:0:0:
153,177,92484,1,0,0:0:0:0:
149,198,92566,2,0,L|168:222,3,20,8|0|2|0,0:0|0:0|0:0|0:0,0:0:0:0:
258,90,92892,5,8,0:0:0:0:
276,84,92973,1,0,0:0:0:0:
296,87,93055,1,2,0:0:0:0:
315,96,93136,1,0,0:0:0:0:
326,114,93218,2,0,L|318:143,3,20,8|0|2|0,0:0|0:0|0:0|0:0,0:0:0:0:
406,160,93544,6,0,P|401:198|294:204,1,160,8|4,0:0|0:0,0:0:0:0:
379,57,94522,1,8,0:0:0:0:
191,58,94685,1,2,0:0:0:0:
379,57,94848,6,0,P|400:92|382:213,1,160,10|4,0:0|0:0,0:0:0:0:
113,182,95827,1,8,0:0:0:0:
234,314,95990,1,0,0:0:0:0:
201,150,96153,2,0,L|254:136,1,40,10|4,0:0|0:0,0:0:0:0:
350,281,96479,1,0,0:0:0:0:
350,103,96642,2,0,L|311:113,1,40,10|4,0:0|0:0,0:0:0:0:
111,53,96968,1,0,0:0:0:0:
98,249,97131,2,0,L|150:253,1,40,10|4,0:0|0:0,0:0:0:0:
297,292,97457,5,8,0:0:0:0:
307,253,97538,1,0,0:0:0:0:
333,223,97620,1,2,0:0:0:0:
360,194,97701,1,0,0:0:0:0:
373,159,97783,2,0,L|366:105,1,40,8|0,0:0|0:0,0:0:0:0:
263,41,97946,2,0,L|269:94,1,40,2|0,0:0|0:0,0:0:0:0:
224,263,98109,5,8,0:0:0:0:
184,260,98190,1,0,0:0:0:0:
148,243,98272,1,2,0:0:0:0:
119,215,98353,1,0,0:0:0:0:
103,179,98435,2,0,L|91:134,3,40,8|0|2|4,0:0|0:0|0:0|0:0,0:0:0:0:
129,29,98761,2,0,P|180:73|193:153,1,120,8|4,0:0|0:0,0:0:0:0:
240,249,99087,2,0,L|290:224,3,40,8|0|2|0,0:0|0:0|0:0|0:0,0:0:0:0:
392,242,99413,5,8,0:0:0:0:
422,216,99494,1,0,0:0:0:0:
441,181,99576,1,2,0:0:0:0:
446,141,99657,1,0,0:0:0:0:
437,103,99739,1,8,0:0:0:0:
414,70,99820,1,0,0:0:0:0:
381,47,99902,1,2,0:0:0:0:
343,38,99983,1,0,0:0:0:0:
306,49,100066,5,8,0:0:0:0:
317,87,100147,1,0,0:0:0:0:
314,126,100229,1,2,0:0:0:0:
298,163,100310,1,0,0:0:0:0:
271,191,100392,1,8,0:0:0:0:
235,209,100473,1,0,0:0:0:0:
195,212,100555,1,2,0:0:0:0:
157,202,100636,1,0,0:0:0:0:
124,179,100718,5,8,0:0:0:0:
140,143,100799,1,0,0:0:0:0:
169,115,100881,1,2,0:0:0:0:
205,99,100962,1,0,0:0:0:0:
245,97,101044,5,8,0:0:0:0:
250,136,101125,1,0,0:0:0:0:
272,169,101207,1,2,0:0:0:0:
306,190,101288,1,0,0:0:0:0:
344,187,101370,6,0,L|391:172,3,40,8|0|2|0,0:0|0:0|0:0|0:0,0:0:0:0:
333,32,101696,2,0,L|372:42,3,40,8|0|2|0,0:0|0:0|0:0|0:0,0:0:0:0:
236,251,102022,2,0,L|198:260,3,40,8|0|2|0,0:0|0:0|0:0|0:0,0:0:0:0:
236,109,102348,2,0,L|197:99,3,40,8|0|2|0,0:0|0:0|0:0|0:0,0:0:0:0:
147,252,102674,5,8,0:0:0:0:
107,226,102755,1,0,0:0:0:0:
95,181,102837,1,2,0:0:0:0:
117,140,102918,1,0,0:0:0:0:
161,125,103000,1,8,0:0:0:0:
204,144,103082,5,0,0:0:0:0:
249,156,103163,1,2,0:0:0:0:
294,140,103245,1,0,0:0:0:0:
322,102,103326,1,8,0:0:0:0:
323,54,103408,1,0,0:0:0:0:
297,15,103489,1,2,0:0:0:0:
254,0,103571,1,0,0:0:0:0:
207,6,103653,2,0,P|188:74|211:141,1,143.999995605469,8|0,0:0|0:0,0:0:0:0:
327,105,103979,5,10,0:0:0:0:
378,83,104060,1,0,0:0:0:0:
432,95,104142,1,2,0:0:0:0:
467,138,104223,1,0,0:0:0:0:
471,192,104305,1,8,0:0:0:0:
441,239,104386,1,0,0:0:0:0:
389,258,104468,1,2,0:0:0:0:
334,251,104549,1,0,0:0:0:0:
283,229,104631,5,8,0:0:0:0:
233,204,104712,1,0,0:0:0:0:
178,193,104794,1,2,0:0:0:0:
128,216,104875,1,0,0:0:0:0:
108,267,104957,1,8,0:0:0:0:
127,318,105038,1,0,0:0:0:0:
175,343,105120,1,2,0:0:0:0:
228,329,105201,1,0,0:0:0:0:
255,282,105283,5,8,0:0:0:0:
216,283,105364,1,0,0:0:0:0:
184,260,105446,1,2,0:0:0:0:
172,223,105527,1,0,0:0:0:0:
185,186,105609,1,8,0:0:0:0:
192,147,105690,1,0,0:0:0:0:
177,110,105772,1,2,0:0:0:0:
170,72,105853,1,0,0:0:0:0:
184,34,105935,5,8,0:0:0:0:
215,10,106016,1,0,0:0:0:0:
254,5,106098,1,2,0:0:0:0:
290,20,106179,1,0,0:0:0:0:
313,52,106261,1,8,0:0:0:0:
333,87,106342,1,0,0:0:0:0:
364,112,106424,1,2,0:0:0:0:
402,124,106505,1,0,0:0:0:0:
435,149,106587,2,0,L|469:196,3,40,8|0|2|4,0:0|0:0|0:0|0:0,0:0:0:0:
364,247,106913,5,8,0:0:0:0:
336,274,106994,1,0,0:0:0:0:
301,293,107077,1,2,0:0:0:0:
262,301,107157,1,0,0:0:0:0:
220,300,107240,2,0,L|154:296,3,40,8|0|2|4,0:0|0:0|0:0|0:0,0:0:0:0:
105,221,107566,5,8,0:0:0:0:
86,186,107647,1,0,0:0:0:0:
87,147,107729,1,2,0:0:0:0:
110,115,107810,1,0,0:0:0:0:
147,100,107892,1,8,0:0:0:0:
185,107,107973,1,0,0:0:0:0:
214,134,108055,5,2,0:0:0:0:
243,162,108136,1,0,0:0:0:0:
278,180,108218,1,8,0:0:0:0:
318,186,108299,1,0,0:0:0:0:
357,180,108381,1,2,0:0:0:0:
393,163,108462,1,0,0:0:0:0:
412,128,108544,6,0,L|432:88,1,40,8|4,0:0|0:0,0:0:0:0:
298,195,108707,2,0,L|280:230,1,40,2|0,0:0|0:0,0:0:0:0:
307,77,108870,2,0,L|327:37,1,40,8|4,0:0|0:0,0:0:0:0:
210,138,109033,2,0,L|192:173,1,40,2|0,0:0|0:0,0:0:0:0:
436,206,109196,6,0,P|441:262|425:292,1,80,8|0,0:0|0:0,0:0:0:0:
200,241,109441,2,0,P|195:189|259:137,1,120,2|4,0:0|0:0,0:0:0:0:
458,292,109848,5,8,0:0:0:0:
392,97,110011,1,0,0:0:0:0:
261,251,110174,1,8,0:0:0:0:
265,46,110337,1,0,0:0:0:0:
117,149,110500,6,0,P|158:190|197:205,1,80,8|0,0:0|0:0,0:0:0:0:
405,259,110745,2,0,P|361:299|303:308,1,120,2|4,0:0|0:0,0:0:0:0:
316,71,111153,5,8,0:0:0:0:
120,215,111316,1,0,0:0:0:0:
282,72,111479,1,8,0:0:0:0:
246,273,111642,1,0,0:0:0:0:
388,88,111805,6,0,L|402:194,1,80,8|0,0:0|0:0,0:0:0:0:
165,238,112049,2,0,P|213:272|272:281,1,120,2|4,0:0|0:0,0:0:0:0:
218,73,112457,5,8,0:0:0:0:
447,190,112620,1,0,0:0:0:0:
167,143,112783,1,8,0:0:0:0:
385,266,112946,1,0,0:0:0:0:
216,286,113109,5,8,0:0:0:0:
176,285,113190,1,0,0:0:0:0:
139,269,113272,1,2,0:0:0:0:
111,241,113353,1,0,0:0:0:0:
95,205,113435,2,0,L|91:156,3,40,8|0|2|4,0:0|0:0|0:0|0:0,0:0:0:0:
185,99,113761,5,8,0:0:0:0:
189,118,113842,1,0,0:0:0:0:
199,135,113924,1,2,0:0:0:0:
213,149,114005,1,0,0:0:0:0:
230,162,114087,2,0,L|269:171,3,40,8|0|2|4,0:0|0:0|0:0|0:0,0:0:0:0:
423,102,114413,6,0,L|445:182,1,80,8|0,0:0|0:0,0:0:0:0:
292,301,114658,2,0,L|154:244,1,120,2|4,0:0|0:0,0:0:0:0:
59,61,115066,5,8,0:0:0:0:
281,33,115229,1,0,0:0:0:0:
117,213,115392,1,8,0:0:0:0:
254,46,115555,1,0,0:0:0:0:
457,159,115718,6,0,P|438:198|426:247,1,80,8|0,0:0|0:0,0:0:0:0:
201,195,115962,2,0,P|208:135|234:81,1,120,2|4,0:0|0:0,0:0:0:0:
257,269,116370,5,8,0:0:0:0:
98,160,116533,1,0,0:0:0:0:
267,161,116696,1,8,0:0:0:0:
120,268,116859,1,0,0:0:0:0:
326,298,117022,6,0,P|372:255|378:225,1,80,8|0,0:0|0:0,0:0:0:0:
297,74,117267,2,0,L|170:93,1,120,2|4,0:0|0:0,0:0:0:0:
418,170,117674,5,8,0:0:0:0:
169,200,117837,1,0,0:0:0:0:
408,282,118000,1,8,0:0:0:0:
199,118,118163,1,0,0:0:0:0:
408,63,118326,5,8,0:0:0:0:
421,108,118407,1,0,0:0:0:0:
413,155,118489,1,2,0:0:0:0:
386,194,118570,1,0,0:0:0:0:
345,217,118652,1,8,0:0:0:0:
297,220,118733,1,0,0:0:0:0:
253,202,118815,1,2,0:0:0:0:
221,167,118896,1,0,0:0:0:0:
206,120,118979,6,0,L|195:71,3,47.9999985351563,8|0|2|4,0:0|0:0|0:0|0:0,0:0:0:0:
88,155,119305,2,0,L|98:201,3,47.9999985351563,8|0|2|4,0:0|0:0|0:0|0:0,0:0:0:0:
145,287,119631,5,8,0:0:0:0:
179,305,119712,1,0,0:0:0:0:
218,299,119794,1,2,0:0:0:0:
246,272,119875,1,0,0:0:0:0:
253,233,119957,2,0,L|247:186,1,40,8|4,0:0|0:0,0:0:0:0:
357,321,120120,2,0,L|352:282,1,40,2|4,0:0|0:0,0:0:0:0:
390,164,120283,5,8,0:0:0:0:
400,125,120364,1,0,0:0:0:0:
386,88,120446,1,2,0:0:0:0:
353,67,120527,1,0,0:0:0:0:
313,69,120609,2,0,L|268:86,1,40,8|4,0:0|0:0,0:0:0:0:
237,183,120772,2,0,L|200:198,1,40,2|4,0:0|0:0,0:0:0:0:
108,139,120935,5,8,0:0:0:0:
104,109,121016,1,0,0:0:0:0:
114,81,121098,1,2,0:0:0:0:
134,59,121179,1,0,0:0:0:0:
161,47,121261,1,8,0:0:0:0:
191,48,121342,1,0,0:0:0:0:
218,61,121424,1,2,0:0:0:0:
237,84,121505,1,0,0:0:0:0:
245,112,121587,5,8,0:0:0:0:
252,140,121668,1,0,0:0:0:0:
271,163,121750,1,2,0:0:0:0:
298,176,121831,1,0,0:0:0:0:
328,177,121913,1,8,0:0:0:0:
355,165,121994,1,0,0:0:0:0:
375,143,122076,1,2,0:0:0:0:
385,115,122157,1,0,0:0:0:0:
382,85,122240,6,0,L|346:36,3,44.0000013427735,8|0|2|4,0:0|0:0|0:0|0:0,0:0:0:0:
242,49,122566,2,0,L|216:84,3,44.0000013427735,8|0|2|4,0:0|0:0|0:0|0:0,0:0:0:0:
123,178,122892,6,0,L|123:122,1,50,8|4,0:0|0:0,0:0:0:0:
225,222,123055,2,0,L|225:272,1,50,2|0,0:0|0:0,0:0:0:0:
211,106,123218,2,0,L|182:57,1,50,8|4,0:0|0:0,0:0:0:0:
311,185,123381,2,0,L|336:227,1,50,2|0,0:0|0:0,0:0:0:0:
279,86,123544,6,0,L|342:77,1,50,8|4,0:0|0:0,0:0:0:0:
225,222,123707,2,0,L|175:217,1,50,2|0,0:0|0:0,0:0:0:0:
145,44,123870,2,0,L|84:63,1,50,8|4,0:0|0:0,0:0:0:0:
87,210,124033,2,0,L|32:242,1,50,2|0,0:0|0:0,0:0:0:0:
237,52,124196,5,8,0:0:0:0:
187,280,124359,1,10,0:0:0:0:
110,91,124522,5,8,0:0:0:0:
409,198,124685,1,10,0:0:0:0:
93,146,124848,6,0,L|63:253,1,100,8|4,0:0|0:0,0:0:0:0:
186,140,125174,1,0,0:0:0:0:
240,273,125337,1,0,0:0:0:0:
352,144,125500,1,8,0:0:0:0:
145,82,125663,2,0,P|102:122|99:187,1,100,2|0,0:0|0:0,0:0:0:0:
192,294,125990,1,0,0:0:0:0:
297,60,126153,6,0,B|378:125|292:160|373:237,1,200,8|4,0:0|0:0,0:0:0:0:
158,222,126642,1,0,0:0:0:0:
215,41,126805,1,8,0:0:0:0:
80,198,126968,2,0,P|91:255|127:302,1,100
59,85,127294,1,0,0:0:0:0:
352,225,127457,6,0,P|369:135|303:19,1,200,8|4,0:0|0:0,0:0:0:0:
143,48,127946,1,0,0:0:0:0:
143,48,128109,2,0,P|131:116|150:182,1,100,8|0,0:0|0:0,0:0:0:0:
430,229,128435,1,0,0:0:0:0:
248,302,128598,1,0,0:0:0:0:
431,199,128761,6,0,B|348:89|352:180|274:77,1,200,8|4,0:0|0:0,0:0:0:0:
69,143,129250,1,0,0:0:0:0:
68,142,129413,2,0,P|102:178|145:202,1,100,8|0,0:0|0:0,0:0:0:0:
58,44,129740,1,0,0:0:0:0:
284,61,129903,1,0,0:0:0:0:
61,127,130066,6,0,P|67:178|199:276,1,200,8|4,0:0|0:0,0:0:0:0:
245,124,130555,1,0,0:0:0:0:
295,285,130718,1,8,0:0:0:0:
103,265,130881,2,0,L|76:165,1,100
230,258,131207,1,0,0:0:0:0:
301,76,131370,6,0,L|441:221,1,200,8|4,0:0|0:0,0:0:0:0:
204,312,131859,1,0,0:0:0:0:
307,210,132022,1,8,0:0:0:0:
145,240,132185,2,0,P|100:212|69:171,1,100
187,56,132511,1,0,0:0:0:0:
375,219,132674,6,0,B|369:113|447:153|419:19,1,200,8|4,0:0|0:0,0:0:0:0:
153,52,133163,1,0,0:0:0:0:
349,76,133327,1,8,0:0:0:0:
126,119,133490,2,0,L|50:195,1,100
242,253,133816,1,0,0:0:0:0:
172,49,133979,6,0,P|267:69|398:63,1,200,8|4,0:0|0:0,0:0:0:0:
197,140,134468,1,0,0:0:0:0:
362,272,134631,5,8,0:0:0:0:
410,266,134712,1,0,0:0:0:0:
447,233,134794,1,2,0:0:0:0:
457,185,134875,1,0,0:0:0:0:
438,140,134957,2,0,B|405:97|343:66,1,100,8|4,0:0|0:0,0:0:0:0:
107,64,135283,6,0,P|120:129|165:185,1,100,8|4,0:0|0:0,0:0:0:0:
277,253,135609,5,8,0:0:0:0:
299,208,135690,1,0,0:0:0:0:
321,163,135772,1,2,0:0:0:0:
343,118,135854,2,0,L|367:64,2,50,0|8|4,0:0|0:0|0:0,0:0:0:0:
425,199,136098,5,2,0:0:0:0:
414,247,136179,1,0,0:0:0:0:
378,280,136261,1,8,0:0:0:0:
329,286,136343,2,0,L|269:259,1,50,0|6,0:0|0:0,0:0:0:0:
101,266,136587,6,0,P|70:224|60:159,1,100,8|4,0:0|0:0,0:0:0:0:
184,72,136913,5,8,0:0:0:0:
233,70,136994,1,0,0:0:0:0:
283,68,137076,1,2,0:0:0:0:
333,66,137158,2,0,L|389:65,2,50,0|8|4,0:0|0:0|0:0,0:0:0:0:
342,187,137403,5,2,0:0:0:0:
310,224,137484,1,0,0:0:0:0:
262,226,137566,1,8,0:0:0:0:
227,192,137647,2,0,P|222:162|245:123,1,50,0|4,0:0|0:0,0:0:0:0:
104,81,137892,6,0,P|86:147|95:200,1,100,8|4,0:0|0:0,0:0:0:0:
184,283,138218,1,8,0:0:0:0:
232,295,138299,1,0,0:0:0:0:
280,307,138381,1,2,0:0:0:0:
329,320,138462,2,0,L|384:336,2,50,0|8|4,0:0|0:0|0:0,0:0:0:0:
370,212,138707,5,2,0:0:0:0:
356,166,138788,1,0,0:0:0:0:
390,133,138870,1,8,0:0:0:0:
435,149,138951,2,0,L|464:191,1,50,0|4,0:0|0:0,0:0:0:0:
337,56,139196,6,0,P|291:84|237:95,1,100,8|4,0:0|0:0,0:0:0:0:
124,56,139522,1,8,0:0:0:0:
108,103,139603,1,0,0:0:0:0:
104,153,139685,1,2,0:0:0:0:
112,202,139767,2,0,L|125:264,2,50,0|8|4,0:0|0:0|0:0,0:0:0:0:
189,97,140011,5,2,0:0:0:0:
232,74,140092,1,0,0:0:0:0:
279,86,140174,1,8,0:0:0:0:
305,127,140256,2,0,L|325:191,1,50,0|4,0:0|0:0,0:0:0:0:
213,293,140500,6,0,L|113:304,1,100,8|4,0:0|0:0,0:0:0:0:
102,185,140826,6,0,L|102:126,3,30.0000011444092,8|0|2|4,0:0|0:0|0:0|0:0,0:0:0:0:
218,163,141316,5,2,0:0:0:0:
247,161,141398,1,0,0:0:0:0:
275,149,141479,1,8,0:0:0:0:
297,130,141561,1,0,0:0:0:0:
312,104,141642,2,0,L|325:69,1,30.0000011444092,2|4,0:0|0:0,0:0:0:0:
419,59,141805,6,0,L|422:167,1,100,8|4,0:0|0:0,0:0:0:0:
340,256,142131,6,0,L|287:254,3,30.0000011444092,8|0|2|4,0:0|0:0|0:0|0:0,0:0:0:0:
270,132,142620,5,2,0:0:0:0:
250,109,142701,1,0,0:0:0:0:
221,104,142783,1,8,0:0:0:0:
195,118,142864,1,0,0:0:0:0:
184,145,142946,2,0,L|186:184,1,30.0000011444092,2|4,0:0|0:0,0:0:0:0:
307,261,143109,6,0,L|367:177,1,100,8|4,0:0|0:0,0:0:0:0:
311,65,143435,6,0,L|267:59,3,30.0000011444092,8|0|2|4,0:0|0:0|0:0|0:0,0:0:0:0:
137,62,143924,5,2,0:0:0:0:
108,68,144005,1,0,0:0:0:0:
92,93,144087,1,8,0:0:0:0:
97,122,144169,1,0,0:0:0:0:
120,139,144250,2,0,L|166:140,1,30.0000011444092,2|4,0:0|0:0,0:0:0:0:
322,46,144413,6,0,L|345:167,1,100,8|4,0:0|0:0,0:0:0:0:
256,127,144740,2,0,L|266:184,1,40,8|4,0:0|0:0,0:0:0:0:
128,257,145066,5,8,0:0:0:0:
226,60,145283,5,8,0:0:0:0:
202,319,145500,5,8,0:0:0:0:
391,121,145718,5,14,0:0:0:0:
419,198,145881,2,0,B|324:216|310:124,1,132.00000402832,2|0,0:0|0:0,0:0:0:0:
217,77,146207,1,8,0:0:0:0:
174,8,146370,2,0,P|133:57|147:120,1,132.00000402832,2|0,0:0|0:0,0:0:0:0:
160,241,146696,1,8,0:0:0:0:
230,181,146859,2,0,L|330:281,1,132.00000402832,2|0,0:0|0:0,0:0:0:0:
451,238,147185,1,8,0:0:0:0:
486,143,147348,2,0,L|358:108,1,132.00000402832,2|0,0:0|0:0,0:0:0:0:
216,211,147674,6,0,B|231:150|289:139|289:139|267:58|349:3|415:60,1,308.000009399414,8|4,0:0|0:0,0:0:0:0:
300,218,148326,5,8,0:0:0:0:
382,220,148490,2,0,P|349:276|290:303,1,132.00000402832,2|0,0:0|0:0,0:0:0:0:
145,250,148816,1,8,0:0:0:0:
66,147,148979,2,0,P|107:108|204:83,1,132.00000402832,2|0,0:0|0:0,0:0:0:0:
420,158,149305,1,8,0:0:0:0:
371,247,149468,2,0,L|223:212,1,132.00000402832,2|0,0:0|0:0,0:0:0:0:
92,241,149794,1,8,0:0:0:0:
89,149,149957,2,0,L|183:36,1,132.00000402832,2|0,0:0|0:0,0:0:0:0:
280,81,150283,6,0,B|244:119|245:190|284:218|284:218|339:259|340:348|256:366,1,308.000009399414,8|0,0:0|0:0,0:0:0:0:
337,150,150935,5,8,0:0:0:0:
245,290,151098,2,0,P|169:281|106:239,1,132.00000402832,2|0,0:0|0:0,0:0:0:0:
62,177,151424,1,8,0:0:0:0:
102,86,151587,2,0,P|159:55|225:51,1,132.00000402832,2|0,0:0|0:0,0:0:0:0:
374,107,151913,1,8,0:0:0:0:
255,201,152076,2,0,L|385:266,1,132.00000402832,2|0,0:0|0:0,0:0:0:0:
448,185,152403,1,8,0:0:0:0:
325,89,152566,2,0,L|203:37,1,132.00000402832,2|0,0:0|0:0,0:0:0:0:
83,106,152892,6,0,P|131:227|224:135,1,308.000009399414,8|0,0:0|0:0,0:0:0:0:
317,157,153544,5,8,0:0:0:0:
302,83,153707,2,0,P|364:94|390:152,1,132.00000402832,2|0,0:0|0:0,0:0:0:0:
404,242,154033,1,8,0:0:0:0:
398,316,154196,2,0,P|341:289|329:227,1,132.00000402832,2|0,0:0|0:0,0:0:0:0:
201,159,154522,6,0,L|240:96,1,44.0000013427735,8|4,0:0|0:0,0:0:0:0:
110,206,154685,2,0,L|86:244,1,44.0000013427735,8|4,0:0|0:0,0:0:0:0:
112,109,154848,1,8,0:0:0:0:
204,270,155011,1,10,0:0:0:0:
289,111,155174,2,0,P|339:105|385:128,1,88.000002685547,8|4,0:0|0:0,0:0:0:0:
142,61,155500,5,8,0:0:0:0:
142,61,155582,1,0,0:0:0:0:
142,61,155663,1,2,0:0:0:0:
142,61,155745,1,0,0:0:0:0:
142,61,155826,1,8,0:0:0:0:
117,96,155907,1,0,0:0:0:0:
98,135,155990,2,0,L|70:183,1,44.0000013427735,2|4,0:0|0:0,0:0:0:0:
227,289,156152,5,8,0:0:0:0:
247,283,156234,1,0,0:0:0:0:
267,278,156316,1,2,0:0:0:0:
286,273,156397,1,0,0:0:0:0:
306,267,156479,2,0,L|339:258,1,20,8|4,0:0|0:0,0:0:0:0:
104,132,156642,6,0,L|198:98,1,80,8|4,0:0|0:0,0:0:0:0:
383,152,156968,1,2,0:0:0:0:
240,51,157131,1,8,0:0:0:0:
355,227,157294,1,2,0:0:0:0:
151,198,157457,1,8,0:0:0:0:
322,81,157620,1,2,0:0:0:0:
151,198,157783,6,0,L|83:239,1,80,8|4,0:0|0:0,0:0:0:0:
269,224,158109,2,0,L|201:265,1,80,8|4,0:0|0:0,0:0:0:0:
282,99,158435,2,0,L|214:140,1,80,8|4,0:0|0:0,0:0:0:0:
410,222,158761,5,8,0:0:0:0:
394,258,158842,1,0,0:0:0:0:
361,280,158924,1,2,0:0:0:0:
322,282,159005,1,0,0:0:0:0:
287,263,159087,2,0,L|276:215,1,40,8|4,0:0|0:0,0:0:0:0:
128,86,159250,6,0,L|201:52,1,80,8|4,0:0|0:0,0:0:0:0:
137,218,159576,1,2,0:0:0:0:
238,89,159740,1,8,0:0:0:0:
226,254,159903,1,2,0:0:0:0:
315,93,160066,1,8,0:0:0:0:
130,45,160229,1,2,0:0:0:0:
115,182,160392,6,0,L|162:247,1,80,8|4,0:0|0:0,0:0:0:0:
227,194,160718,2,0,L|274:259,1,80,8|4,0:0|0:0,0:0:0:0:
336,195,161044,2,0,L|383:260,1,80,8|4,0:0|0:0,0:0:0:0:
417,74,161370,5,8,0:0:0:0:
378,62,161451,1,0,0:0:0:0:
338,58,161533,1,2,0:0:0:0:
299,62,161615,1,0,0:0:0:0:
260,75,161696,2,0,L|213:100,1,40,8|4,0:0|0:0,0:0:0:0:
128,242,161859,6,0,L|211:274,1,80,8|4,0:0|0:0,0:0:0:0:
426,218,162185,1,2,0:0:0:0:
236,178,162348,1,8,0:0:0:0:
323,314,162511,1,2,0:0:0:0:
359,151,162674,5,8,0:0:0:0:
354,111,162755,1,0,0:0:0:0:
329,81,162837,1,2,0:0:0:0:
292,69,162918,1,0,0:0:0:0:
254,80,163000,2,0,L|228:123,1,40,8|4,0:0|0:0,0:0:0:0:
387,274,163163,6,0,L|442:201,1,80,8|4,0:0|0:0,0:0:0:0:
235,161,163490,1,2,0:0:0:0:
395,122,163653,1,8,0:0:0:0:
164,60,163816,1,2,0:0:0:0:
109,288,163979,6,0,L|199:342,1,80,8|4,0:0|0:0,0:0:0:0:
140,154,164305,2,0,L|71:112,1,80,8|4,0:0|0:0,0:0:0:0:
244,274,164631,5,8,0:0:0:0:
359,41,164794,1,10,0:0:0:0:
62,184,164957,5,8,0:0:0:0:
391,280,165120,1,10,0:0:0:0:
190,86,165283,6,0,L|134:160,1,80,8|4,0:0|0:0,0:0:0:0:
388,99,165609,2,0,L|339:35,1,80,8|4,0:0|0:0,0:0:0:0:
417,244,165935,5,8,0:0:0:0:
177,73,166098,1,10,0:0:0:0:
447,130,166261,5,8,0:0:0:0:
87,258,166424,1,10,0:0:0:0:
264,295,166587,5,8,0:0:0:0:
335,327,166668,1,0,0:0:0:0:
411,309,166750,1,2,0:0:0:0:
460,247,166831,1,0,0:0:0:0:
461,169,166913,1,8,0:0:0:0:
414,106,166994,1,0,0:0:0:0:
338,87,167076,5,10,0:0:0:0:
337,166,167157,1,0,0:0:0:0:
299,235,167239,1,8,0:0:0:0:
231,276,167320,1,0,0:0:0:0:
152,280,167402,1,10,0:0:0:0:
81,245,167483,1,0,0:0:0:0:
36,180,167566,5,8,0:0:0:0:
92,123,167647,1,0,0:0:0:0:
162,85,167729,1,10,0:0:0:0:
241,68,167810,1,0,0:0:0:0:
320,75,167892,1,14,0:0:0:0:
221,264,169196,5,8,0:0:0:0:
250,290,169277,1,0,0:0:0:0:
288,303,169359,1,2,0:0:0:0:
327,299,169440,1,0,0:0:0:0:
362,280,169522,1,8,0:0:0:0:
386,248,169603,1,0,0:0:0:0:
395,209,169685,1,2,0:0:0:0:
388,170,169766,1,0,0:0:0:0:
366,138,169848,5,8,0:0:0:0:
353,175,169929,1,0,0:0:0:0:
330,208,170011,1,2,0:0:0:0:
299,233,170092,1,0,0:0:0:0:
262,248,170174,2,0,L|207:260,1,40,8|4,0:0|0:0,0:0:0:0:
131,171,170337,5,2,0:0:0:0:
122,132,170418,1,0,0:0:0:0:
133,94,170500,1,8,0:0:0:0:
160,65,170581,1,0,0:0:0:0:
198,52,170663,1,2,0:0:0:0:
237,58,170744,1,0,0:0:0:0:
269,82,170826,2,0,L|289:140,3,40,8|0|2|4,0:0|0:0|0:0|0:0,0:0:0:0:
393,123,171153,2,0,L|413:181,3,40,8|0|2|4,0:0|0:0|0:0|0:0,0:0:0:0:
311,204,171479,2,0,L|331:262,3,40,8|0|2|4,0:0|0:0|0:0|0:0,0:0:0:0:
177,254,171805,5,8,0:0:0:0:
138,243,171886,1,0,0:0:0:0:
113,213,171968,1,2,0:0:0:0:
109,174,172049,1,0,0:0:0:0:
128,140,172131,1,8,0:0:0:0:
163,122,172212,1,0,0:0:0:0:
202,127,172294,1,2,0:0:0:0:
231,154,172375,1,0,0:0:0:0:
264,174,172456,1,8,0:0:0:0:
303,170,172538,1,0,0:0:0:0:
332,143,172619,1,2,0:0:0:0:
338,104,172701,1,0,0:0:0:0:
320,69,172783,2,0,L|271:38,5,40,8|0|2|0|8|4,0:0|0:0|0:0|0:0|0:0|0:0,0:0:0:0:
137,87,173272,2,0,L|138:145,1,40,2|4,0:0|0:0,0:0:0:0:
247,158,173435,5,8,0:0:0:0:
266,159,173516,1,0,0:0:0:0:
286,161,173598,1,2,0:0:0:0:
306,162,173679,1,0,0:0:0:0:
326,164,173761,1,8,0:0:0:0:
346,165,173842,1,0,0:0:0:0:
366,167,173924,1,2,0:0:0:0:
386,168,174005,1,0,0:0:0:0:
408,169,174087,2,0,L|462:171,1,44.0000013427735,8|4,0:0|0:0,0:0:0:0:
365,260,174250,2,0,L|321:258,1,44.0000013427735,2|4,0:0|0:0,0:0:0:0:
165,277,174413,5,8,0:0:0:0:
125,257,174494,1,0,0:0:0:0:
99,223,174576,1,2,0:0:0:0:
89,180,174657,1,0,0:0:0:0:
100,138,174739,1,8,0:0:0:0:
127,104,174821,1,0,0:0:0:0:
166,84,174902,1,2,0:0:0:0:
210,86,174984,1,0,0:0:0:0:
247,108,175066,5,8,0:0:0:0:
269,146,175147,1,0,0:0:0:0:
270,190,175229,1,2,0:0:0:0:
280,232,175310,1,0,0:0:0:0:
306,267,175392,2,0,L|339:307,1,44.0000013427735,8|4,0:0|0:0,0:0:0:0:
391,199,175555,5,2,0:0:0:0:
411,160,175636,1,0,0:0:0:0:
411,117,175718,1,8,0:0:0:0:
389,79,175799,1,0,0:0:0:0:
352,56,175881,1,2,0:0:0:0:
308,54,175962,1,0,0:0:0:0:
269,73,176044,2,0,L|237:103,3,44.0000013427735,8|0|2|4,0:0|0:0|0:0|0:0,0:0:0:0:
163,62,176370,2,0,L|131:92,3,44.0000013427735,8|0|2|4,0:0|0:0|0:0|0:0,0:0:0:0:
184,169,176696,2,0,L|153:200,3,44.0000013427735,8|0|2|4,0:0|0:0|0:0|0:0,0:0:0:0:
285,245,177022,5,8,0:0:0:0:
324,264,177103,1,0,0:0:0:0:
367,265,177185,1,2,0:0:0:0:
407,246,177266,1,0,0:0:0:0:
434,212,177348,2,0,L|456:158,1,44.0000013427735,8|4,0:0|0:0,0:0:0:0:
370,71,177511,5,2,0:0:0:0:
326,69,177592,1,0,0:0:0:0:
285,83,177674,1,8,0:0:0:0:
256,116,177755,1,0,0:0:0:0:
243,158,177837,1,2,0:0:0:0:
243,202,177918,1,0,0:0:0:0:
237,245,178000,1,8,0:0:0:0:
215,283,178081,1,0,0:0:0:0:
182,311,178163,1,2,0:0:0:0:
141,327,178244,1,0,0:0:0:0:
97,324,178326,2,0,L|45:305,3,44.0000013427735,8|0|2|4,0:0|0:0|0:0|0:0,0:0:0:0:
115,213,178653,2,0,L|167:193,3,44.0000013427735,8|0|2|4,0:0|0:0|0:0|0:0,0:0:0:0:
317,70,178979,6,0,L|293:107,1,44.0000013427735,8|4,0:0|0:0,0:0:0:0:
165,110,179142,2,0,L|142:148,1,44.0000013427735,2|4,0:0|0:0,0:0:0:0:
311,204,179305,2,0,L|287:241,1,44.0000013427735,8|4,0:0|0:0,0:0:0:0:
168,243,179468,2,0,L|145:281,1,44.0000013427735,2|4,0:0|0:0,0:0:0:0:
99,150,179631,5,8,0:0:0:0:
111,108,179712,1,0,0:0:0:0:
143,79,179794,1,2,0:0:0:0:
186,73,179875,1,0,0:0:0:0:
226,91,179957,1,8,0:0:0:0:
250,127,180038,1,0,0:0:0:0:
250,170,180120,1,2,0:0:0:0:
231,209,180201,1,0,0:0:0:0:
196,234,180283,5,8,0:0:0:0:
173,271,180364,1,0,0:0:0:0:
176,314,180446,1,2,0:0:0:0:
204,348,180527,1,0,0:0:0:0:
246,358,180609,1,8,0:0:0:0:
287,343,180690,1,0,0:0:0:0:
310,306,180772,1,2,0:0:0:0:
332,268,180853,5,0,0:0:0:0:
367,243,180935,1,8,0:0:0:0:
408,226,181016,1,0,0:0:0:0:
435,193,181098,2,0,L|456:142,1,44.0000013427735,2|4,0:0|0:0,0:0:0:0:
286,235,181261,5,8,0:0:0:0:
286,235,181343,1,0,0:0:0:0:
286,235,181424,2,0,L|268:194,1,44.0000013427735,2|4,0:0|0:0,0:0:0:0:
232,82,181587,5,8,0:0:0:0:
232,82,181669,1,0,0:0:0:0:
232,82,181750,2,0,L|207:140,1,44.0000013427735,2|4,0:0|0:0,0:0:0:0:
135,223,181913,5,8,0:0:0:0:
135,223,181995,1,0,0:0:0:0:
135,223,182076,2,0,L|117:182,1,44.0000013427735,2|4,0:0|0:0,0:0:0:0:
136,87,182240,6,0,L|181:84,3,44.0000013427735,8|0|2|4,0:0|0:0|0:0|0:0,0:0:0:0:
326,70,182566,2,0,L|283:73,3,44.0000013427735,8|0|2|4,0:0|0:0|0:0|0:0,0:0:0:0:
171,189,182892,2,0,L|216:186,3,44.0000013427735,8|0|2|4,0:0|0:0|0:0|0:0,0:0:0:0:
365,185,183218,2,0,L|322:188,3,44.0000013427735,8|0|2|4,0:0|0:0|0:0|0:0,0:0:0:0:
407,270,183544,5,8,0:0:0:0:
375,294,183625,1,0,0:0:0:0:
337,304,183707,1,2,0:0:0:0:
298,298,183788,1,0,0:0:0:0:
264,277,183870,1,8,0:0:0:0:
242,243,183951,1,0,0:0:0:0:
236,204,184033,1,2,0:0:0:0:
245,166,184114,1,0,0:0:0:0:
269,134,184196,5,8,0:0:0:0:
305,116,184277,1,0,0:0:0:0:
344,117,184359,1,2,0:0:0:0:
379,136,184440,1,0,0:0:0:0:
401,169,184522,1,8,0:0:0:0:
405,208,184603,1,0,0:0:0:0:
390,245,184685,2,0,L|356:294,1,40,2|4,0:0|0:0,0:0:0:0:
327,179,184848,5,8,0:0:0:0:
287,186,184929,1,0,0:0:0:0:
248,184,185011,1,2,0:0:0:0:
210,171,185092,1,0,0:0:0:0:
176,149,185174,1,8,0:0:0:0:
150,119,185255,1,0,0:0:0:0:
132,84,185337,2,0,L|110:38,1,40,2|4,0:0|0:0,0:0:0:0:
75,194,185500,5,8,0:0:0:0:
75,194,185581,1,0,0:0:0:0:
75,194,185663,2,0,L|64:251,1,40,2|4,0:0|0:0,0:0:0:0:
186,221,185826,5,8,0:0:0:0:
186,221,185907,1,0,0:0:0:0:
186,221,185989,2,0,L|175:278,1,40,2|4,0:0|0:0,0:0:0:0:
325,243,186153,5,8,0:0:0:0:
359,223,186234,1,0,0:0:0:0:
379,189,186316,1,2,0:0:0:0:
381,149,186397,1,0,0:0:0:0:
363,114,186479,1,8,0:0:0:0:
330,92,186560,1,0,0:0:0:0:
291,88,186642,1,2,0:0:0:0:
252,103,186723,1,0,0:0:0:0:
230,132,186805,2,0,L|206:172,3,40,8|0|2|4,0:0|0:0|0:0|0:0,0:0:0:0:
226,245,187131,2,0,L|206:280,3,40,8|0|2|4,0:0|0:0|0:0|0:0,0:0:0:0:
89,261,187457,5,8,0:0:0:0:
52,197,187538,1,0,0:0:0:0:
75,128,187620,1,2,0:0:0:0:
141,97,187701,1,0,0:0:0:0:
208,125,187783,1,8,0:0:0:0:
233,193,187865,1,0,0:0:0:0:
258,261,187946,1,2,0:0:0:0:
325,289,188028,1,0,0:0:0:0:
391,258,188109,1,8,0:0:0:0:
413,188,188191,1,0,0:0:0:0:
377,125,188272,5,2,0:0:0:0:
318,169,188353,1,0,0:0:0:0:
306,241,188435,1,8,0:0:0:0:
346,302,188516,1,0,0:0:0:0:
417,319,188598,1,2,0:0:0:0:
480,282,188679,1,0,0:0:0:0:
500,211,188761,6,0,L|481:147,3,60.0000022888184,8|0|2|4,0:0|0:0|0:0|0:0,0:0:0:0:
385,183,189087,5,8,0:0:0:0:
337,218,189168,1,0,0:0:0:0:
279,231,189250,1,2,0:0:0:0:
221,218,189331,1,0,0:0:0:0:
173,183,189413,5,8,0:0:0:0:
195,138,189494,1,0,0:0:0:0:
233,106,189576,1,2,0:0:0:0:
281,93,189657,1,0,0:0:0:0:
330,99,189740,1,8,0:0:0:0:
331,139,189821,1,0,0:0:0:0:
332,179,189903,2,0,L|332:240,1,40,2|4,0:0|0:0,0:0:0:0:
140,251,190066,5,8,0:0:0:0:
118,199,190147,1,0,0:0:0:0:
120,144,190229,1,2,0:0:0:0:
145,95,190310,1,0,0:0:0:0:
189,61,190392,1,8,0:0:0:0:
244,49,190473,1,0,0:0:0:0:
298,62,190555,1,2,0:0:0:0:
341,97,190636,1,0,0:0:0:0:
366,147,190718,2,0,L|376:220,3,55.9999982910157,8|0|2|4,0:0|0:0|0:0|0:0,0:0:0:0:
268,277,191044,5,8,0:0:0:0:
216,293,191125,1,0,0:0:0:0:
169,265,191207,1,2,0:0:0:0:
159,211,191288,1,0,0:0:0:0:
193,169,191370,1,8,0:0:0:0:
247,165,191451,1,0,0:0:0:0:
301,161,191532,1,2,0:0:0:0:
334,118,191614,1,0,0:0:0:0:
324,65,191696,2,0,L|291:11,3,55.9999982910157,8|0|2|4,0:0|0:0|0:0|0:0,0:0:0:0:
228,80,192022,2,0,L|194:25,3,55.9999982910157,8|0|2|4,0:0|0:0|0:0|0:0,0:0:0:0:
124,79,192348,2,0,L|90:24,3,55.9999982910157,8|0|2|4,0:0|0:0|0:0|0:0,0:0:0:0:
127,184,192674,5,8,0:0:0:0:
116,237,192755,1,0,0:0:0:0:
146,284,192837,1,2,0:0:0:0:
198,298,192918,1,0,0:0:0:0:
247,273,193000,1,8,0:0:0:0:
266,221,193082,1,0,0:0:0:0:
256,167,193163,1,2,0:0:0:0:
226,119,193245,1,0,0:0:0:0:
218,65,193326,1,8,0:0:0:0:
245,18,193408,1,0,0:0:0:0:
297,0,193489,1,2,0:0:0:0:
349,15,193571,1,0,0:0:0:0:
379,61,193653,2,0,L|394:129,3,55.9999982910157,8|0|2|4,0:0|0:0|0:0|0:0,0:0:0:0:
295,135,193979,6,0,L|241:185,1,55.9999982910157,8|4,0:0|0:0,0:0:0:0:
344,219,194142,2,0,L|385:264,1,55.9999982910157,2|4,0:0|0:0,0:0:0:0:
207,304,194305,5,8,0:0:0:0:
180,289,194386,1,0,0:0:0:0:
156,272,194468,1,2,0:0:0:0:
134,251,194549,1,0,0:0:0:0:
116,227,194631,1,8,0:0:0:0:
100,202,194712,1,0,0:0:0:0:
89,174,194794,2,0,L|75:99,1,55.9999982910157,2|4,0:0|0:0,0:0:0:0:
211,105,194957,5,8,0:0:0:0:
266,105,195038,1,0,0:0:0:0:
322,106,195120,2,0,L|384:106,1,55.9999982910157,2|4,0:0|0:0,0:0:0:0:
409,227,195283,5,8,0:0:0:0:
380,274,195364,1,0,0:0:0:0:
329,296,195446,1,2,0:0:0:0:
275,286,195527,1,0,0:0:0:0:
236,247,195609,1,8,0:0:0:0:
226,192,195690,1,0,0:0:0:0:
249,142,195772,1,2,0:0:0:0:
293,110,195853,1,0,0:0:0:0:
347,120,195935,5,8,0:0:0:0:
329,173,196016,1,0,0:0:0:0:
293,216,196098,1,2,0:0:0:0:
245,244,196179,1,0,0:0:0:0:
191,255,196261,2,0,L|123:256,1,55.9999982910157,8|4,0:0|0:0,0:0:0:0:
134,143,196424,5,2,0:0:0:0:
152,91,196505,1,0,0:0:0:0:
200,64,196587,1,8,0:0:0:0:
254,74,196668,1,0,0:0:0:0:
288,117,196750,1,2,0:0:0:0:
286,172,196831,1,0,0:0:0:0:
273,225,196913,2,0,L|250:319,3,55.9999982910157,8|0|2|4,0:0|0:0|0:0|0:0,0:0:0:0:
374,162,197240,2,0,L|445:163,3,55.9999982910157,8|0|2|4,0:0|0:0|0:0|0:0,0:0:0:0:
265,80,197566,2,0,L|209:79,3,55.9999982910157,8|0|2|4,0:0|0:0|0:0|0:0,0:0:0:0:
128,172,197892,5,8,0:0:0:0:
110,224,197973,1,0,0:0:0:0:
124,277,198055,1,2,0:0:0:0:
164,315,198136,1,0,0:0:0:0:
218,324,198218,1,8,0:0:0:0:
269,302,198299,1,0,0:0:0:0:
300,257,198381,2,0,L|336:199,1,55.9999982910157,2|4,0:0|0:0,0:0:0:0:
266,139,198544,5,8,0:0:0:0:
230,99,198625,1,0,0:0:0:0:
177,110,198707,1,2,0:0:0:0:
160,160,198788,1,0,0:0:0:0:
196,201,198870,1,8,0:0:0:0:
215,250,198951,1,0,0:0:0:0:
177,286,199033,2,0,L|100:293,1,55.9999982910157,2|4,0:0|0:0,0:0:0:0:
116,137,199196,5,8,0:0:0:0:
116,137,199278,1,0,0:0:0:0:
116,137,199359,2,0,L|163:73,1,55.9999982910157,2|4,0:0|0:0,0:0:0:0:
309,112,199522,1,8,0:0:0:0:
309,112,199604,1,0,0:0:0:0:
309,112,199685,2,0,L|259:68,1,55.9999982910157,2|4,0:0|0:0,0:0:0:0:
193,256,199848,6,0,L|154:217,1,55.9999982910157,8|4,0:0|0:0,0:0:0:0:
214,153,200011,2,0,L|265:205,1,55.9999982910157,2|4,0:0|0:0,0:0:0:0:
96,283,200174,2,0,L|135:322,1,55.9999982910157,8|4,0:0|0:0,0:0:0:0:
283,268,200337,2,0,L|321:309,1,55.9999982910157,2|4,0:0|0:0,0:0:0:0:
394,322,200500,5,8,0:0:0:0:
441,293,200581,1,0,0:0:0:0:
461,242,200663,1,2,0:0:0:0:
445,189,200744,1,0,0:0:0:0:
401,157,200826,1,8,0:0:0:0:
346,159,200908,1,0,0:0:0:0:
296,184,200990,1,2,0:0:0:0:
260,226,201071,1,0,0:0:0:0:
230,273,201152,5,8,0:0:0:0:
184,305,201234,1,0,0:0:0:0:
130,307,201315,1,2,0:0:0:0:
86,274,201397,1,0,0:0:0:0:
76,220,201478,1,8,0:0:0:0:
101,172,201560,1,0,0:0:0:0:
152,152,201642,2,4,L|217:141,1,55.9999982910157,2|0,0:0|0:0,0:0:0:0:
353,154,201805,5,8,0:0:0:0:
352,209,201886,1,0,0:0:0:0:
326,258,201968,1,2,0:0:0:0:
280,290,202049,1,0,0:0:0:0:
227,301,202131,2,0,L|156:302,3,55.9999982910157,8|0|2|4,0:0|0:0|0:0|0:0,0:0:0:0:
85,222,202457,2,0,L|140:221,3,55.9999982910157,8|0|2|4,0:0|0:0|0:0|0:0,0:0:0:0:
276,149,202783,2,0,L|220:149,3,55.9999982910157,8|0|2|4,0:0|0:0|0:0|0:0,0:0:0:0:
381,110,203109,5,8,0:0:0:0:
402,161,203190,1,0,0:0:0:0:
398,216,203272,1,2,0:0:0:0:
369,264,203353,1,0,0:0:0:0:
322,293,203435,1,8,0:0:0:0:
267,298,203516,1,0,0:0:0:0:
215,278,203598,2,0,L|157:252,1,55.9999982910157,2|4,0:0|0:0,0:0:0:0:
228,175,203761,5,8,0:0:0:0:
262,209,203842,1,0,0:0:0:0:
305,216,203924,1,2,0:0:0:0:
344,198,204005,1,0,0:0:0:0:
366,161,204087,1,8,0:0:0:0:
362,118,204168,1,0,0:0:0:0:
334,84,204250,2,0,L|287:56,1,44.0000013427735,2|4,0:0|0:0,0:0:0:0:
188,97,204413,5,8,0:0:0:0:
158,78,204494,1,0,0:0:0:0:
123,70,204576,1,2,0:0:0:0:
87,74,204657,1,0,0:0:0:0:
55,88,204740,1,8,0:0:0:0:
28,113,204820,1,0,0:0:0:0:
12,144,204902,5,2,0:0:0:0:
5,180,204983,1,0,0:0:0:0:
11,215,205065,1,8,0:0:0:0:
28,247,205146,1,0,0:0:0:0:
54,271,205228,1,2,0:0:0:0:
86,287,205309,1,0,0:0:0:0:
122,291,205392,2,0,L|187:290,3,35.9999989013672,8|0|2|4,0:0|0:0|0:0|0:0,0:0:0:0:
305,282,205718,5,8,0:0:0:0:
344,243,205799,1,0,0:0:0:0:
350,189,205881,1,2,0:0:0:0:
319,144,205962,1,0,0:0:0:0:
266,129,206044,1,8,0:0:0:0:
216,151,206125,1,0,0:0:0:0:
193,201,206207,5,2,0:0:0:0:
230,242,206288,1,0,0:0:0:0:
283,256,206370,1,8,0:0:0:0:
335,239,206451,1,0,0:0:0:0:
369,195,206533,1,2,0:0:0:0:
374,140,206614,1,0,0:0:0:0:
347,92,206696,1,8,0:0:0:0:
296,67,206778,1,0,0:0:0:0:
241,70,206859,2,0,L|173:86,1,55.9999982910157,2|4,0:0|0:0,0:0:0:0:
140,187,207022,5,8,0:0:0:0:
141,242,207103,1,0,0:0:0:0:
172,288,207185,1,2,0:0:0:0:
222,311,207266,1,0,0:0:0:0:
277,304,207348,1,8,0:0:0:0:
320,270,207429,1,0,0:0:0:0:
339,218,207511,2,0,L|339:151,1,55.9999982910157,2|4,0:0|0:0,0:0:0:0:
215,86,207674,5,8,0:0:0:0:
174,101,207755,1,0,0:0:0:0:
139,129,207837,1,2,0:0:0:0:
116,165,207918,1,0,0:0:0:0:
105,208,208000,1,8,0:0:0:0:
107,252,208081,1,0,0:0:0:0:
123,292,208163,2,0,L|161:329,1,44.0000013427735,2|4,0:0|0:0,0:0:0:0:
346,284,208326,6,0,L|375:163,1,111.999996582031,8|0,0:0|0:0,0:0:0:0:
316,72,208571,2,0,P|244:74|145:112,1,167.999994873047,2|4,0:0|0:0,0:0:0:0:
291,189,208979,1,8,0:0:0:0:
124,211,209142,1,0,0:0:0:0:
243,131,209305,1,8,0:0:0:0:
178,304,209468,1,0,0:0:0:0:
388,245,209631,6,0,L|359:137,1,111.999996582031,8|0,0:0|0:0,0:0:0:0:
157,57,209875,2,0,P|123:105|143:230,1,167.999994873047,2|4,0:0|0:0,0:0:0:0:
305,209,210283,1,8,0:0:0:0:
250,48,210446,1,0,0:0:0:0:
384,179,210609,1,8,0:0:0:0:
196,157,210772,1,0,0:0:0:0:
291,73,210935,6,0,P|353:73|402:115,1,111.999996582031,8|0,0:0|0:0,0:0:0:0:
367,252,211180,2,0,L|163:230,1,167.999994873047,2|4,0:0|0:0,0:0:0:0:
167,70,211587,1,8,0:0:0:0:
116,222,211750,1,0,0:0:0:0:
262,111,211913,1,8,0:0:0:0:
98,89,212076,1,0,0:0:0:0:
249,79,212240,5,8,0:0:0:0:
277,72,212321,1,0,0:0:0:0:
306,80,212403,1,2,0:0:0:0:
327,101,212484,1,0,0:0:0:0:
336,130,212566,1,8,0:0:0:0:
329,159,212647,1,0,0:0:0:0:
310,181,212729,1,2,0:0:0:0:
282,192,212810,1,0,0:0:0:0:
255,205,212891,1,8,0:0:0:0:
234,225,212973,1,0,0:0:0:0:
221,252,213054,1,2,0:0:0:0:
216,282,213136,1,0,0:0:0:0:
209,310,213217,1,8,0:0:0:0:
186,329,213299,1,0,0:0:0:0:
156,330,213380,1,2,0:0:0:0:
132,313,213462,1,0,0:0:0:0:
122,285,213544,5,8,0:0:0:0:
154,256,213625,1,0,0:0:0:0:
169,215,213707,1,2,0:0:0:0:
162,172,213788,1,0,0:0:0:0:
135,137,213870,1,8,0:0:0:0:
96,119,213951,1,0,0:0:0:0:
64,90,214032,1,2,0:0:0:0:
60,48,214114,1,0,0:0:0:0:
86,13,214195,1,8,0:0:0:0:
129,6,214277,1,0,0:0:0:0:
165,30,214358,1,2,0:0:0:0:
188,67,214440,1,0,0:0:0:0:
224,92,214522,1,8,0:0:0:0:
267,100,214603,1,0,0:0:0:0:
310,90,214685,1,2,0:0:0:0:
350,75,214766,1,0,0:0:0:0:
388,94,214848,5,8,0:0:0:0:
362,143,214929,1,0,0:0:0:0:
316,175,215011,1,2,0:0:0:0:
262,182,215092,1,0,0:0:0:0:
209,165,215174,1,8,0:0:0:0:
155,163,215255,1,0,0:0:0:0:
119,203,215337,1,2,0:0:0:0:
127,257,215418,1,0,0:0:0:0:
173,285,215500,5,8,0:0:0:0:
217,240,215581,1,0,0:0:0:0:
232,179,215663,1,2,0:0:0:0:
211,119,215745,1,0,0:0:0:0:
202,57,215826,1,8,0:0:0:0:
240,8,215908,1,0,0:0:0:0:
302,0,215989,1,2,0:0:0:0:
351,38,216071,1,0,0:0:0:0:
357,100,216153,6,0,L|366:171,1,64,8|4,0:0|0:0,0:0:0:0:
275,145,216316,2,0,L|263:220,1,64,2|0,0:0|0:0,0:0:0:0:
169,185,216479,2,0,L|191:262,1,64,8|4,0:0|0:0,0:0:0:0:
106,256,216642,2,0,L|92:335,1,64,2|0,0:0|0:0,0:0:0:0:
101,157,216805,6,0,L|31:126,1,64,8|4,0:0|0:0,0:0:0:0:
161,98,216968,2,0,L|118:47,1,64,2|0,0:0|0:0,0:0:0:0:
266,96,217131,2,0,L|257:30,1,64,8|4,0:0|0:0,0:0:0:0:
356,121,217294,2,0,L|360:49,1,64,2|0,0:0|0:0,0:0:0:0:
329,297,217457,5,8,0:0:0:0:
419,103,217620,2,0,P|358:42|300:35,1,128,2|4,0:0|0:0,0:0:0:0:
132,64,217946,2,0,L|226:64,1,64,2|4,0:0|0:0,0:0:0:0:
277,285,218109,5,10,0:0:0:0:
397,47,218354,5,10,0:0:0:0:
89,138,218598,5,10,0:0:0:0:
315,305,218761,6,0,B|295:187|380:256|366:111,1,200,8|4,0:0|0:0,0:0:0:0:
348,76,219168,1,0,0:0:0:0:
305,53,219250,2,0,L|233:54,1,50,2|4,0:0|0:0,0:0:0:0:
146,62,219576,5,2,0:0:0:0:
162,109,219657,1,0,0:0:0:0:
191,149,219739,1,8,0:0:0:0:
230,179,219820,1,0,0:0:0:0:
277,197,219903,2,0,L|336:219,1,50,2|4,0:0|0:0,0:0:0:0:
248,284,220066,6,0,P|177:292|121:169,1,200,8|4,0:0|0:0,0:0:0:0:
129,147,220473,1,0,0:0:0:0:
166,113,220555,2,0,L|219:101,1,50,2|4,0:0|0:0,0:0:0:0:
395,114,220881,5,2,0:0:0:0:
369,157,220962,1,0,0:0:0:0:
332,190,221044,1,8,0:0:0:0:
287,211,221125,1,0,0:0:0:0:
238,218,221207,2,0,L|188:225,1,50,2|4,0:0|0:0,0:0:0:0:
64,151,221370,6,0,L|254:55,1,200,8|2,0:0|0:0,0:0:0:0:
292,65,221777,1,0,0:0:0:0:
336,87,221859,2,0,L|382:136,1,50,2|4,0:0|0:0,0:0:0:0:
392,220,222185,5,2,0:0:0:0:
382,267,222266,1,0,0:0:0:0:
341,293,222348,1,8,0:0:0:0:
294,279,222429,1,0,0:0:0:0:
273,236,222511,2,0,L|264:165,1,50,2|4,0:0|0:0,0:0:0:0:
300,59,222674,6,0,P|393:90|451:169,1,200,8|4,0:0|0:0,0:0:0:0:
449,218,223081,1,0,0:0:0:0:
418,256,223163,2,0,L|353:291,1,50,2|4,0:0|0:0,0:0:0:0:
221,243,223490,5,2,0:0:0:0:
186,207,223571,1,0,0:0:0:0:
151,171,223653,1,8,0:0:0:0:
116,135,223734,1,0,0:0:0:0:
81,99,223816,2,0,L|41:56,1,50,2|4,0:0|0:0,0:0:0:0:
198,52,223979,6,0,P|272:47|336:70,1,100,8|4,0:0|0:0,0:0:0:0:
405,79,224305,1,8,0:0:0:0:
420,126,224386,1,0,0:0:0:0:
409,174,224468,2,0,L|358:212,3,50,2|0|8|4,0:0|0:0|0:0|0:0,0:0:0:0:
288,249,224794,2,0,L|199:255,1,50,2|0,0:0|0:0,0:0:0:0:
218,152,224957,2,0,L|129:158,1,50,8|0,0:0|0:0,0:0:0:0:
151,252,225120,2,0,L|66:236,1,50,2|0,0:0|0:0,0:0:0:0:
93,92,225283,6,0,P|158:70|226:73,1,100,8|4,0:0|0:0,0:0:0:0:
306,113,225609,1,8,0:0:0:0:
322,160,225690,1,0,0:0:0:0:
338,207,225772,2,0,L|361:271,3,50,2|0|8|4,0:0|0:0|0:0|0:0,0:0:0:0:
259,256,226098,2,2,L|215:305,1,50
241,150,226261,2,0,L|238:78,1,50,8|0,0:0|0:0,0:0:0:0:
149,214,226424,2,0,L|105:281,1,50,2|0,0:0|0:0,0:0:0:0:
313,169,226587,6,0,P|344:219|350:272,1,100,8|4,0:0|0:0,0:0:0:0:
243,302,226913,1,8,0:0:0:0:
193,293,226994,1,0,0:0:0:0:
147,273,227076,2,0,L|87:226,3,50,2|0|8|4,0:0|0:0|0:0|0:0,0:0:0:0:
173,144,227403,2,2,L|207:187,1,50
263,274,227566,2,0,L|291:214,1,50,8|0,0:0|0:0,0:0:0:0:
335,132,227729,2,0,L|371:199,1,50,2|0,0:0|0:0,0:0:0:0:
413,299,227892,6,0,L|300:343,1,100,8|4,0:0|0:0,0:0:0:0:
202,300,228218,5,8,0:0:0:0:
153,291,228299,1,0,0:0:0:0:
117,258,228381,1,2,0:0:0:0:
106,210,228462,1,0,0:0:0:0:
123,164,228544,1,8,0:0:0:0:
163,135,228625,1,0,0:0:0:0:
212,133,228707,1,2,0:0:0:0:
253,161,228788,1,0,0:0:0:0:
269,207,228870,5,8,0:0:0:0:
272,243,228951,1,0,0:0:0:0:
291,273,229033,1,2,0:0:0:0:
322,291,229114,1,0,0:0:0:0:
357,295,229196,1,8,0:0:0:0:
390,281,229277,1,0,0:0:0:0:
414,255,229359,1,2,0:0:0:0:
424,220,229440,1,0,0:0:0:0:
417,185,229522,2,0,P|391:139|358:116,1,71.9999978027344,8|4,0:0|0:0,0:0:0:0:
231,83,229848,5,8,0:0:0:0:
231,83,229930,1,0,0:0:0:0:
231,83,230011,1,2,0:0:0:0:
114,120,230174,1,8,0:0:0:0:
245,191,230337,1,2,0:0:0:0:
116,249,230500,5,8,0:0:0:0:
116,249,230582,1,0,0:0:0:0:
116,249,230663,1,2,0:0:0:0:
268,298,230826,1,8,0:0:0:0:
140,146,230990,1,2,0:0:0:0:
336,96,231153,2,0,L|363:202,1,100,8|4,0:0|0:0,0:0:0:0:
301,318,231479,2,0,L|276:221,1,100,8|4,0:0|0:0,0:0:0:0:
126,91,231805,5,8,0:0:0:0:
126,91,231886,1,0,0:0:0:0:
126,91,231968,1,2,0:0:0:0:
292,123,232131,1,8,0:0:0:0:
116,183,232294,1,2,0:0:0:0:
219,42,232457,2,0,L|334:32,1,100,8|4,0:0|0:0,0:0:0:0:
451,131,232783,2,0,L|351:139,1,100,8|4,0:0|0:0,0:0:0:0:
252,289,233109,5,8,0:0:0:0:
252,289,233190,1,0,0:0:0:0:
252,289,233272,1,2,0:0:0:0:
122,259,233435,1,8,0:0:0:0:
327,212,233598,1,2,0:0:0:0:
130,56,233761,2,0,L|116:159,1,100,8|4,0:0|0:0,0:0:0:0:
210,226,234087,2,0,L|223:126,1,100,8|4,0:0|0:0,0:0:0:0:
303,58,234413,6,0,B|365:176|377:68|436:229,1,200,8|4,0:0|0:0,0:0:0:0:
425,255,234821,1,0,0:0:0:0:
385,294,234903,2,0,L|327:308,1,50,2|4,0:0|0:0,0:0:0:0:
197,263,235229,5,2,0:0:0:0:
161,228,235310,1,0,0:0:0:0:
136,184,235392,1,4,0:0:0:0:
125,136,235473,1,0,0:0:0:0:
127,86,235555,1,2,0:0:0:0:
281,84,235718,6,0,P|337:74|447:153,1,200,8|4,0:0|0:0,0:0:0:0:
457,201,236125,1,0,0:0:0:0:
438,245,236207,2,0,L|398:293,1,50,2|4,0:0|0:0,0:0:0:0:
286,236,236533,5,2,0:0:0:0:
236,237,236614,1,0,0:0:0:0:
186,238,236696,1,8,0:0:0:0:
136,239,236777,1,0,0:0:0:0:
86,240,236859,1,2,0:0:0:0:
95,103,237022,6,0,B|189:44|180:148|315:55,1,200,8|4,0:0|0:0,0:0:0:0:
329,50,237429,1,0,0:0:0:0:
375,64,237511,2,0,L|413:100,1,50,2|4,0:0|0:0,0:0:0:0:
381,207,237837,5,2,0:0:0:0:
351,246,237918,1,0,0:0:0:0:
307,271,238000,1,8,0:0:0:0:
258,276,238081,1,0,0:0:0:0:
211,260,238163,1,2,0:0:0:0:
166,109,238326,6,0,P|85:165|50:258,1,200,8|4,0:0|0:0,0:0:0:0:
333,87,238979,5,8,0:0:0:0:
216,315,239196,5,8,0:0:0:0:
85,67,239413,5,10,0:0:0:0:
280,60,239631,6,0,P|327:91|366:139,1,100,8|4,0:0|0:0,0:0:0:0:
265,157,239957,2,0,P|298:193|340:220,1,100,8|4,0:0|0:0,0:0:0:0:
187,219,240283,1,8,0:0:0:0:
362,299,240446,1,2,0:0:0:0:
225,305,240609,6,0,L|130:334,1,100,8|4,0:0|0:0,0:0:0:0:
264,223,240935,2,0,L|359:252,1,100,8|4,0:0|0:0,0:0:0:0:
278,73,241261,1,8,0:0:0:0:
443,161,241424,1,2,0:0:0:0:
290,263,241587,1,8,0:0:0:0:
326,74,241750,1,2,0:0:0:0:
405,236,241913,1,8,0:0:0:0:
217,140,242076,1,2,0:0:0:0:
397,60,242240,6,0,P|425:105|432:157,1,100,8|4,0:0|0:0,0:0:0:0:
327,155,242566,2,0,P|298:200|291:252,1,100,8|4,0:0|0:0,0:0:0:0:
414,302,242892,1,8,0:0:0:0:
214,279,243055,1,2,0:0:0:0:
274,147,243218,6,0,L|344:76,1,100,8|4,0:0|0:0,0:0:0:0:
462,66,243544,2,0,L|391:136,1,100,8|4,0:0|0:0,0:0:0:0:
181,58,243870,1,8,0:0:0:0:
359,193,244033,1,2,0:0:0:0:
148,210,244196,1,8,0:0:0:0:
254,67,244359,1,2,0:0:0:0:
252,248,244522,1,8,0:0:0:0:
107,111,244685,1,2,0:0:0:0:
237,49,244848,6,0,L|351:46,1,100,8|4,0:0|0:0,0:0:0:0:
429,64,245174,2,0,L|347:162,1,100,8|4,0:0|0:0,0:0:0:0:
161,218,245500,1,8,0:0:0:0:
379,253,245663,1,2,0:0:0:0:
268,121,245826,6,0,P|221:82|156:67,1,100,8|4,0:0|0:0,0:0:0:0:
202,175,246153,2,0,P|249:214|314:229,1,100,8|4,0:0|0:0,0:0:0:0:
368,92,246479,1,8,0:0:0:0:
152,69,246642,1,2,0:0:0:0:
290,233,246805,1,8,0:0:0:0:
235,58,246968,1,2,0:0:0:0:
173,234,247131,1,8,0:0:0:0:
322,93,247294,1,2,0:0:0:0:
101,74,247457,6,0,P|82:146|82:199,1,100,8|4,0:0|0:0,0:0:0:0:
190,259,247783,2,0,P|171:187|171:134,1,100,8|4,0:0|0:0,0:0:0:0:
318,64,248109,1,8,0:0:0:0:
320,250,248272,1,2,0:0:0:0:
127,183,248435,6,0,B|190:52|230:159|282:14,1,200,8|4,0:0|0:0,0:0:0:0:
395,159,248924,1,8,0:0:0:0:
113,282,249087,2,0,P|131:234|180:207,1,100,8|4,0:0|0:0,0:0:0:0:
135,69,249413,2,0,P|187:91|209:136,1,100,8|4,0:0|0:0,0:0:0:0:
320,121,249740,2,0,P|301:175|253:196,1,100,8|4,0:0|0:0,0:0:0:0:
186,284,250066,5,8,0:0:0:0:
158,272,250147,1,0,0:0:0:0:
134,253,250229,1,2,0:0:0:0:
117,229,250310,1,0,0:0:0:0:
106,201,250392,2,0,L|98:147,1,50,8|4,0:0|0:0,0:0:0:0:
251,58,250555,5,2,0:0:0:0:
348,274,250718,1,8,0:0:0:0:
138,132,250881,1,2,0:0:0:0:
326,57,251044,1,8,0:0:0:0:
243,255,251207,1,2,0:0:0:0:
174,48,251370,1,8,0:0:0:0:
357,198,251533,1,2,0:0:0:0:
123,199,251696,6,0,B|88:139|88:139|94:78,1,100,8|4,0:0|0:0,0:0:0:0:
172,117,252022,2,0,L|172:17,1,100,8|4,0:0|0:0,0:0:0:0:
220,198,252348,2,0,B|255:138|255:138|249:77,1,100,0|4,0:0|0:0,0:0:0:0:
348,59,252674,5,8,0:0:0:0:
371,76,252755,1,0,0:0:0:0:
390,100,252837,1,2,0:0:0:0:
400,128,252918,1,0,0:0:0:0:
403,158,253000,2,0,L|402:218,1,50,8|4,0:0|0:0,0:0:0:0:
162,269,253163,5,2,0:0:0:0:
262,62,253326,1,8,0:0:0:0:
299,297,253490,1,2,0:0:0:0:
373,108,253653,1,8,0:0:0:0:
142,156,253816,1,2,0:0:0:0:
293,210,253979,1,8,0:0:0:0:
105,262,254142,1,2,0:0:0:0:
301,295,254305,6,0,P|378:267|407:232,1,100,8|4,0:0|0:0,0:0:0:0:
208,195,254631,2,0,P|289:194|329:217,1,100,8|4,0:0|0:0,0:0:0:0:
125,263,254957,2,0,P|201:291|246:282,1,100,8|4,0:0|0:0,0:0:0:0:
104,153,255283,5,8,0:0:0:0:
109,123,255364,1,0,0:0:0:0:
123,97,255446,1,2,0:0:0:0:
146,77,255527,1,0,0:0:0:0:
173,66,255609,2,0,L|242:66,1,50,8|4,0:0|0:0,0:0:0:0:
388,154,255772,5,2,0:0:0:0:
173,204,255935,1,8,0:0:0:0:
326,57,256098,1,2,0:0:0:0:
245,279,256261,1,8,0:0:0:0:
438,213,256424,1,2,0:0:0:0:
337,104,256587,5,8,0:0:0:0:
309,91,256668,1,0,0:0:0:0:
280,83,256750,1,2,0:0:0:0:
251,77,256831,1,0,0:0:0:0:
221,76,256913,2,0,L|158:81,1,50,8|4,0:0|0:0,0:0:0:0:
199,258,257076,5,2,0:0:0:0:
358,152,257240,1,8,0:0:0:0:
87,82,257403,1,2,0:0:0:0:
314,226,257566,1,8,0:0:0:0:
139,199,257729,1,2,0:0:0:0:
342,59,257892,5,8,0:0:0:0:
116,316,258055,1,2,0:0:0:0:
184,59,258218,1,8,0:0:0:0:
437,235,258381,1,2,0:0:0:0:
62,159,258544,1,8,0:0:0:0:
434,160,258707,1,8,0:0:0:0:
434,160,258788,1,2,0:0:0:0:
434,160,258870,5,8,0:0:0:0:
91,253,259033,1,2,0:0:0:0:
452,276,259196,1,8,0:0:0:0:
208,45,259359,1,2,0:0:0:0:
212,329,259522,1,8,0:0:0:0:
335,35,259685,1,2,0:0:0:0:
335,35,259767,1,0,0:0:0:0:
335,35,259848,1,8,0:0:0:0:
329,74,259929,1,0,0:0:0:0:
324,114,260011,1,2,0:0:0:0:
319,153,260092,1,0,0:0:0:0:
314,193,260174,1,8,0:0:0:0:
308,233,260255,1,0,0:0:0:0:
303,272,260337,2,0,L|296:325,1,40,2|4,0:0|0:0,0:0:0:0:
183,310,260500,5,8,0:0:0:0:
108,290,260581,1,0,0:0:0:0:
78,219,260663,1,2,0:0:0:0:
115,152,260744,1,0,0:0:0:0:
192,141,260826,1,8,0:0:0:0:
252,195,260908,1,0,0:0:0:0:
320,231,260989,1,2,0:0:0:0:
393,204,261071,1,0,0:0:0:0:
421,131,261152,1,8,0:0:0:0:
386,62,261234,1,0,0:0:0:0:
311,42,261316,5,2,0:0:0:0:
240,74,261397,1,0,0:0:0:0:
179,122,261479,1,8,0:0:0:0:
100,112,261560,1,0,0:0:0:0:
28,137,261641,1,2,0:0:0:0:
19,213,261723,1,0,0:0:0:0:
82,255,261805,1,8,0:0:0:0:
153,228,261886,1,0,0:0:0:0:
170,153,261968,1,2,0:0:0:0:
204,82,262049,1,0,0:0:0:0:
279,56,262131,6,0,L|351:58,3,50,8|0|2|4,0:0|0:0|0:0|0:0,0:0:0:0:
253,152,262457,2,0,L|325:154,3,50,8|0|2|4,0:0|0:0|0:0|0:0,0:0:0:0:
293,246,262783,2,0,L|365:248,3,50,8|0|2|4,0:0|0:0|0:0|0:0,0:0:0:0:
198,258,263109,5,8,0:0:0:0:
163,277,263190,1,0,0:0:0:0:
124,282,263272,1,2,0:0:0:0:
85,272,263353,1,0,0:0:0:0:
54,248,263435,1,8,0:0:0:0:
34,214,263516,1,0,0:0:0:0:
29,174,263598,1,2,0:0:0:0:
39,136,263679,1,0,0:0:0:0:
63,104,263761,5,8,0:0:0:0:
97,86,263842,1,0,0:0:0:0:
135,95,263924,1,2,0:0:0:0:
172,109,264005,1,0,0:0:0:0:
211,102,264087,1,8,0:0:0:0:
242,77,264168,1,0,0:0:0:0:
257,40,264250,5,2,0:0:0:0:
269,78,264331,1,0,0:0:0:0:
295,108,264413,1,8,0:0:0:0:
330,128,264494,1,0,0:0:0:0:
369,134,264576,1,2,0:0:0:0:
408,126,264657,1,0,0:0:0:0:
442,106,264740,2,0,L|479:66,3,40,8|0|2|4,0:0|0:0|0:0|0:0,0:0:0:0:
423,223,265066,2,0,L|463:259,3,40,8|0|2|4,0:0|0:0|0:0|0:0,0:0:0:0:
315,257,265392,2,0,L|278:297,3,40,8|0|2|4,0:0|0:0|0:0|0:0,0:0:0:0:
271,174,265718,5,8,0:0:0:0:
263,135,265799,1,0,0:0:0:0:
234,108,265881,1,2,0:0:0:0:
195,105,265962,1,0,0:0:0:0:
162,125,266044,1,8,0:0:0:0:
148,162,266125,1,0,0:0:0:0:
159,200,266207,1,2,0:0:0:0:
160,239,266288,1,0,0:0:0:0:
135,269,266370,1,8,0:0:0:0:
97,274,266451,1,0,0:0:0:0:
65,251,266533,2,0,L|52:191,1,40,2|4,0:0|0:0,0:0:0:0:
132,104,266696,5,8,0:0:0:0:
155,85,266777,1,0,0:0:0:0:
184,76,266859,1,2,0:0:0:0:
213,79,266940,1,0,0:0:0:0:
240,91,267022,1,8,0:0:0:0:
261,113,267103,1,0,0:0:0:0:
272,141,267185,1,2,0:0:0:0:
273,170,267266,1,0,0:0:0:0:
262,198,267348,5,8,0:0:0:0:
233,203,267429,1,0,0:0:0:0:
204,197,267511,1,2,0:0:0:0:
179,181,267592,1,0,0:0:0:0:
161,157,267674,1,8,0:0:0:0:
154,128,267755,1,0,0:0:0:0:
158,98,267837,1,2,0:0:0:0:
169,71,267918,1,0,0:0:0:0:
193,47,268000,2,0,L|232:33,1,40,8|4,0:0|0:0,0:0:0:0:
314,83,268163,2,0,L|352:97,1,40,2|4,0:0|0:0,0:0:0:0:
387,197,268326,5,8,0:0:0:0:
377,235,268407,1,0,0:0:0:0:
358,270,268489,1,2,0:0:0:0:
329,298,268570,1,0,0:0:0:0:
295,317,268652,1,8,0:0:0:0:
256,326,268733,1,0,0:0:0:0:
216,324,268815,1,2,0:0:0:0:
178,311,268896,1,0,0:0:0:0:
145,289,268979,5,8,0:0:0:0:
148,249,269060,1,0,0:0:0:0:
174,220,269142,1,2,0:0:0:0:
212,213,269223,1,0,0:0:0:0:
247,231,269305,1,8,0:0:0:0:
283,245,269386,1,0,0:0:0:0:
323,240,269468,5,2,0:0:0:0:
355,218,269549,1,0,0:0:0:0:
372,182,269631,1,8,0:0:0:0:
370,142,269712,1,0,0:0:0:0:
350,109,269794,2,0,L|305:85,1,40,2|4,0:0|0:0,0:0:0:0:
119,140,269957,5,8,0:0:0:0:
119,140,270038,1,0,0:0:0:0:
119,140,270120,2,0,L|171:162,1,40,2|4,0:0|0:0,0:0:0:0:
262,187,270283,5,8,0:0:0:0:
262,187,270364,1,0,0:0:0:0:
262,187,270446,2,0,L|210:209,1,40,2|4,0:0|0:0,0:0:0:0:
101,244,270609,5,8,0:0:0:0:
101,244,270690,1,0,0:0:0:0:
101,244,270772,2,0,L|153:266,1,40,2|4,0:0|0:0,0:0:0:0:
273,305,270935,5,8,0:0:0:0:
311,294,271016,1,0,0:0:0:0:
342,269,271098,1,2,0:0:0:0:
361,234,271179,1,0,0:0:0:0:
365,194,271261,2,0,L|350:133,1,40,8|4,0:0|0:0,0:0:0:0:
238,243,271425,5,2,0:0:0:0:
204,264,271506,1,0,0:0:0:0:
165,273,271588,1,8,0:0:0:0:
126,267,271669,1,0,0:0:0:0:
91,247,271751,1,2,0:0:0:0:
66,216,271832,1,0,0:0:0:0:
54,178,271913,1,8,0:0:0:0:
56,138,271994,1,0,0:0:0:0:
72,102,272076,1,2,0:0:0:0:
100,74,272157,1,0,0:0:0:0:
136,57,272240,2,0,L|192:39,3,40,8|0|2|4,0:0|0:0|0:0|0:0,0:0:0:0:
288,100,272566,2,0,L|249:112,3,40,8|0|2|4,0:0|0:0|0:0|0:0,0:0:0:0:
164,189,272892,6,0,L|95:200,1,40,8|4,0:0|0:0,0:0:0:0:
257,200,273055,2,0,L|322:217,1,40,2|4,0:0|0:0,0:0:0:0:
185,283,273218,2,0,L|157:324,1,40,8|4,0:0|0:0,0:0:0:0:
282,296,273381,2,0,L|305:328,1,40,2|4,0:0|0:0,0:0:0:0:
397,258,273544,5,8,0:0:0:0:
417,224,273625,1,0,0:0:0:0:
420,184,273707,1,2,0:0:0:0:
403,148,273788,1,0,0:0:0:0:
372,124,273870,1,8,0:0:0:0:
333,117,273951,1,0,0:0:0:0:
295,128,274033,1,2,0:0:0:0:
268,157,274114,1,0,0:0:0:0:
235,179,274196,5,8,0:0:0:0:
196,185,274278,1,0,0:0:0:0:
158,172,274359,1,2,0:0:0:0:
130,144,274441,1,0,0:0:0:0:
100,119,274522,1,8,0:0:0:0:
61,114,274604,1,0,0:0:0:0:
26,132,274685,1,2,0:0:0:0:
6,167,274767,1,0,0:0:0:0:
9,206,274848,5,8,0:0:0:0:
33,237,274930,1,0,0:0:0:0:
71,250,275011,1,2,0:0:0:0:
110,249,275092,1,0,0:0:0:0:
147,234,275174,1,8,0:0:0:0:
174,205,275255,1,0,0:0:0:0:
188,167,275337,2,0,L|201:113,1,40,2|4,0:0|0:0,0:0:0:0:
320,82,275500,5,8,0:0:0:0:
359,87,275581,1,0,0:0:0:0:
392,109,275663,1,2,0:0:0:0:
414,142,275744,1,0,0:0:0:0:
420,181,275826,1,8,0:0:0:0:
410,219,275907,1,0,0:0:0:0:
385,250,275990,2,0,L|325:272,1,40,2|4,0:0|0:0,0:0:0:0:
233,203,276153,5,8,0:0:0:0:
219,164,276234,1,0,0:0:0:0:
222,124,276316,1,2,0:0:0:0:
241,90,276397,1,0,0:0:0:0:
273,66,276479,1,8,0:0:0:0:
312,57,276560,1,0,0:0:0:0:
351,65,276643,2,0,L|398:108,1,40,2|4,0:0|0:0,0:0:0:0:
335,219,276805,5,8,0:0:0:0:
311,253,276886,1,0,0:0:0:0:
277,274,276968,1,2,0:0:0:0:
238,278,277049,1,0,0:0:0:0:
200,267,277131,1,8,0:0:0:0:
170,240,277212,1,0,0:0:0:0:
153,204,277295,2,0,L|160:140,1,40,2|4,0:0|0:0,0:0:0:0:
245,99,277457,5,8,0:0:0:0:
285,80,277538,1,0,0:0:0:0:
328,95,277620,1,2,0:0:0:0:
349,134,277701,1,0,0:0:0:0:
336,178,277783,1,8,0:0:0:0:
304,211,277864,1,0,0:0:0:0:
262,229,277946,1,2,0:0:0:0:
217,230,278027,1,0,0:0:0:0:
174,214,278109,5,8,0:0:0:0:
141,182,278190,1,0,0:0:0:0:
105,155,278272,1,2,0:0:0:0:
60,154,278354,1,0,0:0:0:0:
23,181,278435,1,8,0:0:0:0:
9,224,278517,1,0,0:0:0:0:
23,267,278598,1,2,0:0:0:0:
60,293,278680,1,0,0:0:0:0:
105,292,278761,2,0,L|162:282,3,46.0000008773804,8|0|2|4,0:0|0:0|0:0|0:0,0:0:0:0:
179,173,279087,5,8,0:0:0:0:
197,131,279168,1,0,0:0:0:0:
237,110,279250,1,2,0:0:0:0:
282,117,279331,1,0,0:0:0:0:
313,149,279413,1,8,0:0:0:0:
318,194,279494,1,0,0:0:0:0:
295,233,279576,5,2,0:0:0:0:
272,271,279657,1,0,0:0:0:0:
277,316,279739,1,8,0:0:0:0:
308,349,279820,1,0,0:0:0:0:
353,356,279902,1,2,0:0:0:0:
392,334,279983,1,0,0:0:0:0:
411,293,280066,2,0,L|409:217,3,46.0000008773804,8|0|2|4,0:0|0:0|0:0|0:0,0:0:0:0:
356,166,280392,5,8,0:0:0:0:
334,138,280473,1,0,0:0:0:0:
301,124,280555,1,2,0:0:0:0:
265,127,280636,1,0,0:0:0:0:
236,148,280718,1,8,0:0:0:0:
221,180,280799,1,0,0:0:0:0:
215,216,280880,5,2,0:0:0:0:
207,251,280962,1,0,0:0:0:0:
187,280,281043,1,8,0:0:0:0:
155,296,281125,1,0,0:0:0:0:
119,294,281207,2,0,L|63:266,1,35.9999989013672,2|4,0:0|0:0,0:0:0:0:
106,121,281370,5,8,0:0:0:0:
147,61,281451,1,0,0:0:0:0:
220,62,281533,1,2,0:0:0:0:
261,122,281614,1,0,0:0:0:0:
234,190,281696,1,8,0:0:0:0:
221,266,281777,1,0,0:0:0:0:
258,331,281859,1,2,0:0:0:0:
328,354,281940,1,0,0:0:0:0:
396,324,282022,1,8,0:0:0:0:
427,257,282103,1,0,0:0:0:0:
405,186,282185,5,2,0:0:0:0:
367,249,282266,1,0,0:0:0:0:
295,267,282348,1,8,0:0:0:0:
232,228,282429,1,0,0:0:0:0:
214,156,282511,1,2,0:0:0:0:
184,89,282592,1,0,0:0:0:0:
116,60,282674,2,0,L|49:69,3,55.9999982910157,8|0|2|4,0:0|0:0|0:0|0:0,0:0:0:0:
98,213,283000,6,0,L|87:288,3,55.9999982910157,8|0|2|4,0:0|0:0|0:0|0:0,0:0:0:0:
180,218,283326,2,0,L|169:293,3,55.9999982910157,8|0|2|4,0:0|0:0|0:0|0:0,0:0:0:0:
262,225,283653,2,0,L|251:300,3,55.9999982910157,8|0|2|4,0:0|0:0|0:0|0:0,0:0:0:0:
331,261,283979,5,8,0:0:0:0:
379,286,284060,1,0,0:0:0:0:
434,281,284142,1,2,0:0:0:0:
476,245,284223,1,0,0:0:0:0:
492,192,284305,1,8,0:0:0:0:
475,140,284386,1,0,0:0:0:0:
431,106,284468,1,2,0:0:0:0:
376,102,284549,1,0,0:0:0:0:
329,129,284631,5,8,0:0:0:0:
312,76,284712,1,0,0:0:0:0:
271,40,284794,1,2,0:0:0:0:
216,31,284875,1,0,0:0:0:0:
165,53,284957,1,8,0:0:0:0:
133,97,285038,1,0,0:0:0:0:
130,153,285120,1,2,0:0:0:0:
168,191,285201,1,0,0:0:0:0:
222,189,285283,1,8,0:0:0:0:
276,186,285364,1,0,0:0:0:0:
320,220,285446,1,2,0:0:0:0:
331,274,285527,1,0,0:0:0:0:
329,326,285609,6,0,L|323:410,3,55.9999982910157,8|0|2|4,0:0|0:0|0:0|0:0,0:0:0:0:
237,251,285935,2,0,L|234:307,3,55.9999982910157,8|0|2|4,0:0|0:0|0:0|0:0,0:0:0:0:
331,184,286261,2,0,L|334:128,3,55.9999982910157,8|0|2|4,0:0|0:0|0:0|0:0,0:0:0:0:
226,66,286587,5,8,0:0:0:0:
172,54,286668,1,0,0:0:0:0:
121,77,286750,1,2,0:0:0:0:
94,125,286831,1,0,0:0:0:0:
100,180,286913,1,8,0:0:0:0:
138,220,286994,1,0,0:0:0:0:
192,224,287076,1,2,0:0:0:0:
228,184,287158,1,0,0:0:0:0:
263,142,287240,1,8,0:0:0:0:
317,143,287321,1,0,0:0:0:0:
350,186,287403,2,0,L|354:261,1,55.9999982910157,2|4,0:0|0:0,0:0:0:0:
261,304,287566,5,8,0:0:0:0:
206,313,287647,1,0,0:0:0:0:
152,299,287729,1,2,0:0:0:0:
108,264,287810,1,0,0:0:0:0:
82,215,287892,1,8,0:0:0:0:
80,160,287973,1,0,0:0:0:0:
110,113,288055,1,2,0:0:0:0:
161,93,288136,1,0,0:0:0:0:
215,105,288218,5,8,0:0:0:0:
252,145,288299,1,0,0:0:0:0:
259,200,288381,1,2,0:0:0:0:
284,249,288462,1,0,0:0:0:0:
335,269,288544,1,8,0:0:0:0:
387,253,288625,1,0,0:0:0:0:
417,206,288707,1,2,0:0:0:0:
409,152,288788,1,0,0:0:0:0:
369,115,288870,2,0,L|308:79,1,55.9999982910157,8|4,0:0|0:0,0:0:0:0:
224,126,289033,2,0,L|271:154,1,55.9999982910157,2|4,0:0|0:0,0:0:0:0:
358,234,289196,5,8,0:0:0:0:
340,286,289277,1,0,0:0:0:0:
302,327,289359,1,2,0:0:0:0:
251,347,289440,1,0,0:0:0:0:
195,343,289522,1,8,0:0:0:0:
147,316,289603,1,0,0:0:0:0:
114,271,289685,1,2,0:0:0:0:
105,217,289766,1,0,0:0:0:0:
119,163,289848,5,8,0:0:0:0:
167,135,289929,1,0,0:0:0:0:
222,126,290011,1,2,0:0:0:0:
277,137,290092,1,0,0:0:0:0:
325,165,290174,1,8,0:0:0:0:
361,208,290255,1,0,0:0:0:0:
379,260,290337,5,2,0:0:0:0:
324,270,290418,1,0,0:0:0:0:
268,268,290500,1,8,0:0:0:0:
214,253,290581,1,0,0:0:0:0:
165,225,290663,2,0,L|121:184,1,55.9999982910157,2|4,0:0|0:0,0:0:0:0:
160,79,290826,5,8,0:0:0:0:
160,79,290908,1,0,0:0:0:0:
160,79,290990,2,0,L|258:52,1,55.9999982910157,2|4,0:0|0:0,0:0:0:0:
308,43,291153,5,8,0:0:0:0:
308,43,291235,1,0,0:0:0:0:
308,43,291317,2,0,L|330:101,1,55.9999982910157,2|4,0:0|0:0,0:0:0:0:
264,162,291479,5,8,0:0:0:0:
264,162,291561,1,0,0:0:0:0:
264,162,291643,2,0,L|166:189,1,55.9999982910157,2|4,0:0|0:0,0:0:0:0:
117,212,291805,5,8,0:0:0:0:
112,267,291886,1,0,0:0:0:0:
138,316,291968,1,2,0:0:0:0:
185,344,292049,1,0,0:0:0:0:
240,344,292131,1,8,0:0:0:0:
287,315,292212,1,0,0:0:0:0:
312,265,292294,1,2,0:0:0:0:
307,210,292375,1,0,0:0:0:0:
274,166,292457,5,8,0:0:0:0:
259,113,292538,1,0,0:0:0:0:
275,59,292620,1,2,0:0:0:0:
315,22,292701,1,0,0:0:0:0:
370,11,292783,1,8,0:0:0:0:
422,31,292864,1,0,0:0:0:0:
456,74,292946,1,2,0:0:0:0:
463,129,293027,1,0,0:0:0:0:
442,181,293109,2,0,L|396:213,3,55.9999982910157,8|0|2|4,0:0|0:0|0:0|0:0,0:0:0:0:
431,290,293435,2,0,L|385:322,3,55.9999982910157,8|0|2|4,0:0|0:0|0:0|0:0,0:0:0:0:
251,304,293761,6,0,L|194:341,1,55.9999982910157,8|4,0:0|0:0,0:0:0:0:
215,228,293924,2,0,L|139:244,1,55.9999982910157,2|4,0:0|0:0,0:0:0:0:
217,140,294087,2,0,L|150:134,1,55.9999982910157,8|4,0:0|0:0,0:0:0:0:
242,65,294250,2,0,L|190:38,1,55.9999982910157,2|4,0:0|0:0,0:0:0:0:
83,116,294413,5,8,0:0:0:0:
73,164,294494,1,0,0:0:0:0:
88,211,294576,1,2,0:0:0:0:
123,246,294657,1,0,0:0:0:0:
170,261,294739,1,8,0:0:0:0:
218,251,294820,1,0,0:0:0:0:
257,220,294902,1,2,0:0:0:0:
276,175,294983,1,0,0:0:0:0:
295,129,295065,5,8,0:0:0:0:
333,98,295147,1,0,0:0:0:0:
382,88,295229,1,2,0:0:0:0:
429,103,295310,1,0,0:0:0:0:
464,138,295391,1,8,0:0:0:0:
479,185,295473,1,0,0:0:0:0:
469,234,295555,2,0,L|434:284,1,50,2|4,0:0|0:0,0:0:0:0:
319,292,295718,5,8,0:0:0:0:
270,282,295799,1,0,0:0:0:0:
226,258,295881,1,2,0:0:0:0:
195,219,295962,1,0,0:0:0:0:
168,177,296044,1,8,0:0:0:0:
129,147,296125,1,0,0:0:0:0:
81,132,296207,2,0,L|25:114,1,50,2|4,0:0|0:0,0:0:0:0:
191,72,296370,5,8,0:0:0:0:
238,56,296451,1,0,0:0:0:0:
288,57,296533,1,2,0:0:0:0:
334,74,296614,1,0,0:0:0:0:
373,106,296696,1,8,0:0:0:0:
399,148,296777,1,0,0:0:0:0:
409,197,296859,2,0,L|405:256,1,50,2|4,0:0|0:0,0:0:0:0:
280,280,297022,6,0,L|266:206,3,50,8|0|2|4,0:0|0:0|0:0|0:0,0:0:0:0:
179,223,297348,2,0,L|193:149,3,50,8|0|2|4,0:0|0:0|0:0|0:0,0:0:0:0:
292,176,297674,2,0,L|278:102,3,50,8|0|2|4,0:0|0:0|0:0|0:0,0:0:0:0:
195,108,298000,2,0,L|209:34,3,50,8|0|2|4,0:0|0:0|0:0|0:0,0:0:0:0:
307,55,298326,5,8,0:0:0:0:
332,70,298407,1,0,0:0:0:0:
355,89,298489,1,2,0:0:0:0:
375,111,298570,1,0,0:0:0:0:
392,136,298652,1,8,0:0:0:0:
404,164,298733,1,0,0:0:0:0:
413,192,298815,1,2,0:0:0:0:
416,222,298896,1,0,0:0:0:0:
416,252,298979,2,0,L|413:322,3,50,8|0|2|4,0:0|0:0|0:0|0:0,0:0:0:0:
279,288,299305,5,8,0:0:0:0:
239,287,299386,1,0,0:0:0:0:
200,276,299468,1,2,0:0:0:0:
166,255,299549,1,0,0:0:0:0:
139,226,299631,5,8,0:0:0:0:
165,195,299712,1,0,0:0:0:0:
201,180,299794,1,2,0:0:0:0:
241,185,299875,1,0,0:0:0:0:
273,207,299957,1,8,0:0:0:0:
292,242,300038,1,0,0:0:0:0:
317,273,300119,1,2,0:0:0:0:
352,291,300201,1,0,0:0:0:0:
392,294,300282,5,8,0:0:0:0:
429,281,300364,1,0,0:0:0:0:
459,255,300445,1,2,0:0:0:0:
476,219,300527,1,0,0:0:0:0:
477,179,300608,1,8,0:0:0:0:
463,142,300690,1,0,0:0:0:0:
436,113,300771,1,2,0:0:0:0:
399,98,300853,1,0,0:0:0:0:
359,98,300935,5,8,0:0:0:0:
354,137,301016,1,0,0:0:0:0:
370,173,301098,1,2,0:0:0:0:
403,194,301179,1,0,0:0:0:0:
443,194,301261,1,8,0:0:0:0:
476,173,301342,1,0,0:0:0:0:
492,137,301424,1,2,0:0:0:0:
487,98,301505,1,0,0:0:0:0:
461,68,301587,5,8,0:0:0:0:
433,97,301668,1,0,0:0:0:0:
419,134,301750,1,2,0:0:0:0:
420,174,301832,1,0,0:0:0:0:
414,213,301913,1,8,0:0:0:0:
388,243,301995,1,0,0:0:0:0:
351,256,302076,2,0,L|296:253,1,40,2|4,0:0|0:0,0:0:0:0:
168,124,302240,5,8,0:0:0:0:
340,170,302403,1,0,0:0:0:0:
177,236,302566,1,8,0:0:0:0:
251,126,302729,1,0,0:0:0:0:
251,308,302892,5,0,0:0:0:0:
138,105,303055,1,0,0:0:0:0:
368,158,303218,1,8,0:0:0:0:
154,274,303381,1,0,0:0:0:0:
240,53,303544,5,8,0:0:0:0:
395,308,303707,1,0,0:0:0:0:
58,266,303870,5,8,0:0:0:0:
422,93,304033,1,0,0:0:0:0:
421,243,304196,5,8,0:0:0:0:
391,283,304277,1,0,0:0:0:0:
348,308,304359,1,0,0:0:0:0:
299,314,304440,1,0,0:0:0:0:
250,311,304522,2,0,L|193:298,1,50,8|0,0:0|0:0,0:0:0:0:
286,199,304685,2,0,L|343:186,1,50
134,84,304848,5,8,0:0:0:0:
266,117,305011,1,0,0:0:0:0:
99,187,305174,1,8,0:0:0:0:
230,224,305337,1,0,0:0:0:0:
161,25,305500,5,8,0:0:0:0:
96,251,305663,1,0,0:0:0:0:
269,59,305826,1,8,0:0:0:0:
215,267,305990,1,0,0:0:0:0:
68,71,306153,5,8,0:0:0:0:
250,281,306316,1,0,0:0:0:0:
290,47,306479,5,8,0:0:0:0:
71,321,306642,1,0,0:0:0:0:
236,320,306805,5,8,0:0:0:0:
285,319,306886,1,0,0:0:0:0:
332,302,306968,1,0,0:0:0:0:
370,271,307049,1,0,0:0:0:0:
396,228,307131,1,8,0:0:0:0:
405,179,307212,1,0,0:0:0:0:
398,130,307294,2,0,L|387:69,1,50
147,99,307457,5,8,0:0:0:0:
255,248,307620,1,0,0:0:0:0:
291,91,307783,1,8,0:0:0:0:
121,164,307946,1,0,0:0:0:0:
310,238,308109,5,8,0:0:0:0:
228,44,308272,1,0,0:0:0:0:
72,210,308435,1,8,0:0:0:0:
367,120,308598,1,0,0:0:0:0:
168,329,308761,5,8,0:0:0:0:
235,52,308924,1,0,0:0:0:0:
42,264,309087,5,8,0:0:0:0:
406,127,309250,1,0,0:0:0:0:
260,56,309413,5,8,0:0:0:0:
210,54,309494,1,0,0:0:0:0:
162,68,309576,1,0,0:0:0:0:
120,94,309657,1,0,0:0:0:0:
88,132,309739,1,8,0:0:0:0:
68,178,309820,1,0,0:0:0:0:
63,228,309903,2,0,L|70:293,1,50
179,297,310066,6,0,B|205:317|253:315|285:283|285:283|348:283|348:283|326:232|335:190|364:157|429:157,1,359.999989013672,8|0,0:0|0:0,0:0:0:0:
416,236,311044,2,0,P|354:228|333:199,1,71.9999978027344,8|0,0:0|0:0,0:0:0:0:
389,158,311370,2,0,P|357:141|321:145,1,71.9999978027344,8|0,0:0|0:0,0:0:0:0:
249,200,311696,2,0,L|247:288,1,71.9999978027344,8|0,0:0|0:0,0:0:0:0:
150,260,312022,2,0,L|85:260,2,47.9999985351563,8|0|0,0:0|0:0|0:0,0:0:0:0:
203,184,312348,2,0,L|268:184,2,47.9999985351563,8|0|0,0:0|0:0|0:0,0:0:0:0:
256,192,312674,12,0,314957,0:0:0:0:
194,75,321805,6,0,L|398:109,2,200,8|8|8,0:0|0:0|0:0,0:0:0:0:
94,78,322946,6,0,L|119:188,1,100,2|8,0:0|0:0,0:0:0:0:
206,170,323272,2,0,L|181:280,1,100,2|8,0:0|0:0,0:0:0:0:
333,147,323598,1,2,0:0:0:0:
272,257,323761,1,8,0:0:0:0:
250,82,323924,1,2,0:0:0:0:
160,295,324087,6,0,P|113:331|50:224,2,200,8|8|8,0:0|0:0|0:0,0:0:0:0:
307,273,325229,2,0,L|229:197,1,100,2|8,0:0|0:0,0:0:0:0:
43,255,325555,5,2,0:0:0:0:
194,142,325717,1,8,0:0:0:0:
152,319,325880,5,2,0:0:0:0:
119,176,326043,1,8,0:0:0:0:
249,250,326206,1,2,0:0:0:0:
91,265,326370,2,0,P|48:212|81:81,2,200,8|8|8,0:0|0:0|0:0,0:0:0:0:
119,172,327511,6,0,L|162:63,1,100,2|8,0:0|0:0,0:0:0:0:
219,179,327837,2,0,L|255:272,1,100,2|8,0:0|0:0,0:0:0:0:
470,230,328163,1,2,0:0:0:0:
298,192,328326,1,8,0:0:0:0:
429,93,328489,1,2,0:0:0:0:
219,166,328653,2,0,P|144:142|90:140,1,100,8|2,0:0|0:0,0:0:0:0:
160,233,328979,2,0,P|235:257|289:259,1,100,8|2,0:0|0:0,0:0:0:0:
291,128,329305,2,0,P|256:83|184:60,1,100,8|2,0:0|0:0,3:0:0:0:
133,306,329630,5,8,0:0:0:0:
365,259,329794,2,0,L|384:148,1,100,2|8,0:0|0:0,0:0:0:0:
304,80,330120,2,0,L|285:191,1,100,2|8,0:0|0:0,0:0:0:0:
102,248,330446,1,2,0:0:0:0:
52,127,330609,1,8,0:0:0:0:
227,172,330772,1,2,0:0:0:0:
108,168,330935,6,0,P|139:114|314:70,1,240,8|2,0:0|0:0,0:0:0:0:
381,15,331587,2,0,P|393:61|323:155,1,160,8|0,0:0|0:0,0:0:0:0:
249,213,332076,2,0,L|178:121,1,80,2|0,0:0|0:0,0:0:0:0:
322,153,332403,2,0,L|393:245,1,80,2|0,0:0|0:0,0:0:0:0:
234,204,332729,1,2,0:0:0:0:
234,204,332810,1,0,0:0:0:0:
234,204,332892,2,0,P|166:151|272:120,1,240,8|0,0:0|0:0,0:0:0:0:
346,224,333544,6,0,P|313:274|129:273,1,240,8|0,0:0|0:0,0:0:0:0:
66,276,334196,2,0,P|79:240|204:232,1,160,8|0,0:0|0:0,0:0:0:0:
293,217,334685,2,0,L|281:116,1,80,2|0,0:0|0:0,0:0:0:0:
362,63,335011,2,0,L|374:164,1,80,2|0,0:0|0:0,0:0:0:0:
350,239,335338,1,2,0:0:0:0:
350,239,335419,1,0,0:0:0:0:
350,239,335500,2,0,B|212:168|357:129|193:36,1,240,8|0,0:0|0:0,0:0:0:0:
365,151,336153,6,0,P|429:189|352:321,1,240,8|0,0:0|0:0,0:0:0:0:
269,314,336805,2,0,B|200:277|251:217|168:187,1,160,8|0,0:0|0:0,0:0:0:0:
172,98,337294,2,0,L|277:126,1,80,2|0,0:0|0:0,0:0:0:0:
367,63,337620,2,0,L|289:42,1,80,2|0,0:0|0:0,0:0:0:0:
353,151,337946,1,2,0:0:0:0:
353,151,338028,1,0,0:0:0:0:
353,151,338109,2,0,P|336:212|196:147,1,240,8|0,0:0|0:0,0:0:0:0:
275,158,338761,6,0,P|244:115|115:197,1,240,8|0,0:0|0:0,0:0:0:0:
207,289,339413,2,0,L|398:281,1,160,8|0,0:0|0:0,0:0:0:0:
402,98,339903,2,0,P|377:142|370:194,1,80,2|0,0:0|0:0,0:0:0:0:
269,189,340229,2,0,P|290:222|300:261,1,80,2|0,0:0|0:0,0:0:0:0:
177,260,340555,1,2,0:0:0:0:
177,260,340636,1,0,0:0:0:0:
177,260,340718,2,0,P|121:232|67:65,1,240,8|0,0:0|0:0,0:0:0:0:
153,76,341370,6,0,P|154:126|302:121,1,240,8|0,0:0|0:0,0:0:0:0:
228,99,342022,2,0,P|263:63|364:82,1,160,8|0,0:0|0:0,0:0:0:0:
412,181,342511,2,0,L|387:279,1,80,2|0,0:0|0:0,0:0:0:0:
313,172,342837,2,0,L|288:74,1,80,2|0,0:0|0:0,0:0:0:0:
234,220,343163,1,2,0:0:0:0:
234,220,343245,1,0,0:0:0:0:
234,220,343326,2,0,P|151:261|125:124,1,240,8|0,0:0|0:0,0:0:0:0:
224,91,343979,6,0,P|307:50|333:187,1,240,8|0,0:0|0:0,0:0:0:0:
276,187,344631,2,0,P|309:225|431:222,1,160,8|0,0:0|0:0,0:0:0:0:
406,130,345120,2,0,L|317:80,1,80,2|0,0:0|0:0,0:0:0:0:
245,52,345446,2,0,L|175:91,1,80,2|0,0:0|0:0,0:0:0:0:
129,226,345772,1,2,0:0:0:0:
129,226,345854,1,0,0:0:0:0:
129,226,345935,2,0,L|374:253,1,240,8|0,0:0|0:0,0:0:0:0:
462,106,346587,6,0,L|217:79,1,240,8|0,0:0|0:0,0:0:0:0:
126,72,347240,2,0,B|132:166|247:185,1,160,8|0,0:0|0:0,0:0:0:0:
310,191,347729,2,0,P|309:242|285:279,1,80,2|0,0:0|0:0,0:0:0:0:
282,105,348055,2,0,P|333:106|370:130,1,80,2|0,0:0|0:0,0:0:0:0:
215,60,348381,1,2,0:0:0:0:
215,60,348462,1,0,0:0:0:0:
215,60,348544,2,0,P|145:91|141:247,1,240,8|0,0:0|0:0,0:0:0:0:
207,163,349196,6,0,P|246:198|421:157,1,240,8|0,0:0|0:0,0:0:0:0:
314,130,349848,2,0,P|298:180|189:221,1,160,8|0,0:0|0:0,0:0:0:0:
225,136,350337,2,0,L|157:72,1,80,2|0,0:0|0:0,0:0:0:0:
67,112,350663,2,0,L|125:166,1,80,2|0,0:0|0:0,0:0:0:0:
183,322,350990,1,2,0:0:0:0:
183,322,351071,1,0,0:0:0:0:
183,322,351153,2,0,P|266:318|251:192,1,240,8|0,0:0|0:0,0:0:0:0:
145,112,351805,6,0,L|316:76,1,160,8|0,0:0|0:0,0:0:0:0:
390,144,352294,1,2,0:0:0:0:
390,144,352375,1,0,0:0:0:0:
390,144,352457,2,0,L|291:180,1,80,8|0,0:0|0:0,0:0:0:0:
174,187,352783,1,8,0:0:0:0:
327,266,352946,1,2,0:0:0:0:
155,258,353109,6,0,P|107:226|217:134,1,240,8|4,0:0|0:0,0:0:0:0:
227,130,353680,1,0,0:0:0:0:
271,139,353761,2,0,B|366:162|366:162|336:268|399:310,1,240,8|2,0:0|0:0,0:0:0:0:
265,299,354413,5,8,0:0:0:0:
225,296,354494,1,0,0:0:0:0:
188,281,354576,1,2,0:0:0:0:
157,255,354657,1,0,0:0:0:0:
136,222,354739,1,8,0:0:0:0:
125,183,354820,1,0,0:0:0:0:
128,144,354902,1,2,0:0:0:0:
142,106,354983,1,0,0:0:0:0:
166,75,355065,5,8,0:0:0:0:
197,109,355147,1,0,0:0:0:0:
217,151,355229,1,2,0:0:0:0:
225,196,355310,1,0,0:0:0:0:
220,241,355392,1,8,0:0:0:0:
234,284,355473,1,0,0:0:0:0:
275,301,355555,1,2,0:0:0:0:
316,283,355636,1,0,0:0:0:0:
330,241,355718,5,8,0:0:0:0:
384,253,355799,1,0,0:0:0:0:
436,235,355881,1,2,0:0:0:0:
471,192,355962,1,0,0:0:0:0:
478,137,356044,1,8,0:0:0:0:
456,87,356125,1,0,0:0:0:0:
410,56,356207,1,2,0:0:0:0:
355,53,356288,1,0,0:0:0:0:
307,80,356370,5,8,0:0:0:0:
324,123,356451,1,0,0:0:0:0:
353,158,356533,1,2,0:0:0:0:
392,182,356615,1,0,0:0:0:0:
415,221,356696,1,8,0:0:0:0:
407,265,356778,1,0,0:0:0:0:
371,292,356859,2,0,L|317:303,1,46.0000008773804,2|4,0:0|0:0,0:0:0:0:
203,245,357022,6,0,L|138:226,3,40,8|0|2|4,0:0|0:0|0:0|0:0,0:0:0:0:
310,176,357348,2,0,L|348:164,3,40,8|0|2|4,0:0|0:0|0:0|0:0,0:0:0:0:
198,122,357674,2,0,L|127:101,3,40,8|0|2|4,0:0|0:0|0:0|0:0,0:0:0:0:
301,73,358000,2,0,L|354:52,3,40,8|0|2|4,0:0|0:0|0:0|0:0,0:0:0:0:
387,149,358326,5,8,0:0:0:0:
399,186,358407,1,0,0:0:0:0:
397,226,358489,1,2,0:0:0:0:
380,262,358570,1,0,0:0:0:0:
352,290,358652,1,8,0:0:0:0:
315,305,358733,1,0,0:0:0:0:
275,307,358815,1,2,0:0:0:0:
238,293,358896,1,0,0:0:0:0:
208,267,358979,2,0,B|198:227|150:207|150:207|227:175|235:122|218:52,1,240,8|4,0:0|0:0,0:0:0:0:
391,160,359631,5,8,0:0:0:0:
293,39,359794,1,2,0:0:0:0:
343,238,359957,1,8,0:0:0:0:
208,72,360120,1,2,0:0:0:0:
245,251,360283,5,8,0:0:0:0:
341,80,360446,1,2,0:0:0:0:
131,177,360609,1,8,0:0:0:0:
317,320,360772,1,2,0:0:0:0:
107,274,360935,6,0,P|65:247|33:201,2,80,8|2|8,0:0|0:0|0:0,0:0:0:0:
248,284,361424,2,0,L|332:275,1,80,2|4,0:0|0:0,0:0:0:0:
420,199,361750,1,2,0:0:0:0:
304,144,361913,2,0,L|204:151,1,80,8|4,0:0|0:0,0:0:0:0:
149,196,362240,6,0,B|136:134|148:96|181:72|234:65|234:65|314:59,1,240,8|4,0:0|0:0,0:0:0:0:
418,147,362892,2,0,L|417:241,1,80,8|4,0:0|0:0,0:0:0:0:
303,221,363218,2,0,L|262:180,1,40,8|4,0:0|0:0,0:0:0:0:
281,308,363381,2,0,P|199:336|130:56,1,480,2|4,0:0|0:0,0:0:0:0:
368,66,364522,1,8,0:0:0:0:
197,23,364685,1,2,0:0:0:0:
368,66,364848,6,0,P|402:106|269:181,1,240,8|4,0:0|0:0,0:0:0:0:
329,131,365500,2,0,P|269:124|239:145,1,80,8|4,0:0|0:0,0:0:0:0:
182,103,365826,2,0,B|158:149|153:197|184:235|184:235|242:216|312:209|375:242|425:299,1,400,8|4,0:0|0:0,0:0:0:0:
288,309,366805,2,0,P|227:328|62:264,1,240,8|4,0:0|0:0,0:0:0:0:
120,152,367457,5,8,0:0:0:0:
125,113,367538,1,0,0:0:0:0:
156,89,367620,1,2,0:0:0:0:
195,94,367701,1,0,0:0:0:0:
219,124,367783,1,8,0:0:0:0:
243,154,367864,1,0,0:0:0:0:
282,158,367946,2,0,L|332:161,1,40,2|4,0:0|0:0,0:0:0:0:
432,221,368109,5,8,0:0:0:0:
429,260,368190,1,0,0:0:0:0:
413,297,368272,1,2,0:0:0:0:
384,323,368353,1,0,0:0:0:0:
346,335,368435,1,8,0:0:0:0:
306,331,368516,1,0,0:0:0:0:
271,312,368598,2,0,L|228:283,1,40,2|4,0:0|0:0,0:0:0:0:
144,219,368761,5,8,0:0:0:0:
120,194,368842,1,0,0:0:0:0:
112,162,368924,1,2,0:0:0:0:
120,129,369005,1,0,0:0:0:0:
144,105,369087,1,8,0:0:0:0:
176,95,369168,1,0,0:0:0:0:
209,102,369250,1,2,0:0:0:0:
234,124,369331,1,0,0:0:0:0:
265,138,369413,5,8,0:0:0:0:
298,134,369495,1,0,0:0:0:0:
324,113,369576,1,2,0:0:0:0:
353,96,369658,1,0,0:0:0:0:
387,97,369740,1,8,0:0:0:0:
415,115,369821,1,0,0:0:0:0:
431,144,369903,1,2,0:0:0:0:
428,178,369983,1,0,0:0:0:0:
409,205,370066,5,8,0:0:0:0:
383,183,370147,1,0,0:0:0:0:
366,154,370229,1,2,0:0:0:0:
359,121,370310,1,0,0:0:0:0:
349,89,370391,1,8,0:0:0:0:
324,67,370473,1,0,0:0:0:0:
290,65,370555,2,0,L|240:66,1,34.0000006484985,2|4,0:0|0:0,0:0:0:0:
142,166,370718,5,8,0:0:0:0:
134,212,370799,1,0,0:0:0:0:
151,257,370881,1,2,0:0:0:0:
187,287,370962,1,0,0:0:0:0:
234,296,371044,1,8,0:0:0:0:
279,281,371125,1,0,0:0:0:0:
310,245,371207,2,0,L|319:187,1,47.9999985351563,2|4,0:0|0:0,0:0:0:0:
309,99,371370,5,8,0:0:0:0:
274,50,371451,1,0,0:0:0:0:
219,30,371533,1,2,0:0:0:0:
162,46,371614,1,0,0:0:0:0:
124,91,371696,1,8,0:0:0:0:
119,150,371777,1,0,0:0:0:0:
149,201,371859,1,2,0:0:0:0:
203,226,371940,1,0,0:0:0:0:
261,215,372022,5,8,0:0:0:0:
236,162,372103,1,0,0:0:0:0:
182,137,372185,1,2,0:0:0:0:
125,150,372266,1,0,0:0:0:0:
89,197,372348,1,8,0:0:0:0:
90,256,372429,1,0,0:0:0:0:
128,301,372511,2,0,B|170:343,1,60.0000022888184,2|4,0:0|0:0,0:0:0:0:
363,233,372837,5,10,0:0:0:0:
192,64,373000,1,8,0:0:0:0:
192,64,373326,1,8,0:0:0:0:
308,280,373490,1,10,0:0:0:0:
262,79,373816,2,0,P|191:86|153:114,1,88.000002685547,2|4,0:0|0:0,0:0:0:0:
176,299,374142,2,0,P|219:324|270:307,1,88.000002685547,2|4,0:0|0:0,0:0:0:0:
384,150,374468,1,2,0:0:0:0:
135,73,374631,1,10,0:0:0:0:
135,73,374957,1,8,0:0:0:0:
324,272,375120,2,0,P|390:282|429:245,1,88.000002685547,2|4,0:0|0:0,0:0:0:0:
393,73,375446,5,2,0:0:0:0:
120,111,375609,1,10,0:0:0:0:
120,111,375935,1,10,0:0:0:0:
411,278,376098,1,8,0:0:0:0:
343,89,376424,2,0,P|287:82|233:103,1,88.000002685547,2|4,0:0|0:0,0:0:0:0:
205,182,376750,2,0,P|219:229|265:262,1,88.000002685547,2|4,0:0|0:0,0:0:0:0:
349,205,377076,2,0,P|389:160|386:108,1,88.000002685547,2|4,0:0|0:0,0:0:0:0:
283,69,377403,1,2,0:0:0:0:
75,224,377566,2,0,P|103:267|251:283,1,176.000005371094,8|4,0:0|0:0,0:0:0:0:
379,186,378055,5,10,0:0:0:0:
149,64,378218,1,8,0:0:0:0:
149,64,378544,1,8,0:0:0:0:
188,330,378707,1,10,0:0:0:0:
345,237,379033,2,0,L|412:146,1,88.000002685547,2|4,0:0|0:0,0:0:0:0:
347,76,379359,2,0,L|240:81,1,88.000002685547,2|4,0:0|0:0,0:0:0:0:
207,160,379685,2,0,L|265:248,1,88.000002685547,2|4,0:0|0:0,0:0:0:0:
419,229,380011,1,2,0:0:0:0:
294,94,380174,1,8,0:0:0:0:
312,322,380337,1,2,0:0:0:0:
378,113,380663,5,10,0:0:0:0:
166,309,380826,1,8,0:0:0:0:
166,309,381153,1,8,0:0:0:0:
320,52,381316,1,10,0:0:0:0:
165,82,381642,2,0,P|116:149|114:193,1,88.000002685547,2|4,0:0|0:0,0:0:0:0:
214,215,381968,2,0,P|267:203|303:155,1,88.000002685547,2|4,0:0|0:0,0:0:0:0:
312,98,382294,2,0,B|347:109|376:144|372:184|372:184|432:196|432:196|445:243|424:298|389:319,1,300.000011444092,2|4,0:0|0:0,0:0:0:0:
149,281,383272,5,8,0:0:0:0:
239,172,383435,2,0,P|290:124|291:66,1,103.999995239258,2|4,0:0|0:0,0:0:0:0:
149,281,383761,1,8,0:0:0:0:
215,92,383924,2,0,P|235:44|278:16,1,103.999995239258,2|4,0:0|0:0,0:0:0:0:
361,171,384250,6,0,L|388:271,1,103.999995239258,2|4,0:0|0:0,0:0:0:0:
294,247,384576,2,0,L|284:355,1,103.999995239258,2|4,0:0|0:0,0:0:0:0:
213,265,384903,2,0,P|143:308|181:136,1,415.999980957032,2|4,0:0|0:0,0:0:0:0:
389,199,385881,5,8,0:0:0:0:
205,89,386044,2,0,L|93:53,1,103.999995239258,2|4,0:0|0:0,0:0:0:0:
389,199,386370,1,8,0:0:0:0:
200,198,386533,2,0,L|82:204,1,103.999995239258,2|4,0:0|0:0,0:0:0:0:
250,295,386859,2,0,P|326:297|377:263,1,103.999995239258,2|4,0:0|0:0,0:0:0:0:
295,228,387185,2,0,P|219:226|168:260,1,103.999995239258,2|4,0:0|0:0,0:0:0:0:
364,196,387511,2,0,P|440:198|491:164,1,103.999995239258,2|4,0:0|0:0,0:0:0:0:
288,72,387837,1,2,0:0:0:0:
211,297,388000,1,8,0:0:0:0:
438,170,388163,1,14,0:0:0:0:
101,109,388490,5,8,0:0:0:0:
325,231,388653,2,0,P|283:298|252:298,1,103.999995239258,2|4,0:0|0:0,0:0:0:0:
101,109,388979,1,8,0:0:0:0:
328,155,389142,2,0,P|395:197|395:228,1,103.999995239258,2|4,0:0|0:0,0:0:0:0:
194,117,389468,6,0,L|104:59,1,103.999995239258,2|4,0:0|0:0,0:0:0:0:
140,195,389794,2,0,L|227:251,1,103.999995239258,2|4,0:0|0:0,0:0:0:0:
345,309,390120,2,0,P|460:189|292:68,1,415.999980957032,2|4,3:0|3:0,3:0:0:0:
120,278,391098,5,8,0:0:0:0:
386,154,391261,1,2,0:0:0:0:
125,81,391587,5,8,0:0:0:0:
378,299,391750,1,2,0:0:0:0:
160,197,392076,2,0,P|130:138|118:58,1,120.000004577637,2|4,3:0|3:0,3:0:0:0:
223,144,392403,2,0,P|243:81|291:16,1,120.000004577637,2|4,3:0|3:0,3:0:0:0:
307,135,392729,2,0,P|365:105|445:93,1,120.000004577637,2|4,3:0|3:0,3:0:0:0:
435,317,393055,5,2,0:0:0:0:
312,51,393218,1,8,0:0:0:0:
192,322,393381,1,14,0:0:0:0:
129,172,393544,5,8,0:0:0:0:
127,142,393625,1,0,0:0:0:0:
139,115,393707,1,2,0:0:0:0:
163,97,393788,1,0,0:0:0:0:
192,92,393870,1,8,0:0:0:0:
220,101,393951,1,0,0:0:0:0:
241,122,394033,1,2,0:0:0:0:
250,150,394114,1,0,0:0:0:0:
245,180,394196,5,8,0:0:0:0:
238,208,394277,1,0,0:0:0:0:
247,236,394359,1,2,0:0:0:0:
267,257,394440,1,0,0:0:0:0:
296,266,394522,1,8,0:0:0:0:
325,261,394603,1,0,0:0:0:0:
348,243,394685,1,2,0:0:0:0:
361,216,394766,1,0,0:0:0:0:
359,186,394848,2,0,L|356:145,3,30.0000011444092,8|0|2|4,0:0|0:0|0:0|0:0,0:0:0:0:
244,154,395174,5,8,0:0:0:0:
219,184,395255,1,0,0:0:0:0:
181,197,395337,1,2,0:0:0:0:
143,187,395418,1,0,0:0:0:0:
117,157,395500,1,8,0:0:0:0:
110,119,395581,1,0,0:0:0:0:
126,82,395663,5,2,0:0:0:0:
159,61,395744,1,0,0:0:0:0:
198,60,395826,1,8,0:0:0:0:
232,81,395907,1,0,0:0:0:0:
256,113,395989,1,2,0:0:0:0:
267,151,396070,1,0,0:0:0:0:
264,191,396153,2,0,L|257:242,3,40,8|0|2|4,0:0|0:0|0:0|0:0,0:0:0:0:
342,290,396479,5,8,0:0:0:0:
391,285,396560,1,0,0:0:0:0:
431,257,396642,1,2,0:0:0:0:
452,212,396723,1,0,0:0:0:0:
448,163,396805,1,8,0:0:0:0:
420,122,396886,1,0,0:0:0:0:
375,101,396968,2,0,L|323:95,1,50,2|4,0:0|0:0,0:0:0:0:
230,216,397131,5,8,0:0:0:0:
189,243,397212,1,0,0:0:0:0:
147,271,397294,2,0,L|102:298,1,50,2|4,0:0|0:0,0:0:0:0:
93,172,397457,5,8,0:0:0:0:
106,118,397538,1,0,0:0:0:0:
149,83,397620,1,2,0:0:0:0:
204,80,397701,1,0,0:0:0:0:
250,110,397783,1,8,0:0:0:0:
270,162,397864,1,0,0:0:0:0:
255,215,397946,1,2,0:0:0:0:
250,269,398027,1,0,0:0:0:0:
288,308,398109,2,0,L|337:346,3,55.9999982910157,8|0|2|4,0:0|0:0|0:0|0:0,0:0:0:0:
336,242,398435,2,0,L|380:208,3,55.9999982910157,8|0|2|4,0:0|0:0|0:0|0:0,0:0:0:0:
293,98,398761,5,8,0:0:0:0:
267,96,398842,1,0,0:0:0:0:
241,94,398924,1,10,0:0:0:0:
215,93,399005,1,0,0:0:0:0:
214,147,399250,5,10,0:0:0:0:
188,150,399331,1,0,0:0:0:0:
162,154,399413,1,8,0:0:0:0:
136,159,399494,1,0,0:0:0:0:
166,285,399740,5,8,0:0:0:0:
191,290,399821,1,0,0:0:0:0:
217,295,399903,1,10,0:0:0:0:
242,300,399984,1,0,0:0:0:0:
268,304,400066,5,8,0:0:0:0:
274,279,400147,1,0,0:0:0:0:
281,254,400229,1,10,0:0:0:0:
287,229,400310,1,0,0:0:0:0:
345,224,400555,5,10,0:0:0:0:
357,201,400636,1,0,0:0:0:0:
368,177,400718,1,8,0:0:0:0:
380,154,400799,1,0,0:0:0:0:
296,95,401044,5,8,0:0:0:0:
270,91,401125,1,0,0:0:0:0:
244,87,401207,1,10,0:0:0:0:
218,83,401288,1,0,0:0:0:0:
191,79,401370,5,8,0:0:0:0:
133,93,401451,1,0,0:0:0:0:
93,137,401533,1,2,0:0:0:0:
84,195,401614,1,0,0:0:0:0:
109,249,401696,1,8,0:0:0:0:
159,280,401777,1,0,0:0:0:0:
218,279,401859,1,2,0:0:0:0:
267,245,401940,1,0,0:0:0:0:
289,190,402022,5,8,0:0:0:0:
233,172,402103,1,0,0:0:0:0:
181,198,402185,1,2,0:0:0:0:
162,253,402266,1,0,0:0:0:0:
189,305,402348,5,8,0:0:0:0:
233,267,402429,1,0,0:0:0:0:
248,210,402511,1,2,0:0:0:0:
227,154,402592,1,0,0:0:0:0:
178,121,402674,2,0,L|124:107,3,40,8|0|2|4,0:0|0:0|0:0|0:0,0:0:0:0:
282,122,403000,2,0,L|329:110,3,40,8|0|2|4,0:0|0:0|0:0|0:0,0:0:0:0:
192,212,403326,2,0,L|153:222,3,40,8|0|2|4,0:0|0:0|0:0|0:0,0:0:0:0:
298,217,403653,2,0,L|336:227,3,40,8|0|2|4,0:0|0:0|0:0|0:0,0:0:0:0:
232,277,403979,5,8,0:0:0:0:
198,307,404060,1,0,0:0:0:0:
153,310,404142,1,2,0:0:0:0:
116,285,404223,1,0,0:0:0:0:
103,242,404305,1,8,0:0:0:0:
120,200,404386,1,0,0:0:0:0:
159,177,404468,5,2,0:0:0:0:
176,219,404549,1,0,0:0:0:0:
162,262,404631,1,8,0:0:0:0:
123,285,404712,1,0,0:0:0:0:
79,276,404794,1,2,0:0:0:0:
51,241,404875,1,0,0:0:0:0:
53,196,404957,2,0,L|61:142,3,46.0000008773804,8|0|2|4,0:0|0:0|0:0|0:0,0:0:0:0:
144,100,405283,5,8,0:0:0:0:
189,92,405364,1,0,0:0:0:0:
235,91,405446,1,2,0:0:0:0:
280,99,405527,1,0,0:0:0:0:
324,113,405609,1,8,0:0:0:0:
364,135,405690,1,0,0:0:0:0:
400,163,405772,5,2,0:0:0:0:
374,201,405853,1,0,0:0:0:0:
338,229,405935,1,8,0:0:0:0:
295,245,406016,1,0,0:0:0:0:
249,248,406098,1,2,0:0:0:0:
205,236,406179,1,0,0:0:0:0:
166,212,406261,2,0,L|112:178,3,46.0000008773804,8|0|2|4,0:0|0:0|0:0|0:0,0:0:0:0:
197,84,406587,6,0,L|252:56,3,46.0000008773804,8|0|2|4,0:0|0:0|0:0|0:0,0:0:0:0:
108,87,406913,2,0,L|60:57,3,46.0000008773804,8|0|2|4,0:0|0:0|0:0|0:0,0:0:0:0:
209,180,407240,2,0,L|262:222,1,46.0000008773804,8|4,0:0|0:0,0:0:0:0:
116,176,407403,2,0,L|79:147,1,46.0000008773804,2|4,0:0|0:0,0:0:0:0:
188,275,407566,2,0,L|241:317,1,46.0000008773804,8|4,0:0|0:0,0:0:0:0:
95,271,407729,2,0,L|58:242,1,46.0000008773804,2|4,0:0|0:0,0:0:0:0:
62,150,407892,5,8,0:0:0:0:
98,103,407973,1,0,0:0:0:0:
155,92,408055,1,2,0:0:0:0:
206,121,408136,1,0,0:0:0:0:
226,176,408218,1,8,0:0:0:0:
245,231,408299,1,0,0:0:0:0:
296,260,408381,1,2,0:0:0:0:
354,249,408462,1,0,0:0:0:0:
390,202,408544,5,8,0:0:0:0:
338,176,408625,1,0,0:0:0:0:
289,206,408707,1,2,0:0:0:0:
288,264,408788,1,0,0:0:0:0:
293,322,408869,1,8,0:0:0:0:
255,366,408951,1,0,0:0:0:0:
197,369,409033,2,0,L|138:326,1,60.0000022888184,2|4,0:0|0:0,0:0:0:0:
70,262,409196,6,0,B|160:101|205:233|314:80,1,300.000011444092,8|4,0:0|0:0,0:0:0:0:
324,69,409685,5,2,0:0:0:0:
354,55,409766,1,0,0:0:0:0:
388,55,409848,1,8,0:0:0:0:
417,71,409929,1,0,0:0:0:0:
437,98,410011,1,2,0:0:0:0:
443,131,410092,1,0,0:0:0:0:
432,164,410174,1,8,0:0:0:0:
409,188,410255,1,0,0:0:0:0:
377,199,410337,1,2,0:0:0:0:
343,199,410418,1,0,0:0:0:0:
312,187,410500,5,8,0:0:0:0:
328,157,410581,1,0,0:0:0:0:
330,124,410663,1,2,0:0:0:0:
315,93,410744,1,0,0:0:0:0:
289,72,410826,1,8,0:0:0:0:
256,67,410907,1,0,0:0:0:0:
224,77,410989,1,2,0:0:0:0:
200,100,411070,1,0,0:0:0:0:
189,132,411153,2,0,L|187:188,3,34.0000006484985,8|0|2|4,0:0|0:0|0:0|0:0,0:0:0:0:
77,103,411479,2,0,L|79:47,3,34.0000006484985,8|0|2|4,0:0|0:0|0:0|0:0,0:0:0:0:
172,81,411805,5,8,0:0:0:0:
211,84,411886,1,0,0:0:0:0:
249,97,411968,1,2,0:0:0:0:
280,123,412049,1,0,0:0:0:0:
309,150,412131,1,8,0:0:0:0:
346,165,412212,1,0,0:0:0:0:
385,170,412294,5,2,0:0:0:0:
421,186,412375,1,0,0:0:0:0:
441,220,412457,1,8,0:0:0:0:
437,259,412538,1,0,0:0:0:0:
410,288,412620,1,2,0:0:0:0:
372,295,412701,1,0,0:0:0:0:
336,277,412783,2,0,L|302:242,3,40,8|0|2|4,0:0|0:0|0:0|0:0,0:0:0:0:
217,188,413109,5,8,0:0:0:0:
166,175,413190,1,0,0:0:0:0:
126,208,413272,1,2,0:0:0:0:
131,260,413353,1,0,0:0:0:0:
175,286,413435,5,8,0:0:0:0:
206,245,413516,1,0,0:0:0:0:
192,195,413598,1,2,0:0:0:0:
143,177,413679,1,0,0:0:0:0:
99,205,413761,5,8,0:0:0:0:
137,243,413842,1,0,0:0:0:0:
189,253,413924,1,2,0:0:0:0:
238,231,414005,1,0,0:0:0:0:
266,186,414087,2,0,P|315:160|454:195,1,162.000000617981,8|4,0:0|0:0,0:0:0:0:
383,282,414413,5,8,0:0:0:0:
342,303,414494,1,0,0:0:0:0:
297,310,414576,1,2,0:0:0:0:
252,301,414657,1,0,0:0:0:0:
213,277,414739,1,8,0:0:0:0:
185,241,414820,1,0,0:0:0:0:
170,198,414903,5,2,0:0:0:0:
214,186,414984,1,0,0:0:0:0:
260,187,415066,1,8,0:0:0:0:
303,203,415147,1,0,0:0:0:0:
340,230,415229,1,2,0:0:0:0:
366,268,415310,1,0,0:0:0:0:
380,311,415392,2,0,L|373:366,3,46.0000008773804,8|0|2|4,0:0|0:0|0:0|0:0,0:0:0:0:
347,205,415718,5,8,0:0:0:0:
346,159,415799,1,0,0:0:0:0:
323,120,415881,1,2,0:0:0:0:
284,96,415962,1,0,0:0:0:0:
238,95,416044,1,8,0:0:0:0:
198,116,416125,1,0,0:0:0:0:
174,155,416207,5,2,0:0:0:0:
208,183,416288,1,0,0:0:0:0:
253,179,416370,1,8,0:0:0:0:
283,145,416451,1,0,0:0:0:0:
281,101,416533,1,2,0:0:0:0:
248,70,416614,1,0,0:0:0:0:
203,70,416696,2,0,L|145:75,3,46.0000008773804,8|0|2|4,0:0|0:0|0:0|0:0,0:0:0:0:
102,188,417022,5,8,0:0:0:0:
121,229,417103,1,0,0:0:0:0:
154,260,417185,1,2,0:0:0:0:
196,278,417266,1,0,0:0:0:0:
242,278,417348,1,8,0:0:0:0:
284,261,417429,1,0,0:0:0:0:
318,229,417511,2,0,L|357:183,1,46.0000008773804,2|4,0:0|0:0,0:0:0:0:
272,101,417674,5,8,0:0:0:0:
228,85,417755,1,0,0:0:0:0:
182,86,417837,1,2,0:0:0:0:
140,103,417918,1,0,0:0:0:0:
107,136,418000,1,8,0:0:0:0:
90,178,418081,1,0,0:0:0:0:
88,224,418163,2,0,L|93:284,1,46.0000008773804,2|4,0:0|0:0,0:0:0:0:
224,286,418326,5,8,0:0:0:0:
267,299,418407,1,0,0:0:0:0:
311,287,418490,1,2,0:0:0:0:
341,253,418570,1,0,0:0:0:0:
348,208,418652,1,8,0:0:0:0:
329,166,418734,1,0,0:0:0:0:
291,141,418816,1,0,0:0:0:0:
246,141,418897,1,0,0:0:0:0:
208,165,418979,6,0,L|174:215,1,46.0000008773804,8|4,0:0|0:0,0:0:0:0:
230,74,419142,2,0,L|256:36,1,46.0000008773804,2|4,0:0|0:0,0:0:0:0:
280,229,419305,2,0,L|253:266,1,46.0000008773804,8|2,0:0|0:0,0:0:0:0:
301,122,419468,2,0,L|327:84,1,46.0000008773804,2|4,0:0|0:0,0:0:0:0:
405,237,419631,5,8,0:0:0:0:
385,271,419712,1,0,0:0:0:0:
348,283,419794,1,2,0:0:0:0:
312,268,419875,1,0,0:0:0:0:
296,232,419957,1,8,0:0:0:0:
279,196,420038,1,0,0:0:0:0:
243,181,420120,1,2,0:0:0:0:
206,193,420201,1,0,0:0:0:0:
187,227,420283,2,0,L|168:280,3,40,8|0|2|4,0:0|0:0|0:0|0:0,0:0:0:0:
117,156,420609,2,0,L|97:103,3,40,8|0|2|4,0:0|0:0|0:0|0:0,0:0:0:0:
203,90,420935,5,8,0:0:0:0:
241,100,421016,1,0,0:0:0:0:
267,130,421098,1,2,0:0:0:0:
273,169,421179,1,0,0:0:0:0:
256,204,421261,1,8,0:0:0:0:
240,240,421342,1,0,0:0:0:0:
246,279,421424,1,2,0:0:0:0:
272,309,421505,1,0,0:0:0:0:
310,319,421587,2,0,L|354:312,3,40,8|0|2|4,0:0|0:0|0:0|0:0,0:0:0:0:
211,262,421913,2,0,L|167:254,3,40,8|0|2|4,0:0|0:0|0:0|0:0,0:0:0:0:
148,114,422240,5,8,0:0:0:0:
168,63,422321,1,0,0:0:0:0:
217,40,422403,1,2,0:0:0:0:
269,57,422484,1,0,0:0:0:0:
295,105,422566,1,8,0:0:0:0:
281,158,422647,1,0,0:0:0:0:
234,186,422729,1,2,0:0:0:0:
196,233,422810,1,0,0:0:0:0:
197,288,422892,5,8,0:0:0:0:
237,325,422973,1,0,0:0:0:0:
292,332,423055,1,2,0:0:0:0:
340,306,423136,1,0,0:0:0:0:
365,257,423218,2,0,L|361:194,3,55.9999982910157,8|0|2|4,0:0|0:0|0:0|0:0,0:0:0:0:
306,118,423544,5,8,0:0:0:0:
274,82,423625,1,0,0:0:0:0:
231,61,423707,1,2,0:0:0:0:
183,58,423788,1,0,0:0:0:0:
138,74,423870,1,8,0:0:0:0:
103,105,423951,1,0,0:0:0:0:
82,148,424033,1,2,0:0:0:0:
87,196,424114,1,0,0:0:0:0:
114,235,424196,1,8,0:0:0:0:
155,258,424277,1,0,0:0:0:0:
203,259,424359,1,2,0:0:0:0:
246,238,424440,1,0,0:0:0:0:
274,200,424522,2,0,L|302:152,3,47.9999985351563,8|0|2|4,0:0|0:0|0:0|0:0,0:0:0:0:
349,99,424848,5,8,0:0:0:0:
387,108,424929,1,0,0:0:0:0:
415,136,425011,1,2,0:0:0:0:
427,173,425092,1,0,0:0:0:0:
417,212,425174,1,8,0:0:0:0:
390,241,425255,1,0,0:0:0:0:
353,252,425337,1,2,0:0:0:0:
314,244,425418,1,0,0:0:0:0:
285,217,425500,5,8,0:0:0:0:
255,190,425581,1,0,0:0:0:0:
217,181,425663,1,2,0:0:0:0:
179,193,425744,1,0,0:0:0:0:
152,222,425826,1,8,0:0:0:0:
143,260,425907,1,0,0:0:0:0:
154,298,425990,2,0,L|181:337,1,40,2|4,0:0|0:0,0:0:0:0:
296,312,426153,5,8,0:0:0:0:
365,300,426234,1,0,0:0:0:0:
404,242,426316,1,2,0:0:0:0:
388,174,426397,1,0,0:0:0:0:
328,139,426479,1,8,0:0:0:0:
261,158,426560,1,0,0:0:0:0:
192,159,426641,1,2,0:0:0:0:
154,101,426723,1,0,0:0:0:0:
183,39,426805,2,0,P|262:33|159:234,1,447.999986328125,8|4,0:0|0:0,0:0:0:0:
242,142,427620,5,8,0:0:0:0:
52,324,427783,1,2,0:0:0:0:
173,47,428109,5,8,0:0:0:0:
427,278,428272,1,2,0:0:0:0:
237,58,428598,2,0,P|224:138|176:185,1,120.000004577637,2|4,0:0|0:0,0:0:0:0:
150,92,428924,2,0,P|118:142|115:202,1,120.000004577637,2|4,0:0|0:0,0:0:0:0:
25,195,429250,2,0,P|53:264|205:204,1,240.000009155274,2|4,0:0|0:0,0:0:0:0:
368,138,429740,1,8,0:0:0:0:
217,92,429903,1,2,0:0:0:0:
287,286,430066,1,8,0:0:0:0:
120,141,430229,5,8,0:0:0:0:
472,278,430392,1,2,0:0:0:0:
66,301,430718,5,8,0:0:0:0:
348,74,430881,1,2,0:0:0:0:
209,235,431207,2,0,L|91:219,1,120.000004577637,2|4,0:0|0:0,0:0:0:0:
209,148,431533,2,0,L|327:131,1,120.000004577637,2|4,0:0|0:0,0:0:0:0:
291,232,431859,2,0,P|413:114|258:45,1,400,2|4,0:0|0:0,0:0:0:0:
88,145,432674,6,0,L|109:256,1,80,8|0,0:0|0:0,0:0:0:0:
336,302,432919,2,0,L|368:176,1,120,2|4,0:0|0:0,0:0:0:0:
196,186,433326,1,8,0:0:0:0:
340,120,433490,1,0,0:0:0:0:
175,195,433653,1,8,0:0:0:0:
360,110,433817,1,0,0:0:0:0:
176,71,433979,6,0,P|111:93|77:121,1,80,8|0,0:0|0:0,0:0:0:0:
252,320,434223,2,0,P|298:301|357:240,1,120,2|4,0:0|0:0,0:0:0:0:
217,86,434631,1,8,0:0:0:0:
366,192,434794,1,0,0:0:0:0:
199,73,434957,1,8,0:0:0:0:
383,204,435120,1,0,0:0:0:0:
176,287,435283,6,0,P|111:255|92:223,1,80,8|0,0:0|0:0,0:0:0:0:
221,47,435528,2,0,P|268:66|324:113,1,120,2|4,0:0|0:0,0:0:0:0:
214,296,435935,1,8,0:0:0:0:
178,117,436098,1,0,0:0:0:0:
203,323,436261,1,8,0:0:0:0:
157,97,436424,1,0,0:0:0:0:
273,98,436587,5,8,0:0:0:0:
301,107,436668,1,0,0:0:0:0:
322,128,436750,1,2,0:0:0:0:
331,156,436831,1,0,0:0:0:0:
328,186,436913,1,8,0:0:0:0:
311,210,436994,1,0,0:0:0:0:
286,225,437076,1,2,0:0:0:0:
256,227,437157,1,0,0:0:0:0:
228,216,437240,1,8,0:0:0:0:
200,204,437321,1,0,0:0:0:0:
170,206,437403,1,2,0:0:0:0:
145,221,437484,1,0,0:0:0:0:
128,246,437566,1,8,0:0:0:0:
124,275,437647,1,0,0:0:0:0:
134,303,437729,1,2,0:0:0:0:
155,324,437810,1,0,0:0:0:0:
183,334,437892,5,8,0:0:0:0:
191,295,437973,1,0,0:0:0:0:
183,256,438055,1,2,0:0:0:0:
161,223,438136,1,0,0:0:0:0:
128,200,438218,1,8,0:0:0:0:
98,175,438299,1,0,0:0:0:0:
85,138,438381,1,2,0:0:0:0:
94,99,438462,1,0,0:0:0:0:
121,70,438544,1,8,0:0:0:0:
159,60,438625,1,0,0:0:0:0:
197,71,438707,1,2,0:0:0:0:
224,100,438788,1,0,0:0:0:0:
258,120,438870,1,8,0:0:0:0:
297,123,438951,1,0,0:0:0:0:
335,109,439032,1,2,0:0:0:0:
362,81,439114,1,0,0:0:0:0:
375,43,439195,5,8,0:0:0:0:
370,91,439277,1,0,0:0:0:0:
378,138,439359,1,2,0:0:0:0:
397,182,439441,1,0,0:0:0:0:
394,229,439522,1,8,0:0:0:0:
363,265,439604,1,0,0:0:0:0:
318,277,439685,1,2,0:0:0:0:
274,260,439767,1,0,0:0:0:0:
249,220,439848,1,8,0:0:0:0:
252,173,439930,1,0,0:0:0:0:
250,125,440011,1,2,0:0:0:0:
223,86,440093,1,0,0:0:0:0:
180,67,440174,1,8,0:0:0:0:
133,75,440256,1,0,0:0:0:0:
98,106,440337,1,2,0:0:0:0:
85,152,440419,1,0,0:0:0:0:
98,197,440500,6,0,L|106:265,1,47.9999985351563,8|4,0:0|0:0,0:0:0:0:
137,120,440663,2,0,L|148:57,1,47.9999985351563,2|0,0:0|0:0,0:0:0:0:
185,242,440826,2,0,L|183:313,1,47.9999985351563,8|4,0:0|0:0,0:0:0:0:
237,107,440990,2,0,L|247:45,1,47.9999985351563,2|0,0:0|0:0,0:0:0:0:
326,273,441153,6,0,L|374:319,1,47.9999985351563,8|4,0:0|0:0,0:0:0:0:
267,113,441316,2,0,L|286:55,1,47.9999985351563,2|0,0:0|0:0,0:0:0:0:
226,312,441479,2,0,L|243:359,1,47.9999985351563,8|4,0:0|0:0,0:0:0:0:
149,128,441642,2,0,L|135:49,1,47.9999985351563,2|0,0:0|0:0,0:0:0:0:
142,317,441805,5,0,0:0:0:0:
304,92,441968,1,2,0:0:0:0:
63,219,442131,1,8,0:0:0:0:
376,207,442294,1,2,0:0:0:0:
166,67,442457,5,8,0:0:0:0:
298,322,442620,1,2,0:0:0:0:
225,114,442783,5,8,0:0:0:0:
137,253,442946,1,10,0:0:0:0:
394,263,443109,6,0,B|368:229|380:94|380:94|322:84|257:28|257:28|364:162|241:264|241:264|192:145|73:172,1,767.999976562501,14|4,0:0|0:0,0:0:0:0:
165,150,453544,6,0,P|142:198|212:286,1,151.999995941162,2|0,0:0|0:0,0:0:0:0:
227,204,454033,2,0,P|283:197|359:122,1,151.999995941162,2|0,0:0|0:0,0:0:0:0:
280,102,454522,2,0,P|319:62|359:50,1,75.9999979705811,2|4,0:0|0:0,0:0:0:0:
400,258,454848,6,0,P|327:265|242:218,1,151.999995941162,2|0,0:0|0:0,0:0:0:0:
339,186,455337,2,0,P|281:150|182:160,1,151.999995941162,2|0,0:0|0:0,0:0:0:0:
171,229,455826,2,0,P|141:211|113:156,1,75.9999979705811,2|4,0:0|0:0,0:0:0:0:
244,65,456153,6,0,L|407:117,1,151.999995941162,2|0,0:0|0:0,0:0:0:0:
432,48,456642,2,0,P|464:109|412:184,1,151.999995941162,2|0,0:0|0:0,0:0:0:0:
320,181,457131,2,0,L|369:259,1,75.9999979705811,2|4,0:0|0:0,0:0:0:0:
184,292,457457,6,0,P|141:250|169:152,1,151.999995941162,2|0,0:0|0:0,0:0:0:0:
216,217,457946,2,0,P|272:219|379:190,1,151.999995941162,2|0,0:0|0:0,0:0:0:0:
403,134,458435,2,0,P|432:166|435:222,1,75.9999979705811,2|4,0:0|0:0,0:0:0:0:
221,287,458761,6,0,P|160:278|132:189,1,151.999995941162,2|0,0:0|0:0,0:0:0:0:
213,203,459250,2,0,P|208:159|108:119,1,151.999995941162,2|0,0:0|0:0,0:0:0:0:
88,41,459740,2,0,P|46:71|40:113,1,75.9999979705811,2|4,0:0|0:0,0:0:0:0:
136,301,460066,6,0,P|203:312|286:268,1,151.999995941162,2|0,0:0|0:0,0:0:0:0:
355,299,460555,2,0,P|353:256|244:197,1,151.999995941162,2|0,0:0|0:0,0:0:0:0:
182,193,461044,2,0,L|218:118,1,75.9999979705811,2|4,0:0|0:0,0:0:0:0:
392,91,461370,5,14,0:0:0:0:
392,91,461696,5,8,0:0:0:0:
325,320,461859,1,2,0:0:0:0:
237,91,462022,1,8,0:0:0:0:
440,226,462185,1,2,0:0:0:0:
203,226,462348,1,8,0:0:0:0:
392,91,462511,1,2,0:0:0:0:
115,73,462674,5,14,0:0:0:0:
351,264,462837,1,8,0:0:0:0:
59,103,463000,5,14,0:0:0:0:
440,181,463163,1,8,0:0:0:0:
28,159,463326,5,14,0:0:0:0:
461,63,463490,1,10,0:0:0:0:
340,286,463653,5,8,0:0:0:0:
305,301,463734,1,0,0:0:0:0:
267,304,463816,1,2,0:0:0:0:
230,296,463897,1,0,0:0:0:0:
198,277,463979,6,0,P|152:231|169:126,1,151.999995941162,8|4,0:0|0:0,0:0:0:0:
77,123,464468,2,0,P|111:83|224:108,1,151.999995941162,8|4,0:0|0:0,0:0:0:0:
154,153,464957,2,0,P|226:168|208:7,1,303.999991882324,8|4,0:0|0:0,0:0:0:0:
88,118,465772,2,0,P|76:161|94:202,1,75.9999979705811,2|0,0:0|0:0,0:0:0:0:
151,320,466098,5,8,0:0:0:0:
205,89,466261,1,14,0:0:0:0:
103,269,466587,6,0,P|174:280|264:255,1,151.999995941162,8|4,0:0|0:0,0:0:0:0:
167,196,467076,2,0,P|240:177|315:188,1,151.999995941162,8|4,0:0|0:0,0:0:0:0:
393,343,467566,2,0,B|329:230|467:202|371:81|271:104,1,303.999991882324,8|4,0:0|0:0,0:0:0:0:
198,38,468381,2,0,L|174:128,1,75.9999979705811,2|0,0:0|0:0,0:0:0:0:
135,214,468707,5,8,0:0:0:0:
407,81,468870,1,14,0:0:0:0:
383,296,469196,6,0,P|328:291|291:186,1,151.999995941162,8|4,0:0|0:0,0:0:0:0:
300,119,469685,2,0,P|251:127|189:224,1,151.999995941162,8|4,0:0|0:0,0:0:0:0:
281,201,470174,2,0,P|262:258|98:178,1,303.999991882324,8|4,0:0|0:0,0:0:0:0:
93,81,470990,2,0,L|184:52,1,75.9999979705811,2|0,0:0|0:0,0:0:0:0:
329,58,471316,5,8,0:0:0:0:
131,296,471479,1,14,0:0:0:0:
347,207,471805,6,0,P|372:154|336:59,1,151.999995941162,8|4,0:0|0:0,0:0:0:0:
294,142,472294,2,0,P|266:211|293:281,1,151.999995941162,8|4,0:0|0:0,0:0:0:0:
218,314,472783,2,0,P|192:271|240:86,1,227.999993911743,8|4,0:0|0:0,0:0:0:0:
306,104,473435,6,0,P|353:90|415:90,1,75.9999979705811,2|0,0:0|0:0,0:0:0:0:
363,168,473761,2,0,P|410:181|462:215,1,75.9999979705811,2|0,0:0|0:0,0:0:0:0:
370,245,474087,2,0,P|401:282|427:338,1,75.9999979705811,2|0,0:0|0:0,0:0:0:0:
273,340,474413,5,8,0:0:0:0:
244,303,474494,1,0,0:0:0:0:
216,267,474576,1,2,0:0:0:0:
188,231,474657,1,0,0:0:0:0:
159,195,474740,2,0,L|104:113,1,92.0000017547608,8|4,0:0|0:0,0:0:0:0:
313,119,475066,5,8,0:0:0:0:
209,223,475229,1,0,0:0:0:0:
218,56,475392,1,8,0:0:0:0:
327,254,475555,1,0,0:0:0:0:
125,198,475718,1,8,0:0:0:0:
327,88,475881,1,0,0:0:0:0:
147,298,476044,2,0,L|44:270,1,92.0000017547608,8|4,0:0|0:0,0:0:0:0:
180,152,476370,2,0,L|268:176,1,92.0000017547608,8|4,0:0|0:0,0:0:0:0:
336,286,476696,2,0,L|247:261,1,92.0000017547608,8|4,0:0|0:0,0:0:0:0:
122,136,477022,5,8,0:0:0:0:
166,122,477103,1,0,0:0:0:0:
210,109,477185,1,2,0:0:0:0:
254,96,477266,1,0,0:0:0:0:
298,83,477348,2,0,L|404:43,1,92.0000017547608,8|4,0:0|0:0,0:0:0:0:
350,247,477674,5,8,0:0:0:0:
204,108,477837,1,0,0:0:0:0:
397,156,478000,1,8,0:0:0:0:
226,211,478163,1,0,0:0:0:0:
317,42,478326,1,8,0:0:0:0:
327,260,478490,1,0,0:0:0:0:
204,108,478653,2,0,P|154:118|119:148,1,92.0000017547608,8|4,0:0|0:0,0:0:0:0:
266,161,478979,2,0,P|316:171|350:201,1,92.0000017547608,8|4,0:0|0:0,0:0:0:0:
258,247,479305,2,0,P|208:237|173:206,1,92.0000017547608,8|4,0:0|0:0,0:0:0:0:
103,94,479631,5,8,0:0:0:0:
148,90,479712,1,0,0:0:0:0:
194,87,479794,1,2,0:0:0:0:
240,84,479875,1,0,0:0:0:0:
286,80,479957,2,0,L|389:72,1,92.0000017547608,8|4,0:0|0:0,0:0:0:0:
387,278,480283,1,8,0:0:0:0:
179,218,480446,1,0,0:0:0:0:
350,108,480609,1,8,0:0:0:0:
291,283,480772,1,0,0:0:0:0:
89,55,480935,5,8,0:0:0:0:
86,100,481016,1,0,0:0:0:0:
84,146,481098,1,2,0:0:0:0:
82,192,481179,1,0,0:0:0:0:
80,238,481261,2,0,L|78:344,1,92.0000017547608,8|4,0:0|0:0,0:0:0:0:
345,278,481587,1,8,0:0:0:0:
187,124,481750,1,0,0:0:0:0:
190,279,481913,1,8,0:0:0:0:
332,120,482076,1,0,0:0:0:0:
92,83,482240,5,14,0:0:0:0:
257,269,482403,1,0,0:0:0:0:
206,98,482566,1,8,0:0:0:0:
101,254,482729,1,0,0:0:0:0:
348,112,482892,5,14,0:0:0:0:
114,203,483055,1,0,0:0:0:0:
349,291,483218,1,8,0:0:0:0:
144,53,483381,1,0,0:0:0:0:
171,311,483544,5,14,0:0:0:0:
260,60,483707,1,0,0:0:0:0:
433,269,483870,1,8,0:0:0:0:
51,128,484033,1,0,0:0:0:0:
380,43,484196,5,14,0:0:0:0:
448,319,484359,1,0,0:0:0:0:
98,58,484522,1,14,0:0:0:0:
156,335,484685,1,0,0:0:0:0:
334,255,484848,5,8,0:0:0:0:
391,201,484929,1,0,0:0:0:0:
395,124,485011,1,2,0:0:0:0:
343,65,485092,1,0,0:0:0:0:
265,59,485174,1,8,0:0:0:0:
206,109,485255,1,0,0:0:0:0:
198,187,485337,5,2,0:0:0:0:
180,262,485418,1,0,0:0:0:0:
110,295,485500,1,8,0:0:0:0:
40,263,485581,1,0,0:0:0:0:
21,188,485663,1,2,0:0:0:0:
67,126,485745,1,0,0:0:0:0:
145,118,485826,5,8,0:0:0:0:
213,158,485908,1,0,0:0:0:0:
242,231,485989,1,2,0:0:0:0:
287,295,486071,1,0,0:0:0:0:
364,307,486153,2,0,L|466:266,1,100,8|4,0:0|0:0,0:0:0:0:
311,72,486479,5,10,0:0:0:0:
177,327,486805,5,10,0:0:0:0:
118,76,487131,5,10,0:0:0:0:
390,79,487457,6,0,B|316:232|182:119|182:119|170:196|201:248|276:259|361:253|401:202|430:166|450:116,1,647.99998022461,8|4,0:0|0:0,0:0:0:0:
446,263,489087,2,0,L|397:341,1,71.9999978027344,2|4,0:0|0:0,0:0:0:0:
406,172,489413,2,0,L|444:111,1,71.9999978027344,2|4,0:0|0:0,0:0:0:0:
336,294,489740,1,8,0:0:0:0:
314,74,489903,1,8,0:0:0:0:
243,292,490066,6,0,B|136:252|120:160|120:160|203:151|305:225,1,359.999989013672,10|4,0:0|0:0,0:0:0:0:
375,259,491044,5,8,0:0:0:0:
404,239,491125,1,0,0:0:0:0:
421,207,491207,1,2,0:0:0:0:
420,171,491288,1,0,0:0:0:0:
402,141,491370,2,0,L|374:96,3,35.9999989013672,8|0|2|4,0:0|0:0|0:0|0:0,0:0:0:0:
227,162,491696,5,8,0:0:0:0:
195,178,491777,1,0,0:0:0:0:
168,202,491859,1,2,0:0:0:0:
147,231,491940,1,0,0:0:0:0:
132,264,492022,2,0,L|127:331,3,35.9999989013672,8|0|2|4,0:0|0:0|0:0|0:0,0:0:0:0:
311,317,492348,1,8,0:0:0:0:
122,115,492511,1,10,0:0:0:0:
217,254,492674,6,0,P|287:233|315:158,1,143.999995605469,8|4,0:0|0:0,0:0:0:0:
152,69,493163,2,0,P|214:100|233:167,1,143.999995605469,2|4,0:0|0:0,0:0:0:0:
92,189,493653,2,0,L|152:149,1,71.9999978027344,2|2,0:0|0:0,0:0:0:0:
266,106,493979,6,0,P|315:103|365:112,1,71.9999978027344,8|2,0:0|0:0,0:0:0:0:
203,177,494305,2,0,P|154:180|104:171,1,71.9999978027344,8|2,0:0|0:0,0:0:0:0:
300,183,494631,2,0,P|303:232|294:282,1,71.9999978027344,8|2,0:0|0:0,0:0:0:0:
246,105,494957,2,0,P|243:56|252:6,1,71.9999978027344,8|2,0:0|0:0,0:0:0:0:
343,121,495283,6,0,L|403:211,1,103.999995239258,8|4,0:0|0:0,0:0:0:0:
124,327,495609,1,8,0:0:0:0:
178,55,495772,2,0,L|282:69,1,103.999995239258,8|4,0:0|0:0,0:0:0:0:
305,307,496098,1,2,0:0:0:0:
45,174,496261,2,0,L|137:84,1,103.999995239258,8|4,0:0|0:0,0:0:0:0:
334,103,496587,5,8,0:0:0:0:
363,107,496668,1,0,0:0:0:0:
388,122,496750,1,2,0:0:0:0:
405,147,496831,1,0,0:0:0:0:
411,176,496913,1,8,0:0:0:0:
404,205,496994,1,0,0:0:0:0:
387,229,497076,1,2,0:0:0:0:
361,244,497157,1,0,0:0:0:0:
331,247,497239,1,8,0:0:0:0:
303,238,497320,1,0,0:0:0:0:
281,218,497403,5,2,0:0:0:0:
258,198,497484,1,0,0:0:0:0:
230,189,497566,1,8,0:0:0:0:
200,192,497647,1,0,0:0:0:0:
174,207,497729,1,2,0:0:0:0:
157,230,497810,1,0,0:0:0:0:
150,259,497892,5,8,0:0:0:0:
202,261,497973,1,0,0:0:0:0:
248,240,498055,1,2,0:0:0:0:
281,200,498136,1,0,0:0:0:0:
292,150,498218,1,8,0:0:0:0:
279,100,498299,1,0,0:0:0:0:
280,49,498380,1,2,0:0:0:0:
312,10,498462,1,0,0:0:0:0:
362,0,498543,5,8,0:0:0:0:
407,24,498625,1,0,0:0:0:0:
427,71,498706,1,2,0:0:0:0:
412,119,498788,1,0,0:0:0:0:
369,146,498869,1,8,0:0:0:0:
319,138,498951,1,0,0:0:0:0:
270,129,499032,1,2,0:0:0:0:
230,160,499114,1,0,0:0:0:0:
227,210,499196,6,0,L|227:278,3,51.999997619629,8|0|2|4,0:0|0:0|0:0|0:0,0:0:0:0:
162,146,499522,2,0,L|162:94,3,51.999997619629,8|0|2|4,0:0|0:0|0:0|0:0,0:0:0:0:
96,218,499848,2,0,L|95:285,3,51.999997619629,8|0|2|4,0:0|0:0|0:0|0:0,0:0:0:0:
60,78,500174,2,0,L|60:26,3,51.999997619629,8|0|2|4,0:0|0:0|0:0|0:0,0:0:0:0:
236,59,500500,5,8,0:0:0:0:
287,64,500581,1,0,0:0:0:0:
329,93,500663,1,2,0:0:0:0:
351,139,500744,1,0,0:0:0:0:
347,191,500826,1,8,0:0:0:0:
319,234,500907,1,0,0:0:0:0:
273,257,500990,1,2,0:0:0:0:
221,254,501070,1,0,0:0:0:0:
178,227,501152,5,8,0:0:0:0:
213,189,501234,1,0,0:0:0:0:
261,169,501316,1,2,0:0:0:0:
313,169,501397,1,0,0:0:0:0:
360,189,501479,1,8,0:0:0:0:
396,226,501560,1,0,0:0:0:0:
415,274,501642,2,2,L|417:337,1,51.999997619629,0|6,0:0|0:0,0:0:0:0:
270,325,501805,5,8,0:0:0:0:
230,328,501886,1,0,0:0:0:0:
190,321,501968,1,2,0:0:0:0:
154,305,502049,1,0,0:0:0:0:
123,280,502131,1,8,0:0:0:0:
99,248,502212,1,0,0:0:0:0:
84,211,502294,1,2,0:0:0:0:
79,171,502375,1,0,0:0:0:0:
85,133,502457,2,0,L|102:72,3,40,8|0|2|4,0:0|0:0|0:0|0:0,0:0:0:0:
233,27,502783,5,8,0:0:0:0:
266,51,502864,1,0,0:0:0:0:
298,74,502946,2,0,L|341:103,1,40,2|4,0:0|0:0,0:0:0:0:
141,108,503109,5,8,0:0:0:0:
106,147,503190,1,0,0:0:0:0:
104,200,503272,1,2,0:0:0:0:
136,243,503353,1,0,0:0:0:0:
187,255,503435,1,8,0:0:0:0:
235,233,503516,1,0,0:0:0:0:
258,185,503598,5,2,0:0:0:0:
205,188,503679,1,0,0:0:0:0:
161,158,503761,1,8,0:0:0:0:
146,108,503842,1,0,0:0:0:0:
167,59,503924,1,2,0:0:0:0:
214,34,504005,1,0,0:0:0:0:
266,44,504087,2,0,L|333:68,3,54.0000002059937,8|0|2|4,0:0|0:0|0:0|0:0,0:0:0:0:
424,112,504413,5,8,0:0:0:0:
420,171,504494,1,0,0:0:0:0:
399,227,504576,1,2,0:0:0:0:
362,274,504657,1,0,0:0:0:0:
313,308,504740,1,8,0:0:0:0:
256,326,504820,1,0,0:0:0:0:
196,325,504903,5,2,0:0:0:0:
197,265,504984,1,0,0:0:0:0:
213,208,505066,1,8,0:0:0:0:
244,157,505147,1,0,0:0:0:0:
288,116,505229,1,2,0:0:0:0:
341,89,505310,1,0,0:0:0:0:
399,77,505392,2,0,L|468:71,3,60.0000022888184,8|0|2|4,0:0|0:0|0:0|0:0,0:0:0:0:
276,67,505718,5,8,0:0:0:0:
203,54,505799,1,0,0:0:0:0:
147,102,505881,1,2,0:0:0:0:
148,176,505962,1,0,0:0:0:0:
206,221,506044,1,8,0:0:0:0:
278,207,506125,1,0,0:0:0:0:
350,194,506206,1,2,0:0:0:0:
403,245,506288,1,0,0:0:0:0:
394,317,506369,1,8,0:0:0:0:
329,353,506451,1,0,0:0:0:0:
263,322,506533,5,2,0:0:0:0:
332,295,506614,1,0,0:0:0:0:
368,230,506696,1,8,0:0:0:0:
353,157,506777,1,0,0:0:0:0:
295,111,506859,1,2,0:0:0:0:
220,114,506940,1,0,0:0:0:0:
165,165,507022,6,0,L|139:224,3,50,8|0|2|4,0:0|0:0|0:0|0:0,0:0:0:0:
241,232,507348,2,0,L|267:290,3,50,8|0|2|4,0:0|0:0|0:0|0:0,0:0:0:0:
344,303,507674,2,0,L|317:361,3,50,8|0|2|4,0:0|0:0|0:0|0:0,0:0:0:0:
412,243,508000,2,0,L|438:301,3,50,8|0|2|4,0:0|0:0|0:0|0:0,0:0:0:0:
356,167,508326,5,8,0:0:0:0:
350,112,508407,1,0,0:0:0:0:
311,73,508489,1,2,0:0:0:0:
256,68,508570,1,0,0:0:0:0:
210,98,508653,1,8,0:0:0:0:
194,151,508733,1,0,0:0:0:0:
214,202,508815,1,2,0:0:0:0:
234,252,508897,1,0,0:0:0:0:
218,305,508979,5,8,0:0:0:0:
172,335,509060,1,0,0:0:0:0:
117,330,509142,1,2,0:0:0:0:
78,291,509223,1,0,0:0:0:0:
72,237,509305,1,8,0:0:0:0:
103,191,509386,1,0,0:0:0:0:
155,174,509468,1,2,0:0:0:0:
206,195,509549,1,0,0:0:0:0:
233,243,509631,5,8,0:0:0:0:
259,291,509712,1,0,0:0:0:0:
310,311,509794,1,2,0:0:0:0:
362,295,509875,1,0,0:0:0:0:
393,249,509957,2,8,L|404:174,3,55.9999982910157,0|0|2|4,0:0|0:0|0:0|0:0,0:0:0:0:
299,179,510283,2,0,L|309:103,3,55.9999982910157,8|0|2|4,0:0|0:0|0:0|0:0,0:0:0:0:
210,125,510609,2,0,L|220:49,3,55.9999982910157,8|0|2|4,0:0|0:0|0:0|0:0,0:0:0:0:
87,127,510935,5,8,0:0:0:0:
74,170,511016,1,0,0:0:0:0:
81,216,511098,1,2,0:0:0:0:
105,254,511179,1,0,0:0:0:0:
143,279,511261,1,8,0:0:0:0:
188,287,511342,1,0,0:0:0:0:
232,276,511424,1,2,0:0:0:0:
268,247,511505,1,0,0:0:0:0:
289,207,511587,5,8,0:0:0:0:
244,201,511668,1,0,0:0:0:0:
200,215,511750,1,2,0:0:0:0:
167,247,511831,1,0,0:0:0:0:
151,290,511913,2,0,L|146:348,3,46.0000008773804,8|0|2|4,0:0|0:0|0:0|0:0,0:0:0:0:
256,306,512240,5,8,0:0:0:0:
300,296,512321,1,0,0:0:0:0:
339,271,512403,1,2,0:0:0:0:
367,235,512484,1,0,0:0:0:0:
380,191,512566,5,0,0:0:0:0:
336,183,512647,1,0,0:0:0:0:
292,196,512729,1,2,0:0:0:0:
260,229,512810,1,0,0:0:0:0:
246,272,512892,1,8,0:0:0:0:
232,315,512973,1,0,0:0:0:0:
199,347,513055,1,2,0:0:0:0:
156,360,513136,1,0,0:0:0:0:
111,352,513218,2,0,L|42:323,1,46.0000008773804,8|4,0:0|0:0,0:0:0:0:
138,275,513381,2,0,L|207:245,1,46.0000008773804,2|4,0:0|0:0,0:0:0:0:
109,174,513544,5,8,0:0:0:0:
123,120,513625,1,0,0:0:0:0:
166,86,513707,1,2,0:0:0:0:
221,85,513788,1,0,0:0:0:0:
266,117,513870,1,8,0:0:0:0:
283,169,513951,1,0,0:0:0:0:
265,221,514033,5,2,0:0:0:0:
247,273,514114,1,0,0:0:0:0:
264,325,514196,1,8,0:0:0:0:
309,357,514277,1,0,0:0:0:0:
364,356,514359,1,2,0:0:0:0:
407,322,514440,1,0,0:0:0:0:
421,268,514522,2,0,L|429:192,3,55.9999982910157,8|0|2|4,0:0|0:0|0:0|0:0,0:0:0:0:
354,118,514848,5,8,0:0:0:0:
298,109,514929,1,0,0:0:0:0:
243,101,515011,1,2,0:0:0:0:
187,93,515092,1,0,0:0:0:0:
132,85,515174,2,0,L|50:71,3,55.9999982910157,8|0|2|4,0:0|0:0|0:0|0:0,0:0:0:0:
181,157,515500,2,0,L|236:166,3,55.9999982910157,8|0|2|4,0:0|0:0|0:0|0:0,0:0:0:0:
94,198,515826,2,0,L|38:188,3,55.9999982910157,8|0|2|4,0:0|0:0|0:0|0:0,0:0:0:0:
143,269,516153,5,8,0:0:0:0:
191,301,516234,1,0,0:0:0:0:
249,291,516316,1,2,0:0:0:0:
285,244,516397,1,0,0:0:0:0:
278,186,516479,1,8,0:0:0:0:
234,147,516560,1,0,0:0:0:0:
176,150,516642,5,2,0:0:0:0:
212,194,516723,1,0,0:0:0:0:
268,187,516805,1,8,0:0:0:0:
291,134,516886,1,0,0:0:0:0:
313,81,516967,1,2,0:0:0:0:
370,73,517049,1,0,0:0:0:0:
406,118,517130,1,8,0:0:0:0:
402,176,517212,1,0,0:0:0:0:
362,219,517294,1,2,0:0:0:0:
304,228,517375,1,0,0:0:0:0:
253,198,517457,6,0,L|204:152,3,40,8|0|2|4,0:0|0:0|0:0|0:0,0:0:0:0:
351,147,517783,2,0,L|380:174,3,40,8|0|2|4,0:0|0:0|0:0|0:0,0:0:0:0:
246,55,518109,2,0,L|228:-5,1,40,8|4,0:0|0:0,0:0:0:0:
376,67,518272,2,0,L|440:68,1,40,2|4,0:0|0:0,0:0:0:0:
207,179,518435,2,0,L|145:179,1,40,8|4,0:0|0:0,0:0:0:0:
338,238,518598,2,0,L|356:298,1,40,2|4,0:0|0:0,0:0:0:0:
211,273,518761,5,8,0:0:0:0:
159,287,518842,1,0,0:0:0:0:
107,273,518924,1,2,0:0:0:0:
70,235,519005,1,0,0:0:0:0:
56,184,519087,1,8,0:0:0:0:
70,132,519168,1,0,0:0:0:0:
108,95,519250,1,2,0:0:0:0:
160,82,519331,1,0,0:0:0:0:
211,96,519413,5,8,0:0:0:0:
208,149,519494,1,0,0:0:0:0:
168,183,519576,1,2,0:0:0:0:
132,222,519657,1,0,0:0:0:0:
126,275,519739,1,8,0:0:0:0:
152,321,519820,1,0,0:0:0:0:
200,344,519902,1,2,0:0:0:0:
252,334,519983,1,0,0:0:0:0:
288,295,520066,5,8,0:0:0:0:
243,267,520147,1,0,0:0:0:0:
190,264,520229,1,2,0:0:0:0:
137,262,520310,1,0,0:0:0:0:
95,230,520392,1,8,0:0:0:0:
81,179,520473,1,0,0:0:0:0:
100,129,520555,1,2,0:0:0:0:
144,100,520636,1,0,0:0:0:0:
197,104,520718,2,0,L|277:118,3,54.0000002059937,8|0|2|4,0:0|0:0|0:0|0:0,0:0:0:0:
160,201,521044,2,0,L|106:210,3,54.0000002059937,8|0|2|4,0:0|0:0|0:0|0:0,0:0:0:0:
263,238,521370,6,0,L|287:311,3,54.0000002059937,8|0|2|4,0:0|0:0|0:0|0:0,0:0:0:0:
173,289,521696,2,0,L|149:362,3,54.0000002059937,8|0|2|4,0:0|0:0|0:0|0:0,0:0:0:0:
97,228,522022,2,0,L|36:248,3,54.0000002059937,8|0|2|4,0:0|0:0|0:0|0:0,0:0:0:0:
115,126,522348,2,0,L|53:102,3,54.0000002059937,8|0|2|4,0:0|0:0|0:0|0:0,0:0:0:0:
210,66,522674,5,8,0:0:0:0:
260,49,522755,1,0,0:0:0:0:
308,70,522837,1,2,0:0:0:0:
332,117,522918,1,0,0:0:0:0:
319,168,523000,1,8,0:0:0:0:
275,198,523081,1,0,0:0:0:0:
223,193,523163,1,2,0:0:0:0:
170,187,523244,1,0,0:0:0:0:
127,217,523326,1,8,0:0:0:0:
113,268,523407,1,0,0:0:0:0:
137,316,523490,1,2,0:0:0:0:
186,336,523571,1,0,0:0:0:0:
236,320,523653,2,0,L|288:285,3,54.0000002059937,8|0|2|4,0:0|0:0|0:0|0:0,0:0:0:0:
355,153,523979,5,8,0:0:0:0:
373,111,524060,1,0,0:0:0:0:
366,66,524142,1,2,0:0:0:0:
336,33,524223,1,0,0:0:0:0:
292,22,524305,1,8,0:0:0:0:
249,37,524386,1,0,0:0:0:0:
221,73,524468,1,2,0:0:0:0:
201,114,524549,1,0,0:0:0:0:
171,149,524631,1,8,0:0:0:0:
134,176,524712,1,0,0:0:0:0:
99,205,524794,1,2,0:0:0:0:
74,244,524875,1,0,0:0:0:0:
59,287,524957,2,0,L|46:345,3,46.0000008773804,8|0|2|4,0:0|0:0|0:0|0:0,0:0:0:0:
158,306,525283,5,8,0:0:0:0:
201,319,525364,1,0,0:0:0:0:
246,314,525446,1,2,0:0:0:0:
286,291,525527,1,0,0:0:0:0:
312,254,525609,1,8,0:0:0:0:
320,209,525690,1,0,0:0:0:0:
310,164,525772,1,2,0:0:0:0:
281,128,525853,1,0,0:0:0:0:
241,107,525935,1,8,0:0:0:0:
207,78,526016,1,0,0:0:0:0:
205,34,526098,1,2,0:0:0:0:
237,2,526179,1,0,0:0:0:0:
281,4,526261,5,8,0:0:0:0:
268,48,526342,1,0,0:0:0:0:
240,84,526424,1,2,0:0:0:0:
200,106,526505,1,0,0:0:0:0:
151,114,526587,2,0,L|93:112,5,46.0000008773804,8|0|2|0|8|4,0:0|0:0|0:0|0:0|0:0|0:0,0:0:0:0:
234,181,527076,2,0,L|279:182,5,46.0000008773804,2|0|8|0|2|4,0:0|0:0|0:0|0:0|0:0|0:0,0:0:0:0:
152,198,527566,5,8,0:0:0:0:
136,240,527647,1,0,0:0:0:0:
138,286,527729,1,2,0:0:0:0:
158,327,527810,1,0,0:0:0:0:
193,357,527892,1,8,0:0:0:0:
237,370,527973,1,0,0:0:0:0:
282,366,528055,1,2,0:0:0:0:
322,344,528136,1,0,0:0:0:0:
350,308,528218,5,8,0:0:0:0:
362,264,528299,1,0,0:0:0:0:
355,218,528381,1,2,0:0:0:0:
368,175,528462,1,0,0:0:0:0:
403,146,528544,1,8,0:0:0:0:
432,111,528625,1,0,0:0:0:0:
431,66,528707,1,2,0:0:0:0:
402,32,528788,1,0,0:0:0:0:
357,25,528870,2,0,L|299:35,3,46.0000008773804,8|0|2|4,0:0|0:0|0:0|0:0,0:0:0:0:
197,84,529196,6,0,L|122:70,5,46.0000008773804,8|0|2|0|8|4,0:0|0:0|0:0|0:0|0:0|0:0,0:0:0:0:
265,137,529685,2,0,L|310:128,5,46.0000008773804,2|0|8|0|2|4,0:0|0:0|0:0|0:0|0:0|0:0,0:0:0:0:
141,177,530174,1,8,0:0:0:0:
131,221,530255,1,0,0:0:0:0:
143,265,530337,1,2,0:0:0:0:
173,299,530418,1,0,0:0:0:0:
216,314,530500,2,0,L|298:312,5,46.0000008773804,8|0|2|0|8|4,0:0|0:0|0:0|0:0|0:0|0:0,0:0:0:0:
349,218,530990,5,2,0:0:0:0:
355,172,531071,1,0,0:0:0:0:
342,129,531153,1,8,0:0:0:0:
311,95,531234,1,0,0:0:0:0:
269,78,531316,2,0,L|210:77,5,46.0000008773804,2|0|8|0|2|4,0:0|0:0|0:0|0:0|0:0|0:0,0:0:0:0:
114,75,531805,5,8,0:0:0:0:
54,99,531886,1,0,0:0:0:0:
25,157,531968,1,2,0:0:0:0:
40,220,532049,1,0,0:0:0:0:
92,257,532131,1,8,0:0:0:0:
156,252,532212,1,0,0:0:0:0:
202,206,532294,1,2,0:0:0:0:
248,161,532375,1,0,0:0:0:0:
312,164,532457,1,8,0:0:0:0:
354,212,532538,1,0,0:0:0:0:
349,276,532620,1,2,0:0:0:0:
367,337,532701,1,0,0:0:0:0:
424,366,532783,1,8,0:0:0:0:
484,344,532864,1,0,0:0:0:0:
509,285,532946,1,2,0:0:0:0:
483,226,533027,1,0,0:0:0:0:
431,187,533109,1,8,0:0:0:0:
366,184,533191,1,0,0:0:0:0:
310,218,533272,2,0,L|248:262,3,66.0000006294251,2|0|8|4,0:0|0:0|0:0|0:0,0:0:0:0:
162,238,533598,5,2,0:0:0:0:
99,218,533679,1,0,0:0:0:0:
61,166,533761,1,8,0:0:0:0:
62,101,533842,1,0,0:0:0:0:
102,50,533924,1,2,0:0:0:0:
165,33,534005,1,0,0:0:0:0:
225,57,534087,5,8,0:0:0:0:
255,57,534168,1,0,0:0:0:0:
285,58,534250,1,2,0:0:0:0:
315,58,534331,1,0,0:0:0:0:
345,58,534413,5,8,0:0:0:0:
407,106,534494,1,0,0:0:0:0:
420,183,534576,1,2,0:0:0:0:
378,248,534657,1,0,0:0:0:0:
302,267,534739,1,8,0:0:0:0:
234,229,534820,1,0,0:0:0:0:
209,155,534903,5,2,0:0:0:0:
181,82,534984,1,0,0:0:0:0:
109,54,535066,1,8,0:0:0:0:
39,89,535147,1,0,0:0:0:0:
19,164,535229,1,2,0:0:0:0:
61,230,535310,1,0,0:0:0:0:
137,239,535392,5,8,0:0:0:0:
187,181,535473,1,0,0:0:0:0:
237,122,535554,1,2,0:0:0:0:
314,123,535636,1,0,0:0:0:0:
363,182,535717,1,8,0:0:0:0:
349,258,535799,1,0,0:0:0:0:
281,296,535881,5,2,0:0:0:0:
207,271,535962,1,0,0:0:0:0:
180,199,536044,1,8,0:0:0:0:
219,132,536125,1,0,0:0:0:0:
296,121,536207,1,2,0:0:0:0:
337,184,536288,1,0,0:0:0:0:
299,250,536370,2,0,L|232:274,3,40,8|0|2|4,0:0|0:0|0:0|0:0,0:0:0:0:
397,286,536696,2,0,L|434:299,3,40,8|0|2|4,0:0|0:0|0:0|0:0,0:0:0:0:
401,186,537022,5,8,0:0:0:0:
401,144,537103,1,0,0:0:0:0:
387,104,537185,1,2,0:0:0:0:
361,72,537266,1,0,0:0:0:0:
325,50,537348,1,8,0:0:0:0:
284,42,537429,1,0,0:0:0:0:
243,48,537511,1,2,0:0:0:0:
206,68,537592,1,0,0:0:0:0:
178,100,537674,2,0,L|148:156,3,41.9999987182618,8|0|2|4,0:0|0:0|0:0|0:0,0:0:0:0:
84,273,538000,6,0,B|173:308|159:209|274:250,1,167.999994873047,8|4,0:0|0:0,0:0:0:0:
278,259,538408,1,0,0:0:0:0:
320,262,538489,1,2,0:0:0:0:
359,250,538570,1,0,0:0:0:0:
392,224,538652,1,8,0:0:0:0:
412,187,538733,1,0,0:0:0:0:
418,146,538815,1,2,0:0:0:0:
407,106,538896,1,0,0:0:0:0:
383,72,538979,2,0,L|346:33,3,41.9999987182618,8|0|2|4,0:0|0:0|0:0|0:0,0:0:0:0:
139,43,539305,6,0,P|94:74|97:185,1,167.999994873047,8|12,0:0|0:0,0:0:0:0:
95,220,539712,1,0,0:0:0:0:
117,255,539794,1,2,0:0:0:0:
153,276,539875,1,0,0:0:0:0:
195,278,539957,1,8,0:0:0:0:
233,261,540038,1,0,0:0:0:0:
258,228,540120,1,2,0:0:0:0:
266,188,540201,1,0,0:0:0:0:
273,147,540282,5,8,0:0:0:0:
299,114,540364,1,0,0:0:0:0:
337,97,540445,1,2,0:0:0:0:
378,99,540527,1,0,0:0:0:0:
414,120,540608,1,8,0:0:0:0:
436,155,540690,1,0,0:0:0:0:
440,197,540772,1,2,0:0:0:0:
427,236,540853,1,0,0:0:0:0:
397,265,540935,5,8,0:0:0:0:
357,275,541016,1,0,0:0:0:0:
316,265,541098,1,2,0:0:0:0:
286,237,541179,1,0,0:0:0:0:
273,197,541261,2,0,L|265:136,3,41.9999987182618,8|0|2|4,0:0|0:0|0:0|0:0,0:0:0:0:
158,286,541587,2,0,L|149:347,3,41.9999987182618,8|0|2|4,0:0|0:0|0:0|0:0,0:0:0:0:
92,142,541913,2,0,L|83:80,3,41.9999987182618,8|0|2|4,0:0|0:0|0:0|0:0,0:0:0:0:
175,50,542240,5,8,0:0:0:0:
214,20,542321,1,0,0:0:0:0:
263,16,542403,1,2,0:0:0:0:
307,39,542484,1,0,0:0:0:0:
333,81,542566,1,8,0:0:0:0:
332,130,542647,1,0,0:0:0:0:
305,172,542729,5,2,0:0:0:0:
278,213,542810,1,0,0:0:0:0:
277,262,542892,1,8,0:0:0:0:
303,305,542973,1,0,0:0:0:0:
347,327,543055,1,2,0:0:0:0:
396,323,543136,1,0,0:0:0:0:
435,294,543218,2,0,L|472:247,3,50,8|0|2|4,0:0|0:0|0:0|0:0,0:0:0:0:
412,167,543544,5,8,0:0:0:0:
370,139,543625,1,0,0:0:0:0:
321,134,543707,1,2,0:0:0:0:
275,152,543788,1,0,0:0:0:0:
243,190,543870,1,8,0:0:0:0:
233,239,543951,1,0,0:0:0:0:
217,285,544032,5,2,0:0:0:0:
178,316,544114,1,0,0:0:0:0:
129,320,544195,1,8,0:0:0:0:
85,298,544277,1,0,0:0:0:0:
60,255,544359,1,2,0:0:0:0:
63,206,544440,1,0,0:0:0:0:
88,164,544522,2,0,L|124:110,3,50,8|0|2|4,0:0|0:0|0:0|0:0,0:0:0:0:
215,86,544848,5,8,0:0:0:0:
262,70,544929,1,0,0:0:0:0:
310,79,545011,1,2,0:0:0:0:
348,111,545092,1,0,0:0:0:0:
367,157,545174,1,8,0:0:0:0:
361,206,545255,1,0,0:0:0:0:
332,246,545337,1,2,0:0:0:0:
287,267,545418,1,0,0:0:0:0:
238,265,545500,5,8,0:0:0:0:
196,238,545582,1,0,0:0:0:0:
156,209,545663,1,2,0:0:0:0:
107,210,545745,1,0,0:0:0:0:
69,241,545826,1,8,0:0:0:0:
58,288,545908,1,0,0:0:0:0:
78,333,545989,1,2,0:0:0:0:
121,357,546071,1,0,0:0:0:0:
170,356,546152,5,8,0:0:0:0:
206,323,546234,1,0,0:0:0:0:
211,275,546315,1,2,0:0:0:0:
183,235,546397,1,0,0:0:0:0:
135,224,546478,1,8,0:0:0:0:
89,208,546560,1,0,0:0:0:0:
68,164,546642,1,2,0:0:0:0:
85,119,546723,1,0,0:0:0:0:
129,99,546805,2,0,L|186:92,3,50,8|0|2|4,0:0|0:0|0:0|0:0,0:0:0:0:
235,34,547131,2,0,L|284:27,3,50,8|0|2|4,0:0|0:0|0:0|0:0,0:0:0:0:
368,75,547457,5,8,0:0:0:0:
409,102,547538,1,0,0:0:0:0:
437,143,547620,1,2,0:0:0:0:
448,192,547701,1,0,0:0:0:0:
440,241,547783,1,8,0:0:0:0:
414,284,547864,1,0,0:0:0:0:
375,314,547946,1,2,0:0:0:0:
327,328,548027,1,0,0:0:0:0:
278,323,548109,1,8,0:0:0:0:
234,300,548190,1,0,0:0:0:0:
201,262,548272,1,2,0:0:0:0:
185,215,548353,1,0,0:0:0:0:
187,165,548435,2,0,L|193:100,3,50,8|0|2|4,0:0|0:0|0:0|0:0,0:0:0:0:
285,81,548761,5,8,0:0:0:0:
318,80,548842,1,0,0:0:0:0:
351,90,548924,1,2,0:0:0:0:
378,109,549005,1,0,0:0:0:0:
399,137,549087,2,0,L|407:183,3,34.0000006484985,8|0|2|4,0:0|0:0|0:0|0:0,0:0:0:0:
294,230,549413,5,8,0:0:0:0:
273,203,549494,1,0,0:0:0:0:
245,183,549576,1,2,0:0:0:0:
213,172,549657,1,0,0:0:0:0:
179,172,549740,2,0,L|115:177,3,34.0000006484985,8|0|2|4,0:0|0:0|0:0|0:0,0:0:0:0:
103,286,550066,6,0,L|84:336,3,34.0000006484985,8|0|2|4,0:0|0:0|0:0|0:0,0:0:0:0:
183,314,550392,2,0,L|202:364,3,34.0000006484985,8|0|2|4,0:0|0:0|0:0|0:0,0:0:0:0:
255,245,550718,2,0,L|267:213,3,34.0000006484985,8|0|2|4,0:0|0:0|0:0|0:0,0:0:0:0:
356,205,551044,2,0,L|343:173,3,34.0000006484985,8|0|2|4,0:0|0:0|0:0|0:0,0:0:0:0:
350,86,551370,5,8,0:0:0:0:
330,58,551451,1,0,0:0:0:0:
300,43,551533,1,2,0:0:0:0:
267,43,551614,1,0,0:0:0:0:
237,60,551696,1,8,0:0:0:0:
220,88,551777,1,0,0:0:0:0:
217,122,551859,5,2,0:0:0:0:
214,155,551940,1,0,0:0:0:0:
196,184,552022,1,8,0:0:0:0:
167,200,552103,1,0,0:0:0:0:
133,201,552185,1,2,0:0:0:0:
103,186,552266,1,0,0:0:0:0:
84,158,552348,2,0,L|66:102,3,34.0000006484985,8|0|2|4,0:0|0:0|0:0|0:0,0:0:0:0:
173,96,552674,5,8,0:0:0:0:
210,67,552755,1,0,0:0:0:0:
258,65,552837,1,2,0:0:0:0:
297,91,552918,1,0,0:0:0:0:
316,134,553000,1,8,0:0:0:0:
306,180,553081,1,0,0:0:0:0:
272,213,553163,5,2,0:0:0:0:
240,183,553244,1,0,0:0:0:0:
235,136,553326,1,8,0:0:0:0:
258,95,553407,1,0,0:0:0:0:
300,74,553489,1,2,0:0:0:0:
347,81,553570,1,0,0:0:0:0:
381,114,553653,5,8,0:0:0:0:
350,150,553734,1,0,0:0:0:0:
305,163,553816,1,2,0:0:0:0:
260,148,553897,1,0,0:0:0:0:
231,111,553979,5,8,0:0:0:0:
269,84,554060,1,0,0:0:0:0:
317,82,554142,1,2,0:0:0:0:
357,107,554223,1,0,0:0:0:0:
378,149,554305,1,8,0:0:0:0:
371,196,554386,1,0,0:0:0:0:
340,232,554468,5,2,0:0:0:0:
298,211,554549,1,0,0:0:0:0:
274,170,554631,1,8,0:0:0:0:
275,123,554712,1,0,0:0:0:0:
301,83,554794,1,2,0:0:0:0:
344,63,554875,1,0,0:0:0:0:
391,70,554957,2,0,L|449:77,3,47.9999985351563,8|0|2|4,0:0|0:0|0:0|0:0,0:0:0:0:
423,175,555283,5,8,0:0:0:0:
403,238,555364,1,0,0:0:0:0:
346,271,555446,1,2,0:0:0:0:
281,256,555527,1,0,0:0:0:0:
244,201,555609,1,8,0:0:0:0:
255,136,555690,1,0,0:0:0:0:
307,95,555772,5,2,0:0:0:0:
307,162,555853,1,0,0:0:0:0:
263,212,555935,1,8,0:0:0:0:
197,220,556016,1,0,0:0:0:0:
142,183,556098,1,2,0:0:0:0:
126,118,556179,1,0,0:0:0:0:
156,59,556261,5,8,0:0:0:0:
194,114,556342,1,0,0:0:0:0:
197,181,556424,1,2,0:0:0:0:
162,238,556505,1,0,0:0:0:0:
102,268,556587,2,0,L|33:295,1,47.9999985351563,8|4,0:0|0:0,0:0:0:0:
216,307,556750,2,0,L|283:337,1,47.9999985351563,2|0,0:0|0:0,0:0:0:0:
103,159,556913,2,0,L|45:134,1,47.9999985351563,8|4,0:0|0:0,0:0:0:0:
255,214,557076,2,0,L|322:209,1,47.9999985351563,2|0,0:0|0:0,0:0:0:0:
184,97,557240,6,0,L|161:37,1,47.9999985351563,8|4,0:0|0:0,0:0:0:0:
198,262,557403,2,0,L|182:319,1,47.9999985351563,2|0,0:0|0:0,0:0:0:0:
278,97,557566,2,0,L|301:40,1,47.9999985351563,8|4,0:0|0:0,0:0:0:0:
345,240,557729,2,0,L|387:315,1,47.9999985351563,2|0,0:0|0:0,0:0:0:0:
214,319,557892,5,8,0:0:0:0:
168,333,557973,1,0,0:0:0:0:
122,322,558055,1,2,0:0:0:0:
89,289,558136,1,0,0:0:0:0:
78,243,558218,1,8,0:0:0:0:
93,198,558299,1,0,0:0:0:0:
129,167,558381,1,2,0:0:0:0:
176,160,558462,1,0,0:0:0:0:
220,179,558544,1,8,0:0:0:0:
263,197,558625,1,0,0:0:0:0:
310,190,558707,1,2,0:0:0:0:
346,160,558788,1,0,0:0:0:0:
361,115,558870,2,0,L|370:53,3,47.9999985351563,8|0|2|4,0:0|0:0|0:0|0:0,0:0:0:0:
205,62,559196,5,8,0:0:0:0:
157,57,559277,1,0,0:0:0:0:
112,72,559359,1,2,0:0:0:0:
75,102,559440,1,0,0:0:0:0:
53,145,559522,1,8,0:0:0:0:
50,192,559603,1,0,0:0:0:0:
65,238,559685,1,2,0:0:0:0:
96,274,559766,1,0,0:0:0:0:
139,295,559848,1,8,0:0:0:0:
186,298,559929,1,0,0:0:0:0:
231,282,560011,1,2,0:0:0:0:
267,250,560092,1,0,0:0:0:0:
288,207,560174,2,0,L|310:153,3,47.9999985351563,8|0|2|4,0:0|0:0|0:0|0:0,0:0:0:0:
224,140,560500,5,8,0:0:0:0:
233,93,560581,1,0,0:0:0:0:
263,56,560663,1,2,0:0:0:0:
308,39,560744,1,0,0:0:0:0:
355,46,560826,1,8,0:0:0:0:
393,74,560907,1,0,0:0:0:0:
412,117,560989,1,2,0:0:0:0:
409,165,561070,1,0,0:0:0:0:
383,204,561152,5,8,0:0:0:0:
334,224,561234,1,0,0:0:0:0:
290,206,561316,1,2,0:0:0:0:
267,165,561397,1,0,0:0:0:0:
275,119,561479,1,8,0:0:0:0:
283,72,561560,1,0,0:0:0:0:
260,31,561642,1,2,0:0:0:0:
216,14,561723,1,0,0:0:0:0:
171,28,561805,1,8,0:0:0:0:
150,70,561886,1,0,0:0:0:0:
158,117,561968,1,2,0:0:0:0:
191,151,562049,1,0,0:0:0:0:
237,160,562131,2,0,L|301:163,3,47.9999985351563,8|0|2|4,0:0|0:0|0:0|0:0,0:0:0:0:
146,218,562457,2,0,L|98:216,3,47.9999985351563,8|0|2|4,0:0|0:0|0:0|0:0,0:0:0:0:
228,277,562783,2,0,L|275:278,3,47.9999985351563,8|0|2|4,0:0|0:0|0:0|0:0,0:0:0:0:
126,246,563109,5,8,0:0:0:0:
96,199,563190,1,0,0:0:0:0:
103,145,563272,1,2,0:0:0:0:
142,107,563353,1,0,0:0:0:0:
197,103,563435,1,8,0:0:0:0:
242,135,563516,1,0,0:0:0:0:
256,188,563598,1,2,0:0:0:0:
270,241,563679,1,0,0:0:0:0:
314,273,563761,1,8,0:0:0:0:
369,269,563842,1,0,0:0:0:0:
409,231,563924,1,2,0:0:0:0:
415,176,564005,1,0,0:0:0:0:
386,130,564087,2,0,L|342:78,3,55.9999982910157,8|0|2|4,0:0|0:0|0:0|0:0,0:0:0:0:
211,86,564413,5,8,0:0:0:0:
181,133,564494,1,0,0:0:0:0:
170,188,564576,1,2,0:0:0:0:
178,243,564657,1,0,0:0:0:0:
205,292,564739,1,8,0:0:0:0:
246,329,564820,1,0,0:0:0:0:
298,350,564902,1,2,0:0:0:0:
353,352,564983,1,0,0:0:0:0:
407,335,565065,1,8,0:0:0:0:
451,301,565146,1,0,0:0:0:0:
481,254,565228,1,2,0:0:0:0:
493,200,565309,1,0,0:0:0:0:
486,144,565392,2,0,L|457:80,3,55.9999982910157,8|0|2|4,0:0|0:0|0:0|0:0,0:0:0:0:
359,66,565718,5,8,0:0:0:0:
304,64,565799,1,0,0:0:0:0:
265,102,565881,1,2,0:0:0:0:
267,156,565962,1,0,0:0:0:0:
308,192,566044,1,8,0:0:0:0:
362,187,566125,1,0,0:0:0:0:
416,181,566206,1,2,0:0:0:0:
457,217,566288,1,0,0:0:0:0:
458,272,566369,5,8,0:0:0:0:
420,310,566451,1,0,0:0:0:0:
365,308,566532,1,2,0:0:0:0:
326,270,566614,1,0,0:0:0:0:
324,216,566696,1,8,0:0:0:0:
337,162,566777,1,0,0:0:0:0:
325,108,566859,1,2,0:0:0:0:
290,65,566940,1,0,0:0:0:0:
239,42,567022,5,8,0:0:0:0:
184,45,567103,1,0,0:0:0:0:
135,72,567185,1,2,0:0:0:0:
104,118,567266,1,0,0:0:0:0:
98,174,567348,1,8,0:0:0:0:
125,222,567429,1,0,0:0:0:0:
174,246,567511,1,2,0:0:0:0:
229,239,567592,1,0,0:0:0:0:
270,203,567674,2,0,L|321:150,3,55.9999982910157,8|0|2|4,0:0|0:0|0:0|0:0,0:0:0:0:
351,245,568000,2,0,L|389:285,3,55.9999982910157,8|0|2|4,0:0|0:0|0:0|0:0,0:0:0:0:
407,167,568326,5,8,0:0:0:0:
397,122,568407,1,0,0:0:0:0:
368,87,568489,1,2,0:0:0:0:
326,68,568570,1,0,0:0:0:0:
281,70,568652,1,8,0:0:0:0:
241,92,568733,1,0,0:0:0:0:
215,129,568815,1,2,0:0:0:0:
209,174,568896,1,0,0:0:0:0:
224,217,568979,5,8,0:0:0:0:
238,260,569060,1,0,0:0:0:0:
232,305,569142,1,2,0:0:0:0:
206,342,569223,1,0,0:0:0:0:
166,364,569305,1,8,0:0:0:0:
121,366,569386,1,0,0:0:0:0:
79,347,569468,1,2,0:0:0:0:
50,312,569549,1,0,0:0:0:0:
41,267,569631,2,0,L|35:198,3,46.0000008773804,8|0|2|4,0:0|0:0|0:0|0:0,0:0:0:0:
121,208,569957,2,0,L|134:134,3,46.0000008773804,8|0|2|4,0:0|0:0|0:0|0:0,0:0:0:0:
206,242,570283,2,0,L|259:190,3,46.0000008773804,8|0|2|4,0:0|0:0|0:0|0:0,0:0:0:0:
276,305,570609,2,0,L|353:276,3,46.0000008773804,8|0|2|4,0:0|0:0|0:0|0:0,0:0:0:0:
171,264,570935,5,8,0:0:0:0:
171,264,571017,1,0,0:0:0:0:
171,264,571098,2,0,L|119:219,1,46.0000008773804,2|4,0:0|0:0,0:0:0:0:
267,207,571261,1,8,0:0:0:0:
267,207,571343,1,0,0:0:0:0:
267,207,571424,2,0,L|319:162,1,46.0000008773804,2|4,0:0|0:0,0:0:0:0:
193,114,571587,1,8,0:0:0:0:
193,114,571669,1,0,0:0:0:0:
193,114,571750,2,0,L|141:69,1,46.0000008773804,2|4,0:0|0:0,0:0:0:0:
297,91,571913,1,8,0:0:0:0:
297,91,571995,1,0,0:0:0:0:
297,91,572076,2,0,L|349:46,1,46.0000008773804,2|4,0:0|0:0,0:0:0:0:
424,158,572240,5,8,0:0:0:0:
444,222,572321,1,0,0:0:0:0:
430,288,572403,1,2,0:0:0:0:
387,339,572484,1,0,0:0:0:0:
324,362,572566,1,8,0:0:0:0:
257,352,572647,1,0,0:0:0:0:
204,311,572729,1,2,0:0:0:0:
177,249,572810,1,0,0:0:0:0:
184,182,572892,1,8,0:0:0:0:
200,117,572973,1,0,0:0:0:0:
180,53,573055,1,2,0:0:0:0:
129,10,573136,1,0,0:0:0:0:
63,4,573218,2,0,L|0:12,3,47.9999985351563,8|0|2|4,0:0|0:0|0:0|0:0,0:0:0:0:
67,122,573544,5,8,0:0:0:0:
63,169,573625,1,0,0:0:0:0:
77,215,573707,1,2,0:0:0:0:
106,252,573788,1,0,0:0:0:0:
147,277,573870,1,8,0:0:0:0:
194,284,573951,1,0,0:0:0:0:
241,275,574033,5,2,0:0:0:0:
232,228,574114,1,0,0:0:0:0:
212,184,574196,1,8,0:0:0:0:
182,146,574277,1,0,0:0:0:0:
145,116,574359,1,2,0:0:0:0:
101,96,574440,1,0,0:0:0:0:
55,86,574522,2,0,L|-16:89,3,47.9999985351563,8|0|2|4,0:0|0:0|0:0|0:0,0:0:0:0:
202,94,574848,5,8,0:0:0:0:
247,82,574929,1,0,0:0:0:0:
289,104,575011,1,2,0:0:0:0:
306,147,575092,1,0,0:0:0:0:
290,191,575174,1,8,0:0:0:0:
249,214,575255,1,0,0:0:0:0:
203,204,575337,5,2,0:0:0:0:
237,171,575418,1,0,0:0:0:0:
284,168,575500,1,8,0:0:0:0:
322,196,575581,1,0,0:0:0:0:
333,241,575663,1,2,0:0:0:0:
312,283,575744,1,0,0:0:0:0:
268,302,575826,2,0,L|177:317,3,47.9999985351563,8|0|2|4,0:0|0:0|0:0|0:0,0:0:0:0:
126,260,576153,5,8,0:0:0:0:
68,246,576234,1,0,0:0:0:0:
27,204,576316,1,2,0:0:0:0:
15,146,576397,1,0,0:0:0:0:
36,90,576479,1,8,0:0:0:0:
84,55,576560,1,0,0:0:0:0:
143,52,576642,1,2,0:0:0:0:
195,80,576723,1,0,0:0:0:0:
223,133,576805,1,8,0:0:0:0:
251,185,576886,1,0,0:0:0:0:
302,213,576968,1,2,0:0:0:0:
361,210,577049,1,0,0:0:0:0:
409,175,577131,2,0,L|457:115,3,60.0000022888184,8|0|2|4,0:0|0:0|0:0|0:0,0:0:0:0:
339,263,577457,5,8,0:0:0:0:
290,303,577538,1,0,0:0:0:0:
227,310,577620,1,2,0:0:0:0:
171,282,577701,1,0,0:0:0:0:
138,228,577783,1,8,0:0:0:0:
141,165,577864,1,0,0:0:0:0:
177,113,577946,1,2,0:0:0:0:
236,90,578027,1,0,0:0:0:0:
298,101,578109,5,8,0:0:0:0:
347,141,578191,1,0,0:0:0:0:
372,200,578272,1,2,0:0:0:0:
365,263,578354,1,0,0:0:0:0:
330,315,578435,1,8,0:0:0:0:
274,344,578517,1,0,0:0:0:0:
211,343,578598,1,2,0:0:0:0:
155,312,578680,1,0,0:0:0:0:
121,259,578761,5,8,0:0:0:0:
105,222,578842,1,0,0:0:0:0:
108,183,578924,1,2,0:0:0:0:
130,150,579005,1,0,0:0:0:0:
164,131,579087,1,8,0:0:0:0:
204,131,579168,1,0,0:0:0:0:
239,150,579250,1,2,0:0:0:0:
260,183,579331,1,0,0:0:0:0:
264,222,579413,1,8,0:0:0:0:
249,258,579494,1,0,0:0:0:0:
218,283,579576,1,2,0:0:0:0:
179,290,579657,1,0,0:0:0:0:
142,278,579739,1,8,0:0:0:0:
115,249,579820,1,0,0:0:0:0:
106,210,579903,2,0,L|98:133,1,40,2|4,0:0|0:0,0:0:0:0:
198,106,580066,5,8,0:0:0:0:
262,62,580147,1,0,0:0:0:0:
337,79,580229,1,2,0:0:0:0:
375,147,580310,1,0,0:0:0:0:
351,221,580392,1,8,0:0:0:0:
280,253,580473,1,0,0:0:0:0:
209,222,580555,1,2,0:0:0:0:
135,208,580636,1,0,0:0:0:0:
97,274,580718,1,8,0:0:0:0:
146,330,580799,1,0,0:0:0:0:
224,331,580880,1,2,0:0:0:0:
288,285,580962,1,0,0:0:0:0:
310,209,581043,1,8,0:0:0:0:
282,136,581125,1,0,0:0:0:0:
215,95,581206,1,2,0:0:0:0:
137,102,581288,1,0,0:0:0:0:
79,164,581370,6,0,B|110:185|137:217|149:250|149:250|172:291|205:317|271:316|313:267|303:192|303:192|385:205|431:165|439:122|434:56|354:34,1,600,8|4,0:0|0:0,0:0:0:0:
342,113,582674,2,0,P|284:108|226:225,1,200,2|4,0:0|0:0,0:0:0:0:
311,191,583163,2,0,P|286:282|192:296,1,200,2|4,0:0|0:0,0:0:0:0:
83,212,583653,2,0,L|114:104,1,100,2|4,0:0|0:0,0:0:0:0:
196,90,583979,6,0,P|124:28|36:63,1,200,2|4,0:0|0:0,0:0:0:0:
117,114,584468,2,0,P|142:154|278:86,1,200,2|4,0:0|0:0,0:0:0:0:
346,63,584957,2,0,L|412:141,1,100,2|4,0:0|0:0,0:0:0:0:
444,273,585283,6,0,B|354:285|303:262|283:216|282:165|282:165|86:163|218:267|38:264,1,500,8|0,0:0|0:0,0:0:0:0:
191,94,586261,1,2,0:0:0:0:
79,174,586424,1,2,0:0:0:0:
226,71,586587,6,0,P|297:61|428:89,1,200,2|4,0:0|0:0,0:0:0:0:
414,248,587076,2,0,P|340:262|206:233,1,200,2|4,0:0|0:0,0:0:0:0:
136,126,587566,2,0,L|68:232,1,100,2|4,0:0|0:0,0:0:0:0:
213,284,587892,6,0,L|337:310,1,100,2|4,0:0|0:0,0:0:0:0:
413,336,588218,1,0,0:0:0:0:
420,217,588381,1,2,0:0:0:0:
420,217,588462,1,0,0:0:0:0:
420,217,588544,2,0,P|408:154|357:100,1,100,8|4,0:0|0:0,0:0:0:0:
263,75,588870,2,0,L|147:91,1,100,2|4,0:0|0:0,0:0:0:0:
126,184,589196,6,0,P|83:209|159:329,1,200,2|4,0:0|0:0,0:0:0:0:
159,259,589685,2,0,P|213:184|153:114,1,200,2|4,0:0|0:0,0:0:0:0:
79,71,590174,2,0,P|139:33|195:29,1,100,2|4,0:0|0:0,0:0:0:0:
357,42,590500,6,0,B|373:189|257:173|263:332,1,300,2|4,0:0|0:0,0:0:0:0:
132,251,591153,2,0,P|56:202|50:126,2,133.333333333333,2|2|2,0:0|0:0|0:0,0:0:0:0:
169,108,591805,6,0,P|273:77|174:271,1,500,8|4,0:0|0:0,0:0:0:0:
81,207,592783,2,0,L|87:89,1,100,2|4,0:0|0:0,0:0:0:0:
224,72,593109,6,0,P|317:60|291:213,1,300,2|4,0:0|0:0,0:0:0:0:
277,133,593761,2,0,P|220:250|348:273,1,300,2|4,0:0|0:0,0:0:0:0:
295,211,594413,2,0,L|471:116,1,200,2|4,0:0|0:0,0:0:0:0:
339,80,594903,2,0,L|163:175,1,200,2|4,0:0|0:0,0:0:0:0:
120,297,595392,2,0,P|80:242|50:174,1,100,2|4,0:0|0:0,0:0:0:0:
101,98,595718,6,0,B|158:71|214:74|258:103|258:103|248:161|255:216|317:241|362:252|406:235|439:192|449:124,1,500,8|4,0:0|0:0,0:0:0:0:
166,161,596696,1,2,0:0:0:0:
349,144,596859,1,2,0:0:0:0:
126,60,597022,6,0,P|62:122|85:251,1,200,2|4,0:0|0:0,0:0:0:0:
142,159,597511,2,0,P|160:235|274:262,1,200,2|4,0:0|0:0,0:0:0:0:
389,190,598000,2,0,L|375:87,1,100,2|4,0:0|0:0,0:0:0:0:
262,68,598326,1,2,0:0:0:0:
262,68,598408,1,0,0:0:0:0:
262,68,598490,1,2,0:0:0:0:
344,179,598653,2,0,P|290:263|171:285,2,200,2|2|6,0:0|0:0|0:0,0:0:0:0:
265,94,599631,6,0,P|360:91|425:281,2,300,2|2|6,0:0|0:0|0:0,0:0:0:0:
78,209,600935,6,0,P|106:310|294:278,1,300,2|4,0:0|0:0,0:0:0:0:
194,87,601587,1,2,0:0:0:0:
396,223,601805,1,2,0:0:0:0:
109,147,601995,1,2,0:0:0:0:
314,77,602240,6,0,P|368:131|377:197,1,100,8|4,0:0|0:0,0:0:0:0:
215,140,602566,1,8,0:0:0:0:
278,241,602729,1,0,0:0:0:0:
164,46,602892,2,0,P|93:66|103:276,1,300,8|4,0:0|0:0,0:0:0:0:
406,312,603544,5,8,0:0:0:0:
336,141,603707,1,0,0:0:0:0:
299,309,603870,1,8,0:0:0:0:
227,137,604033,1,0,0:0:0:0:
133,277,604196,2,0,P|69:302|89:147,1,300,8|0,0:0|0:0,0:0:0:0:
294,73,604848,6,0,P|351:58|428:80,1,100,8|4,0:0|0:0,0:0:0:0:
357,221,605174,1,8,0:0:0:0:
158,118,605337,1,0,0:0:0:0:
83,272,605500,2,0,P|118:315|324:232,1,300,8|4,0:0|0:0,0:0:0:0:
187,72,606153,5,8,0:0:0:0:
391,97,606316,1,0,0:0:0:0:
156,156,606479,1,8,0:0:0:0:
349,175,606642,1,0,0:0:0:0:
181,226,606805,2,0,P|119:225|180:85,1,300,8|4,0:0|0:0,0:0:0:0:
402,81,607457,6,0,L|420:215,1,100,8|4,0:0|0:0,0:0:0:0:
258,114,607783,1,8,0:0:0:0:
331,270,607946,1,0,0:0:0:0:
380,83,608109,2,0,P|334:49|120:106,1,300,8|4,0:0|0:0,0:0:0:0:
317,297,608761,5,8,0:0:0:0:
269,174,608924,1,0,0:0:0:0:
405,226,609087,1,8,0:0:0:0:
184,272,609250,1,0,0:0:0:0:
372,123,609413,2,0,P|239:72|143:176,1,300,8|4,0:0|0:0,0:0:0:0:
318,320,610066,6,0,P|367:314|408:286,1,100,8|4,0:0|0:0,0:0:0:0:
344,129,610392,1,8,0:0:0:0:
203,290,610555,1,0,0:0:0:0:
235,131,610718,2,0,P|265:71|449:127,1,300,8|4,0:0|0:0,0:0:0:0:
298,272,611370,5,8,0:0:0:0:
143,97,611533,1,0,0:0:0:0:
379,159,611696,1,8,0:0:0:0:
157,240,611859,1,0,0:0:0:0:
410,152,612022,2,0,P|368:80|170:72,1,300,8|4,0:0|0:0,0:0:0:0:
114,294,612674,6,0,L|251:315,1,100,8|4,0:0|0:0,0:0:0:0:
297,151,613000,1,8,0:0:0:0:
323,311,613163,1,0,0:0:0:0:
129,147,613326,2,0,P|86:94|214:103,1,300,8|4,0:0|0:0,0:0:0:0:
437,240,613979,5,8,0:0:0:0:
361,124,614142,1,0,0:0:0:0:
365,298,614305,1,8,0:0:0:0:
448,99,614468,1,0,0:0:0:0:
297,268,614631,2,0,P|212:273|120:89,1,300,8|4,0:0|0:0,0:0:0:0:
328,74,615283,6,0,L|422:155,1,100,8|4,0:0|0:0,0:0:0:0:
219,213,615609,1,8,0:0:0:0:
413,300,615772,1,0,0:0:0:0:
400,154,615935,2,0,P|384:88|181:101,1,300,8|4,0:0|0:0,0:0:0:0:
244,285,616587,5,8,0:0:0:0:
174,150,616750,1,0,0:0:0:0:
64,279,616913,1,8,0:0:0:0:
52,102,617076,1,0,0:0:0:0:
185,275,617240,2,0,P|248:306|337:129,1,300,8|4,0:0|0:0,0:0:0:0:
234,75,617892,6,0,P|173:53|101:56,1,100,8|4,0:0|0:0,0:0:0:0:
21,81,618218,1,8,0:0:0:0:
187,146,618381,1,0,0:0:0:0:
60,242,618544,2,0,P|89:298|298:259,1,300,8|0,0:0|0:0,0:0:0:0:
339,58,619196,5,8,0:0:0:0:
204,154,619359,1,0,0:0:0:0:
323,166,619522,1,8,0:0:0:0:
143,55,619685,1,0,0:0:0:0:
161,235,619848,6,0,P|202:284|397:202,1,300,8|4,0:0|0:0,0:0:0:0:
250,40,620500,6,0,L|136:41,1,100,8|4,0:0|0:0,0:0:0:0:
115,239,620826,1,8,0:0:0:0:
247,145,620990,1,0,0:0:0:0:
281,309,621153,2,0,P|374:326|444:149,1,300,8|4,0:0|0:0,0:0:0:0:
172,105,621805,5,8,0:0:0:0:
326,189,621968,1,0,0:0:0:0:
105,193,622131,1,8,0:0:0:0:
163,344,622294,1,0,0:0:0:0:
334,270,622457,2,0,P|413:229|283:122,1,300,8|4,0:0|0:0,0:0:0:0:
99,87,623083,6,0,P|69:150|76:196,1,80,8|4,0:0|0:0,0:0:0:0:
234,222,623432,1,8,0:0:0:0:
184,122,623597,1,0,0:0:0:0:
129,245,623762,2,0,P|139:289|301:275,1,240,4|4,0:0|0:0,0:0:0:0:
384,156,624421,2,0,L|367:56,1,80,8|4,0:0|0:0,0:0:0:0:
180,57,624751,1,8,0:0:0:0:
274,137,624916,1,0,0:0:0:0:
146,261,625081,2,0,P|191:295|385:295,1,240,8|4,0:0|0:0,0:0:0:0:
374,72,625875,6,0,L|293:42,1,60.0000022888184,8|4,0:0|0:0,0:0:0:0:
295,173,626259,1,0,0:0:0:0:
225,81,626451,1,0,0:0:0:0:
120,127,626644,2,0,L|137:198,1,60.0000022888184,8|0,0:0|0:0,0:0:0:0:
251,189,627028,1,0,0:0:0:0:
195,284,627221,1,0,0:0:0:0:
354,261,627413,6,0,L|397:194,1,60.0000022888184,8|0,0:0|0:0,0:0:0:0:
340,108,627798,1,0,0:0:0:0:
206,93,628182,2,0,L|119:153,2,80.0000030517579,8|0|4,0:0|0:0|0:0,0:0:0:0:
310,94,629117,5,14,0:0:0:0:
256,192,629225,12,0,644769,0:0:0:0:
