osu file format v14

[General]
AudioFilename: audio.mp3
AudioLeadIn: 0
PreviewTime: 328663
Countdown: 0
SampleSet: Normal
StackLeniency: 0.7
Mode: 2
LetterboxInBreaks: 0
WidescreenStoryboard: 0

[Editor]
Bookmarks: 146141,209411
DistanceSpacing: 1.9
BeatDivisor: 4
GridSize: 32
TimelineZoom: 2.5

[Metadata]
Title:RAISE MY SWORD
TitleUnicode:RAISE MY SWORD
Artist:GALNERYUS
ArtistUnicode:GALNERYUS
Creator:Ascendance
Version:FINAL DESTINATION
Source:
Tags:Under The Force Of Courage SYU SHO TAKA FUMIYA YUHKI VAP J-METAL Jun-ichi Junichi Jun'ichi Satoh 佐藤潤一 小野正利 久武頼正 deathstreams hoshinomori
BeatmapID:1887260
BeatmapSetID:904065

[Difficulty]
HPDrainRate:6
CircleSize:4.2
OverallDifficulty:9.6
ApproachRate:9.6
SliderMultiplier:2.1
SliderTickRate:2

[Events]
//Background and Video events
0,0,"animeee.jpg",0,0
//Break Periods
2,42651,44535
2,118314,120186
2,293086,294961
2,303509,309798
//Storyboard Layer 0 (Background)
//Storyboard Layer 1 (Fail)
//Storyboard Layer 2 (Pass)
//Storyboard Layer 3 (Foreground)
//Storyboard Sound Samples

[TimingPoints]
713,324.324324324324,4,1,22,72,1,0
713,-100,4,1,22,72,0,0
2010,326.086956521739,4,1,22,72,1,0
5270,-100,4,1,22,72,0,0
7227,324.324324324324,4,1,22,72,1,0
8524,327.868852459016,4,1,22,72,1,0
8524,-100,4,1,22,72,0,0
9835,325.909831613254,4,1,22,72,1,0
9835,-100,4,1,22,72,0,0
16353,326.619488296135,4,1,22,72,1,0
16353,-100,4,1,22,72,0,0
18965,326.086956521739,4,1,22,72,1,0
19943,-100,4,1,22,72,0,0
20269,331.491712707182,4,1,22,72,1,0
20269,-100,4,1,22,72,0,0
21263,306.122448979592,4,1,22,72,1,0
21263,-100,4,1,22,72,0,0
21569,326.26427406199,4,1,22,72,1,0
21569,-100,4,1,22,62,0,0
26802,325.20325203252,4,1,22,62,1,0
26802,-100,4,1,22,62,0,0
29647,-100,4,1,22,25,0,0
29728,-100,4,1,22,62,0,0
30700,326.086956521739,4,1,22,62,1,0
30700,-100,4,1,22,62,0,0
31352,333.333333333333,4,1,22,62,1,0
32018,326.086956521739,4,1,22,62,1,0
32018,-100,4,1,22,62,0,0
33312,326.086956521739,4,1,22,62,1,0
33312,-100,4,1,22,62,0,0
35937,324.324324324324,4,1,22,62,1,0
35937,-100,4,1,22,62,0,0
38855,326.086956521739,4,1,22,62,1,0
38855,-100,4,1,22,62,0,0
39843,326.086956521739,4,1,22,62,1,0
39843,-100,4,1,22,62,0,0
45060,-100,4,1,22,62,0,0
48973,312.5,4,1,22,62,1,0
49285,363.636363636364,4,1,22,62,1,0
49466,315.789473684211,4,1,22,62,1,0
49781,363.636363636364,4,1,22,62,1,0
49962,315.789473684211,4,1,22,62,1,0
50277,325.20325203252,4,1,22,52,1,0
50277,-100,4,1,22,52,0,0
54179,331.491712707182,4,1,22,52,1,0
54179,-100,4,1,22,52,0,0
55504,324.324324324324,4,1,22,52,1,0
55504,-100,4,1,22,52,0,0
59395,326.975476839237,4,1,22,52,1,0
60702,-100,4,1,22,52,0,0
66100,326.086956521739,4,1,22,52,1,0
66263,326.086956521739,4,1,22,52,1,0
66752,-100,4,1,22,52,0,0
67237,326.086956521739,4,1,22,52,1,0
67237,-100,4,1,22,52,0,0
68542,326.086956521739,4,1,22,52,1,0
68542,-100,4,1,22,52,0,0
71157,325.20325203252,4,1,22,52,1,0
71157,-100,4,1,22,52,0,0
73758,326.086956521739,4,1,22,52,1,0
73758,-100,4,1,22,52,0,0
77026,326.086956521739,4,1,22,52,1,0
77026,-100,4,1,22,52,0,0
77678,325.732899022801,4,1,22,52,1,0
77678,-100,4,1,22,52,0,0
84190,326.086956521739,4,1,22,52,1,0
84190,-100,4,1,22,52,0,0
88442,319.148936170213,4,1,22,52,1,0
88442,-100,4,1,22,52,0,0
89399,326.086956521739,4,1,22,52,1,0
89888,-100,4,1,22,52,0,0
94626,326.086956521739,4,1,22,72,1,0
94626,-100,4,1,22,72,0,0
96581,-100,4,1,22,72,0,0
96826,-100,4,1,22,25,0,0
96907,-100,4,1,22,72,0,0
97152,-100,4,1,22,25,0,0
97230,326.086956521739,4,1,22,5,1,0
97230,-100,4,1,22,82,0,1
102125,326.086956521739,4,1,22,82,1,1
102451,326.086956521739,4,1,22,82,1,1
102451,-100,4,1,22,82,0,1
106350,326.086956521739,4,1,22,82,1,1
106676,-100,4,1,22,82,0,1
107670,326.086956521739,4,1,22,82,1,1
110278,-100,4,1,22,82,0,1
111907,326.086956521739,4,1,22,82,1,1
112885,327.868852459016,4,1,22,82,1,1
112885,-100,4,1,22,82,0,1
114185,326.086956521739,4,1,22,82,1,1
114348,-100,4,1,22,82,0,1
116467,329.67032967033,4,1,22,82,1,1
116796,329.67032967033,4,1,22,82,1,1
118114,324.324324324324,4,1,22,82,1,0
120711,326.086956521739,4,1,22,82,1,0
120711,-100,4,1,22,62,0,0
124950,307.692307692308,4,1,22,62,1,0
125257,352.941176470588,4,1,22,62,1,0
125609,315.789473684211,4,1,22,62,1,0
125609,-100,4,1,22,62,0,0
125928,326.086956521739,4,1,22,52,1,0
125929,-100,4,1,22,52,0,0
133751,326.086956521739,4,1,22,52,1,0
133751,-100,4,1,22,52,0,0
135059,326.086956521739,4,1,22,52,1,0
135711,324.324324324324,4,1,22,52,1,0
136353,326.086956521739,4,1,22,52,1,0
136353,-100,4,1,22,52,0,0
139619,326.086956521739,4,1,22,52,1,0
139619,-100,4,1,22,52,0,0
140280,326.086956521739,4,1,22,52,1,0
140280,-100,4,1,22,52,0,0
141576,326.086956521739,4,1,22,52,1,0
141576,-100,4,1,22,52,0,0
146808,326.086956521739,4,1,22,52,1,0
146808,-100,4,1,22,52,0,0
148112,325.20325203252,4,1,22,52,1,0
148112,-100,4,1,22,52,0,0
153315,327.868852459016,4,1,22,52,1,0
153315,-100,4,1,22,52,0,0
154628,326.086956521739,4,1,22,52,1,0
154628,-100,4,1,22,52,0,0
161149,324.324324324324,4,1,22,52,1,0
162449,324.324324324324,4,1,22,52,1,0
162449,-100,4,1,22,52,0,0
163746,326.975476839237,4,1,22,52,1,0
163746,-100,4,1,22,52,0,0
165053,326.086956521739,4,1,22,52,1,0
165053,-100,4,1,22,52,0,0
170270,327.868852459016,4,1,22,52,1,0
170270,-100,4,1,22,72,0,0
172237,-100,4,1,22,72,0,0
172483,-100,4,1,22,25,0,0
172565,-100,4,1,22,72,0,0
172810,-100,4,1,22,25,0,0
172891,325.55615843733,4,1,22,82,1,1
172891,-100,4,1,22,82,0,1
175169,342.857142857143,4,1,22,82,1,1
175511,325.909831613254,4,1,22,82,1,1
175511,-100,4,1,22,82,0,1
178118,323.79924446843,4,1,22,82,1,1
179089,-100,4,1,22,82,0,1
180381,326.086956521739,4,1,22,82,1,1
180381,-100,4,1,22,82,0,1
180707,326.086956521739,4,1,22,82,1,1
180707,-100,4,1,22,82,0,1
187236,326.086956521739,4,1,22,82,1,1
188540,324.324324324324,4,1,22,82,1,1
188540,-100,4,1,22,82,0,1
189837,333.333333333333,4,1,22,82,1,1
190503,324.324324324324,4,1,22,82,1,1
190503,-100,4,1,22,82,0,1
191151,326.086956521739,7,1,22,72,1,1
191151,-100,4,1,22,72,0,0
191232,-100,7,1,22,62,0,0
194421,326.086956521739,7,1,22,62,1,0
195718,327.868852459016,7,1,22,62,1,0
195718,-100,7,1,22,62,0,0
196701,326.086956521739,7,1,22,62,1,0
197998,326.086956521739,7,1,22,62,1,0
197998,-100,7,1,22,62,0,0
200280,-100,7,1,22,52,0,0
202555,326.086956521739,7,1,22,52,1,0
202555,-100,7,1,22,52,0,0
203559,322.58064516129,7,1,22,52,1,0
204526,300,7,1,22,52,1,0
204832,326.086956521739,7,1,22,52,1,0
204832,-100,7,1,22,52,0,0
207123,326.086956521739,7,1,22,52,1,0
207775,328.767123287671,7,1,22,52,1,0
208103,-100,7,1,22,52,0,0
208761,315.789473684211,7,1,22,52,1,0
209411,326.086956521739,4,1,22,52,1,0
225063,-100,4,2,22,52,0,0
229465,-100,4,2,22,52,0,0
230117,-100,4,2,22,52,0,0
231258,310.880829015544,4,2,22,52,1,0
231258,-100,4,2,22,52,0,0
231568,326.086956521739,4,2,22,52,1,0
231568,-100,4,2,22,52,0,0
234665,-100,4,2,22,52,0,0
235318,-100,4,2,22,52,0,0
237454,326.086956521739,4,2,22,52,1,0
237454,-100,4,2,22,52,0,0
238106,326.086956521739,4,2,22,52,1,0
238106,-100,4,2,22,52,0,0
239899,-100,4,2,22,52,0,0
240548,-100,4,2,22,52,0,0
245114,-100,4,2,22,52,0,0
245932,326.086956521739,4,2,22,52,1,0
245932,-100,4,2,22,52,0,0
246013,-100,4,2,22,42,0,0
253755,-100,4,2,22,52,0,0
255042,329.67032967033,4,1,22,52,1,0
255042,-100,4,1,22,62,0,0
256360,-100,4,1,22,62,0,1
256686,326.086956521739,4,1,22,62,1,1
256686,-100,4,1,22,62,0,1
257663,325.909831613254,4,1,22,62,1,1
261573,-100,4,1,22,62,0,1
266788,325.20325203252,4,1,22,62,1,1
266788,-100,4,1,22,62,0,1
270690,326.975476839237,4,1,22,62,1,1
271997,-100,4,1,22,62,0,1
274613,326.086956521739,4,1,22,62,1,1
277221,-100,4,1,22,62,0,1
281153,326.086956521739,4,1,22,62,1,1
282457,-100,4,1,22,62,0,1
285392,320.855614973262,4,1,22,62,1,1
286354,322.58064516129,4,1,22,62,1,1
288289,326.086956521739,4,1,22,62,1,1
289267,338.983050847458,4,1,22,62,1,1
289605,326.086956521739,4,1,22,62,1,1
290278,326.086956521739,4,1,22,52,1,0
290278,-100,4,1,22,52,0,0
295486,326.975476839237,4,1,22,52,1,0
295486,-100,4,1,22,62,0,0
299409,300,4,1,22,62,1,0
299709,366.97247706422,4,1,22,62,1,0
299892,294.117647058824,4,1,22,62,1,0
300186,382.165605095541,4,1,22,62,1,0
300377,322.58064516129,4,1,22,62,1,0
300699,326.26427406199,4,2,22,62,1,0
300699,-100,4,2,22,52,0,0
300780,-100,4,2,22,32,0,0
311139,-100,4,2,22,42,0,0
316359,326.086956521739,4,1,22,42,1,0
316359,-100,4,1,22,62,0,0
318978,324.324324324324,4,1,22,62,1,0
318978,-100,4,1,22,62,0,0
320275,329.67032967033,4,1,22,62,1,0
320604,-100,4,1,22,62,0,0
320934,326.086956521739,4,1,22,62,1,0
321579,326.086956521739,4,1,22,62,1,0
322883,324.324324324324,4,1,22,62,1,0
324180,326.086956521739,4,1,22,62,1,0
324180,-100,4,1,22,72,0,0
326136,-100,4,1,22,62,0,0
326218,-100,4,1,22,32,0,0
328011,-100,4,1,22,5,0,0
328093,-100,4,1,22,32,0,0
328745,-100,4,1,22,52,0,0
328989,-100,4,1,22,5,0,0
329071,-100,4,1,22,52,0,0
329315,-100,4,1,22,5,0,0
329397,-100,4,1,22,72,0,0
329968,-100,4,1,22,5,0,0
330049,-100,4,1,22,72,0,0
330701,-100,4,1,22,72,0,0
333317,326.086956521739,4,1,22,72,1,0
333969,324.324324324324,4,1,22,72,1,0
333969,-100,4,1,22,72,0,0
334617,326.086956521739,4,1,22,72,1,1
334617,-100,4,1,22,82,0,1
346364,325.55615843733,4,1,22,82,1,1
346364,-100,4,1,22,82,0,1
350275,325.909831613254,4,1,22,82,1,1
350275,-100,4,1,22,82,0,1
355489,326.086956521739,4,1,22,82,1,1
356467,-100,4,1,22,82,0,1
359399,326.086956521739,4,1,22,82,1,1
359399,-100,4,1,22,82,0,1
360716,326.086956521739,4,1,22,82,1,1
362020,-100,4,1,22,82,0,1
364622,326.086956521739,4,1,22,82,1,1
364622,-100,4,1,22,82,0,1
365935,322.58064516129,4,1,22,82,1,1
365935,-100,4,1,22,82,0,0
367225,326.086956521739,4,1,22,82,1,0
367225,-100,4,1,22,82,0,0
372433,326.086956521739,4,1,22,82,1,0
372433,-100,4,1,22,82,0,0
373737,-100,4,1,22,92,0,0
375052,327.868852459016,4,1,22,92,1,0
375052,-100,4,1,22,92,0,0
376365,336.134453781513,4,1,22,92,1,0
376365,-100,4,1,22,92,0,0
377373,317.460317460317,4,1,22,92,1,0
377690,317.460317460317,4,1,22,92,1,0
378007,322.58064516129,4,1,22,92,1,0
378974,326.086956521739,4,1,22,72,1,1
378974,-100,4,1,22,72,0,1
381573,326.086956521739,4,1,22,72,1,1
381573,-100,4,1,22,72,0,1
384191,326.086956521739,4,1,22,72,1,1
384191,-100,4,1,22,72,0,1
389408,-100,4,1,22,72,0,1
391035,326.086956521739,4,1,22,72,1,1
391361,-100,4,1,22,72,0,1
392013,326.086956521739,4,1,22,72,1,1
392339,-100,4,1,22,72,0,1
394624,325.732899022801,4,1,22,72,1,1
394624,-100,4,1,22,72,0,1
398853,327.868852459016,4,1,22,72,1,1
398853,-100,4,1,22,72,0,1
399841,326.086956521739,4,1,22,72,1,1
400819,-100,4,1,22,72,0,1
407667,-100,4,1,22,72,0,1
408959,326.26427406199,4,1,22,72,1,0
411813,-100,4,1,22,72,0,0
416777,335.195530726257,4,1,22,72,1,0
416777,-100,4,1,22,72,0,0
418117,322.58064516129,4,1,22,72,1,0
418117,-100,4,1,22,72,0,0
420052,327.868852459016,4,1,22,72,1,0
420052,-100,4,1,22,72,0,0
420707,333.333333333333,4,1,22,72,1,0
421204,326.086956521739,4,1,22,72,1,0
421204,-100,4,1,22,72,0,0
421369,326.086956521739,4,1,22,72,1,0
421369,-100,4,1,22,72,0,0
421550,326.086956521739,4,1,22,72,1,0
421550,-100,4,1,22,72,0,0
421713,-100,4,1,22,82,0,0
421880,326.086956521739,4,1,22,82,1,0
421880,-100,4,1,22,82,0,0
421961,-100,4,1,22,72,0,0
431132,-100,4,1,22,22,0,0

[Colours]
Combo1 : 255,167,79
Combo2 : 113,82,218
Combo3 : 255,255,79
Combo4 : 255,155,255

[HitObjects]
104,345,713,5,6,0:2:0:0:
59,319,794,1,0,0:0:0:0:
43,271,875,1,0,0:0:0:0:
66,225,956,1,0,0:0:0:0:
261,219,1037,2,0,L|261:140,1,52.5,10|0,0:2|0:0,0:0:0:0:
186,150,1199,2,0,L|186:83,1,52.5,0|0,0:0|0:0,0:0:0:0:
377,220,1361,5,10,0:2:0:0:
424,200,1442,1,0,0:0:0:0:
448,154,1523,1,0,0:0:0:0:
436,104,1604,1,0,0:0:0:0:
262,60,1685,2,0,L|190:61,1,52.5,10|0,0:2|0:0,0:0:0:0:
402,19,1848,2,0,L|458:19,1,52.5,0|0,0:0|0:0,0:0:0:0:
228,190,2010,6,0,L|156:147,3,52.5,10|0|0|0,0:2|0:0|0:0|0:0,0:0:0:0:
376,323,2336,2,0,L|447:281,3,52.5,10|0|0|0,0:2|0:0|0:0|0:0,0:0:0:0:
186,362,2662,5,10,0:2:0:0:
146,329,2743,1,0,0:0:0:0:
141,278,2825,1,0,0:0:0:0:
175,239,2906,1,0,0:0:0:0:
326,362,2988,5,10,0:2:0:0:
365,329,3069,1,0,0:0:0:0:
370,278,3151,1,0,0:0:0:0:
336,239,3232,1,0,0:0:0:0:
129,145,3314,6,0,L|203:137,1,52.5,10|0,0:2|0:0,0:0:0:0:
258,130,3477,2,0,L|321:125,1,52.5,0|0,0:0|0:0,0:0:0:0:
106,27,3640,1,10,0:2:0:0:
48,40,3721,1,0,0:0:0:0:
14,81,3803,1,0,0:0:0:0:
23,128,3884,1,0,0:0:0:0:
211,211,3966,6,0,L|296:210,1,52.5,10|0,0:2|0:0,0:0:0:0:
211,211,4129,2,0,L|151:212,1,52.5,0|0,0:0|0:0,0:0:0:0:
329,232,4292,2,0,L|403:232,1,52.5,10|0,0:2|0:0,0:0:0:0:
169,292,4455,2,0,L|108:293,1,52.5,0|0,0:0|0:0,0:0:0:0:
322,359,4618,6,0,L|321:284,1,52.5,10|0,0:2|0:0,0:0:0:0:
240,290,4781,2,0,L|240:227,1,52.5,0|0,0:0|0:0,0:0:0:0:
434,231,4944,2,0,L|490:231,1,52.5,10|0,0:2|0:0,0:0:0:0:
434,231,5107,2,0,L|339:231,1,52.5,0|0,0:0|0:0,0:0:0:0:
143,255,5270,6,0,L|142:183,1,52.5,10|8,0:2|0:3,0:0:0:0:
350,132,5433,2,0,L|272:133,1,52.5,8|8,0:3|0:3,0:0:0:0:
106,134,5596,2,0,L|106:66,1,52.5,8|4,0:0|0:3,0:0:0:0:
310,62,5759,2,0,L|384:62,1,52.5,4|4,0:3|0:3,0:0:0:0:
191,32,5923,6,0,L|191:102,1,52.5,14|0,0:2|0:0,0:0:0:0:
267,89,6086,2,0,L|266:142,1,52.5,0|0,0:0|0:0,0:0:0:0:
75,256,6249,1,10,0:2:0:0:
60,206,6330,1,0,0:0:0:0:
82,160,6412,1,0,0:0:0:0:
130,142,6493,1,0,0:0:0:0:
352,256,6575,5,10,0:2:0:0:
288,254,6656,1,0,0:0:0:0:
230,253,6738,1,0,0:0:0:0:
174,252,6819,1,0,0:0:0:0:
341,177,6901,2,0,L|416:177,1,52.5,10|0,0:2|0:0,0:0:0:0:
181,92,7064,2,0,L|239:93,1,52.5,0|0,0:0|0:0,0:0:0:0:
424,150,7227,5,10,0:2:0:0:
463,117,7308,1,0,0:0:0:0:
463,66,7389,1,0,0:0:0:0:
424,34,7470,1,0,0:0:0:0:
221,13,7551,2,0,L|145:14,1,52.5,10|0,0:2|0:0,0:0:0:0:
335,107,7713,2,0,L|335:44,1,52.5,0|0,0:0|0:0,0:0:0:0:
125,98,7875,5,10,0:2:0:0:
77,119,7956,1,0,0:0:0:0:
51,163,8037,1,0,0:0:0:0:
57,215,8118,1,0,0:0:0:0:
207,252,8199,2,0,L|272:252,1,52.5,10|0,0:2|0:0,0:0:0:0:
207,252,8362,2,0,L|146:252,1,52.5,0|0,0:0|0:0,0:0:0:0:
321,182,8524,6,0,L|385:182,1,52.5,14|0,0:2|0:0,0:0:0:0:
305,167,8687,2,0,L|292:105,1,52.5,0|0,0:0|0:0,0:0:0:0:
474,63,8851,2,0,L|414:61,1,52.5,10|0,0:2|0:0,0:0:0:0:
348,57,9015,2,0,L|288:52,1,52.5,0|0,0:0|0:0,0:0:0:0:
117,176,9179,6,0,L|191:168,1,52.5,10|0,0:2|0:0,0:0:0:0:
250,196,9343,2,0,L|260:260,1,52.5,0|0,0:0|0:0,0:0:0:0:
52,109,9507,2,0,L|135:97,1,52.5,10|0,0:2|0:0,0:0:0:0:
343,141,9671,2,0,L|401:133,1,52.5,0|0,0:0|0:0,0:0:0:0:
138,350,9835,6,0,L|110:267,1,52.5,6|0,0:2|0:0,0:0:0:0:
298,247,9997,2,0,L|314:187,1,52.5,8|0,0:0|0:0,0:0:0:0:
230,159,10160,2,0,L|215:96,1,52.5,0|8,0:0|0:0,0:0:0:0:
136,83,10323,2,0,L|80:60,1,52.5,0|0,0:0|0:0,0:0:0:0:
285,69,10486,6,0,L|297:13,1,52.5,8|0,0:0|0:0,0:0:0:0:
212,158,10649,2,0,L|198:95,1,52.5,8|8,0:0|0:0,0:0:0:0:
381,272,10812,1,8,0:0:0:0:
435,261,10893,1,0,0:0:0:0:
469,218,10974,1,8,0:0:0:0:
462,164,11056,1,8,0:0:0:0:
284,176,11138,5,2,0:2:0:0:
241,141,11219,1,0,0:0:0:0:
243,90,11300,1,8,0:0:0:0:
289,55,11382,1,0,0:0:0:0:
129,255,11464,1,2,0:2:0:0:
86,220,11545,1,0,0:0:0:0:
88,169,11626,1,8,0:0:0:0:
134,134,11708,1,0,0:0:0:0:
332,340,11790,6,0,L|332:262,1,52.5,2|0,0:2|0:0,0:0:0:0:
251,276,11953,2,0,L|251:221,1,52.5,8|0,0:0|0:0,0:0:0:0:
436,222,12116,1,2,0:2:0:0:
483,201,12197,1,0,0:0:0:0:
506,155,12278,1,8,0:0:0:0:
493,105,12360,1,0,0:0:0:0:
315,57,12442,6,0,L|239:57,1,52.5,2|0,0:2|0:0,0:0:0:0:
315,57,12605,2,0,L|411:57,1,52.5,8|0,0:0|0:0,0:0:0:0:
191,255,12768,1,2,0:2:0:0:
187,203,12849,1,0,0:0:0:0:
213,159,12930,1,8,0:0:0:0:
261,138,13012,1,0,0:0:0:0:
88,119,13094,6,0,L|30:119,1,52.5,2|0,0:2|0:0,0:0:0:0:
88,119,13257,2,0,L|166:119,1,52.5,8|0,0:0|0:0,0:0:0:0:
309,219,13420,2,0,L|309:161,1,52.5,2|0,0:2|0:0,0:0:0:0:
232,157,13582,2,0,L|232:97,1,52.5,8|0,0:0|0:0,0:0:0:0:
416,128,13745,5,2,0:2:0:0:
456,98,13826,1,0,0:0:0:0:
457,47,13907,1,8,0:0:0:0:
417,16,13989,1,0,0:0:0:0:
248,80,14071,2,0,L|247:144,1,52.5,2|0,0:2|0:0,0:0:0:0:
312,154,14234,2,0,L|254:154,1,52.5,8|0,0:0|0:0,0:0:0:0:
70,267,14397,5,2,0:2:0:0:
33,231,14478,1,0,0:0:0:0:
34,180,14559,1,8,0:0:0:0:
72,146,14641,1,0,0:0:0:0:
254,138,14723,2,0,L|310:136,1,52.5,2|0,0:2|0:0,0:0:0:0:
118,52,14886,2,0,L|190:45,1,52.5,8|0,0:0|0:0,0:0:0:0:
417,222,15049,6,0,L|344:210,1,52.5,2|0,0:2|0:0,0:0:0:0:
291,228,15212,2,0,L|225:219,1,52.5,8|0,0:0|0:0,0:0:0:0:
431,355,15375,1,2,0:2:0:0:
468,320,15456,1,0,0:0:0:0:
471,269,15537,1,8,0:0:0:0:
437,231,15619,1,0,0:0:0:0:
256,176,15701,6,0,L|181:177,1,52.5,2|0,0:2|0:0,0:0:0:0:
366,126,15864,2,0,L|372:62,1,52.5,10|0,0:2|0:0,0:0:0:0:
171,141,16027,2,0,L|228:140,1,52.5,10|0,0:2|0:0,0:0:0:0:
409,140,16190,2,0,L|397:204,1,52.5,2|0,0:2|0:0,0:0:0:0:
172,345,16353,5,2,0:2:0:0:
123,327,16434,1,0,0:0:0:0:
96,283,16516,1,8,0:0:0:0:
102,232,16597,1,0,0:0:0:0:
269,210,16679,2,0,L|269:147,1,52.5,2|0,0:2|0:0,0:0:0:0:
199,122,16842,2,0,L|275:122,1,52.5,8|0,0:0|0:0,0:0:0:0:
436,157,17006,5,2,0:2:0:0:
481,133,17087,1,0,0:0:0:0:
497,84,17169,1,8,0:0:0:0:
476,38,17250,1,0,0:0:0:0:
286,2,17332,2,0,L|228:2,1,52.5,2|0,0:2|0:0,0:0:0:0:
432,96,17496,2,0,L|441:38,1,52.5,8|0,0:0|0:0,0:0:0:0:
277,131,17659,6,0,L|212:126,1,52.5,2|0,0:2|0:0,0:0:0:0:
153,115,17822,2,0,L|93:108,1,52.5,8|0,0:0|0:0,0:0:0:0:
299,224,17986,2,0,L|234:219,1,52.5,2|0,0:2|0:0,0:0:0:0:
175,208,18149,2,0,L|115:201,1,52.5,8|0,0:0|0:0,0:0:0:0:
333,363,18312,6,0,L|333:303,1,52.5,2|0,0:2|0:0,0:0:0:0:
256,299,18476,2,0,L|256:238,1,52.5,8|0,0:0|0:0,0:0:0:0:
441,229,18639,2,0,L|372:222,1,52.5,2|0,0:2|0:0,0:0:0:0:
226,180,18802,2,0,L|168:175,1,52.5,8|0,0:0|0:0,0:0:0:0:
389,161,18965,5,2,0:2:0:0:
436,141,19046,1,0,0:0:0:0:
460,95,19128,1,8,0:0:0:0:
448,45,19209,1,0,0:0:0:0:
249,16,19291,2,0,L|183:15,1,52.5,2|0,0:2|0:0,0:0:0:0:
261,27,19454,2,0,L|268:87,1,52.5,8|0,0:0|0:0,0:0:0:0:
91,223,19617,5,2,0:2:0:0:
82,172,19698,1,0,0:0:0:0:
106,127,19780,1,8,0:0:0:0:
154,107,19861,1,0,0:0:0:0:
297,99,19943,2,0,L|357:100,1,52.5,2|0,0:2|0:0,0:0:0:0:
488,93,20106,2,0,L|429:93,1,52.5,8|0,0:0|0:0,0:0:0:0:
258,159,20269,6,0,L|188:159,2,52.5,10|2|2,0:2|0:2|0:2,0:0:0:0:
92,89,20517,2,0,L|27:89,2,52.5,10|2|2,0:2|0:2|0:2,0:0:0:0:
256,39,20766,2,0,L|337:39,1,52.5,10|2,0:2|0:2,0:0:0:0:
111,298,20931,5,10,0:2:0:0:
72,264,21013,1,0,0:0:0:0:
69,213,21096,1,8,0:2:0:0:
104,176,21179,1,8,0:2:0:0:
268,169,21263,2,0,L|325:168,1,52.5,8|0,0:2|0:0,0:0:0:0:
154,97,21416,2,0,L|97:97,1,52.5,8|8,0:2|0:2,0:0:0:0:
349,353,21569,5,6,0:2:0:0:
407,328,21650,1,0,0:0:0:0:
412,267,21732,1,0,0:0:0:0:
365,230,21813,1,0,0:0:0:0:
282,197,21895,2,0,L|295:133,1,52.5,8|0,0:2|0:0,0:0:0:0:
383,149,22058,2,0,L|402:85,1,52.5,0|0,0:2|0:2,0:0:0:0:
316,42,22221,5,0,0:2:0:0:
265,49,22302,1,0,0:2:0:0:
231,87,22384,1,0,0:2:0:0:
230,139,22465,1,0,0:2:0:0:
421,191,22547,2,0,L|479:191,1,52.5,10|0,0:2|0:0,0:0:0:0:
421,191,22710,2,0,L|346:190,1,52.5,0|0,0:2|0:2,0:0:0:0:
157,352,22874,6,0,L|147:275,1,52.5,2|0,0:2|0:0,0:0:0:0:
227,294,23037,1,0,0:0:0:0:
273,271,23118,1,0,0:0:0:0:
294,224,23200,1,8,0:2:0:0:
279,174,23281,1,0,0:0:0:0:
218,151,23363,2,0,L|157:148,1,52.5,0|0,0:2|0:2,0:0:0:0:
352,116,23526,6,0,L|366:57,1,52.5,2|0,0:2|0:2,0:0:0:0:
278,202,23689,2,0,L|262:142,1,52.5,0|0,0:2|0:2,0:0:0:0:
453,332,23852,1,10,0:2:0:0:
489,287,23933,1,0,0:2:0:0:
478,237,24015,1,0,0:2:0:0:
426,212,24096,1,0,0:2:0:0:
212,303,24179,6,0,L|204:249,1,52.5,2|0,0:2|0:0,0:0:0:0:
280,242,24342,2,0,L|272:171,1,52.5,0|0,0:0|0:2,0:0:0:0:
115,176,24505,1,10,0:2:0:0:
67,155,24586,1,0,0:0:0:0:
45,109,24668,1,0,0:0:0:0:
60,59,24749,1,0,0:2:0:0:
247,83,24831,6,0,L|262:31,1,52.5,2|2,0:2|0:2,0:0:0:0:
179,164,24994,2,0,L|165:111,1,52.5,2|0,0:2|0:0,0:0:0:0:
258,177,25157,2,0,L|382:170,1,105,10|0,0:2|0:0,0:0:0:0:
304,142,25402,1,0,0:2:0:0:
463,30,25484,6,0,L|471:87,1,52.5
400,88,25647,1,0,0:0:0:0:
362,123,25728,1,0,0:0:0:0:
362,174,25810,1,8,0:0:0:0:
399,209,25891,1,0,0:0:0:0:
480,246,25973,2,0,L|424:245,1,52.5,0|0,0:0|0:2,0:0:0:0:
205,286,26136,6,0,L|130:286,1,52.5,2|0,0:2|0:2,0:0:0:0:
349,344,26299,2,0,L|356:281,1,52.5,8|8,0:2|0:2,0:0:0:0:
163,217,26462,2,0,L|226:217,1,52.5,8|8,0:2|0:3,0:0:0:0:
403,176,26626,2,0,L|329:176,1,52.5,8|8,0:3|0:3,0:0:0:0:
124,41,26802,6,0,L|128:108,1,52.5,6|0,0:2|0:2,0:0:0:0:
202,85,26964,2,0,L|203:143,1,52.5,0|0,0:2|0:2,0:0:0:0:
281,137,27127,2,0,L|283:202,1,52.5,8|0,0:2|0:2,0:0:0:0:
200,258,27289,1,0,0:2:0:0:
139,242,27370,1,0,0:2:0:0:
116,188,27451,1,0,0:2:0:0:
136,135,27532,1,0,0:2:0:0:
315,97,27615,2,0,L|392:95,1,52.5,2|0,0:2|0:2,0:0:0:0:
288,88,27777,2,0,L|279:22,1,52.5,10|0,0:2|0:2,0:0:0:0:
358,86,27940,2,0,L|361:150,1,52.5,2|0,0:2|0:2,0:0:0:0:
152,340,28102,5,2,0:2:0:0:
107,314,28183,1,0,0:0:0:0:
82,268,28264,1,0,0:0:0:0:
86,216,28345,1,0,0:0:0:0:
117,175,28427,1,8,0:2:0:0:
166,157,28508,1,0,0:0:0:0:
366,213,28590,2,0,L|310:213,1,52.5,2|2,0:2|0:2,0:0:0:0:
64,128,28753,5,2,0:2:0:0:
27,92,28834,1,0,0:0:0:0:
30,41,28915,1,0,0:2:0:0:
70,10,28996,1,0,0:0:0:0:
245,73,29078,2,0,L|306:72,1,52.5,10|0,0:2|0:0,0:0:0:0:
245,73,29241,2,0,L|172:73,1,52.5,0|0,0:2|0:0,0:0:0:0:
401,224,29403,6,0,P|475:177|464:97,1,157.5,2|0,0:2|0:2,0:0:0:0:
196,273,29728,2,0,L|184:209,1,52.5,10|0,0:2|0:0,0:0:0:0:
261,202,29891,2,0,L|282:138,1,52.5,2|0,0:2|0:0,0:0:0:0:
196,130,30054,2,0,L|181:74,1,52.5,2|0,0:2|0:0,0:0:0:0:
383,85,30216,2,0,L|467:73,1,52.5,2|0,0:2|0:0,0:0:0:0:
214,232,30379,2,0,L|154:223,1,52.5,10|0,0:2|0:0,0:0:0:0:
415,180,30541,2,0,L|477:172,1,52.5,0|0,0:2|0:0,0:0:0:0:
215,351,30700,6,0,L|211:295,1,52.5,4|4,0:3|0:3,0:0:0:0:
289,287,30863,2,0,L|287:232,1,52.5,4|4,0:3|0:3,0:0:0:0:
115,217,31026,2,0,P|57:181|77:78,1,157.5,8|0,0:2|0:2,0:0:0:0:
231,73,31352,6,0,L|314:73,1,52.5,0|0,0:2|0:2,0:0:0:0:
231,73,31518,2,0,L|171:73,1,52.5,8|8,0:2|0:2,0:0:0:0:
383,94,31685,1,8,0:2:0:0:
432,109,31768,1,4,0:3:0:0:
459,162,31851,1,4,0:3:0:0:
448,208,31934,1,4,0:3:0:0:
216,351,32018,5,2,0:2:0:0:
162,331,32099,1,0,0:0:0:0:
144,277,32181,1,0,0:0:0:0:
166,227,32262,1,0,0:0:0:0:
245,242,32344,2,0,L|268:191,1,52.5,8|0,0:2|0:0,0:0:0:0:
189,160,32507,2,0,L|167:110,1,52.5,0|0,0:2|0:2,0:0:0:0:
256,111,32670,5,0,0:2:0:0:
299,84,32751,1,0,0:2:0:0:
315,35,32833,1,0,0:2:0:0:
293,0,32914,1,0,0:2:0:0:
68,120,32996,1,10,0:2:0:0:
55,169,33077,1,0,0:0:0:0:
78,215,33159,1,0,0:2:0:0:
126,235,33240,1,0,0:2:0:0:
353,355,33312,6,0,L|382:282,1,52.5,2|0,0:2|0:0,0:0:0:0:
297,274,33475,2,0,L|282:212,1,52.5,0|0,0:0|0:0,0:0:0:0:
205,203,33638,2,0,L|130:197,1,52.5,8|0,0:2|0:0,0:0:0:0:
243,139,33801,2,0,L|314:144,1,52.5,0|0,0:2|0:2,0:0:0:0:
94,113,33964,2,0,L|80:54,1,52.5,2|0,0:2|0:0,0:0:0:0:
172,72,34127,2,0,L|235:49,1,52.5,0|0,0:0|0:0,0:0:0:0:
446,161,34290,2,0,L|276:138,1,157.5,8|0,0:2|0:0,0:0:0:0:
83,311,34616,6,0,L|145:300,1,52.5,0|0,0:2|0:0,0:0:0:0:
206,289,34779,2,0,L|264:278,1,52.5,0|0,0:0|0:2,0:0:0:0:
56,205,34942,1,10,0:2:0:0:
25,163,35023,1,0,0:0:0:0:
27,112,35105,1,0,0:0:0:0:
60,72,35186,1,0,0:2:0:0:
236,48,35268,6,0,L|326:46,1,52.5,2|2,0:2|0:2,0:0:0:0:
236,48,35431,2,0,L|176:48,1,52.5,0|0,0:0|0:2,0:0:0:0:
395,202,35594,1,10,0:2:0:0:
442,181,35675,1,0,0:0:0:0:
466,136,35757,1,0,0:0:0:0:
457,85,35838,1,0,0:2:0:0:
288,119,35937,5,2,0:2:0:0:
236,128,36018,1,0,0:0:0:0:
196,160,36099,1,0,0:0:0:0:
177,209,36180,1,0,0:0:0:0:
183,260,36261,1,8,0:0:0:0:
214,302,36342,1,0,0:0:0:0:
272,321,36423,2,0,L|342:320,1,52.5,0|0,0:0|0:2,0:0:0:0:
100,232,36585,6,0,L|197:224,1,52.5,2|0,0:2|0:2,0:0:0:0:
226,220,36747,2,0,L|293:212,1,52.5,8|8,0:2|0:2,0:0:0:0:
87,118,36909,2,0,L|183:109,1,52.5,8|8,0:2|0:2,0:0:0:0:
332,89,37072,2,0,L|407:80,1,52.5,8|8,0:2|0:2,0:0:0:0:
199,345,37234,6,0,L|177:274,1,52.5,2|0,0:2|0:2,0:0:0:0:
263,277,37396,2,0,L|286:216,1,52.5,0|0,0:2|0:2,0:0:0:0:
115,184,37558,2,0,L|140:121,1,52.5,10|0,0:2|0:2,0:0:0:0:
215,123,37720,2,0,L|292:113,1,52.5,0|0,0:2|0:2,0:0:0:0:
78,12,37882,5,10,0:2:0:0:
35,41,37963,1,0,0:2:0:0:
24,91,38044,1,0,0:2:0:0:
50,135,38125,1,0,0:0:0:0:
251,215,38207,2,0,L|189:203,1,52.5,10|0,0:2|0:2,0:0:0:0:
36,334,38369,2,0,L|92:321,1,52.5,0|0,0:2|0:2,0:0:0:0:
301,361,38531,6,0,L|320:308,1,52.5,8|4,0:0|0:3,0:0:0:0:
231,282,38693,2,0,L|214:228,1,52.5,4|4,0:3|0:3,0:0:0:0:
386,223,38855,1,8,0:0:0:0:
434,197,38936,1,4,0:3:0:0:
454,146,39018,1,4,0:3:0:0:
434,96,39099,1,4,0:3:0:0:
226,105,39181,6,0,L|217:28,1,52.5,8|0,0:0|0:0,0:0:0:0:
397,157,39344,2,0,L|337:145,1,52.5,0|0,0:0|0:0,0:0:0:0:
188,255,39507,2,0,L|271:238,1,52.5,8|8,0:0|0:0,0:0:0:0:
448,337,39670,2,0,L|395:323,1,52.5,8|8,0:0|0:0,0:0:0:0:
104,378,39843,5,6,1:2:0:0:
256,192,40006,12,4,42451,1:2:0:0:
106,214,45060,5,4,0:2:0:0:
449,118,45223,2,0,L|227:93,1,210,8|8,0:2|0:2,0:0:0:0:
391,241,45712,1,0,0:2:0:0:
436,218,45793,1,0,0:2:0:0:
443,168,45875,1,8,0:2:0:0:
407,133,45956,1,0,0:2:0:0:
200,321,46038,2,0,L|180:254,1,52.5,0|0,0:2|0:2,0:0:0:0:
264,256,46201,2,0,L|281:204,1,52.5,8|0,0:2|0:2,0:0:0:0:
104,99,46364,5,0,0:2:0:0:
387,50,46527,2,0,L|169:30,1,210,8|8,0:2|0:2,0:0:0:0:
298,150,47016,2,0,L|325:86,1,52.5,0|0,0:2|0:2,0:0:0:0:
232,74,47179,2,0,L|212:19,1,52.5,8|0,0:2|0:2,0:0:0:0:
406,246,47343,1,0,0:2:0:0:
458,227,47424,1,0,0:2:0:0:
477,176,47506,1,8,0:2:0:0:
454,128,47587,1,0,0:2:0:0:
279,91,47669,5,4,0:2:0:0:
48,202,47832,2,0,L|258:173,1,210,8|8,0:2|0:2,0:0:0:0:
112,43,48321,1,0,0:2:0:0:
73,75,48402,1,0,0:2:0:0:
71,126,48484,1,8,0:2:0:0:
109,161,48565,1,0,0:2:0:0:
293,185,48647,2,0,L|349:185,1,52.5,0|0,0:2|0:2,0:0:0:0:
173,280,48810,2,0,L|91:278,1,52.5,8|0,0:2|0:2,0:0:0:0:
338,351,48973,6,0,L|350:291,1,52.5,8|8,0:0|0:0,0:0:0:0:
157,192,49129,2,0,L|139:129,1,52.5,8|8,0:0|0:0,0:0:0:0:
338,351,49466,6,0,L|350:291,1,52.5,8|8,0:0|0:0,0:0:0:0:
157,192,49623,2,0,L|141:112,1,52.5,8|8,0:0|0:0,0:0:0:0:
338,351,49962,6,0,L|350:291,1,52.5,8|4,0:0|0:3,0:0:0:0:
157,192,50119,2,0,L|139:129,1,52.5,4|4,0:3|0:3,0:0:0:0:
305,60,50277,5,0,0:2:0:0:
43,15,50439,1,12,0:2:0:0:
160,51,50602,1,2,0:2:0:0:
160,103,50683,1,0,0:0:0:0:
160,156,50764,1,8,0:2:0:0:
43,15,50927,2,0,L|163:-2,1,105,2|8,0:2|0:2,0:0:0:0:
275,32,51252,1,2,0:2:0:0:
327,25,51333,1,0,0:0:0:0:
379,19,51414,1,8,0:2:0:0:
151,281,51577,5,2,0:2:0:0:
298,349,51740,2,0,L|307:295,1,52.5,8|0,0:0|0:0,0:0:0:0:
253,253,51903,1,2,0:2:0:0:
105,179,52065,2,0,L|215:162,1,105,10|0,0:2|0:2,0:0:0:0:
336,176,52390,2,0,L|351:122,1,52.5,10|0,0:2|0:0,0:0:0:0:
273,96,52553,2,0,L|261:39,1,52.5,0|0,0:2|0:0,0:0:0:0:
330,7,52716,1,10,0:2:0:0:
89,107,52878,5,2,0:2:0:0:
224,192,53041,1,8,0:0:0:0:
275,181,53122,1,0,0:2:0:0:
326,171,53203,1,2,0:2:0:0:
100,348,53366,2,0,P|56:284|76:226,1,105,10|0,0:2|0:2,0:0:0:0:
196,199,53691,2,0,L|88:182,1,105,10|0,0:2|0:2,0:0:0:0:
251,118,54016,2,0,L|314:106,1,52.5,10|0,0:2|0:0,0:0:0:0:
136,38,54179,6,0,L|260:16,1,105,2|8,0:2|0:2,0:0:0:0:
386,219,54510,1,0,0:2:0:0:
305,301,54676,2,0,L|297:242,1,52.5,8|0,0:2|0:0,0:0:0:0:
361,208,54841,1,0,0:2:0:0:
93,121,55007,1,10,0:2:0:0:
217,204,55173,2,0,L|234:141,1,52.5,10|8,0:2|0:3,0:0:0:0:
149,279,55339,2,0,L|132:228,1,52.5,8|8,0:3|0:3,0:0:0:0:
422,128,55504,5,4,0:2:0:0:
311,53,55666,1,8,0:2:0:0:
259,60,55747,1,0,0:0:0:0:
207,68,55828,1,2,0:2:0:0:
95,20,55990,1,8,0:2:0:0:
353,189,56152,2,0,L|213:166,1,105,2|8,0:2|0:2,0:0:0:0:
103,279,56476,2,0,L|221:262,1,105,2|8,0:2|0:2,0:0:0:0:
474,351,56801,5,2,0:2:0:0:
359,290,56963,1,8,0:0:0:0:
328,247,57044,1,0,0:0:0:0:
321,196,57125,1,2,0:2:0:0:
470,142,57287,2,0,L|358:111,1,105,10|0,0:2|0:2,0:0:0:0:
239,129,57612,2,0,L|126:109,1,105,10|0,0:2|0:2,0:0:0:0:
294,12,57936,2,0,L|297:64,1,52.5,10|0,0:2|0:0,0:0:0:0:
57,213,58098,6,0,L|179:231,2,105,2|8|2,0:2|0:0|0:2,0:0:0:0:
331,349,58585,2,0,P|366:299|369:231,1,105,10|0,0:2|0:2,0:0:0:0:
262,203,58909,2,0,L|210:192,2,52.5,10|0|0,0:2|0:0|0:2,0:0:0:0:
373,130,59233,1,10,0:2:0:0:
86,13,59395,6,0,L|83:139,1,105,2|8,0:2|0:2,0:0:0:0:
214,73,59721,1,0,0:2:0:0:
265,65,59802,1,0,0:0:0:0:
317,57,59884,1,8,0:2:0:0:
76,234,60048,2,0,L|7:223,1,52.5,0|0,0:2|0:2,0:0:0:0:
299,345,60212,2,0,L|311:265,1,52.5,8|0,0:2|0:0,0:0:0:0:
114,335,60375,2,0,L|62:326,3,52.5,8|8|8|8,0:2|1:2|1:2|1:2,0:0:0:0:
319,232,60702,5,4,0:2:0:0:
201,234,60866,2,0,L|199:164,1,52.5,8|0,0:2|0:0,0:0:0:0:
277,164,61029,2,0,L|277:98,1,52.5,2|0,0:2|0:0,0:0:0:0:
199,74,61193,1,8,0:2:0:0:
340,112,61356,2,0,L|451:112,1,105,2|8,0:2|0:2,0:0:0:0:
386,90,61602,1,0,0:2:0:0:
202,185,61683,2,0,L|148:185,1,52.5,2|0,0:2|0:2,0:0:0:0:
202,185,61847,2,0,L|269:184,1,52.5,8|0,0:2|0:0,0:0:0:0:
446,191,62010,5,2,0:2:0:0:
288,288,62174,1,8,0:2:0:0:
273,238,62255,1,0,0:0:0:0:
286,188,62337,1,2,0:2:0:0:
324,152,62419,1,0,0:2:0:0:
374,140,62500,1,10,0:2:0:0:
225,88,62664,1,0,0:2:0:0:
331,52,62828,1,10,0:2:0:0:
383,52,62909,1,0,0:2:0:0:
436,52,62991,1,0,0:2:0:0:
271,353,63155,1,10,0:2:0:0:
32,291,63318,6,0,P|23:220|66:161,1,105,2|8,0:2|0:2,0:0:0:0:
140,165,63645,1,0,0:2:0:0:
189,150,63726,1,0,0:2:0:0:
224,111,63808,1,10,0:2:0:0:
233,60,63890,1,0,0:2:0:0:
214,12,63971,1,0,0:2:0:0:
76,7,64136,1,10,0:2:0:0:
128,7,64217,1,0,0:2:0:0:
181,7,64299,1,0,0:2:0:0:
315,8,64463,1,10,0:2:0:0:
34,105,64626,5,2,0:2:0:0:
191,197,64790,2,0,L|205:143,1,52.5,8|0,0:2|0:2,0:0:0:0:
287,122,64954,2,0,L|271:71,1,52.5,0|0,0:2|0:2,0:0:0:0:
181,54,65117,2,0,L|201:2,1,52.5,8|0,0:2|0:2,0:0:0:0:
397,55,65280,1,2,0:2:0:0:
444,75,65361,1,0,0:0:0:0:
472,119,65443,1,8,0:2:0:0:
471,170,65525,1,0,0:0:0:0:
441,212,65606,1,10,0:2:0:0:
337,231,65771,1,8,1:2:0:0:
89,330,65934,6,0,L|86:213,1,105,4|8,1:2|0:0,0:0:0:0:
242,235,66263,2,0,L|306:224,2,52.5,2|0|12,0:2|0:2|0:2,0:0:0:0:
117,167,66589,2,0,L|53:156,2,52.5,2|0|8,0:2|0:0|0:2,0:0:0:0:
392,88,66915,2,0,L|456:77,2,52.5,2|0|8,0:2|0:2|0:2,0:0:0:0:
129,106,67237,6,0,L|126:-5,1,105,6|8,0:2|0:0,0:0:0:0:
264,110,67563,2,0,L|264:167,1,52.5,2|0,0:2|0:2,0:0:0:0:
61,281,67726,2,0,L|178:270,1,105,10|0,0:2|0:2,0:0:0:0:
310,347,68052,1,8,0:2:0:0:
356,324,68133,1,0,0:2:0:0:
380,279,68215,1,2,0:2:0:0:
372,228,68296,1,0,0:2:0:0:
335,192,68378,1,8,0:2:0:0:
77,167,68542,5,6,0:2:0:0:
416,91,68705,2,0,L|189:64,1,210,8|10,0:0|0:2,0:0:0:0:
313,191,69194,1,0,0:2:0:0:
365,164,69275,1,0,0:2:0:0:
376,113,69357,1,8,0:2:0:0:
340,66,69438,1,0,0:2:0:0:
151,39,69520,2,0,L|75:39,1,52.5,0|0,0:2|0:2,0:0:0:0:
151,39,69683,2,0,L|216:39,1,52.5,8|0,0:2|0:2,0:0:0:0:
420,41,69846,5,0,0:2:0:0:
129,197,70009,2,0,L|350:193,1,210,8|8,0:2|0:2,0:0:0:0:
397,195,70417,1,8,0:2:0:0:
221,292,70498,2,0,L|156:293,1,52.5,8|8,0:2|0:0,0:0:0:0:
378,343,70661,2,0,L|445:341,1,52.5,8|8,0:2|0:2,0:0:0:0:
221,292,70824,2,0,L|156:293,1,52.5,8|8,0:2|0:2,0:0:0:0:
378,343,70987,2,0,L|445:341,1,52.5,8|8,0:2|0:2,0:0:0:0:
158,204,71157,5,4,0:2:0:0:
290,143,71319,2,0,L|296:87,2,52.5,0|0|10,0:0|0:0|0:0,0:0:0:0:
155,282,71644,2,0,L|149:226,2,52.5,4|4|6,0:3|0:3|0:3,0:0:0:0:
306,289,71970,1,0,0:0:0:0:
153,148,72132,2,0,L|43:162,1,105,10|0,0:0|0:0,0:0:0:0:
356,211,72457,6,0,P|415:124|336:49,1,210,2|10,0:0|0:0,0:0:0:0:
216,121,72945,2,0,L|205:10,1,105,6|4,0:3|0:3,0:0:0:0:
342,151,73270,2,0,L|394:161,2,52.5,2|0|8,0:0|0:0|0:0,0:0:0:0:
186,205,73596,1,2,0:0:0:0:
473,333,73758,6,0,P|400:314|353:312,1,105,2|0,0:0|0:0,0:0:0:0:
239,359,74084,1,10,0:0:0:0:
380,240,74247,1,6,0:3:0:0:
399,191,74328,1,0,0:0:0:0:
398,138,74410,1,4,0:3:0:0:
262,75,74573,2,0,P|195:65|134:65,1,105,2|8,0:0|0:0,0:0:0:0:
322,9,74899,1,2,0:0:0:0:
102,231,75062,6,0,L|317:207,1,210,2|8,0:0|0:0,0:0:0:0:
177,350,75551,1,4,0:3:0:0:
134,320,75632,1,4,0:3:0:0:
120,270,75714,1,4,0:3:0:0:
139,223,75795,1,0,0:0:0:0:
183,197,75877,1,0,0:0:0:0:
297,192,76040,1,8,0:0:0:0:
147,124,76203,2,0,L|89:124,1,52.5,8|8,0:0|0:0,0:0:0:0:
328,31,76366,5,4,0:0:0:0:
209,102,76529,1,0,0:0:0:0:
211,154,76610,1,0,0:0:0:0:
213,206,76692,1,10,0:0:0:0:
361,195,76855,1,4,0:3:0:0:
363,247,76937,1,4,0:3:0:0:
365,299,77026,1,6,0:3:0:0:
219,181,77189,1,0,0:0:0:0:
358,144,77352,2,0,L|472:143,1,105,10|0,0:0|0:0,0:0:0:0:
163,344,77678,6,0,P|100:272|195:197,1,210,2|10,0:0|0:0,0:0:0:0:
293,233,78166,1,6,0:3:0:0:
310,184,78247,1,4,0:3:0:0:
299,134,78328,1,4,0:3:0:0:
178,97,78492,1,2,0:0:0:0:
299,42,78655,2,0,L|435:43,1,105,8|2,0:0|0:0,0:0:0:0:
111,174,78980,6,0,L|0:174,2,105,2|0|8,0:0|0:0|0:0,0:0:0:0:
251,175,79469,2,0,L|339:175,2,52.5,4|4|6,0:3|0:3|0:3,0:0:0:0:
125,175,79795,1,0,0:0:0:0:
288,203,79958,1,8,0:0:0:0:
340,203,80039,1,0,0:0:0:0:
393,203,80120,1,2,0:0:0:0:
151,349,80283,6,0,L|127:237,1,105,0|4,0:0|0:3,0:0:0:0:
200,202,80528,1,4,0:3:0:0:
293,209,80609,2,0,L|317:97,1,105,8|0,0:0|0:0,0:0:0:0:
230,60,80854,1,0,0:0:0:0:
465,168,80935,6,0,P|470:81|429:48,1,105,8|4,0:0|0:3,0:0:0:0:
406,47,81179,1,4,0:3:0:0:
232,137,81261,2,0,L|219:76,1,52.5,8|8,0:0|0:0,0:0:0:0:
305,157,81423,2,0,L|253:171,1,52.5,8|8,0:0|0:0,0:0:0:0:
68,133,81586,5,0,0:0:0:0:
194,200,81749,2,0,L|196:257,2,52.5,0|0|10,0:0|0:0|0:0,0:0:0:0:
68,133,82075,2,0,L|66:79,2,52.5,4|4|6,0:3|0:3|0:3,0:0:0:0:
192,55,82401,1,0,0:0:0:0:
46,11,82563,2,0,L|172:2,1,105,10|0,0:0|0:0,0:0:0:0:
432,266,82889,6,0,P|493:191|411:115,1,210,2|10,0:0|0:0,0:0:0:0:
291,148,83378,2,0,P|273:90|286:24,1,105,6|4,0:3|0:3,0:0:0:0:
425,167,83704,2,0,L|433:250,2,52.5,2|0|8,0:0|0:0|0:0,0:0:0:0:
302,128,84029,1,2,0:0:0:0:
46,244,84190,6,0,L|152:232,2,105,2|0|10,0:0|0:0|0:0,0:0:0:0:
205,293,84679,1,6,0:3:0:0:
257,286,84760,1,4,0:3:0:0:
309,279,84842,1,4,0:3:0:0:
431,265,85005,1,2,0:0:0:0:
301,196,85168,2,0,L|407:187,1,105,8|2,0:0|0:0,0:0:0:0:
159,184,85494,6,0,P|72:132|107:20,1,210,2|8,0:0|0:0,0:0:0:0:
203,8,85983,1,0,0:0:0:0:
475,10,86146,1,8,0:0:0:0:
345,62,86309,2,0,L|286:49,1,52.5,4|4,0:3|0:3,0:0:0:0:
477,262,86472,1,8,0:0:0:0:
486,206,86553,1,8,0:0:0:0:
457,159,86635,1,8,0:0:0:0:
406,143,86716,1,8,0:0:0:0:
162,216,86798,5,0,0:0:0:0:
305,317,86961,2,0,L|242:297,1,52.5,4|4,0:3|0:3,0:0:0:0:
57,148,87124,2,0,L|124:132,1,52.5,6|4,0:3|0:3,0:0:0:0:
325,209,87287,2,0,P|372:159|297:50,1,210,12|0,0:0|0:0,0:0:0:0:
257,52,87695,1,0,0:0:0:0:
69,50,87776,2,0,L|184:49,1,105,8|0,0:0|0:0,0:0:0:0:
444,179,88103,6,0,L|271:179,1,157.5,0|0,0:0|0:0,0:0:0:0:
218,177,88442,1,8,0:0:0:0:
361,95,88601,1,0,0:0:0:0:
57,302,88761,2,0,L|49:184,1,105,8|8,0:0|0:0,0:0:0:0:
109,167,89000,1,8,0:0:0:0:
340,233,89080,2,0,L|423:232,1,52.5,8|8,0:0|0:0,0:0:0:0:
199,86,89239,2,0,L|131:86,1,52.5,8|8,0:0|0:0,0:0:0:0:
348,27,89399,5,8,0:0:0:0:
244,142,89562,2,0,L|315:129,1,52.5,4|4,0:3|0:3,0:0:0:0:
488,265,89725,2,0,L|428:253,1,52.5,6|4,0:3|0:3,0:0:0:0:
152,346,89888,2,0,L|370:328,1,210,12|0,0:0|0:0,0:0:0:0:
418,325,90295,1,0,0:0:0:0:
248,237,90377,2,0,L|129:225,1,105,8|0,0:0|0:0,0:0:0:0:
410,47,90703,5,0,0:0:0:0:
298,109,90866,2,0,L|293:177,2,52.5,0|0|8,0:0|0:0|0:0,0:0:0:0:
410,47,91192,1,0,0:0:0:0:
254,219,91355,2,0,L|129:208,1,105,8|0,0:0|0:0,0:0:0:0:
207,186,91600,1,0,0:0:0:0:
367,258,91681,2,0,L|425:266,1,52.5,8|8,0:0|0:0,0:0:0:0:
207,352,91844,2,0,L|202:284,1,52.5,8|8,0:0|0:0,0:0:0:0:
414,164,92007,5,6,0:0:0:0:
303,102,92170,1,0,0:0:0:0:
250,97,92251,1,0,0:0:0:0:
198,92,92333,1,8,0:0:0:0:
376,28,92496,1,0,0:0:0:0:
323,23,92577,1,0,0:0:0:0:
271,18,92659,1,0,0:0:0:0:
135,184,92822,1,0,0:0:0:0:
187,179,92903,1,0,0:0:0:0:
239,174,92985,1,8,0:0:0:0:
350,219,93149,2,0,L|418:207,1,52.5,0|0,0:0|0:0,0:0:0:0:
195,328,93312,6,0,L|84:315,2,105,0|0|8,0:0|0:0|0:0,0:0:0:0:
336,282,93801,2,0,L|405:293,1,52.5,0|0,0:0|0:0,0:0:0:0:
203,227,93964,2,0,L|183:170,1,52.5,8|0,0:0|0:0,0:0:0:0:
266,149,94127,2,0,L|285:89,1,52.5,0|0,0:0|0:0,0:0:0:0:
136,20,94290,1,8,0:0:0:0:
76,36,94371,1,8,0:0:0:0:
50,80,94453,1,8,0:0:0:0:
60,129,94534,1,0,0:0:0:0:
221,166,94626,6,0,L|307:182,1,52.5,6|0,0:2|0:2,0:0:0:0:
497,93,94789,2,0,L|429:106,1,52.5,10|0,0:2|0:2,0:0:0:0:
275,121,94952,2,0,L|220:132,1,52.5,0|0,0:2|0:2,0:0:0:0:
22,198,95115,6,0,L|108:214,1,52.5,10|0,0:2|0:2,0:0:0:0:
298,125,95278,2,0,L|230:138,1,52.5,10|0,0:2|0:2,0:0:0:0:
76,153,95441,2,0,L|21:164,1,52.5,0|0,0:2|0:2,0:0:0:0:
251,238,95604,6,0,L|308:248,1,52.5,10|0,0:2|0:2,0:0:0:0:
91,88,95767,2,0,L|26:106,1,52.5,10|0,0:2|0:2,0:0:0:0:
280,341,95930,2,0,L|291:272,1,52.5,0|0,0:2|0:2,0:0:0:0:
103,221,96093,2,0,L|90:160,1,52.5,10|0,0:2|0:2,0:0:0:0:
293,150,96256,2,0,L|307:93,1,52.5,10|8,0:2|0:2,0:0:0:0:
489,83,96419,2,0,L|506:29,1,52.5,8|8,0:2|0:2,0:0:0:0:
242,52,96582,6,0,L|40:34,1,157.5,6|0,0:2|2:2,0:0:0:0:
309,244,96908,2,0,L|475:224,1,157.5,6|0,0:2|2:2,0:0:0:0:
263,336,97230,6,0,L|250:268,1,52.5,14|0,0:0|0:0,0:0:0:0:
325,295,97393,1,0,0:0:0:0:
375,284,97474,1,0,0:0:0:0:
406,243,97556,1,8,0:0:0:0:
402,192,97637,1,0,0:0:0:0:
360,162,97719,2,0,L|288:150,1,52.5,0|0,0:0|0:0,0:0:0:0:
124,256,97882,6,0,L|195:241,1,52.5,8|0,0:0|0:0,0:0:0:0:
254,264,98045,2,0,L|321:248,1,52.5,0|0,0:0|0:0,0:0:0:0:
110,165,98208,1,8,0:0:0:0:
63,143,98289,1,0,0:0:0:0:
43,96,98371,1,0,0:0:0:0:
59,47,98452,1,0,0:0:0:0:
261,24,98534,5,10,0:0:0:0:
312,31,98615,1,0,0:0:0:0:
352,64,98697,1,0,0:0:0:0:
369,113,98778,1,0,0:0:0:0:
359,164,98860,1,8,0:0:0:0:
323,201,98941,1,0,0:0:0:0:
257,238,99023,2,0,L|245:167,1,52.5,0|0,0:0|0:0,0:0:0:0:
420,354,99186,6,0,L|451:312,1,52.5,10|0,0:0|0:0,0:0:0:0:
370,282,99349,2,0,L|313:254,1,52.5,0|0,0:0|0:0,0:0:0:0:
146,258,99512,2,0,L|71:239,1,52.5,10|0,0:0|0:0,0:0:0:0:
330,155,99675,2,0,L|411:133,1,52.5,0|0,0:0|0:0,0:0:0:0:
226,95,99838,6,0,L|171:48,3,52.5,10|0|0|0,0:0|0:0|0:0|0:0,0:0:0:0:
360,91,100164,6,0,L|415:44,3,52.5,10|0|0|0,0:0|0:0|0:0|0:0,0:0:0:0:
226,95,100490,6,0,L|171:48,3,52.5,10|0|0|0,0:0|0:0|0:0|0:0,0:0:0:0:
15,99,100816,6,0,L|70:52,3,52.5,10|0|0|0,0:0|0:0|0:0|0:0,0:0:0:0:
232,320,101143,5,10,0:0:0:0:
279,299,101224,1,0,0:0:0:0:
315,261,101306,1,0,0:0:0:0:
333,212,101387,1,0,0:0:0:0:
331,160,101469,1,8,0:0:0:0:
307,114,101550,1,0,0:0:0:0:
267,80,101632,1,0,0:0:0:0:
217,66,101713,1,0,0:0:0:0:
422,247,101795,5,10,0:0:0:0:
461,214,101876,1,0,0:0:0:0:
463,163,101958,1,8,0:0:0:0:
426,128,102039,1,8,0:0:0:0:
223,150,102125,2,0,L|225:88,1,52.5,10|4,0:0|0:3,0:0:0:0:
382,209,102288,2,0,L|382:276,1,52.5,4|4,0:3|0:3,0:0:0:0:
154,350,102451,6,0,L|126:297,1,52.5,10|0,0:0|0:0,0:0:0:0:
206,276,102614,2,0,L|234:226,1,52.5,0|0,0:0|0:0,0:0:0:0:
153,213,102777,1,8,0:0:0:0:
109,185,102858,1,0,0:0:0:0:
94,136,102940,1,0,0:0:0:0:
115,89,103021,1,0,0:0:0:0:
180,73,103103,6,0,L|241:68,1,52.5,8|0,0:0|0:0,0:0:0:0:
156,54,103266,2,0,L|98:43,1,52.5,0|0,0:0|0:0,0:0:0:0:
302,175,103429,1,10,0:0:0:0:
351,162,103510,1,0,0:0:0:0:
379,119,103592,1,0,0:0:0:0:
372,68,103673,1,0,0:0:0:0:
176,29,103755,5,10,0:0:0:0:
226,16,103836,1,0,0:0:0:0:
278,20,103918,1,0,0:0:0:0:
326,41,103999,1,0,0:0:0:0:
364,77,104081,1,8,0:0:0:0:
388,124,104162,1,0,0:0:0:0:
395,176,104244,1,0,0:0:0:0:
385,227,104325,1,0,0:0:0:0:
140,295,104407,6,0,L|213:281,1,52.5,10|0,0:0|0:0,0:0:0:0:
376,308,104570,2,0,L|443:288,1,52.5,0|0,0:0|0:0,0:0:0:0:
178,235,104733,2,0,L|121:247,1,52.5,10|0,0:0|0:0,0:0:0:0:
370,262,104896,2,0,L|435:246,1,52.5,0|0,0:0|0:0,0:0:0:0:
202,189,105059,5,10,0:0:0:0:
155,166,105140,1,0,0:0:0:0:
127,123,105222,1,0,0:0:0:0:
126,71,105303,1,0,0:0:0:0:
153,27,105385,1,8,0:0:0:0:
200,4,105466,1,0,0:0:0:0:
359,65,105548,2,0,L|435:65,1,52.5,2|0,0:0|0:0,0:0:0:0:
213,276,105711,6,0,L|149:276,1,52.5,10|0,0:0|0:0,0:0:0:0:
213,276,105874,2,0,L|290:276,1,52.5,0|0,0:0|0:0,0:0:0:0:
105,209,106037,2,0,L|36:209,1,52.5,8|0,0:0|0:0,0:0:0:0:
337,202,106201,2,0,L|396:202,1,52.5,0|0,0:0|0:0,0:0:0:0:
198,144,106350,6,0,L|188:92,1,52.5,4|4,0:3|0:3,0:0:0:0:
258,79,106513,2,0,L|251:24,1,52.5,4|4,0:3|0:3,0:0:0:0:
6,66,106676,2,0,L|165:40,1,157.5,8|0,0:0|0:0,0:0:0:0:
366,92,107002,2,0,L|449:74,1,52.5,8|4,0:0|0:3,0:0:0:0:
188,191,107165,2,0,L|123:199,1,52.5,4|4,0:3|0:3,0:0:0:0:
366,92,107328,2,0,L|449:74,1,52.5,8|4,0:0|0:3,0:0:0:0:
188,191,107491,2,0,L|123:199,1,52.5,4|4,0:3|0:3,0:0:0:0:
365,330,107670,6,0,L|368:240,1,52.5,12|0,0:0|0:0,0:0:0:0:
285,262,107833,2,0,L|211:245,1,52.5,0|0,0:0|0:0,0:0:0:0:
320,220,107996,2,0,L|251:208,1,52.5,8|0,0:0|0:0,0:0:0:0:
212,198,108159,2,0,L|151:188,1,52.5,0|0,0:0|0:0,0:0:0:0:
330,143,108322,5,8,0:0:0:0:
374,117,108403,1,0,0:0:0:0:
389,68,108485,1,0,0:0:0:0:
368,21,108566,1,0,0:0:0:0:
151,93,108648,2,0,L|219:84,1,52.5,8|0,0:0|0:0,0:0:0:0:
270,73,108811,2,0,L|337:64,1,52.5,0|0,0:0|0:0,0:0:0:0:
89,352,108974,5,10,0:0:0:0:
79,300,109055,1,0,0:0:0:0:
90,249,109137,1,0,0:0:0:0:
121,207,109218,1,0,0:0:0:0:
166,181,109300,1,8,0:0:0:0:
217,175,109381,1,0,0:0:0:0:
166,181,109463,2,0,L|94:172,1,52.5,0|0,0:0|0:0,0:0:0:0:
319,306,109626,5,10,0:0:0:0:
365,284,109707,1,0,0:0:0:0:
391,239,109789,1,0,0:0:0:0:
386,187,109870,1,0,0:0:0:0:
189,129,109952,2,0,L|258:119,1,52.5,10|0,0:0|0:0,0:0:0:0:
395,100,110115,2,0,L|455:92,1,52.5,0|0,0:0|0:0,0:0:0:0:
262,235,110278,6,0,L|260:183,1,52.5,10|0,0:0|0:0,0:0:0:0:
332,167,110441,2,0,L|332:114,1,52.5,0|0,0:0|0:0,0:0:0:0:
185,270,110604,2,0,L|183:218,1,52.5,10|0,0:0|0:0,0:0:0:0:
255,202,110767,2,0,L|255:149,1,52.5,0|0,0:0|0:0,0:0:0:0:
113,308,110930,6,0,L|111:256,1,52.5,10|0,0:0|0:0,0:0:0:0:
183,240,111093,2,0,L|183:187,1,52.5,0|0,0:0|0:0,0:0:0:0:
17,167,111256,2,0,L|89:154,1,52.5,10|0,0:0|0:0,0:0:0:0:
247,116,111420,2,0,L|312:103,1,52.5,2|0,0:0|0:0,0:0:0:0:
76,57,111583,5,8,0:0:0:0:
128,51,111664,1,0,0:0:0:0:
180,45,111746,1,0,0:0:0:0:
232,40,111827,1,0,0:0:0:0:
284,34,111907,1,8,0:0:0:0:
336,28,111988,1,0,0:0:0:0:
389,23,112070,1,0,0:0:0:0:
442,15,112151,1,0,0:0:0:0:
250,230,112233,6,0,L|242:160,1,52.5,10|0,0:0|0:0,0:0:0:0:
316,187,112396,2,0,L|384:172,1,52.5,8|8,0:0|0:0,0:0:0:0:
288,128,112559,1,10,0:0:0:0:
239,143,112640,1,4,0:3:0:0:
203,190,112722,1,0,0:3:0:0:
214,241,112803,1,4,0:3:0:0:
406,358,112885,5,10,0:0:0:0:
450,332,112966,1,0,0:0:0:0:
474,286,113048,1,0,0:0:0:0:
470,234,113130,1,0,0:0:0:0:
439,193,113212,1,8,0:0:0:0:
390,175,113294,1,0,0:0:0:0:
460,167,113376,2,0,L|481:111,1,52.5,0|0,0:0|0:0,0:0:0:0:
389,103,113540,6,0,L|366:45,1,52.5,8|0,0:0|0:0,0:0:0:0:
457,50,113704,2,0,L|478:-8,1,52.5,0|0,0:0|0:0,0:0:0:0:
275,133,113868,2,0,L|206:122,1,52.5,10|4,0:0|0:3,0:0:0:0:
291,216,114032,2,0,L|358:208,1,52.5,4|4,0:3|0:3,0:0:0:0:
147,351,114185,5,10,0:0:0:0:
257,347,114348,1,8,0:0:0:0:
302,323,114429,1,0,0:0:0:0:
327,277,114511,1,8,0:0:0:0:
321,226,114592,1,8,0:0:0:0:
288,187,114674,1,8,0:0:0:0:
129,131,114837,6,0,L|213:118,1,52.5,10|0,0:0|0:0,0:0:0:0:
233,128,115000,2,0,L|173:122,1,52.5,8|0,0:0|0:0,0:0:0:0:
382,89,115163,2,0,L|325:83,1,52.5,10|8,0:0|0:0,0:0:0:0:
164,51,115326,2,0,L|95:42,1,52.5,8|8,0:0|0:0,0:0:0:0:
302,13,115489,5,6,1:0:0:0:
256,192,115652,12,4,118114,0:0:0:0:
66,58,120711,5,4,0:2:0:0:
392,240,120874,2,0,L|169:224,1,210,8|8,0:2|0:2,0:0:0:0:
319,140,121363,2,0,L|328:86,1,52.5,0|0,0:2|0:2,0:0:0:0:
401,92,121526,2,0,L|416:33,1,52.5,8|0,0:2|0:2,0:0:0:0:
179,305,121689,2,0,L|241:295,1,52.5,0|0,0:2|0:2,0:0:0:0:
304,288,121852,2,0,L|356:278,1,52.5,8|0,0:2|0:2,0:0:0:0:
116,198,122015,5,0,0:2:0:0:
426,173,122178,2,0,L|204:155,1,210,8|8,0:2|0:2,0:0:0:0:
361,124,122667,1,0,0:2:0:0:
400,92,122748,1,0,0:2:0:0:
402,41,122830,1,8,0:2:0:0:
365,7,122911,1,0,0:2:0:0:
156,19,122993,2,0,L|87:18,1,52.5,0|0,0:2|0:2,0:0:0:0:
259,156,123156,2,0,L|318:156,1,52.5,8|0,0:2|0:2,0:0:0:0:
484,158,123319,5,4,0:2:0:0:
142,318,123482,2,0,L|371:303,1,210,8|8,0:2|0:2,0:0:0:0:
201,274,123971,1,0,0:2:0:0:
164,238,124052,1,0,0:2:0:0:
165,187,124134,1,8,0:2:0:0:
204,155,124215,1,0,0:2:0:0:
388,178,124297,1,0,0:2:0:0:
424,142,124378,1,0,0:2:0:0:
423,91,124460,1,8,0:2:0:0:
384,59,124541,1,0,0:2:0:0:
171,76,124624,6,0,L|153:3,1,52.5,8|8,0:0|0:0,0:0:0:0:
384,312,124787,2,0,L|394:258,1,52.5,8|8,0:0|0:0,0:0:0:0:
171,76,125103,6,0,L|153:3,1,52.5,8|8,0:0|0:0,0:0:0:0:
384,312,125257,2,0,L|394:258,1,52.5,8|8,0:0|0:0,0:0:0:0:
171,76,125609,6,0,L|153:3,1,52.5,8|4,0:0|0:3,0:0:0:0:
384,312,125766,2,0,L|394:258,1,52.5,4|4,0:3|0:3,0:0:0:0:
151,349,125928,6,0,L|142:284,1,52.5,0|0,0:2|0:0,0:0:0:0:
216,275,126091,2,0,L|208:209,1,52.5,0|0,0:0|0:0,0:0:0:0:
285,199,126254,2,0,L|281:140,1,52.5,2|0,0:0|0:0,0:0:0:0:
202,112,126417,1,8,0:0:0:0:
381,324,126743,2,0,L|371:263,1,52.5,0|0,0:0|0:0,0:0:0:0:
289,275,126906,2,0,L|279:222,1,52.5,10|0,0:0|0:0,0:0:0:0:
197,223,127069,2,0,L|180:163,1,52.5,0|0,0:0|0:0,0:0:0:0:
456,252,127232,6,0,L|465:187,1,52.5,6|4,0:3|0:3,0:0:0:0:
391,178,127395,2,0,L|399:112,1,52.5,4|4,0:3|0:3,0:0:0:0:
322,102,127558,2,0,L|326:43,1,52.5,6|4,0:3|0:3,0:0:0:0:
405,15,127721,1,10,0:0:0:0:
226,227,128047,2,0,L|236:166,1,52.5,2|0,0:0|0:0,0:0:0:0:
318,178,128210,2,0,L|328:125,1,52.5,8|0,0:0|0:0,0:0:0:0:
410,126,128373,2,0,L|427:66,1,52.5,2|0,0:0|0:0,0:0:0:0:
210,366,128536,6,0,L|186:294,1,52.5,6|4,0:3|0:3,0:0:0:0:
279,302,128699,2,0,L|302:248,1,52.5,4|4,0:3|0:3,0:0:0:0:
212,225,128862,2,0,L|193:155,1,52.5,6|4,0:3|0:3,0:0:0:0:
271,131,129025,1,10,0:0:0:0:
60,287,129351,6,0,L|36:232,1,52.5,2|0,0:0|0:0,0:0:0:0:
125,210,129514,2,0,L|146:157,1,52.5,8|0,0:0|0:0,0:0:0:0:
56,129,129677,2,0,L|34:70,1,52.5,2|0,0:0|0:0,0:0:0:0:
292,351,129841,6,0,L|316:279,1,52.5,6|4,0:3|0:3,0:0:0:0:
223,287,130004,2,0,L|200:233,1,52.5,4|4,0:3|0:3,0:0:0:0:
290,210,130167,2,0,L|309:140,1,52.5,4|4,0:3|0:3,0:0:0:0:
231,116,130330,1,8,0:0:0:0:
443,123,130656,2,0,L|331:108,2,105,0|8|0,0:0|0:0|0:0,0:0:0:0:
204,334,131145,6,0,L|225:259,1,52.5,0|0,0:0|0:0,0:0:0:0:
302,274,131308,2,0,L|328:224,1,52.5,0|0,0:0|0:0,0:0:0:0:
242,195,131471,2,0,L|222:135,1,52.5,2|0,0:0|0:0,0:0:0:0:
141,129,131634,1,8,0:0:0:0:
334,234,131960,6,0,L|355:159,1,52.5,0|0,0:0|0:0,0:0:0:0:
432,174,132123,2,0,L|458:124,1,52.5,10|0,0:0|0:0,0:0:0:0:
372,95,132286,2,0,L|352:35,1,52.5,0|0,0:0|0:0,0:0:0:0:
184,300,132449,6,0,L|163:225,1,52.5,6|4,0:3|0:3,0:0:0:0:
86,240,132612,2,0,L|60:190,1,52.5,4|4,0:3|0:3,0:0:0:0:
146,161,132775,2,0,L|166:101,1,52.5,6|4,0:3|0:3,0:0:0:0:
247,95,132938,1,10,0:0:0:0:
43,231,133264,6,0,L|64:156,1,52.5,2|0,0:0|0:0,0:0:0:0:
141,171,133427,2,0,L|167:121,1,52.5,8|0,0:0|0:0,0:0:0:0:
81,92,133590,2,0,L|61:32,1,52.5,2|0,0:0|0:0,0:0:0:0:
226,277,133751,6,0,L|366:267,1,105,14|0,0:0|0:0,0:0:0:0:
271,245,133995,1,8,0:0:0:0:
422,227,134077,1,10,0:0:0:0:
464,198,134158,1,0,0:0:0:0:
477,148,134240,1,10,0:0:0:0:
455,102,134321,1,8,0:0:0:0:
401,85,134403,5,8,0:0:0:0:
237,82,134566,2,0,L|171:83,1,52.5,2|8,0:0|0:0,0:0:0:0:
237,82,134729,2,0,L|304:81,1,52.5,8|8,0:0|0:0,0:0:0:0:
237,82,134892,2,0,L|171:82,1,52.5,10|8,0:0|0:0,0:0:0:0:
363,303,135059,5,2,0:0:0:0:
409,279,135140,1,0,0:0:0:0:
436,235,135222,1,0,0:0:0:0:
437,184,135303,1,0,0:0:0:0:
410,139,135385,1,8,0:0:0:0:
364,116,135466,1,0,0:0:0:0:
193,114,135548,2,0,L|114:114,1,52.5,8|8,0:0|0:0,0:0:0:0:
306,253,135711,6,0,L|310:187,1,52.5,8|0,0:0|0:0,0:0:0:0:
239,185,135873,2,0,L|244:127,1,52.5,0|0,0:0|0:0,0:0:0:0:
423,93,136035,2,0,L|351:83,1,52.5,8|8,0:0|0:3,0:0:0:0:
201,41,136197,2,0,L|125:30,1,52.5,8|8,0:3|0:3,0:0:0:0:
379,10,136353,5,4,0:2:0:0:
123,293,136516,2,0,L|370:262,1,210,14|8,0:0|0:0,0:0:0:0:
187,122,137005,1,2,0:0:0:0:
188,174,137086,1,0,0:0:0:0:
189,226,137168,1,8,0:0:0:0:
313,162,137331,2,0,L|386:154,2,52.5,2|0|8,0:0|0:0|0:0,0:0:0:0:
51,108,137657,5,2,0:0:0:0:
190,246,137820,1,8,0:0:0:0:
235,221,137901,1,0,0:0:0:0:
252,173,137983,1,2,0:0:0:0:
233,125,138064,1,0,0:0:0:0:
187,103,138146,1,10,0:0:0:0:
67,103,138309,1,0,0:0:0:0:
187,103,138472,1,10,0:0:0:0:
239,103,138553,1,0,0:0:0:0:
292,103,138635,1,0,0:0:0:0:
130,24,138798,1,10,0:0:0:0:
379,298,138961,6,0,L|373:176,1,105,2|8,0:0|0:0,0:0:0:0:
244,139,139287,1,0,0:0:0:0:
384,64,139450,1,10,0:0:0:0:
331,60,139531,1,0,0:0:0:0:
279,56,139619,1,0,0:0:0:0:
128,182,139782,2,0,L|113:117,1,52.5,10|0,0:0|0:0,0:0:0:0:
203,209,139945,2,0,L|146:227,1,52.5,0|0,0:0|0:0,0:0:0:0:
83,249,140108,1,10,0:0:0:0:
444,346,140280,5,2,0:0:0:0:
310,294,140443,1,8,0:0:0:0:
294,244,140524,1,0,0:0:0:0:
305,193,140606,1,0,0:0:0:0:
340,155,140687,1,0,0:0:0:0:
389,138,140769,1,8,0:0:0:0:
237,146,140932,5,2,0:0:0:0:
190,125,141013,1,0,0:0:0:0:
171,77,141095,1,8,0:0:0:0:
192,30,141176,1,0,0:0:0:0:
389,9,141258,2,0,L|459:9,1,52.5,10|8,0:0|1:3,0:0:0:0:
172,241,141421,2,0,L|112:241,1,52.5,8|8,1:3|1:3,0:0:0:0:
377,344,141576,6,0,P|445:276|411:196,1,157.5,4|0,0:2|0:0,0:0:0:0:
224,159,141902,2,0,L|167:159,2,52.5,2|0|12,0:2|0:2|0:2,0:0:0:0:
461,57,142228,1,2,0:2:0:0:
341,122,142391,1,8,0:2:0:0:
345,174,142472,1,0,0:2:0:0:
349,226,142554,1,2,0:2:0:0:
461,57,142717,1,8,0:2:0:0:
97,24,142880,5,6,0:2:0:0:
241,129,143043,1,8,0:2:0:0:
188,125,143124,1,0,0:2:0:0:
136,121,143206,1,2,0:2:0:0:
368,276,143369,2,0,L|150:261,1,210,10|8,0:2|0:2,0:0:0:0:
295,175,143858,2,0,L|361:181,2,52.5,2|0|8,0:2|0:0|0:2,0:0:0:0:
41,150,144184,5,6,0:2:0:0:
359,31,144347,2,0,L|139:49,1,210,8|10,0:2|0:2,0:0:0:0:
302,174,144836,2,0,L|326:110,3,52.5,0|0|8|0,0:2|0:2|0:2|0:2,0:0:0:0:
85,313,145162,1,0,0:2:0:0:
77,261,145243,1,0,0:2:0:0:
103,217,145325,1,8,0:2:0:0:
151,197,145406,1,0,0:2:0:0:
359,273,145489,5,0,0:2:0:0:
119,102,145652,2,0,L|339:76,1,210,8|8,0:2|0:2,0:0:0:0:
381,71,146059,1,8,0:2:0:0:
206,192,146141,6,0,L|140:181,1,52.5,8|8,0:2|0:2,0:0:0:0:
355,335,146304,2,0,L|418:327,1,52.5,8|8,0:2|0:2,0:0:0:0:
206,192,146467,2,0,L|140:181,1,52.5,8|8,0:2|0:2,0:0:0:0:
355,335,146630,2,0,L|418:327,1,52.5,8|8,0:2|0:2,0:0:0:0:
161,255,146808,5,4,0:2:0:0:
305,197,146971,2,0,L|318:120,2,52.5,0|0|10,0:0|0:0|0:0,0:0:0:0:
163,78,147297,2,0,L|150:1,2,52.5,4|4|6,0:3|0:3|0:3,0:0:0:0:
297,75,147623,1,0,0:0:0:0:
349,67,147704,1,0,0:0:0:0:
401,60,147786,1,10,0:0:0:0:
225,7,147949,1,0,0:0:0:0:
480,175,148112,6,0,L|321:155,1,157.5,2|0,0:0|0:0,0:0:0:0:
264,145,148437,1,10,0:0:0:0:
390,295,148599,2,0,L|397:240,2,52.5,0|4|4,0:0|0:3|0:3,0:0:0:0:
260,211,148925,1,2,0:0:0:0:
385,170,149087,2,0,L|491:164,1,105,8|2,0:0|0:0,0:0:0:0:
177,313,149412,6,0,P|103:268|135:139,1,210,2|10,0:0|0:0,0:0:0:0:
270,127,149900,1,12,0:3:0:0:
220,109,149981,1,4,0:3:0:0:
169,99,150062,1,4,0:3:0:0:
26,52,150225,1,0,0:0:0:0:
77,43,150306,1,0,0:0:0:0:
127,28,150387,1,8,0:0:0:0:
23,132,150551,1,2,0:0:0:0:
282,289,150713,6,0,P|364:264|365:142,1,210,2|8,0:0|0:0,0:0:0:0:
238,113,151201,2,0,L|164:121,2,52.5,4|4|4,0:3|0:3|0:3,0:0:0:0:
341,28,151526,1,0,0:0:0:0:
191,20,151689,1,8,0:0:0:0:
363,126,151851,2,0,L|366:182,1,52.5,8|8,0:0|0:0,0:0:0:0:
162,34,152014,5,4,0:0:0:0:
281,105,152177,1,0,0:0:0:0:
279,157,152258,1,0,0:0:0:0:
277,209,152340,1,10,0:0:0:0:
129,198,152503,1,4,0:3:0:0:
127,250,152583,1,4,0:3:0:0:
125,302,152664,1,6,0:3:0:0:
271,184,152827,1,0,0:0:0:0:
132,147,152990,2,0,L|18:146,1,105,10|0,0:0|0:0,0:0:0:0:
327,347,153315,6,0,P|390:275|324:195,1,210,2|10,0:0|0:0,0:0:0:0:
197,236,153806,1,6,0:3:0:0:
180,187,153888,1,4,0:3:0:0:
191,137,153970,1,4,0:3:0:0:
312,100,154134,1,2,0:0:0:0:
191,45,154298,2,0,L|55:46,1,105,8|2,0:0|0:0,0:0:0:0:
346,286,154628,6,0,P|414:234|344:138,1,210,2|8,0:0|0:0,0:0:0:0:
222,163,155117,2,0,L|220:96,2,52.5,4|0|6,0:3|0:0|0:3,0:0:0:0:
355,71,155443,1,0,0:0:0:0:
200,40,155606,2,0,L|89:42,1,105,8|2,0:0|0:0,0:0:0:0:
350,184,155932,5,2,0:0:0:0:
229,261,156095,1,4,0:3:0:0:
176,254,156176,1,4,0:3:0:0:
124,248,156258,1,8,0:0:0:0:
296,348,156421,2,0,L|360:342,1,52.5,0|0,0:0|0:0,0:0:0:0:
134,318,156584,6,0,L|11:309,1,105,8|4,0:0|0:3,0:0:0:0:
90,293,156829,1,4,0:3:0:0:
287,251,156910,2,0,L|351:258,1,52.5,8|8,0:0|0:0,0:0:0:0:
166,157,157073,2,0,L|92:146,1,52.5,8|8,0:0|0:0,0:0:0:0:
361,115,157236,5,4,0:0:0:0:
235,169,157399,2,0,L|233:226,2,52.5,0|0|10,0:0|0:0|0:0,0:0:0:0:
363,84,157725,2,0,L|365:30,2,52.5,4|4|6,0:3|0:3|0:3,0:0:0:0:
232,30,158051,1,0,0:0:0:0:
393,139,158214,2,0,L|267:130,1,105,10|0,0:0|0:0,0:0:0:0:
54,263,158541,6,0,P|-7:188|75:112,1,210,2|10,0:0|0:0,0:0:0:0:
229,65,159030,2,0,L|92:50,1,105,6|4,0:3|0:3,0:0:0:0:
236,159,159356,2,0,L|244:242,2,52.5,2|0|8,0:0|0:0|0:0,0:0:0:0:
114,129,159682,1,2,0:0:0:0:
440,241,159845,6,0,L|334:229,2,105,2|0|10,0:0|0:0|0:0,0:0:0:0:
281,290,160334,1,6,0:3:0:0:
229,283,160416,1,4,0:3:0:0:
177,276,160497,1,4,0:3:0:0:
55,262,160660,1,2,0:0:0:0:
185,193,160823,2,0,L|79:184,1,105,8|2,0:0|0:0,0:0:0:0:
333,224,161149,6,0,L|359:168,1,52.5,2|0,0:0|0:0,0:0:0:0:
271,143,161311,2,0,L|248:91,1,52.5,0|0,0:0|0:0,0:0:0:0:
428,283,161473,1,8,0:0:0:0:
474,252,161554,1,0,0:0:0:0:
478,201,161635,1,0,0:0:0:0:
437,163,161716,1,0,0:0:0:0:
271,143,161797,6,0,L|161:143,1,105,8|4,0:0|0:3,0:0:0:0:
224,114,162040,1,4,0:3:0:0:
374,101,162121,2,0,L|445:101,1,52.5,8|8,0:0|0:0,0:0:0:0:
273,34,162284,2,0,L|213:34,1,52.5,8|8,0:0|0:0,0:0:0:0:
42,31,162449,5,0,0:0:0:0:
190,120,162611,1,4,0:3:0:0:
51,203,162773,2,0,L|45:142,1,52.5,6|4,0:3|0:3,0:0:0:0:
397,297,162935,2,0,L|146:283,1,210,12|0,0:0|0:0,0:0:0:0:
128,285,163340,1,0,0:0:0:0:
327,219,163421,2,0,L|449:227,1,105,10|0,0:0|0:0,0:0:0:0:
186,167,163746,6,0,P|116:135|123:27,1,157.5,2|0,0:0|0:0,0:0:0:0:
158,32,164072,1,10,0:0:0:0:
287,32,164236,1,2,0:0:0:0:
158,32,164399,2,0,L|35:32,1,105,8|8,0:0|0:0,0:0:0:0:
111,60,164645,1,8,0:0:0:0:
268,150,164726,2,0,L|268:93,1,52.5,8|8,0:0|0:0,0:0:0:0:
89,242,164890,2,0,L|156:242,1,52.5,8|8,0:0|0:0,0:0:0:0:
417,247,165053,5,8,0:0:0:0:
307,341,165216,2,0,L|306:280,1,52.5,4|0,0:3|0:0,0:0:0:0:
477,176,165379,2,0,L|413:165,1,52.5,6|0,0:3|0:0,0:0:0:0:
152,230,165542,2,0,P|93:185|161:71,1,210,12|0,0:0|0:0,0:0:0:0:
194,69,165949,1,0,0:0:0:0:
361,63,166031,2,0,L|471:62,1,105,10|0,0:0|0:0,0:0:0:0:
198,173,166357,6,0,L|386:173,1,157.5,2|0,0:0|0:0,0:0:0:0:
411,172,166683,1,10,0:0:0:0:
268,171,166846,1,2,0:0:0:0:
34,193,167009,2,0,L|29:86,1,105,8|2,0:0|0:0,0:0:0:0:
89,64,167254,1,0,0:0:0:0:
284,115,167335,2,0,L|348:115,1,52.5,8|8,0:0|0:0,0:0:0:0:
169,192,167498,2,0,L|111:192,1,52.5,10|8,0:0|0:0,0:0:0:0:
396,289,167661,5,6,0:0:0:0:
276,214,167824,2,0,L|270:156,2,52.5,0|0|8,0:0|0:0|0:0,0:0:0:0:
122,136,168150,2,0,L|113:78,2,52.5,0|0|0,0:0|0:0|0:0,0:0:0:0:
270,266,168476,2,0,L|276:208,2,52.5,0|0|8,0:0|0:0|0:0,0:0:0:0:
127,313,168803,2,0,L|65:304,1,52.5,0|0,0:0|0:0,0:0:0:0:
287,347,168966,6,0,L|344:338,2,52.5,0|0|0,0:0|0:0|0:0,0:0:0:0:
139,233,169292,2,0,L|123:177,1,52.5,8|0,0:0|0:0,0:0:0:0:
199,176,169455,2,0,L|266:153,1,52.5,0|0,0:0|0:0,0:0:0:0:
42,145,169618,1,8,0:0:0:0:
6,95,169699,1,0,0:0:0:0:
17,44,169781,1,0,0:0:0:0:
71,13,169862,1,0,0:0:0:0:
237,71,169944,2,0,L|312:71,1,52.5,8|8,0:0|0:0,0:0:0:0:
111,161,170107,2,0,L|192:160,1,52.5,8|0,0:0|0:0,0:0:0:0:
392,279,170270,6,0,L|411:209,1,52.5,6|0,0:2|0:2,0:0:0:0:
227,172,170433,2,0,L|211:113,1,52.5,10|0,0:2|0:2,0:0:0:0:
384,97,170597,2,0,L|448:82,1,52.5,0|0,0:2|0:2,0:0:0:0:
221,298,170761,6,0,L|214:234,1,52.5,10|0,0:2|0:2,0:0:0:0:
398,190,170925,2,0,L|324:175,1,52.5,10|0,0:2|0:2,0:0:0:0:
117,117,171089,2,0,L|40:105,1,52.5,0|0,0:2|0:2,0:0:0:0:
275,60,171253,6,0,L|345:51,1,52.5,10|0,0:2|0:2,0:0:0:0:
94,261,171417,2,0,L|88:199,1,52.5,10|0,0:2|0:2,0:0:0:0:
309,321,171581,6,0,L|381:313,1,52.5,0|0,0:2|0:2,0:0:0:0:
162,256,171745,2,0,L|83:264,1,52.5,10|0,0:2|0:2,0:0:0:0:
324,198,171909,2,0,L|327:132,1,52.5,10|8,0:2|0:2,0:0:0:0:
248,126,172073,2,0,L|254:60,1,52.5,8|8,0:2|0:2,0:0:0:0:
489,44,172237,6,0,L|324:25,1,157.5,6|0,0:2|2:2,0:0:0:0:
137,296,172565,2,0,L|331:276,1,157.5,6|4,0:2|2:3,0:0:0:0:
125,207,172891,6,0,L|117:138,1,52.5,14|0,0:0|0:0,0:0:0:0:
188,162,173053,1,0,0:0:0:0:
238,151,173134,1,0,0:0:0:0:
271,112,173215,1,8,0:0:0:0:
271,60,173297,1,0,0:0:0:0:
227,29,173379,2,0,L|154:18,1,52.5,0|0,0:0|0:0,0:0:0:0:
399,250,173542,5,8,0:0:0:0:
440,220,173623,1,0,0:0:0:0:
444,169,173704,1,0,0:0:0:0:
408,133,173786,1,0,0:0:0:0:
222,301,173867,2,0,L|293:302,1,52.5,8|0,0:0|0:0,0:0:0:0:
326,301,174030,2,0,L|267:301,1,52.5,0|0,0:0|0:0,0:0:0:0:
96,256,174193,5,10,0:0:0:0:
52,228,174274,1,0,0:0:0:0:
28,182,174355,1,0,0:0:0:0:
33,130,174437,1,0,0:0:0:0:
64,88,174518,1,8,0:0:0:0:
112,69,174599,1,0,0:0:0:0:
64,88,174681,2,0,L|-3:89,1,52.5,0|0,0:0|0:0,0:0:0:0:
226,202,174844,6,0,L|237:136,1,52.5,10|0,0:0|0:0,0:0:0:0:
164,130,175007,2,0,L|176:59,1,52.5,0|0,0:0|0:0,0:0:0:0:
362,125,175169,2,0,L|426:125,1,52.5,10|0,0:0|0:0,0:0:0:0:
216,253,175340,2,0,L|156:253,1,52.5,0|0,0:0|0:0,0:0:0:0:
410,344,175511,6,0,L|444:275,3,52.5,10|0|0|0,0:0|0:0|0:0|0:0,0:0:0:0:
256,212,175836,2,0,L|222:143,3,52.5,10|0|0|0,0:0|0:0|0:0|0:0,0:0:0:0:
74,294,176162,6,0,L|40:225,3,52.5,10|0|0|0,0:0|0:0|0:0|0:0,0:0:0:0:
228,162,176488,2,0,L|262:93,3,52.5,10|0|0|0,0:0|0:0|0:0|0:0,0:0:0:0:
455,165,176814,6,0,L|460:105,1,52.5,10|0,0:0|0:0,0:0:0:0:
397,72,176977,2,0,L|341:55,1,52.5,0|0,0:0|0:0,0:0:0:0:
271,150,177140,2,0,L|349:134,1,52.5,8|0,0:0|0:0,0:0:0:0:
417,227,177303,2,0,L|361:217,1,52.5,0|0,0:0|0:0,0:0:0:0:
171,350,177466,5,10,0:0:0:0:
130,318,177547,1,0,0:0:0:0:
124,267,177628,1,8,0:0:0:0:
157,228,177710,1,8,0:0:0:0:
341,350,177792,1,10,0:0:0:0:
381,318,177873,1,4,0:3:0:0:
387,267,177954,1,4,0:3:0:0:
354,228,178036,1,4,0:3:0:0:
146,217,178118,5,10,0:0:0:0:
112,177,178198,1,0,0:0:0:0:
103,126,178279,1,0,0:0:0:0:
122,78,178360,1,0,0:0:0:0:
164,47,178441,1,8,0:0:0:0:
215,42,178522,1,0,0:0:0:0:
164,47,178603,2,0,L|106:32,1,52.5,0|0,0:0|0:0,0:0:0:0:
164,47,178765,6,0,L|264:33,1,52.5,8|0,0:0|0:0,0:0:0:0:
286,64,178927,2,0,L|379:44,1,52.5,0|0,0:0|0:0,0:0:0:0:
128,288,179089,1,10,0:0:0:0:
79,269,179169,1,0,0:0:0:0:
54,224,179250,1,0,0:0:0:0:
61,174,179331,1,0,0:0:0:0:
295,159,179413,5,10,0:0:0:0:
344,174,179493,1,0,0:0:0:0:
375,215,179574,1,0,0:0:0:0:
378,267,179655,1,0,0:0:0:0:
351,311,179736,1,8,0:0:0:0:
304,332,179817,1,0,0:0:0:0:
364,334,179898,2,0,L|420:333,1,52.5,0|0,0:0|0:0,0:0:0:0:
224,231,180060,6,0,L|164:231,1,52.5,10|0,0:0|0:0,0:0:0:0:
224,231,180222,2,0,L|299:229,1,52.5,0|0,0:0|0:0,0:0:0:0:
107,168,180381,2,0,L|45:169,1,52.5,10|0,0:0|0:0,0:0:0:0:
107,168,180544,2,0,L|177:167,1,52.5,0|0,0:0|0:0,0:0:0:0:
401,83,180707,5,10,0:0:0:0:
343,83,180788,1,0,0:0:0:0:
285,83,180870,1,0,0:0:0:0:
227,83,180951,1,0,0:0:0:0:
170,83,181033,1,8,0:0:0:0:
112,83,181114,1,0,0:0:0:0:
294,175,181196,2,0,L|369:176,1,52.5,2|0,0:0|0:0,0:0:0:0:
186,353,181359,6,0,L|169:304,1,52.5,10|0,0:0|0:0,0:0:0:0:
249,288,181522,2,0,L|277:236,1,52.5,0|0,0:0|0:0,0:0:0:0:
89,192,181685,1,8,0:0:0:0:
51,157,181766,1,0,0:0:0:0:
50,106,181848,1,0,0:0:0:0:
88,71,181929,1,0,0:0:0:0:
281,119,182011,6,0,L|298:50,1,52.5,4|4,0:3|0:3,0:0:0:0:
144,273,182174,2,0,L|116:209,1,52.5,4|4,0:3|0:3,0:0:0:0:
330,281,182337,2,0,L|500:273,1,157.5,8|0,0:0|0:0,0:0:0:0:
254,189,182663,6,0,L|184:196,1,52.5,8|4,0:0|0:3,0:0:0:0:
390,108,182826,2,0,L|449:98,1,52.5,4|4,0:3|0:3,0:0:0:0:
254,189,182989,2,0,L|184:196,1,52.5,8|4,0:0|0:3,0:0:0:0:
390,108,183152,2,0,L|449:98,1,52.5,4|4,0:3|0:3,0:0:0:0:
184,342,183315,6,0,L|183:278,1,52.5,12|0,0:0|0:0,0:0:0:0:
258,290,183478,2,0,L|257:222,1,52.5,0|0,0:0|0:0,0:0:0:0:
185,200,183641,1,8,0:0:0:0:
243,195,183722,1,0,0:0:0:0:
301,187,183804,1,0,0:0:0:0:
362,177,183885,1,0,0:0:0:0:
166,157,183967,5,8,0:0:0:0:
121,131,184048,1,0,0:0:0:0:
106,82,184130,1,0,0:0:0:0:
130,36,184211,1,0,0:0:0:0:
303,5,184293,2,0,L|376:5,1,52.5,8|0,0:0|0:0,0:0:0:0:
197,95,184457,2,0,L|279:95,1,52.5,0|0,0:0|0:0,0:0:0:0:
422,41,184620,5,10,0:0:0:0:
459,85,184701,1,0,0:0:0:0:
471,146,184783,1,0,0:0:0:0:
445,200,184864,1,0,0:0:0:0:
393,230,184946,1,8,0:0:0:0:
342,239,185027,1,0,0:0:0:0:
393,230,185109,2,0,L|459:239,1,52.5,0|0,0:0|0:0,0:0:0:0:
204,353,185272,6,0,L|190:279,1,52.5,10|0,0:0|0:0,0:0:0:0:
278,287,185435,2,0,L|310:229,1,52.5,0|0,0:0|0:0,0:0:0:0:
142,189,185598,1,10,0:0:0:0:
90,186,185679,1,0,0:0:0:0:
51,153,185761,1,0,0:0:0:0:
40,102,185842,1,0,0:0:0:0:
196,78,185924,6,0,L|271:77,1,52.5,10|0,0:0|0:0,0:0:0:0:
196,78,186087,2,0,L|102:78,1,52.5,0|0,0:0|0:0,0:0:0:0:
288,160,186250,6,0,L|363:159,1,52.5,10|0,0:0|0:0,0:0:0:0:
288,160,186413,2,0,L|194:160,1,52.5,0|0,0:0|0:0,0:0:0:0:
388,258,186576,6,0,L|463:257,1,52.5,10|0,0:0|0:0,0:0:0:0:
388,258,186739,2,0,L|294:258,1,52.5,0|0,0:0|0:0,0:0:0:0:
161,305,186902,2,0,L|92:306,1,52.5,10|0,0:0|0:0,0:0:0:0:
327,356,187065,2,0,L|387:356,1,52.5,2|0,0:0|0:0,0:0:0:0:
232,276,187236,5,8,0:0:0:0:
187,251,187317,1,0,0:0:0:0:
174,201,187399,1,0,0:0:0:0:
201,158,187480,1,0,0:0:0:0:
263,156,187562,1,8,0:0:0:0:
307,131,187643,1,0,0:0:0:0:
320,81,187725,1,0,0:0:0:0:
293,38,187806,1,0,0:0:0:0:
77,31,187888,6,0,L|15:31,1,52.5,10|0,0:0|0:0,0:0:0:0:
77,31,188051,2,0,L|146:31,1,52.5,8|8,0:0|0:0,0:0:0:0:
77,31,188214,2,0,L|13:31,1,52.5,10|4,0:0|0:3,0:0:0:0:
77,31,188377,2,0,L|148:31,1,52.5,0|4,0:3|0:3,0:0:0:0:
309,281,188540,6,0,L|344:212,1,52.5,10|0,0:0|0:0,0:0:0:0:
241,203,188702,2,0,L|218:143,1,52.5,0|0,0:0|0:0,0:0:0:0:
315,164,188864,1,8,0:0:0:0:
358,136,188945,1,0,0:0:0:0:
373,87,189026,1,0,0:0:0:0:
351,40,189107,1,0,0:0:0:0:
291,22,189188,6,0,L|227:8,1,52.5,8|0,0:0|0:0,0:0:0:0:
291,22,189350,2,0,L|355:16,1,52.5,0|0,0:0|0:0,0:0:0:0:
177,208,189512,2,0,L|173:139,1,52.5,10|4,0:0|0:3,0:0:0:0:
248,216,189675,2,0,L|191:218,1,52.5,4|4,0:3|0:3,0:0:0:0:
29,224,189837,5,10,0:0:0:0:
139,310,190003,1,8,0:0:0:0:
185,288,190086,1,8,0:0:0:0:
209,242,190169,1,8,0:0:0:0:
199,191,190253,1,8,0:0:0:0:
161,158,190336,1,8,0:0:0:0:
109,154,190420,1,8,0:0:0:0:
373,183,190503,6,0,L|463:193,2,70,6|0|8,0:0|0:0|0:3,0:0:0:0:
193,70,190827,2,0,L|113:83,2,70,10|8|8,0:3|0:3|0:3,0:0:0:0:
436,8,191151,6,0,B|436:366|436:366|435:285,1,420,6|0,0:0|2:0,0:0:0:0:
307,220,192129,5,8,0:3:0:0:
23,163,192292,1,8,0:3:0:0:
179,128,192618,2,0,L|398:101,2,210,8|8|8,0:3|0:3|0:3,0:0:0:0:
436,8,193433,6,0,B|436:366|436:366|435:285,1,420,6|0,0:0|2:2,0:0:0:0:
204,215,194421,5,8,0:3:0:0:
452,162,194584,1,8,0:3:0:0:
257,104,194910,2,0,L|24:72,2,210,8|8|8,0:3|0:3|0:3,0:0:0:0:
34,8,195718,6,0,B|34:366|34:366,1,315,6|0,0:0|0:0,0:0:0:0:
88,340,196291,1,0,0:0:0:0:
145,347,196373,1,8,0:0:0:0:
338,371,196701,5,8,0:3:0:0:
104,247,196864,1,8,0:3:0:0:
313,168,197190,2,0,L|88:146,2,210,8|8|8,0:3|0:3|0:3,0:0:0:0:
34,8,197998,6,0,B|34:366|34:366,1,315,6|0,0:0|0:0,0:0:0:0:
88,340,198568,1,0,0:0:0:0:
145,347,198650,1,8,0:0:0:0:
20,230,198976,1,8,0:3:0:0:
363,157,199139,1,8,0:3:0:0:
205,93,199465,2,0,L|-9:124,2,210,8|8|8,0:3|0:3|0:3,0:0:0:0:
462,221,200280,6,0,L|485:117,1,105,6|0,0:0|0:0,0:0:0:0:
354,349,200606,2,0,L|332:239,1,105,4|0,0:3|0:0,0:0:0:0:
74,211,200932,2,0,L|51:107,1,105,8|0,0:0|0:0,0:0:0:0:
159,34,201258,1,8,0:3:0:0:
405,226,201421,2,0,L|182:199,2,210,8|8|8,0:3|0:3|0:3,0:0:0:0:
138,290,202400,1,8,0:3:0:0:
388,352,202555,5,6,0:3:0:0:
452,326,202663,1,4,0:3:0:0:
497,274,202772,1,4,0:3:0:0:
512,206,202881,1,8,0:0:0:0:
494,139,202989,1,4,0:3:0:0:
447,88,203098,1,4,0:3:0:0:
212,59,203207,1,0,0:0:0:0:
355,23,203559,5,8,0:0:0:0:
90,86,203720,1,8,0:3:0:0:
208,164,204042,2,0,L|421:128,1,210,8|8,0:3|0:3,0:0:0:0:
152,85,204676,1,8,0:3:0:0:
410,271,204832,5,10,0:0:0:0:
279,318,204995,1,10,0:3:0:0:
235,289,205076,1,10,0:3:0:0:
219,241,205158,1,4,0:3:0:0:
236,192,205239,1,4,0:3:0:0:
279,164,205321,1,4,0:3:0:0:
457,162,205484,2,0,L|343:162,1,105,4|0,0:0|0:0,0:0:0:0:
118,30,205810,5,8,0:0:0:0:
222,88,205973,2,0,L|226:225,1,105,8|0,0:0|0:0,0:0:0:0:
106,301,206299,2,0,L|219:291,1,105,8|4,0:3|0:3,0:0:0:0:
323,282,206625,1,8,0:0:0:0:
23,123,206788,2,0,L|170:98,1,105,0|6,0:0|0:3,0:0:0:0:
358,43,207123,5,10,0:0:0:0:
306,40,207204,1,0,0:0:0:0:
258,60,207286,1,0,0:0:0:0:
224,100,207367,1,0,0:0:0:0:
212,151,207449,1,0,0:0:0:0:
224,201,207530,1,0,0:0:0:0:
258,241,207612,1,0,0:0:0:0:
310,259,207693,1,0,0:0:0:0:
118,319,207775,5,8,0:0:0:0:
68,305,207857,1,0,0:0:0:0:
39,263,207939,1,0,0:0:0:0:
46,212,208021,1,0,0:0:0:0:
213,184,208103,2,0,L|289:186,1,52.5,8|0,0:0|0:0,0:0:0:0:
41,131,208268,1,8,0:0:0:0:
41,79,208350,1,0,0:0:0:0:
70,35,208432,1,0,0:0:0:0:
117,15,208514,1,0,0:0:0:0:
301,81,208596,2,0,L|368:82,1,52.5,8|0,0:0|0:0,0:0:0:0:
301,81,208761,6,0,L|216:81,1,52.5,0|0,0:0|0:0,0:0:0:0:
441,207,208918,2,0,L|440:132,1,52.5,8|0,0:0|0:0,0:0:0:0:
276,321,209076,2,0,L|200:312,1,52.5,8|8,0:3|0:3,0:0:0:0:
276,321,209234,2,0,L|359:312,1,52.5,8|8,0:3|0:3,0:0:0:0:
145,236,209411,6,0,P|111:183|122:124,1,105,4|0,0:0|0:0,0:0:0:0:
248,81,209737,2,0,L|138:63,1,105,0|0,0:0|0:0,0:0:0:0:
365,202,210063,2,0,L|474:183,2,105,8|0|0,0:0|0:0|0:0,0:0:0:0:
117,313,210552,6,0,L|374:341,1,210,8|0,0:0|0:0,0:0:0:0:
190,152,211041,2,0,P|193:228|200:286,1,105,0|0,0:0|0:0,0:0:0:0:
331,100,211367,1,8,0:0:0:0:
279,91,211448,1,0,0:0:0:0:
227,83,211530,1,0,0:0:0:0:
104,61,211693,2,0,L|103:197,1,105,0|0,0:0|0:0,0:0:0:0:
328,311,212019,6,0,P|419:298|456:172,1,210,8|0,0:0|0:0,0:0:0:0:
293,168,212508,2,0,P|230:146|207:13,1,210,8|0,0:0|0:0,0:0:0:0:
478,36,212997,2,0,L|344:14,1,105,8|0,0:0|0:0,0:0:0:0:
104,191,213324,6,0,L|91:77,1,105,4|0,0:0|0:0,0:0:0:0:
226,150,213650,2,0,L|337:128,1,105,0|0,0:0|0:0,0:0:0:0:
51,311,213976,2,0,L|171:326,2,105,8|0|0,0:0|0:0|0:0,0:0:0:0:
288,274,214465,6,0,P|361:232|315:102,1,210,8|0,0:0|0:0,0:0:0:0:
204,142,214954,2,0,L|198:30,1,105,0|0,0:0|0:0,0:0:0:0:
420,322,215280,1,8,0:0:0:0:
501,268,215443,1,0,0:0:0:0:
499,167,215606,1,0,0:0:0:0:
413,116,215769,1,0,0:0:0:0:
86,229,215932,6,0,L|81:113,1,105,8|0,0:0|0:0,0:0:0:0:
202,90,216258,1,0,0:0:0:0:
460,87,216421,1,8,0:0:0:0:
336,170,216584,1,8,0:3:0:0:
460,302,216747,1,0,0:0:0:0:
460,249,216828,1,0,0:0:0:0:
460,197,216910,1,8,0:0:0:0:
177,311,217074,1,8,0:0:0:0:
459,366,217237,5,4,0:0:0:0:
328,304,217400,2,0,L|260:315,2,52.5,0|0|0,0:0|0:0|0:0,0:0:0:0:
459,366,217726,1,0,0:0:0:0:
143,215,217889,2,0,L|39:234,2,105,8|0|0,0:0|0:0|0:0,0:0:0:0:
385,152,218378,6,0,L|141:127,1,210,8|0,0:0|0:0,0:0:0:0:
326,12,218867,2,0,L|322:128,1,105,0|0,0:0|0:0,0:0:0:0:
183,132,219193,1,8,0:0:0:0:
182,184,219274,1,0,0:0:0:0:
182,236,219356,1,0,0:0:0:0:
326,12,219519,2,0,L|325:127,1,105,0|0,0:0|0:0,0:0:0:0:
105,202,219845,6,0,L|-2:204,2,105,8|0|0,0:0|0:0|0:0,0:0:0:0:
370,281,220334,2,0,L|491:280,2,105,8|8|0,0:0|0:3|0:0,0:0:0:0:
117,352,220824,2,0,L|114:245,1,105,8|0,0:0|0:0,0:0:0:0:
407,183,221150,5,4,0:0:0:0:
281,123,221313,1,0,0:0:0:0:
228,127,221394,1,0,0:0:0:0:
176,131,221476,1,0,0:0:0:0:
72,64,221639,1,0,0:0:0:0:
347,284,221802,2,0,L|467:272,2,105,8|0|0,0:0|0:0|0:0,0:0:0:0:
121,216,222291,6,0,L|361:194,1,210,8|0,0:0|0:0,0:0:0:0:
195,60,222780,2,0,P|182:122|190:170,1,105,0|0,0:0|0:0,0:0:0:0:
345,228,223106,1,8,0:0:0:0:
292,228,223187,1,0,0:0:0:0:
240,228,223269,1,0,0:0:0:0:
88,289,223432,2,0,L|90:178,1,105,0|0,0:0|0:0,0:0:0:0:
430,92,223758,6,0,L|430:206,1,105,8|0,0:0|0:0,0:0:0:0:
287,148,224084,2,0,L|226:138,1,52.5,0|0,0:0|0:0,0:0:0:0:
287,148,224247,2,0,L|353:140,1,52.5,0|0,0:0|0:0,0:0:0:0:
170,207,224411,2,0,L|50:193,1,105,8|8,0:0|0:3,0:0:0:0:
127,174,224655,1,8,0:3:0:0:
340,299,224737,1,8,0:3:0:0:
383,271,224818,1,8,0:3:0:0:
403,223,224900,1,8,0:3:0:0:
391,173,224981,1,8,0:3:0:0:
134,71,225063,6,0,L|377:51,1,210,6|0,1:0|1:0,0:0:0:0:
461,39,225552,1,0,1:0:0:0:
115,161,225715,2,0,L|358:141,1,210,10|0,0:0|1:0,0:0:0:0:
442,129,226204,1,0,1:0:0:0:
95,267,226367,6,0,L|301:241,1,157.5,2|0,1:0|0:0,0:0:0:0:
338,279,226693,2,0,L|465:263,1,105,2|0,1:0|1:0,0:0:0:0:
129,136,227019,1,8,0:0:0:0:
366,26,227182,2,0,P|458:42|473:168,1,210,4|0,1:0|0:0,0:0:0:0:
182,325,227671,5,6,1:0:0:0:
349,284,227997,2,0,L|375:210,1,52.5,0|0,1:0|0:0,0:0:0:0:
286,202,228161,2,0,L|267:141,1,52.5,0|0,1:0|0:0,0:0:0:0:
356,114,228324,1,10,0:0:0:0:
179,119,228650,2,0,L|66:104,1,105,0|0,1:0|1:0,0:0:0:0:
313,27,228976,6,0,L|440:13,2,105,2|0|8,0:0|0:0|0:0,0:0:0:0:
55,170,229465,2,0,L|253:186,1,157.5,6|0,1:0|0:0,0:0:0:0:
312,62,229791,2,0,L|135:83,1,157.5,6|0,1:0|0:0,0:0:0:0:
381,222,230117,2,0,L|386:156,1,52.5,6|0,1:0|0:0,0:0:0:0:
176,358,230280,6,0,P|83:303|89:227,1,157.5,0|0,0:0|0:0,0:0:0:0:
265,219,230606,2,0,L|278:162,1,52.5,2|0,1:0|0:0,0:0:0:0:
186,85,230769,2,0,L|202:159,1,52.5,2|0,1:0|0:0,0:0:0:0:
462,53,230932,2,0,L|287:40,1,157.5,10|0,0:0|0:0,0:0:0:0:
165,131,231258,2,0,L|169:187,1,52.5,2|0,1:0|0:0,0:0:0:0:
244,176,231413,2,0,L|245:232,1,52.5,2|0,1:0|0:0,0:0:0:0:
51,355,231568,6,0,P|35:280|98:218,1,157.5,6|0,1:0|0:0,0:0:0:0:
266,302,231894,2,0,L|286:246,1,52.5,2|0,1:0|0:0,0:0:0:0:
211,223,232057,2,0,L|188:155,1,52.5,2|0,1:0|0:0,0:0:0:0:
369,167,232220,2,0,P|451:134|456:49,1,157.5,10|0,0:0|0:0,0:0:0:0:
290,87,232546,2,0,L|289:29,1,52.5,0|0,0:0|0:0,0:0:0:0:
358,104,232709,2,0,L|301:104,1,52.5,0|0,0:0|0:0,0:0:0:0:
134,90,232872,5,6,1:0:0:0:
85,109,232953,1,0,0:0:0:0:
55,151,233035,1,0,0:0:0:0:
53,202,233116,1,0,0:0:0:0:
80,247,233198,1,2,1:0:0:0:
218,292,233361,2,0,L|271:298,2,52.5,2|0|10,1:0|0:0|0:0,0:0:0:0:
80,349,233687,2,0,L|27:355,2,52.5,0|0|2,0:0|0:0|1:0,0:0:0:0:
189,211,234013,1,2,1:0:0:0:
449,324,234176,6,0,P|474:257|468:196,1,105,10|4,0:3|0:3,0:0:0:0:
361,156,234502,1,8,0:0:0:0:
78,211,234665,1,6,1:0:0:0:
359,287,234828,2,0,P|403:254|409:132,1,157.5,0|0,0:0|0:0,0:0:0:0:
260,78,235154,2,0,L|180:64,1,52.5,0|0,0:0|0:0,0:0:0:0:
351,201,235318,2,0,L|412:194,1,52.5,6|0,1:0|0:0,0:0:0:0:
193,355,235481,6,0,P|182:294|286:225,1,157.5,0|0,0:0|0:0,0:0:0:0:
431,322,235807,2,0,L|376:308,1,52.5,2|2,1:0|0:0,0:0:0:0:
297,263,235970,2,0,L|352:242,1,52.5,2|2,1:0|0:0,0:0:0:0:
169,199,236133,2,0,P|110:169|112:54,1,157.5,10|0,0:0|0:0,0:0:0:0:
292,40,236459,2,0,L|231:28,1,52.5,2|2,1:0|0:0,0:0:0:0:
178,60,236622,2,0,L|107:50,1,52.5,2|2,1:0|0:0,0:0:0:0:
307,127,236785,6,0,P|390:174|386:265,1,157.5,6|0,1:0|0:0,0:0:0:0:
229,363,237111,2,0,L|218:298,1,52.5,2|2,1:0|0:0,0:0:0:0:
301,236,237274,2,0,L|293:306,1,52.5,2|2,1:0|0:0,0:0:0:0:
85,173,237454,2,0,L|261:155,1,157.5,10|0,0:0|0:0,0:0:0:0:
416,192,237780,2,2,L|469:185,1,52.5,2|2,0:0|0:0,0:0:0:0:
416,192,237943,2,2,L|345:197,1,52.5,2|2,0:0|0:0,0:0:0:0:
189,270,238106,6,0,L|170:202,2,52.5,2|0|2,1:0|0:0|0:0,0:0:0:0:
335,141,238350,2,0,L|354:73,2,52.5,2|2|0,0:0|1:0|0:0,0:0:0:0:
189,270,238595,2,0,L|170:202,2,52.5,2|0|10,1:0|0:0|0:0,0:0:0:0:
335,141,238839,2,0,L|354:73,2,52.5,0|2|2,0:0|1:0|1:0,0:0:0:0:
185,78,239084,6,0,L|120:62,2,52.5,10|0|2,0:0|0:0|0:0,0:0:0:0:
361,218,239328,1,0,0:0:0:0:
296,226,239410,1,6,0:3:0:0:
234,234,239491,1,6,0:3:0:0:
424,303,239573,2,0,L|480:319,1,52.5,6|0,0:3|0:0,0:0:0:0:
213,159,239736,2,0,L|150:176,1,52.5,10|0,0:0|0:0,0:0:0:0:
328,87,239899,6,0,P|400:72|491:88,1,157.5,6|0,1:0|0:0,0:0:0:0:
319,180,240225,2,0,P|242:207|135:197,1,157.5,6|0,1:0|0:0,0:0:0:0:
391,249,240551,2,0,P|431:283|451:329,1,52.5,6|0,1:0|0:0,0:0:0:0:
208,346,240714,6,0,P|147:273|241:197,1,210,2|0,0:0|1:0,0:0:0:0:
346,212,241203,2,0,L|355:140,1,52.5,0|0,1:0|0:0,0:0:0:0:
164,87,241366,2,0,P|87:66|53:68,1,105,10|0,1:0|0:0,0:0:0:0:
205,194,241692,1,0,1:0:0:0:
254,178,241773,1,0,0:0:0:0:
283,136,241855,1,0,1:0:0:0:
280,84,241936,1,0,0:0:0:0:
48,47,242019,6,0,L|210:26,1,157.5,2|0,1:0|0:0,0:0:0:0:
278,62,242345,2,0,L|393:46,1,105,0|0,1:0|1:0,0:0:0:0:
135,139,242671,1,8,0:0:0:0:
367,313,242834,2,0,P|428:237|347:155,1,210,6|0,1:0|0:0,0:0:0:0:
114,283,243323,5,10,0:0:0:0:
369,359,243486,1,0,1:0:0:0:
368,306,243567,1,0,0:0:0:0:
367,254,243649,1,0,1:0:0:0:
210,226,243812,1,0,1:0:0:0:
481,147,243975,5,10,0:0:0:0:
226,223,244138,1,0,1:0:0:0:
226,170,244219,1,0,0:0:0:0:
227,118,244301,1,8,0:0:0:0:
337,82,244464,1,0,1:0:0:0:
182,44,244627,6,0,L|70:39,2,105,10|4|8,0:3|0:3|0:0,0:0:0:0:
441,202,245116,2,0,L|280:180,1,157.5,6|0,1:0|0:0,0:0:0:0:
76,338,245442,2,0,L|383:302,1,262.5,6|0,1:0|0:0,0:0:0:0:
67,247,245932,6,0,P|41:175|50:122,1,105,6|0,0:0|0:0,0:0:0:0:
155,88,246258,2,0,P|221:73|284:73,1,105,2|0,0:0|0:0,0:0:0:0:
105,253,246584,2,0,P|79:181|88:128,1,105,2|2,0:0|0:0,0:0:0:0:
354,258,246910,2,0,P|405:242|467:239,1,105,2|0,0:0|0:0,0:0:0:0:
146,103,247236,6,0,P|238:139|382:126,3,210,6|2|2|2,1:0|0:0|0:0|0:0,0:0:0:0:
73,310,248540,6,0,P|165:274|309:287,1,210,6|2,1:0|0:0,0:0:0:0:
136,211,249192,2,0,P|97:160|172:42,1,210,2|2,0:0|0:0,0:0:0:0:
423,351,249845,6,0,P|493:268|438:167,1,210,6|2,1:0|0:0,0:0:0:0:
38,161,250497,2,0,B|168:129|168:129|271:188|271:188|400:157,1,367.5,2|0,0:0|0:0,0:0:0:0:
176,353,251149,5,6,0:0:0:0:
91,297,251312,1,0,0:0:0:0:
90,197,251475,1,2,0:0:0:0:
173,139,251638,1,2,0:0:0:0:
302,188,251801,2,0,L|312:77,1,105,2|4,0:0|0:3,0:0:0:0:
168,212,252127,2,0,L|157:347,1,105,10|6,0:3|0:3,0:0:0:0:
399,338,252453,6,0,P|448:284|416:197,1,157.5,8|0,0:0|0:0,0:0:0:0:
261,136,252779,2,0,L|423:115,1,157.5,6|0,1:3|0:0,0:0:0:0:
242,340,253105,2,0,P|193:286|225:199,1,157.5,6|0,1:3|0:0,0:0:0:0:
380,138,253431,2,0,L|218:117,1,157.5,6|0,1:3|0:0,0:0:0:0:
32,98,253758,5,2,1:0:0:0:
155,162,253921,2,0,L|161:231,2,52.5,8|8|8,0:0|0:0|0:0,0:0:0:0:
296,249,254247,2,0,L|302:318,2,52.5,0|0|2,1:0|1:0|1:0,0:0:0:0:
174,336,254573,1,8,0:0:0:0:
299,224,254736,2,0,L|422:209,1,105,8|8,0:0|1:0,0:0:0:0:
350,192,254980,1,8,1:0:0:0:
141,157,255042,6,0,L|126:85,2,52.5,2|0|8,1:0|0:0|0:0,0:0:0:0:
210,177,255289,1,8,0:0:0:0:
31,352,255371,1,10,0:0:0:0:
29,300,255453,1,0,0:0:0:0:
56,256,255535,1,0,0:0:0:0:
104,235,255618,1,0,0:0:0:0:
301,291,255701,6,0,L|318:229,1,52.5,10|0,0:0|0:0,0:0:0:0:
236,212,255866,2,0,L|213:145,1,52.5,0|0,0:0|0:0,0:0:0:0:
288,132,256031,2,0,L|340:121,1,52.5,10|8,0:0|0:0,0:0:0:0:
403,106,256195,2,0,L|463:93,1,52.5,8|0,0:0|0:0,0:0:0:0:
213,355,256360,6,0,L|193:303,1,52.5,6|0,0:0|0:0,0:0:0:0:
275,286,256525,2,0,L|296:235,1,52.5,2|0,0:0|0:0,0:0:0:0:
150,191,256686,2,0,L|130:139,1,52.5,10|0,0:0|0:0,0:0:0:0:
212,122,256849,2,0,L|233:71,1,52.5,2|0,0:0|0:0,0:0:0:0:
392,89,257012,6,0,L|421:36,1,52.5,10|0,0:0|0:0,0:0:0:0:
328,161,257175,2,0,L|312:101,1,52.5,2|0,0:0|0:0,0:0:0:0:
492,284,257338,1,10,0:0:0:0:
495,232,257419,1,0,0:0:0:0:
465,191,257501,1,0,0:0:0:0:
414,180,257582,1,0,0:0:0:0:
218,356,257663,6,0,L|207:274,1,52.5,10|0,0:0|0:0,0:0:0:0:
283,288,257825,2,0,L|220:278,1,52.5,0|0,0:0|0:0,0:0:0:0:
58,253,257988,2,0,L|81:203,1,52.5,10|0,0:0|0:0,0:0:0:0:
156,207,258151,2,0,L|181:159,1,52.5,0|0,0:0|0:0,0:0:0:0:
31,81,258314,6,0,L|93:64,1,52.5,10|0,0:0|0:0,0:0:0:0:
141,51,258477,2,0,L|195:38,1,52.5,0|0,0:0|0:0,0:0:0:0:
376,81,258640,2,0,L|447:58,1,52.5,10|0,0:0|0:0,0:0:0:0:
247,194,258803,2,0,L|186:183,1,52.5,0|0,0:0|0:0,0:0:0:0:
406,338,258966,6,0,L|420:262,1,52.5,10|0,0:0|0:0,0:0:0:0:
346,249,259129,2,0,L|275:227,1,52.5,0|0,0:0|0:0,0:0:0:0:
444,193,259292,1,10,0:0:0:0:
485,163,259373,1,0,0:0:0:0:
493,113,259454,1,0,0:0:0:0:
463,72,259536,1,0,0:0:0:0:
215,168,259618,6,0,L|203:110,1,52.5,10|0,0:0|0:0,0:0:0:0:
278,108,259781,2,0,L|293:41,1,52.5,0|0,0:0|0:0,0:0:0:0:
118,236,259944,1,10,0:0:0:0:
72,211,260025,1,0,0:0:0:0:
51,165,260106,1,0,0:0:0:0:
62,114,260188,1,0,0:0:0:0:
276,47,260270,6,0,L|186:32,1,52.5,10|0,0:0|0:0,0:0:0:0:
164,27,260433,2,0,L|94:16,1,52.5,0|0,0:0|0:0,0:0:0:0:
275,221,260596,2,0,L|278:147,1,52.5,10|0,0:0|0:0,0:0:0:0:
211,142,260759,2,0,L|283:142,1,52.5,0|0,0:0|0:0,0:0:0:0:
419,161,260922,6,0,L|480:161,2,52.5,10|0|8,0:0|0:0|0:0,0:0:0:0:
256,159,261166,1,8,0:0:0:0:
419,161,261248,2,0,L|486:160,1,52.5,8|8,0:0|0:3,0:0:0:0:
282,81,261410,2,0,L|216:81,1,52.5,4|4,0:3|0:3,0:0:0:0:
31,197,261573,6,0,L|16:130,1,52.5,6|0,0:0|0:0,0:0:0:0:
206,328,261736,2,0,L|222:257,1,52.5,0|0,0:0|0:0,0:0:0:0:
50,291,261899,2,0,L|-3:291,1,52.5,10|0,0:0|0:0,0:0:0:0:
50,291,262062,2,0,L|117:291,1,52.5,2|0,0:0|0:0,0:0:0:0:
273,240,262225,6,0,L|281:157,1,52.5,10|0,0:0|0:0,0:0:0:0:
209,172,262388,2,0,L|214:106,1,52.5,0|0,0:0|0:0,0:0:0:0:
403,103,262551,2,0,L|351:91,1,52.5,10|0,0:0|0:0,0:0:0:0:
156,68,262714,2,0,L|91:58,1,52.5,2|0,0:0|0:0,0:0:0:0:
287,211,262877,5,10,0:0:0:0:
358,170,262959,2,0,L|362:101,2,52.5,0|0|0,0:0|0:0|0:0,0:0:0:0:
216,252,263203,5,10,0:0:0:0:
287,211,263285,2,0,L|291:142,2,52.5,0|2|0,0:0|0:0|0:0,0:0:0:0:
145,293,263529,5,10,0:0:0:0:
216,252,263611,2,0,L|220:183,2,52.5,0|2|0,0:0|0:0|0:0,0:0:0:0:
61,159,263855,2,0,L|131:150,1,52.5,10|0,0:0|0:0,0:0:0:0:
331,111,264018,2,0,L|248:97,1,52.5,2|0,0:0|0:0,0:0:0:0:
129,26,264181,6,0,L|137:102,1,52.5,14|0,0:0|0:0,0:0:0:0:
211,68,264344,2,0,L|219:138,1,52.5,0|0,0:0|0:0,0:0:0:0:
69,182,264507,2,0,L|74:254,1,52.5,10|0,0:0|0:0,0:0:0:0:
238,270,264670,2,0,L|302:263,1,52.5,2|0,0:0|0:0,0:0:0:0:
477,308,264833,6,0,L|482:236,1,52.5,10|0,0:0|0:0,0:0:0:0:
286,201,264995,2,0,L|213:210,1,52.5,0|0,0:0|0:0,0:0:0:0:
416,141,265158,2,0,L|480:129,1,52.5,10|0,0:0|0:0,0:0:0:0:
273,145,265321,2,0,L|191:160,1,52.5,2|0,0:0|0:0,0:0:0:0:
398,65,265484,6,0,L|401:10,1,52.5,10|8,0:0|0:0,0:0:0:0:
199,180,265647,2,0,L|197:241,1,52.5,8|10,0:0|0:0,0:0:0:0:
272,227,265810,2,0,L|268:288,1,52.5,0|8,0:0|0:0,0:0:0:0:
92,289,265973,2,0,L|84:364,1,52.5,6|4,0:3|0:3,0:0:0:0:
288,352,266136,5,10,0:0:0:0:
348,341,266217,1,4,0:3:0:0:
375,290,266298,1,4,0:3:0:0:
359,234,266380,1,4,0:3:0:0:
272,227,266462,2,0,L|254:175,1,52.5,10|8,0:0|0:0,0:0:0:0:
349,162,266625,2,0,L|367:93,1,52.5,8|8,0:0|0:0,0:0:0:0:
183,85,266788,6,0,L|100:71,1,52.5,6|0,0:0|0:0,0:0:0:0:
323,13,266950,2,0,L|326:69,1,52.5,8|0,0:0|0:0,0:0:0:0:
252,76,267113,2,0,L|262:142,1,52.5,0|0,0:0|0:0,0:0:0:0:
356,148,267275,2,0,L|287:149,1,52.5,8|0,0:0|0:0,0:0:0:0:
110,298,267438,6,0,L|115:243,1,52.5,2|0,0:0|0:0,0:0:0:0:
187,239,267601,2,0,L|197:176,1,52.5,8|0,0:0|0:0,0:0:0:0:
266,188,267763,2,0,L|275:131,1,52.5,2|0,0:0|0:0,0:0:0:0:
348,137,267926,2,0,L|354:85,1,52.5,8|0,0:0|0:0,0:0:0:0:
187,360,268088,6,0,L|192:299,1,52.5,2|0,0:0|0:0,0:0:0:0:
269,301,268251,2,0,L|276:238,1,52.5,8|0,0:0|0:0,0:0:0:0:
112,207,268414,2,0,L|114:149,1,52.5,2|0,0:0|0:0,0:0:0:0:
185,163,268576,2,0,L|251:163,1,52.5,8|0,0:0|0:0,0:0:0:0:
161,165,268739,5,2,0:0:0:0:
115,140,268820,1,0,0:0:0:0:
91,94,268901,1,8,0:0:0:0:
97,43,268982,1,0,0:0:0:0:
131,4,269064,1,2,0:0:0:0:
180,0,269145,1,0,0:0:0:0:
131,4,269227,2,0,L|77:4,1,52.5,8|0,0:0|0:0,0:0:0:0:
261,323,269389,6,0,L|329:308,1,52.5,2|0,0:0|0:0,0:0:0:0:
376,270,269552,2,0,L|382:211,1,52.5,8|0,0:0|0:0,0:0:0:0:
312,174,269714,2,0,L|248:159,1,52.5,2|0,0:0|0:0,0:0:0:0:
327,151,269877,2,0,L|381:137,1,52.5,8|0,0:0|0:0,0:0:0:0:
272,98,270040,6,0,L|257:19,1,52.5,2|0,0:0|0:0,0:0:0:0:
188,70,270202,2,0,L|176:5,1,52.5,8|0,0:0|0:0,0:0:0:0:
271,98,270365,1,2,0:0:0:0:
260,162,270446,1,0,0:0:0:0:
217,202,270527,1,8,0:0:0:0:
164,205,270608,1,0,0:0:0:0:
321,234,270690,6,0,L|345:290,1,52.5,6|0,0:0|0:0,0:0:0:0:
265,314,270853,2,0,L|254:368,1,52.5,8|0,0:0|0:0,0:0:0:0:
341,310,271016,2,0,L|351:257,1,52.5,2|0,0:0|0:0,0:0:0:0:
427,258,271180,2,0,L|439:197,1,52.5,8|0,0:0|0:0,0:0:0:0:
283,113,271343,6,0,L|193:95,1,52.5,2|0,0:0|0:0,0:0:0:0:
283,113,271507,2,0,L|372:98,1,52.5,8|0,0:0|0:0,0:0:0:0:
156,227,271670,2,0,L|228:216,1,52.5,2|0,0:0|0:0,0:0:0:0:
398,234,271834,2,0,L|468:224,1,52.5,10|2,0:0|0:0,0:0:0:0:
227,356,271997,6,0,L|210:304,1,52.5,6|0,0:0|0:0,0:0:0:0:
135,308,272161,2,0,L|110:243,1,52.5,8|0,0:0|0:0,0:0:0:0:
195,236,272324,2,0,L|208:172,1,52.5,0|0,0:0|0:0,0:0:0:0:
132,160,272488,2,0,L|66:147,1,52.5,8|0,0:0|0:0,0:0:0:0:
274,190,272651,5,2,0:0:0:0:
323,175,272732,1,0,0:0:0:0:
355,135,272814,1,8,0:0:0:0:
358,83,272896,1,0,0:0:0:0:
331,39,272977,1,2,0:0:0:0:
283,19,273059,1,0,0:0:0:0:
207,14,273142,2,0,L|283:14,1,52.5,8|0,0:0|0:0,0:0:0:0:
435,51,273305,6,0,L|456:113,1,52.5,6|0,0:0|0:0,0:0:0:0:
378,132,273469,2,0,L|357:196,1,52.5,8|0,0:0|0:0,0:0:0:0:
291,220,273632,2,0,L|238:244,1,52.5,2|0,0:0|0:0,0:0:0:0:
169,240,273796,2,0,L|107:233,1,52.5,8|0,0:0|0:0,0:0:0:0:
186,309,273959,2,0,L|248:314,1,52.5,2|0,0:0|0:0,0:0:0:0:
319,285,274123,2,0,L|338:232,1,52.5,8|0,0:0|0:0,0:0:0:0:
286,182,274286,2,0,L|236:161,1,52.5,2|0,0:0|0:0,0:0:0:0:
165,136,274450,2,0,L|81:154,1,52.5,8|0,0:0|0:0,0:0:0:0:
334,97,274613,6,0,L|406:114,2,52.5,6|0|8,0:0|0:0|0:0,0:0:0:0:
267,54,274857,2,0,L|128:72,1,105,0|0,0:0|0:0,0:0:0:0:
221,33,275102,1,8,0:0:0:0:
276,24,275183,1,0,0:0:0:0:
116,294,275265,6,0,L|114:235,1,52.5,2|8,0:0|0:0,0:0:0:0:
184,243,275428,2,0,L|183:188,1,52.5,0|4,0:0|0:3,0:0:0:0:
257,186,275591,2,0,L|257:119,1,52.5,10|4,0:0|0:3,0:0:0:0:
75,92,275754,2,0,L|146:82,1,52.5,8|4,0:0|0:3,0:0:0:0:
346,278,275917,6,0,L|347:219,1,52.5,10|4,0:3|0:3,0:0:0:0:
271,211,276080,2,0,L|271:151,1,52.5,8|4,0:3|0:3,0:0:0:0:
450,164,276243,2,0,L|510:164,3,52.5,10|10|6|6,0:0|0:0|0:3|0:3,0:0:0:0:
314,111,276569,6,0,L|254:111,3,52.5,10|4|10|6,0:0|0:3|0:0|0:3,0:0:0:0:
116,195,276895,2,0,L|35:195,1,52.5,10|8,0:0|0:0,0:0:0:0:
265,278,277058,2,0,L|345:278,1,52.5,10|10,0:3|0:3,0:0:0:0:
153,356,277221,6,0,L|151:288,1,52.5,6|0,0:0|0:0,0:0:0:0:
351,314,277384,1,8,0:0:0:0:
402,308,277465,1,0,0:0:0:0:
443,276,277547,1,0,0:0:0:0:
461,228,277628,1,0,0:0:0:0:
451,177,277710,1,8,0:0:0:0:
415,139,277791,1,0,0:0:0:0:
231,191,277873,6,0,L|205:124,1,52.5,2|0,0:0|0:0,0:0:0:0:
295,276,278036,2,0,L|315:220,1,52.5,8|0,0:0|0:0,0:0:0:0:
231,191,278199,2,0,L|205:124,1,52.5,2|0,0:0|0:0,0:0:0:0:
295,276,278362,2,0,L|315:220,1,52.5,8|0,0:0|0:0,0:0:0:0:
139,346,278526,6,0,L|161:278,1,52.5,6|0,0:0|0:0,0:0:0:0:
239,301,278689,2,0,L|259:248,1,52.5,8|0,0:0|0:0,0:0:0:0:
95,203,278852,2,0,L|71:147,1,52.5,2|0,0:0|0:0,0:0:0:0:
156,122,279015,2,0,L|173:62,1,52.5,8|0,0:0|0:0,0:0:0:0:
84,65,279178,6,0,L|20:55,1,52.5,2|0,0:0|0:0,0:0:0:0:
84,65,279341,2,0,L|142:54,1,52.5,8|0,0:0|0:0,0:0:0:0:
292,102,279504,2,0,L|348:91,1,52.5,2|0,0:0|0:0,0:0:0:0:
292,102,279667,2,0,L|368:88,1,52.5,8|0,0:0|0:0,0:0:0:0:
186,307,279830,6,0,L|179:248,1,52.5,6|0,0:0|0:0,0:0:0:0:
85,239,279993,2,0,L|73:171,1,52.5,8|0,0:0|0:0,0:0:0:0:
270,225,280156,2,0,L|284:160,1,52.5,2|0,0:0|0:0,0:0:0:0:
216,137,280319,2,0,L|158:111,1,52.5,8|0,0:0|0:0,0:0:0:0:
380,195,280482,5,2,0:0:0:0:
423,168,280563,1,0,0:0:0:0:
437,118,280645,1,8,0:0:0:0:
412,73,280726,1,0,0:0:0:0:
357,62,280808,2,0,L|301:61,1,52.5,6|0,0:0|0:0,0:0:0:0:
357,62,280971,2,0,L|426:63,1,52.5,8|0,0:0|0:0,0:0:0:0:
183,345,281153,5,6,0:0:0:0:
148,306,281234,1,0,0:0:0:0:
136,255,281316,1,8,0:0:0:0:
151,205,281397,1,0,0:0:0:0:
188,169,281479,1,2,0:0:0:0:
238,155,281560,1,0,0:0:0:0:
91,115,281642,2,0,L|32:101,1,52.5,8|0,0:0|0:0,0:0:0:0:
228,67,281805,6,0,L|292:50,1,52.5,2|0,0:0|0:0,0:0:0:0:
228,67,281968,2,0,L|166:51,1,52.5,8|0,0:0|0:0,0:0:0:0:
376,131,282131,2,0,L|455:109,1,52.5,2|0,0:0|0:0,0:0:0:0:
223,269,282294,2,0,L|146:248,1,52.5,10|10,0:0|0:0,0:0:0:0:
418,326,282457,5,6,0:0:0:0:
314,274,282620,2,0,L|315:217,1,52.5,8|0,0:0|0:0,0:0:0:0:
389,222,282783,2,0,L|392:166,1,52.5,0|0,0:0|0:0,0:0:0:0:
465,169,282946,2,0,L|384:159,1,52.5,8|0,0:0|0:0,0:0:0:0:
219,177,283109,6,0,L|200:108,1,52.5,2|0,0:0|0:0,0:0:0:0:
292,254,283272,2,0,L|306:194,1,52.5,8|0,0:0|0:0,0:0:0:0:
165,295,283435,2,0,L|146:226,1,52.5,2|0,0:0|0:0,0:0:0:0:
238,372,283598,2,0,L|252:312,1,52.5,8|0,0:0|0:0,0:0:0:0:
76,269,283761,6,0,L|61:200,1,52.5,6|0,0:0|0:0,0:0:0:0:
123,172,283924,2,0,L|197:151,1,52.5,8|0,0:0|0:0,0:0:0:0:
345,181,284087,2,0,L|431:158,3,52.5,2|0|8|0,0:0|0:0|0:0|0:0,0:0:0:0:
210,102,284413,2,0,L|275:91,1,52.5,2|8,0:0|0:0,0:0:0:0:
321,83,284576,2,0,L|401:68,1,52.5,4|4,0:3|0:3,0:0:0:0:
172,201,284739,2,0,L|260:186,1,52.5,10|4,0:0|0:3,0:0:0:0:
426,206,284903,2,0,L|499:189,1,52.5,6|6,0:3|0:3,0:0:0:0:
276,349,285066,6,0,L|246:291,3,52.5,10|0|2|2,0:0|0:0|0:0|0:0,0:0:0:0:
86,298,285392,2,0,L|52:225,3,52.5,10|0|2|2,0:0|0:0|0:0|0:0,0:0:0:0:
235,183,285712,6,0,L|265:125,3,52.5,10|0|2|2,0:0|0:0|0:0|0:0,0:0:0:0:
425,132,286033,2,0,L|459:59,3,52.5,10|0|2|2,0:0|0:0|0:0|0:0,0:0:0:0:
272,74,286354,6,0,L|202:74,2,52.5,14|4|10,0:0|0:3|0:0,0:0:0:0:
425,145,286595,2,0,L|495:145,2,52.5,6|6|8,0:3|0:3|0:0,0:0:0:0:
260,211,286837,2,0,L|180:211,1,52.5,6|6,0:3|0:3,0:0:0:0:
356,341,286999,5,10,0:0:0:0:
401,318,287079,1,0,0:0:0:0:
415,269,287160,1,6,0:3:0:0:
388,226,287240,1,6,0:3:0:0:
208,165,287321,2,0,L|148:164,1,52.5,10|6,0:0|0:3,0:0:0:0:
322,100,287483,2,0,L|405:99,1,52.5,10|6,0:0|0:3,0:0:0:0:
166,92,287644,6,0,L|164:40,1,52.5,2|8,0:0|0:0,0:0:0:0:
238,137,287805,2,0,L|241:77,1,52.5,10|6,0:0|0:3,0:0:0:0:
91,199,287966,2,0,L|23:198,1,52.5,10|8,0:0|0:0,0:0:0:0:
91,199,288128,2,0,L|153:200,1,52.5,6|6,0:3|0:3,0:0:0:0:
296,127,288289,6,0,L|298:75,1,52.5,10|8,0:0|0:3,0:0:0:0:
224,172,288452,2,0,L|221:112,1,52.5,8|8,0:3|0:3,0:0:0:0:
371,234,288615,2,0,L|439:233,1,52.5,8|6,0:3|0:3,0:0:0:0:
371,234,288778,2,0,L|309:235,1,52.5,2|6,0:3|0:3,0:0:0:0:
125,350,288941,6,0,L|141:272,1,52.5,10|12,0:0|0:3,0:0:0:0:
213,291,289104,2,0,L|226:234,1,52.5,12|12,0:3|0:3,0:0:0:0:
387,172,289267,2,0,L|334:163,1,52.5,8|10,0:3|0:3,0:0:0:0:
266,132,289436,2,0,L|263:68,1,52.5,6|6,0:3|0:3,0:0:0:0:
466,59,289605,6,0,L|402:53,1,52.5,10|4,0:0|0:3,0:0:0:0:
343,47,289768,2,0,L|274:40,1,52.5,4|4,0:3|0:3,0:0:0:0:
117,138,289931,2,0,L|43:134,1,52.5,8|10,0:3|0:3,0:0:0:0:
305,234,290094,2,0,L|390:240,1,52.5,6|6,0:3|0:3,0:0:0:0:
142,291,290278,5,6,1:0:0:0:
256,192,290441,12,4,292886,1:0:0:0:
371,94,295486,5,4,0:2:0:0:
71,288,295649,2,0,L|323:260,1,210,8|8,0:2|0:2,0:0:0:0:
143,209,296139,2,0,L|138:151,1,52.5,0|0,0:2|0:2,0:0:0:0:
209,151,296303,2,0,L|206:96,1,52.5,8|0,0:2|0:2,0:0:0:0:
56,133,296466,1,0,0:2:0:0:
10,101,296547,1,0,0:2:0:0:
9,50,296629,1,8,0:2:0:0:
54,15,296711,1,0,0:2:0:0:
260,8,296793,5,0,0:2:0:0:
33,208,296957,2,0,L|251:207,1,210,8|8,0:2|0:2,0:0:0:0:
376,271,297447,1,0,0:2:0:0:
425,255,297528,1,0,0:2:0:0:
454,212,297610,1,8,0:2:0:0:
451,161,297692,1,0,0:2:0:0:
312,91,297774,2,0,L|229:90,1,52.5,0|0,0:2|0:2,0:0:0:0:
431,37,297938,2,0,L|491:37,1,52.5,8|0,0:2|0:2,0:0:0:0:
279,5,298101,5,4,0:2:0:0:
43,145,298265,2,0,L|274:144,1,210,8|8,0:2|0:2,0:0:0:0:
426,144,298755,1,0,0:2:0:0:
368,144,298836,1,0,0:2:0:0:
310,144,298918,1,8,0:2:0:0:
252,144,299000,1,0,0:2:0:0:
85,198,299082,1,0,0:2:0:0:
44,166,299163,1,0,0:2:0:0:
35,116,299245,1,8,0:2:0:0:
62,73,299327,1,0,0:2:0:0:
268,79,299409,6,0,L|281:25,1,52.5,8|8,0:0|0:0,0:0:0:0:
117,288,299559,2,0,L|104:230,1,52.5,8|8,0:0|0:0,0:0:0:0:
303,109,299892,6,0,L|312:52,1,52.5,8|8,0:0|0:0,0:0:0:0:
91,321,300039,2,0,L|73:259,1,52.5,8|8,0:0|0:0,0:0:0:0:
336,132,300377,6,0,L|347:73,1,52.5,8|4,0:0|0:3,0:0:0:0:
264,207,300538,2,0,L|251:133,1,52.5,4|4,0:3|0:3,0:0:0:0:
403,288,300699,1,6,1:0:0:0:
256,192,300862,12,0,303309,0:0:0:0:
190,255,310323,6,8,L|177:195,1,52.5,8|8,0:3|0:3,0:3:0:0:
258,185,310486,2,8,L|266:126,2,52.5,8|8|8,0:3|0:3|0:3,0:3:0:0:
132,106,310813,2,0,L|6:97,1,105,0|0,0:0|0:0,0:0:0:0:
446,27,311139,5,4,1:0:0:0:
285,87,311465,2,0,L|43:74,2,210,2|2|2,1:0|1:0|1:0,0:0:0:0:
445,229,312444,6,0,P|493:167|421:61,1,210,2|2,1:0|1:0,0:0:0:0:
338,68,312933,1,2,0:0:0:0:
174,243,313260,2,0,L|406:222,1,210,2|2,0:0|0:0,0:0:0:0:
81,133,313749,6,0,L|301:113,1,210,2|2,1:0|1:0,0:0:0:0:
396,98,314238,1,2,0:0:0:0:
187,220,314565,2,0,L|403:198,1,210,2|2,0:0|0:0,0:0:0:0:
203,30,315054,6,0,P|113:63|109:190,1,210,2|0,1:0|1:0,0:0:0:0:
328,338,315707,2,0,L|351:276,1,52.5,8|8,0:0|0:0,0:0:0:0:
252,254,315870,2,0,L|236:198,1,52.5,8|8,0:0|0:0,0:0:0:0:
404,216,316033,2,0,L|427:154,1,52.5,8|8,0:0|0:3,0:0:0:0:
328,132,316196,2,0,L|312:76,1,52.5,4|4,0:3|0:3,0:0:0:0:
471,16,316359,5,0,0:0:0:0:
213,121,316522,1,4,0:3:0:0:
160,117,316603,1,4,0:3:0:0:
108,113,316685,1,6,0:3:0:0:
390,301,316848,2,0,L|166:280,1,210,12|0,0:0|0:0,0:0:0:0:
126,277,317255,1,0,0:0:0:0:
334,207,317337,2,0,L|457:220,1,105,8|0,0:0|0:0,0:0:0:0:
111,39,317663,5,0,0:0:0:0:
229,98,317826,1,0,0:0:0:0:
228,150,317907,1,0,0:0:0:0:
227,202,317989,1,8,0:0:0:0:
111,39,318152,1,0,0:0:0:0:
414,22,318315,5,8,0:0:0:0:
286,125,318478,2,0,L|218:112,1,52.5,8|8,0:0|0:0,0:0:0:0:
286,125,318641,2,0,L|367:109,1,52.5,8|8,0:0|0:0,0:0:0:0:
156,185,318804,2,0,L|92:172,1,52.5,8|8,0:0|0:0,0:0:0:0:
381,330,318978,5,8,0:0:0:0:
265,261,319140,1,4,0:3:0:0:
212,260,319221,1,4,0:3:0:0:
160,260,319302,1,6,0:3:0:0:
387,198,319464,2,0,P|469:150|438:47,1,210,12|0,0:0|0:0,0:0:0:0:
391,33,319869,1,0,0:0:0:0:
188,67,319950,2,0,L|69:68,1,105,8|0,0:0|0:0,0:0:0:0:
348,273,320275,5,0,0:0:0:0:
214,338,320439,1,0,0:0:0:0:
212,285,320521,1,0,0:0:0:0:
211,233,320603,1,8,0:0:0:0:
348,273,320769,1,0,0:0:0:0:
79,193,320934,2,0,L|73:64,1,105,8|0,0:0|0:0,0:0:0:0:
128,61,321178,1,0,0:0:0:0:
309,173,321260,2,0,L|377:171,1,52.5,8|8,0:0|0:0,0:0:0:0:
193,104,321423,2,0,L|126:106,1,52.5,8|8,0:0|0:0,0:0:0:0:
385,352,321579,6,0,L|406:282,1,52.5,6|0,0:0|0:0,0:0:0:0:
318,267,321742,2,0,L|305:202,1,52.5,0|0,0:0|0:0,0:0:0:0:
225,197,321905,2,0,L|176:166,1,52.5,8|0,0:0|0:0,0:0:0:0:
351,108,322068,2,0,L|404:76,1,52.5,0|0,0:0|0:0,0:0:0:0:
206,55,322231,6,0,L|146:45,1,52.5,0|0,0:0|0:0,0:0:0:0:
206,55,322394,2,0,L|268:47,1,52.5,0|0,0:0|0:0,0:0:0:0:
206,55,322557,2,0,L|133:42,1,52.5,8|0,0:0|0:0,0:0:0:0:
391,216,322720,2,0,L|393:138,1,52.5,0|0,0:0|0:0,0:0:0:0:
171,336,322883,6,0,L|248:336,1,52.5,0|0,0:0|0:0,0:0:0:0:
171,336,323045,2,0,L|91:337,1,52.5,0|0,0:0|0:0,0:0:0:0:
66,336,323207,2,0,L|131:336,1,52.5,8|0,0:0|0:0,0:0:0:0:
281,295,323369,2,0,L|346:295,1,52.5,0|0,0:0|0:0,0:0:0:0:
191,202,323531,6,0,L|120:202,1,52.5,8|0,0:0|0:0,0:0:0:0:
191,202,323693,2,0,L|277:202,1,52.5,0|0,0:0|0:0,0:0:0:0:
38,110,323855,2,0,L|126:111,1,52.5,8|8,0:0|0:0,0:0:0:0:
243,108,324018,2,0,L|312:108,1,52.5,8|0,0:0|0:0,0:0:0:0:
468,183,324180,6,0,L|490:103,1,52.5,6|0,0:2|0:2,0:0:0:0:
306,306,324343,2,0,L|296:243,1,52.5,10|0,0:2|0:2,0:0:0:0:
135,211,324506,2,0,L|82:180,1,52.5,0|0,0:2|0:2,0:0:0:0:
291,145,324669,6,0,L|303:73,1,52.5,10|0,0:2|0:2,0:0:0:0:
109,40,324832,2,0,L|172:25,1,52.5,10|0,0:2|0:2,0:0:0:0:
341,56,324995,2,0,L|411:44,1,52.5,0|0,0:2|0:2,0:0:0:0:
214,198,325158,6,0,L|210:106,1,52.5,10|0,0:2|0:2,0:0:0:0:
425,295,325321,2,0,L|354:274,1,52.5,10|0,0:2|0:2,0:0:0:0:
170,322,325484,6,0,L|91:309,1,52.5,0|0,0:2|0:2,0:0:0:0:
322,229,325647,2,0,L|338:160,1,52.5,10|0,0:2|0:2,0:0:0:0:
140,112,325810,2,0,L|214:99,1,52.5,10|8,0:2|0:2,0:0:0:0:
441,57,325973,2,0,L|375:47,1,52.5,8|8,0:2|0:2,0:0:0:0:
181,8,326136,5,10,2:0:0:0:
256,192,326299,12,0,327930,0:0:0:0:
122,307,328093,6,0,L|112:248,3,52.5,2|0|0|0,2:0|2:0|2:0|2:0,0:0:0:0:
214,208,328419,2,0,L|222:145,3,52.5,2|0|0|0,2:2|2:0|2:0|2:0,0:0:0:0:
321,123,328745,2,0,L|481:93,1,157.5,2|0,2:0|2:0,0:0:0:0:
265,325,329071,2,0,L|78:316,1,157.5,2|0,2:0|2:0,0:0:0:0:
398,259,329397,6,0,B|226:109|226:328|41:181,1,367.5,6|0,0:0|2:0,0:0:0:0:
247,99,330049,6,0,L|318:88,2,52.5,8|0|0,0:0|0:0|0:0,0:0:0:0:
75,49,330294,2,0,L|4:38,2,52.5,8|0|0,0:0|0:0|0:0,0:0:0:0:
247,99,330538,2,0,L|326:86,1,52.5,8|0,0:0|0:0,0:0:0:0:
493,190,330701,6,0,L|315:171,1,157.5,6|0,0:0|0:0,0:0:0:0:
165,262,331027,2,0,L|94:274,3,52.5,8|8|8|8,0:0|0:0|0:0|0:0,0:0:0:0:
334,334,331353,6,0,L|471:347,1,105,8|0,0:0|0:0,0:0:0:0:
381,313,331598,1,8,0:0:0:0:
208,213,331680,2,0,L|145:206,1,52.5,8|8,0:0|0:0,0:0:0:0:
331,84,331843,2,0,L|340:153,1,52.5,8|8,0:0|0:0,0:0:0:0:
181,54,332006,6,0,P|97:35|8:41,1,157.5,6|0,0:0|0:0,0:0:0:0:
211,216,332332,2,0,P|289:237|398:217,1,157.5,6|0,0:0|0:0,0:0:0:0:
154,86,332658,6,0,P|99:160|106:260,1,157.5,6|0,0:0|0:0,0:0:0:0:
358,86,332984,2,0,P|413:160|406:260,1,157.5,6|0,0:0|0:0,0:0:0:0:
211,282,333317,6,0,P|124:267|59:277,1,105,12|0,0:0|0:0,0:0:0:0:
269,211,333643,2,0,P|326:203|406:181,1,105,8|0,0:0|0:0,0:0:0:0:
59,110,333969,2,0,L|40:37,3,52.5,8|0|0|0,0:0|0:0|0:0|0:0,0:0:0:0:
121,60,334293,2,0,L|208:51,1,52.5,8|0,0:0|0:0,0:0:0:0:
236,50,334455,2,0,L|292:47,1,52.5,0|0,0:0|0:0,0:0:0:0:
473,125,334617,6,0,L|484:67,1,52.5,10|0,0:0|0:0,0:0:0:0:
283,318,334780,2,0,L|272:258,1,52.5,0|0,0:0|0:0,0:0:0:0:
354,255,334943,1,8,0:0:0:0:
403,239,335024,1,0,0:0:0:0:
433,197,335106,1,0,0:0:0:0:
431,146,335187,1,0,0:0:0:0:
399,105,335269,5,8,0:0:0:0:
349,93,335350,1,0,0:0:0:0:
405,107,335432,2,0,L|465:107,1,52.5,0|0,0:0|0:0,0:0:0:0:
250,182,335595,2,0,L|192:181,1,52.5,10|0,0:0|0:0,0:0:0:0:
250,182,335758,2,0,L|313:183,1,52.5,0|0,0:0|0:0,0:0:0:0:
77,344,335921,6,0,L|61:279,1,52.5,10|0,0:0|0:0,0:0:0:0:
141,274,336084,2,0,L|165:221,1,52.5,0|0,0:0|0:0,0:0:0:0:
239,220,336247,2,0,L|302:205,1,52.5,8|0,0:0|0:0,0:0:0:0:
214,152,336410,2,0,L|149:141,1,52.5,0|0,0:0|0:0,0:0:0:0:
355,157,336573,5,10,0:0:0:0:
402,138,336654,1,0,0:0:0:0:
426,92,336736,1,0,0:0:0:0:
413,42,336817,1,0,0:0:0:0:
182,46,336899,1,10,0:0:0:0:
240,43,336981,1,0,0:0:0:0:
299,39,337062,1,0,0:0:0:0:
356,36,337143,1,0,0:0:0:0:
187,349,337225,6,0,L|161:279,1,52.5,10|0,0:0|0:0,0:0:0:0:
247,273,337388,2,0,L|271:208,1,52.5,0|0,0:0|0:0,0:0:0:0:
181,196,337551,2,0,L|164:131,1,52.5,8|0,0:0|0:0,0:0:0:0:
346,133,337714,2,0,L|417:118,1,52.5,2|0,0:0|0:0,0:0:0:0:
209,19,337877,5,10,0:0:0:0:
260,28,337958,1,0,0:0:0:0:
301,59,338040,1,0,0:0:0:0:
325,105,338121,1,0,0:0:0:0:
325,157,338203,1,8,0:0:0:0:
302,204,338284,1,0,0:0:0:0:
261,235,338366,1,0,0:0:0:0:
210,245,338447,1,0,0:0:0:0:
49,322,338530,6,0,L|101:320,1,52.5,4|4,0:3|0:3,0:0:0:0:
347,335,338693,2,0,L|434:334,1,52.5,4|4,0:3|0:3,0:0:0:0:
226,252,338856,2,0,L|63:254,1,157.5,8|0,0:0|0:0,0:0:0:0:
265,170,339182,6,0,L|325:169,1,52.5,8|4,0:0|0:3,0:0:0:0:
124,110,339345,2,0,L|57:110,1,52.5,4|4,0:3|0:3,0:0:0:0:
265,170,339508,2,0,L|325:169,1,52.5,8|4,0:0|0:3,0:0:0:0:
124,110,339671,2,0,L|57:110,1,52.5,4|4,0:3|0:3,0:0:0:0:
360,48,339834,6,0,L|439:49,1,52.5,12|0,0:0|0:0,0:0:0:0:
464,59,339997,1,0,0:0:0:0:
492,102,340078,1,0,0:0:0:0:
495,154,340160,1,8,0:0:0:0:
473,201,340241,1,0,0:0:0:0:
430,230,340323,1,0,0:0:0:0:
378,235,340404,1,0,0:0:0:0:
167,350,340486,5,8,0:0:0:0:
136,308,340567,1,0,0:0:0:0:
142,257,340649,1,0,0:0:0:0:
180,223,340730,1,0,0:0:0:0:
341,209,340812,1,8,0:0:0:0:
392,208,340893,1,0,0:0:0:0:
430,173,340975,1,0,0:0:0:0:
435,122,341056,1,0,0:0:0:0:
229,23,341138,5,10,0:0:0:0:
176,23,341219,1,0,0:0:0:0:
130,47,341301,1,0,0:0:0:0:
99,88,341382,1,0,0:0:0:0:
88,139,341464,1,8,0:0:0:0:
102,190,341545,1,0,0:0:0:0:
136,229,341627,1,0,0:0:0:0:
184,249,341708,1,0,0:0:0:0:
327,282,341790,6,0,L|401:282,1,52.5,10|0,0:0|0:0,0:0:0:0:
327,282,341953,2,0,L|271:282,1,52.5,0|0,0:0|0:0,0:0:0:0:
437,210,342117,2,0,L|511:210,1,52.5,10|0,0:0|0:0,0:0:0:0:
437,210,342280,2,0,L|381:210,1,52.5,0|0,0:0|0:0,0:0:0:0:
221,182,342443,6,0,L|221:125,1,52.5,10|0,0:0|0:0,0:0:0:0:
296,131,342606,2,0,L|296:57,1,52.5,0|0,0:0|0:0,0:0:0:0:
125,186,342769,2,0,L|53:186,1,52.5,10|0,0:0|0:0,0:0:0:0:
125,186,342932,2,0,L|190:186,1,52.5,0|0,0:0|0:0,0:0:0:0:
342,274,343095,6,0,L|343:203,1,52.5,10|0,0:0|0:0,0:0:0:0:
266,209,343258,2,0,L|267:152,1,52.5,0|0,0:0|0:0,0:0:0:0:
430,142,343421,2,0,L|488:142,1,52.5,10|0,0:0|0:0,0:0:0:0:
291,71,343584,2,0,L|208:71,1,52.5,2|0,0:0|0:0,0:0:0:0:
462,29,343747,5,8,0:0:0:0:
411,40,343828,1,0,0:0:0:0:
370,72,343910,1,0,0:0:0:0:
348,119,343991,1,0,0:0:0:0:
350,171,344073,1,8,0:0:0:0:
374,217,344154,1,0,0:0:0:0:
417,248,344236,1,0,0:0:0:0:
468,256,344317,1,0,0:0:0:0:
274,248,344399,6,0,L|178:253,3,52.5,10|0|8|8,0:0|0:0|0:0|0:0,0:0:0:0:
51,215,344725,1,10,0:0:0:0:
16,177,344806,1,4,0:3:0:0:
16,126,344888,1,0,0:3:0:0:
52,89,344969,1,4,0:3:0:0:
226,169,345051,5,10,0:0:0:0:
277,168,345132,1,0,0:0:0:0:
316,135,345214,1,0,0:0:0:0:
324,84,345295,1,0,0:0:0:0:
297,41,345377,1,8,0:0:0:0:
243,30,345459,2,0,L|172:30,2,52.5,0|0|0,0:0|0:0|0:0,0:0:0:0:
297,41,345703,5,8,0:0:0:0:
342,78,345785,1,0,0:0:0:0:
342,129,345866,1,0,0:0:0:0:
297,159,345948,1,0,0:0:0:0:
128,250,346030,2,0,L|189:250,1,52.5,10|4,0:0|0:3,0:0:0:0:
238,251,346193,2,0,L|299:251,1,52.5,4|4,0:3|0:3,0:0:0:0:
75,352,346364,6,0,L|58:282,1,52.5,10|0,0:0|0:0,0:0:0:0:
142,280,346526,2,0,L|154:226,1,52.5,0|0,0:0|0:0,0:0:0:0:
233,228,346689,2,0,L|251:173,1,52.5,8|0,0:0|0:0,0:0:0:0:
328,177,346852,2,0,L|351:117,1,52.5,0|0,0:0|0:0,0:0:0:0:
171,81,347015,6,0,L|111:67,1,52.5,10|0,0:0|0:0,0:0:0:0:
313,28,347177,2,0,L|375:16,1,52.5,0|0,0:0|0:0,0:0:0:0:
171,81,347340,2,0,L|111:67,1,52.5,10|0,0:0|0:0,0:0:0:0:
313,28,347502,2,0,L|375:16,1,52.5,0|0,0:0|0:0,0:0:0:0:
111,213,347666,6,0,L|45:199,2,52.5,8|0|0,0:0|0:0|0:0,0:0:0:0:
300,158,347910,1,8,0:0:0:0:
243,148,347991,1,0,0:0:0:0:
186,138,348072,1,0,0:0:0:0:
388,257,348154,6,0,L|454:243,2,52.5,8|0|0,0:0|0:0|0:0,0:0:0:0:
199,202,348398,1,8,0:0:0:0:
255,192,348479,1,0,0:0:0:0:
312,182,348560,1,0,0:0:0:0:
484,137,348642,2,0,L|429:128,1,52.5,8|8,0:0|0:3,0:0:0:0:
272,91,348805,2,0,L|204:81,1,52.5,8|8,0:3|0:3,0:0:0:0:
272,91,348968,6,0,L|341:77,1,52.5,8|8,0:3|0:3,0:0:0:0:
122,162,349131,2,0,L|66:150,1,52.5,8|4,0:0|0:3,0:0:0:0:
285,319,349294,2,0,L|293:252,1,52.5,4|4,0:3|0:3,0:0:0:0:
215,254,349456,2,0,L|222:193,1,52.5,4|4,0:3|0:3,0:0:0:0:
398,176,349619,6,0,L|461:170,1,52.5,8|0,0:0|0:0,0:0:0:0:
265,111,349782,2,0,L|204:115,1,52.5,0|0,0:0|0:0,0:0:0:0:
402,176,349945,2,0,L|472:172,1,52.5,8|0,0:0|0:0,0:0:0:0:
267,111,350107,2,0,L|206:113,1,52.5,0|0,0:0|0:0,0:0:0:0:
41,213,350275,6,0,L|35:148,1,52.5,14|0,0:0|0:0,0:0:0:0:
117,207,350437,2,0,L|200:206,1,52.5,0|0,0:0|0:0,0:0:0:0:
117,207,350600,2,0,L|49:208,1,52.5,8|0,0:0|0:0,0:0:0:0:
117,207,350763,2,0,L|200:206,1,52.5,0|0,0:0|0:0,0:0:0:0:
324,271,350926,6,0,L|324:207,1,52.5,8|0,0:0|0:0,0:0:0:0:
250,197,351089,2,0,L|313:197,1,52.5,0|0,0:0|0:0,0:0:0:0:
454,204,351252,1,8,0:0:0:0:
493,172,351333,1,0,0:0:0:0:
494,121,351414,1,0,0:0:0:0:
455,89,351496,1,0,0:0:0:0:
229,279,351578,6,0,L|200:229,1,52.5,10|0,0:0|0:0,0:0:0:0:
276,206,351741,2,0,L|302:136,1,52.5,0|0,0:0|0:0,0:0:0:0:
374,161,351904,2,0,L|395:104,1,52.5,8|0,0:0|0:0,0:0:0:0:
312,90,352067,2,0,L|242:69,1,52.5,0|0,0:0|0:0,0:0:0:0:
86,120,352230,6,0,L|6:103,1,52.5,10|0,0:0|0:0,0:0:0:0:
86,120,352393,2,0,L|144:115,1,52.5,0|0,0:0|0:0,0:0:0:0:
312,182,352556,2,0,L|366:172,1,52.5,10|0,0:0|0:0,0:0:0:0:
183,269,352719,2,0,L|109:283,1,52.5,0|0,0:0|0:0,0:0:0:0:
386,335,352882,6,0,L|461:350,3,52.5,10|0|0|0,0:0|0:0|0:0|0:0,0:0:0:0:
247,244,353208,2,0,L|172:259,3,52.5,10|0|0|0,0:0|0:0|0:0|0:0,0:0:0:0:
386,335,353534,6,0,L|461:350,3,52.5,10|0|0|0,0:0|0:0|0:0|0:0,0:0:0:0:
247,244,353860,2,0,L|172:259,3,52.5,10|0|0|0,0:0|0:0|0:0|0:0,0:0:0:0:
30,268,354185,5,10,0:0:0:0:
16,217,354266,1,0,0:0:0:0:
25,166,354347,1,0,0:0:0:0:
53,122,354429,1,0,0:0:0:0:
98,95,354510,1,8,0:0:0:0:
149,87,354592,1,0,0:0:0:0:
98,95,354674,2,0,L|41:84,1,52.5,0|0,0:0|0:0,0:0:0:0:
221,236,354837,5,10,0:0:0:0:
271,224,354918,1,0,0:0:0:0:
305,185,354999,1,0,0:0:0:0:
310,134,355081,1,8,0:0:0:0:
125,116,355163,2,0,L|54:117,1,52.5,10|4,0:0|0:3,0:0:0:0:
125,116,355326,2,0,L|195:115,1,52.5,4|4,0:3|0:3,0:0:0:0:
340,28,355489,5,10,0:0:0:0:
389,44,355570,1,0,0:0:0:0:
419,85,355652,1,0,0:0:0:0:
419,137,355733,1,0,0:0:0:0:
388,179,355815,1,8,0:0:0:0:
339,194,355896,1,0,0:0:0:0:
388,179,355978,2,0,L|450:184,1,52.5,0|0,0:0|0:0,0:0:0:0:
388,179,356141,2,0,L|307:170,1,52.5,8|0,0:0|0:0,0:0:0:0:
388,179,356304,2,0,L|450:184,1,52.5,0|0,0:0|0:0,0:0:0:0:
228,254,356467,5,10,0:0:0:0:
170,249,356548,1,0,0:0:0:0:
112,244,356630,1,0,0:0:0:0:
55,239,356711,1,0,0:0:0:0:
235,164,356793,6,0,L|310:171,1,52.5,10|0,0:0|0:0,0:0:0:0:
235,164,356956,2,0,L|159:155,1,52.5,0|0,0:0|0:0,0:0:0:0:
235,164,357119,1,8,0:0:0:0:
278,151,357200,1,0,0:0:0:0:
311,115,357282,1,0,0:0:0:0:
297,62,357363,1,0,0:0:0:0:
128,32,357445,6,0,L|54:32,1,52.5,10|0,0:0|0:0,0:0:0:0:
128,32,357608,2,0,L|195:32,1,52.5,0|0,0:0|0:0,0:0:0:0:
357,139,357771,2,0,L|357:71,1,52.5,10|0,0:0|0:0,0:0:0:0:
282,180,357934,2,0,L|282:120,1,52.5,0|0,0:0|0:0,0:0:0:0:
480,256,358097,5,10,0:0:0:0:
422,251,358178,1,0,0:0:0:0:
364,247,358260,1,0,0:0:0:0:
307,243,358341,1,0,0:0:0:0:
249,239,358423,1,8,0:0:0:0:
191,235,358504,1,0,0:0:0:0:
389,157,358586,2,0,L|325:154,1,52.5,2|0,0:0|0:0,0:0:0:0:
123,217,358749,5,10,0:0:0:0:
73,203,358830,1,0,0:0:0:0:
38,164,358912,1,0,0:0:0:0:
31,113,358993,1,0,0:0:0:0:
52,66,359075,1,8,0:0:0:0:
96,38,359156,1,0,0:0:0:0:
142,34,359239,2,0,L|198:33,1,52.5,0|0,0:0|0:0,0:0:0:0:
383,119,359399,6,0,L|466:119,1,52.5,4|4,0:3|0:3,0:0:0:0:
180,173,359562,2,0,L|87:173,1,52.5,4|4,0:3|0:3,0:0:0:0:
313,287,359725,2,0,L|472:287,1,157.5,8|0,0:0|0:0,0:0:0:0:
236,189,360051,6,0,L|161:189,1,52.5,8|4,0:0|0:3,0:0:0:0:
412,139,360214,2,0,L|484:139,1,52.5,4|4,0:3|0:3,0:0:0:0:
236,189,360377,2,0,L|161:189,1,52.5,8|4,0:0|0:3,0:0:0:0:
412,139,360540,2,0,L|484:139,1,52.5,4|4,0:3|0:3,0:0:0:0:
190,104,360716,6,0,L|165:29,1,52.5,12|0,0:0|0:0,0:0:0:0:
256,163,360879,2,0,L|276:106,1,52.5,0|0,0:0|0:0,0:0:0:0:
191,242,361042,2,0,L|176:169,1,52.5,8|0,0:0|0:0,0:0:0:0:
101,188,361205,2,0,L|89:137,1,52.5,0|0,0:0|0:0,0:0:0:0:
295,295,361368,6,0,L|368:295,1,52.5,8|0,0:0|0:0,0:0:0:0:
295,295,361531,2,0,L|213:293,1,52.5,0|0,0:0|0:0,0:0:0:0:
388,234,361694,1,8,0:0:0:0:
432,207,361775,1,0,0:0:0:0:
449,159,361857,1,0,0:0:0:0:
431,111,361938,1,0,0:0:0:0:
224,284,362020,5,10,0:0:0:0:
173,271,362101,1,0,0:0:0:0:
133,238,362183,1,0,0:0:0:0:
112,190,362264,1,0,0:0:0:0:
115,138,362346,1,8,0:0:0:0:
140,92,362427,1,0,0:0:0:0:
183,63,362509,1,0,0:0:0:0:
235,55,362590,1,0,0:0:0:0:
64,243,362672,5,10,0:0:0:0:
24,210,362753,1,0,0:0:0:0:
24,159,362835,1,0,0:0:0:0:
63,127,362916,1,0,0:0:0:0:
282,73,362998,1,10,0:0:0:0:
224,71,363079,1,0,0:0:0:0:
166,69,363161,1,0,0:0:0:0:
108,68,363242,1,0,0:0:0:0:
289,209,363324,6,0,L|308:152,3,52.5,10|0|0|0,0:0|0:0|0:0|0:0,0:0:0:0:
156,339,363650,2,0,L|137:282,3,52.5,10|0|0|0,0:0|0:0|0:0|0:0,0:0:0:0:
289,209,363976,2,0,L|308:152,3,52.5,10|0|0|0,0:0|0:0|0:0|0:0,0:0:0:0:
149,110,364302,2,0,L|127:60,1,52.5,10|0,0:0|0:0,0:0:0:0:
333,272,364466,2,0,L|357:218,1,52.5,2|0,0:0|0:0,0:0:0:0:
154,207,364622,6,0,L|216:201,1,52.5,8|0,0:0|0:0,0:0:0:0:
265,199,364785,2,0,L|339:193,1,52.5,0|0,0:0|0:0,0:0:0:0:
265,199,364948,2,0,L|206:205,1,52.5,8|0,0:0|0:0,0:0:0:0:
265,199,365111,2,0,L|329:193,1,52.5,0|0,0:0|0:0,0:0:0:0:
141,142,365274,5,10,0:0:0:0:
92,124,365355,1,0,0:0:0:0:
71,78,365437,1,0,0:0:0:0:
88,29,365518,1,8,0:0:0:0:
299,24,365600,2,0,L|230:23,1,52.5,10|4,0:0|0:3,0:0:0:0:
61,130,365763,2,0,L|136:131,1,52.5,0|4,0:0|0:3,0:0:0:0:
337,313,365935,5,10,0:0:0:0:
385,295,366015,1,0,0:0:0:0:
409,250,366096,1,0,0:0:0:0:
397,200,366176,1,0,0:0:0:0:
338,191,366257,1,8,0:0:0:0:
289,173,366337,1,0,0:0:0:0:
265,128,366418,1,0,0:0:0:0:
277,78,366498,1,0,0:0:0:0:
337,313,366580,5,8,0:0:0:0:
385,295,366660,1,0,0:0:0:0:
409,250,366741,1,0,0:0:0:0:
397,200,366821,1,0,0:0:0:0:
170,144,366902,1,10,0:0:0:0:
227,139,366982,1,4,0:3:0:0:
285,134,367063,1,4,0:3:0:0:
342,130,367143,1,4,0:3:0:0:
34,287,367225,5,10,0:0:0:0:
14,239,367306,1,0,0:0:0:0:
29,190,367388,1,0,0:0:0:0:
72,161,367469,1,0,0:0:0:0:
233,166,367551,2,0,L|291:158,1,52.5,10|0,0:0|0:0,0:0:0:0:
441,210,367714,1,2,0:0:0:0:
489,192,367795,1,0,0:0:0:0:
512,149,367877,5,8,0:0:0:0:
512,98,367958,1,0,0:0:0:0:
488,56,368040,1,8,0:0:0:0:
439,38,368121,1,0,0:0:0:0:
264,34,368203,2,0,L|182:34,1,52.5,10|4,0:0|0:3,0:0:0:0:
264,34,368366,2,0,L|338:34,1,52.5,4|4,0:3|0:3,0:0:0:0:
114,334,368529,5,14,0:0:0:0:
66,316,368609,1,0,0:0:0:0:
42,271,368692,1,0,0:0:0:0:
54,221,368773,1,0,0:0:0:0:
113,212,368855,1,8,0:0:0:0:
162,194,368936,1,0,0:0:0:0:
186,149,369018,1,0,0:0:0:0:
174,99,369100,1,0,0:0:0:0:
114,334,369181,5,8,0:0:0:0:
66,316,369263,1,0,0:0:0:0:
42,271,369344,1,0,0:0:0:0:
54,221,369426,1,0,0:0:0:0:
281,165,369507,1,10,0:0:0:0:
224,160,369589,1,0,0:0:0:0:
166,155,369670,1,0,0:0:0:0:
109,151,369752,1,0,0:0:0:0:
361,256,369833,6,0,L|399:206,5,52.5,14|0|0|0|8|0,0:0|0:0|0:0|0:0|0:0|0:0,0:0:0:0:
244,138,370322,2,0,L|206:88,5,52.5,2|0|8|8|8|4,0:0|0:0|0:0|0:0|0:0|0:3,0:0:0:0:
401,78,370811,2,0,L|465:78,1,52.5,10|8,0:0|0:0,0:0:0:0:
401,78,370975,2,0,L|338:78,1,52.5,8|4,0:0|0:3,0:0:0:0:
150,14,371138,6,0,L|158:84,1,52.5,14|0,0:0|0:0,0:0:0:0:
230,59,371301,2,0,L|235:114,1,52.5,0|0,0:0|0:0,0:0:0:0:
142,142,371464,2,0,L|149:207,1,52.5,8|0,0:0|0:0,0:0:0:0:
223,200,371627,2,0,L|230:256,1,52.5,0|0,0:0|0:0,0:0:0:0:
129,277,371790,6,0,L|136:352,1,52.5,8|0,0:0|0:0,0:0:0:0:
214,330,371953,2,0,L|218:395,1,52.5,0|0,0:0|0:0,0:0:0:0:
382,305,372116,1,10,0:0:0:0:
430,286,372197,1,0,0:0:0:0:
457,242,372279,1,0,0:0:0:0:
453,191,372360,1,0,0:0:0:0:
270,147,372433,6,0,L|210:148,1,52.5,10|0,0:0|0:0,0:0:0:0:
270,147,372596,2,0,L|331:147,1,52.5,0|0,0:0|0:0,0:0:0:0:
270,147,372759,2,0,L|203:147,1,52.5,8|0,0:0|0:0,0:0:0:0:
387,75,372922,2,0,L|456:75,1,52.5,2|0,0:0|0:0,0:0:0:0:
387,75,373085,2,0,L|311:74,1,52.5,8|0,0:0|0:0,0:0:0:0:
387,75,373248,2,0,L|451:75,1,52.5,0|0,0:0|0:0,0:0:0:0:
221,29,373411,2,0,L|152:30,1,52.5,10|0,0:0|0:0,0:0:0:0:
396,157,373574,2,0,L|453:157,1,52.5,0|0,0:0|0:0,0:0:0:0:
176,263,373737,6,0,L|101:263,2,52.5,8|4|4,0:0|0:3|0:3,0:0:0:0:
380,319,373981,2,0,L|441:319,2,52.5,8|4|4,0:0|0:3|0:3,0:0:0:0:
177,171,374226,1,8,0:0:0:0:
234,170,374307,1,0,0:0:0:0:
292,169,374389,1,0,0:0:0:0:
105,88,374471,6,0,L|31:89,2,52.5,8|0|0,0:0|0:0|0:0,0:0:0:0:
284,37,374715,2,0,L|345:36,1,52.5,8|0,0:0|0:0,0:0:0:0:
151,162,374878,2,0,L|89:159,1,52.5,0|0,0:0|0:0,0:0:0:0:
326,258,375052,6,0,L|391:259,1,52.5,8|4,0:0|0:3,0:0:0:0:
430,258,375215,2,0,L|362:258,1,52.5,4|4,0:3|0:3,0:0:0:0:
196,303,375379,2,0,L|130:303,1,52.5,8|8,0:0|0:0,0:0:0:0:
361,336,375543,2,0,L|444:340,1,52.5,8|4,0:0|0:3,0:0:0:0:
211,224,375707,6,0,L|204:165,1,52.5,8|0,0:0|0:0,0:0:0:0:
278,154,375871,2,0,L|274:100,1,52.5,8|0,0:0|0:0,0:0:0:0:
76,72,376035,2,0,L|150:62,1,52.5,8|4,0:0|0:3,0:0:0:0:
385,30,376199,2,0,L|444:23,1,52.5,4|4,0:3|0:3,0:0:0:0:
263,121,376365,6,0,L|192:109,1,52.5,10|0,0:0|0:0,0:0:0:0:
39,209,376533,2,0,L|113:195,1,52.5,8|2,0:0|0:0,0:0:0:0:
263,216,376701,2,0,L|345:203,1,52.5,0|0,0:0|0:0,0:0:0:0:
487,320,376869,2,0,L|433:314,1,52.5,10|0,0:0|0:0,0:0:0:0:
263,328,377037,2,0,L|206:321,1,52.5,2|0,0:0|0:0,0:0:0:0:
382,229,377205,2,0,L|435:238,1,52.5,8|2,0:0|0:0,0:0:0:0:
192,119,377373,6,0,L|122:103,1,52.5,8|0,0:0|0:0,0:0:0:0:
392,79,377531,2,0,L|449:62,1,52.5,10|0,0:0|0:0,0:0:0:0:
138,147,377690,2,0,L|62:134,1,52.5,6|4,0:3|0:3,0:0:0:0:
408,112,377848,2,0,L|460:98,1,52.5,6|6,0:3|0:3,0:0:0:0:
88,184,378007,2,0,L|34:173,1,52.5,10|0,0:0|0:0,0:0:0:0:
419,162,378168,2,0,L|477:145,1,52.5,10|2,0:0|0:0,0:0:0:0:
160,288,378329,5,10,0:0:0:0:
217,282,378409,1,8,0:3:0:0:
274,276,378490,1,8,0:3:0:0:
332,271,378570,1,8,0:3:0:0:
78,185,378652,2,0,L|159:177,1,52.5,10|8,0:0|0:3,0:0:0:0:
351,163,378813,2,0,L|421:156,1,52.5,8|8,0:3|0:3,0:0:0:0:
140,14,378974,5,6,0:2:0:0:
89,22,379055,1,0,0:0:0:0:
54,60,379137,1,0,0:0:0:0:
49,111,379218,1,0,0:0:0:0:
200,174,379300,2,0,L|259:172,1,52.5,8|0,0:2|0:0,0:0:0:0:
200,174,379463,2,0,L|131:177,1,52.5,0|0,0:2|0:2,0:0:0:0:
224,171,379626,6,0,L|233:108,1,52.5,0|0,0:2|0:2,0:0:0:0:
312,113,379789,2,0,L|320:60,1,52.5,0|0,0:2|0:2,0:0:0:0:
106,83,379952,2,0,L|41:79,1,52.5,10|0,0:2|0:0,0:0:0:0:
106,83,380115,2,0,L|182:90,1,52.5,0|0,0:2|0:2,0:0:0:0:
363,245,380278,5,2,0:2:0:0:
413,232,380359,1,0,0:0:0:0:
448,194,380441,1,0,0:0:0:0:
457,143,380522,1,0,0:0:0:0:
408,116,380604,2,0,L|342:116,1,52.5,8|0,0:2|0:0,0:0:0:0:
408,116,380767,2,0,L|481:116,1,52.5,0|0,0:2|0:2,0:0:0:0:
260,186,380930,5,2,0:2:0:0:
209,174,381011,1,0,0:2:0:0:
175,135,381093,1,0,0:2:0:0:
171,83,381174,1,0,0:2:0:0:
330,40,381256,2,0,L|400:40,1,52.5,10|0,0:2|0:2,0:0:0:0:
121,121,381419,2,0,L|55:119,1,52.5,0|0,0:2|0:2,0:0:0:0:
251,304,381573,5,2,0:2:0:0:
300,271,381654,1,0,0:0:0:0:
301,220,381736,1,0,0:0:0:0:
254,187,381817,1,0,0:2:0:0:
413,303,381899,1,10,0:2:0:0:
462,270,381980,1,0,0:0:0:0:
463,219,382062,1,0,0:0:0:0:
416,186,382143,1,0,0:0:0:0:
241,217,382225,5,2,0:2:0:0:
192,184,382306,1,0,0:0:0:0:
191,133,382388,1,0,0:0:0:0:
238,100,382469,1,0,0:0:0:0:
83,219,382551,1,10,0:2:0:0:
34,186,382632,1,0,0:0:0:0:
33,135,382714,1,0,0:0:0:0:
80,102,382795,1,0,0:0:0:0:
296,279,382877,6,0,L|324:211,1,52.5,2|0,0:2|0:0,0:0:0:0:
231,199,383040,2,0,L|207:150,1,52.5,0|0,0:0|0:0,0:0:0:0:
296,139,383203,2,0,L|318:83,1,52.5,8|0,0:0|0:0,0:0:0:0:
233,70,383366,2,0,L|206:21,1,52.5,0|0,0:0|0:2,0:0:0:0:
401,166,383529,6,0,L|463:167,1,52.5,2|0,0:2|0:0,0:0:0:0:
401,166,383692,2,0,L|342:166,1,52.5,0|0,0:0|0:0,0:0:0:0:
182,225,383855,2,0,L|123:223,1,52.5,10|8,0:2|0:3,0:0:0:0:
337,283,384018,2,0,L|401:284,1,52.5,8|8,0:3|0:3,0:0:0:0:
218,352,384191,6,0,L|205:292,1,52.5,6|0,0:2|0:0,0:0:0:0:
280,280,384354,2,0,L|291:227,1,52.5,0|0,0:0|0:0,0:0:0:0:
366,239,384517,2,0,L|386:178,1,52.5,8|0,0:2|0:0,0:0:0:0:
461,189,384680,2,0,L|479:136,1,52.5,0|0,0:2|0:2,0:0:0:0:
396,115,384843,6,0,L|375:52,1,52.5,0|0,0:2|0:2,0:0:0:0:
465,62,385006,2,0,L|482:6,1,52.5,0|0,0:2|0:2,0:0:0:0:
280,169,385169,2,0,L|214:164,1,52.5,10|0,0:2|0:2,0:0:0:0:
280,169,385332,2,0,L|350:173,1,52.5,0|0,0:2|0:2,0:0:0:0:
163,348,385495,6,0,L|141:280,1,52.5,2|0,0:2|0:0,0:0:0:0:
221,279,385658,2,0,L|241:227,1,52.5,0|0,0:0|0:0,0:0:0:0:
320,222,385821,2,0,L|345:170,1,52.5,8|0,0:2|0:0,0:0:0:0:
273,146,385985,2,0,L|215:129,1,52.5,0|0,0:2|0:2,0:0:0:0:
389,92,386147,6,0,L|451:75,1,52.5,2|0,0:2|0:0,0:0:0:0:
389,92,386310,2,0,L|328:83,1,52.5,0|0,0:2|0:0,0:0:0:0:
156,241,386473,1,10,0:2:0:0:
213,236,386554,1,0,0:0:0:0:
271,232,386636,1,0,0:2:0:0:
328,228,386717,1,0,0:0:0:0:
108,339,386799,5,2,0:2:0:0:
62,316,386880,1,0,0:0:0:0:
43,268,386962,1,0,0:0:0:0:
61,220,387043,1,0,0:0:0:0:
128,217,387125,2,0,L|161:146,1,52.5,10|0,0:2|0:0,0:0:0:0:
75,136,387288,2,0,L|52:83,1,52.5,0|0,0:0|0:0,0:0:0:0:
214,254,387451,6,0,L|247:183,1,52.5,2|0,0:2|0:0,0:0:0:0:
75,136,387614,2,0,L|52:83,1,52.5,0|0,0:0|0:0,0:0:0:0:
234,85,387777,2,0,L|287:68,1,52.5,10|0,0:2|0:0,0:0:0:0:
97,161,387941,2,0,L|37:148,1,52.5,0|0,0:2|0:0,0:0:0:0:
296,321,388104,6,0,L|313:255,1,52.5,4|4,0:3|0:3,0:0:0:0:
234,240,388267,2,0,L|220:177,1,52.5,4|4,0:3|0:3,0:0:0:0:
382,177,388430,2,0,P|443:156|431:59,1,157.5,8|0,0:2|0:2,0:0:0:0:
251,24,388756,6,0,L|178:30,1,52.5,2|0,0:2|0:2,0:0:0:0:
356,94,388919,2,0,L|440:85,1,52.5,8|8,0:2|0:2,0:0:0:0:
251,24,389082,2,0,L|178:30,1,52.5,10|4,0:2|0:3,0:0:0:0:
356,94,389245,2,0,L|440:85,1,52.5,4|4,0:3|0:3,0:0:0:0:
228,338,389408,5,2,0:2:0:0:
177,326,389489,1,0,0:0:0:0:
138,292,389571,1,0,0:0:0:0:
120,243,389652,1,0,0:0:0:0:
128,192,389734,1,8,0:2:0:0:
159,150,389815,1,0,0:0:0:0:
206,142,389897,6,0,L|270:142,3,52.5,0|0|0|0,0:2|0:2|0:2|0:2,0:0:0:0:
316,140,390223,2,0,L|375:140,1,52.5,0|0,0:2|0:2,0:0:0:0:
168,55,390386,2,0,L|264:55,1,52.5,10|0,0:2|0:0,0:0:0:0:
379,51,390549,2,0,L|448:51,1,52.5,0|0,0:2|0:2,0:0:0:0:
145,344,390712,5,2,0:2:0:0:
96,326,390793,1,0,0:0:0:0:
59,289,390875,1,0,0:0:0:0:
41,240,390956,1,0,0:0:0:0:
46,188,391035,1,8,0:2:0:0:
72,143,391116,1,0,0:0:0:0:
115,114,391198,1,0,0:2:0:0:
166,105,391279,1,0,0:2:0:0:
346,175,391361,5,2,0:2:0:0:
397,170,391442,1,0,0:0:0:0:
437,137,391524,1,0,0:0:0:0:
450,87,391605,1,0,0:0:0:0:
235,337,391687,5,10,0:2:0:0:
183,332,391768,1,0,0:0:0:0:
143,299,391850,1,0,0:2:0:0:
130,249,391931,1,0,0:0:0:0:
308,232,392013,6,0,L|308:159,1,52.5,6|0,0:0|0:0,0:0:0:0:
238,161,392176,2,0,L|238:102,1,52.5,0|0,0:0|0:0,0:0:0:0:
396,103,392339,2,0,L|460:103,1,52.5,10|0,0:0|0:0,0:0:0:0:
396,103,392502,2,0,L|331:103,1,52.5,0|0,0:0|0:0,0:0:0:0:
145,281,392665,6,0,L|147:219,1,52.5,2|0,0:0|0:0,0:0:0:0:
222,219,392828,2,0,L|226:166,1,52.5,0|0,0:0|0:0,0:0:0:0:
50,170,392991,1,10,0:0:0:0:
40,119,393072,1,0,0:0:0:0:
66,75,393154,1,0,0:0:0:0:
115,59,393235,1,0,0:0:0:0:
269,59,393317,6,0,L|346:59,1,52.5,6|4,0:3|0:3,0:0:0:0:
115,115,393480,2,0,L|41:115,1,52.5,4|4,0:3|0:3,0:0:0:0:
320,224,393643,1,10,0:0:0:0:
261,221,393724,1,0,0:0:0:0:
202,220,393806,1,4,0:3:0:0:
145,220,393887,1,0,0:0:0:0:
318,252,393969,5,10,0:0:0:0:
360,223,394050,1,0,0:0:0:0:
372,173,394132,1,8,0:0:0:0:
347,128,394213,1,8,0:0:0:0:
147,70,394295,2,0,L|221:70,1,52.5,10|8,0:0|0:3,0:0:0:0:
360,67,394458,2,0,L|419:68,1,52.5,8|8,0:3|0:3,0:0:0:0:
202,344,394624,6,0,L|181:293,1,52.5,6|0,0:0|0:0,0:0:0:0:
265,274,394786,2,0,L|295:209,1,52.5,0|0,0:0|0:0,0:0:0:0:
369,205,394949,2,0,L|352:146,1,52.5,8|0,0:0|0:0,0:0:0:0:
276,144,395112,2,0,L|254:83,1,52.5,0|0,0:0|0:0,0:0:0:0:
341,78,395275,6,0,L|406:63,1,52.5,0|0,0:0|0:0,0:0:0:0:
341,78,395438,2,0,L|280:68,1,52.5,0|0,0:0|0:0,0:0:0:0:
112,107,395601,2,0,L|51:98,1,52.5,10|0,0:0|0:0,0:0:0:0:
112,107,395764,2,0,L|174:114,1,52.5,0|0,0:0|0:0,0:0:0:0:
367,280,395926,6,0,L|388:216,1,52.5,2|0,0:0|0:0,0:0:0:0:
312,195,396089,2,0,L|296:117,1,52.5,0|0,0:0|0:0,0:0:0:0:
384,120,396252,2,0,L|318:104,1,52.5,8|0,0:0|0:0,0:0:0:0:
263,47,396415,2,0,L|325:36,1,52.5,0|0,0:0|0:0,0:0:0:0:
156,157,396578,6,0,L|94:143,1,52.5,10|0,0:0|0:0,0:0:0:0:
278,267,396741,2,0,L|337:257,1,52.5,8|0,0:0|0:0,0:0:0:0:
156,157,396904,2,0,L|94:143,1,52.5,10|8,0:0|0:0,0:0:0:0:
278,267,397067,2,0,L|337:257,1,52.5,8|4,0:3|0:3,0:0:0:0:
80,357,397229,6,0,L|56:276,1,52.5,6|0,0:0|0:0,0:0:0:0:
138,276,397392,2,0,L|155:217,1,52.5,0|0,0:0|0:0,0:0:0:0:
228,211,397555,2,0,L|285:189,1,52.5,8|0,0:0|0:0,0:0:0:0:
355,193,397718,2,0,L|416:206,1,52.5,0|0,0:0|0:0,0:0:0:0:
355,193,397881,6,0,L|302:183,1,52.5,0|0,0:0|0:0,0:0:0:0:
355,193,398044,2,0,L|435:207,1,52.5,0|0,0:0|0:0,0:0:0:0:
192,95,398207,2,0,L|266:83,1,52.5,10|0,0:0|0:0,0:0:0:0:
300,74,398369,2,0,L|368:62,1,52.5,0|0,0:0|0:0,0:0:0:0:
146,289,398532,6,0,L|120:212,1,52.5,2|0,0:0|0:0,0:0:0:0:
46,240,398695,2,0,L|23:184,1,52.5,0|0,0:0|0:0,0:0:0:0:
101,175,398853,2,0,L|156:162,1,52.5,8|0,0:0|0:0,0:0:0:0:
101,175,399016,2,0,L|23:159,1,52.5,0|0,0:0|0:0,0:0:0:0:
239,122,399180,6,0,L|298:129,1,52.5,10|8,0:0|0:0,0:0:0:0:
239,122,399344,2,0,L|172:112,1,52.5,8|4,0:0|0:3,0:0:0:0:
388,68,399508,2,0,L|447:75,1,52.5,10|8,0:3|0:3,0:0:0:0:
388,68,399672,2,0,L|321:58,1,52.5,8|4,0:3|0:3,0:0:0:0:
121,283,399841,6,0,L|122:218,1,52.5,6|0,0:0|0:0,0:0:0:0:
192,208,400004,2,0,L|240:175,1,52.5,0|0,0:0|0:0,0:0:0:0:
308,177,400167,2,0,L|362:188,1,52.5,8|0,0:0|0:0,0:0:0:0:
308,177,400330,2,0,L|246:163,1,52.5,0|0,0:0|0:0,0:0:0:0:
195,155,400493,6,0,L|181:86,1,52.5,0|0,0:0|0:0,0:0:0:0:
255,131,400656,2,0,L|268:210,1,52.5,0|0,0:0|0:0,0:0:0:0:
113,254,400819,2,0,L|58:255,1,52.5,10|0,0:0|0:0,0:0:0:0:
113,254,400982,2,0,L|183:249,1,52.5,0|0,0:0|0:0,0:0:0:0:
362,297,401145,6,0,L|389:232,1,52.5,10|8,0:3|0:3,0:0:0:0:
227,138,401308,2,0,L|208:71,1,52.5,8|0,0:3|0:0,0:0:0:0:
362,297,401471,2,0,L|389:232,1,52.5,8|4,0:0|0:3,0:0:0:0:
227,138,401634,2,0,L|208:71,1,52.5,4|0,0:3|0:0,0:0:0:0:
362,297,401797,6,0,L|389:232,1,52.5,10|8,0:0|0:3,0:0:0:0:
227,138,401960,2,0,L|208:71,1,52.5,4|0,0:3|0:0,0:0:0:0:
362,297,402123,2,0,L|389:232,1,52.5,10|4,0:0|0:3,0:0:0:0:
227,138,402286,2,0,L|208:71,1,52.5,4|0,0:3|0:0,0:0:0:0:
388,75,402449,6,0,L|451:69,1,52.5,14|0,0:0|0:0,0:0:0:0:
388,75,402612,2,0,L|318:68,1,52.5,0|0,0:0|0:0,0:0:0:0:
151,208,402775,2,0,L|210:201,1,52.5,8|0,0:0|0:0,0:0:0:0:
261,193,402938,2,0,L|324:187,1,52.5,0|0,0:0|0:0,0:0:0:0:
118,140,403101,5,8,0:0:0:0:
69,122,403182,1,0,0:0:0:0:
41,79,403264,1,0,0:0:0:0:
45,28,403345,1,0,0:0:0:0:
236,96,403427,2,0,L|236:160,1,52.5,8|0,0:0|0:0,0:0:0:0:
160,153,403591,2,0,L|163:212,1,52.5,0|0,0:0|0:0,0:0:0:0:
389,318,403754,6,0,L|443:319,2,52.5,8|0|0,0:0|0:0|0:0,0:0:0:0:
240,262,403998,2,0,L|186:263,2,52.5,8|0|0,0:0|0:0|0:0,0:0:0:0:
389,318,404243,2,0,L|443:319,2,52.5,8|0|0,0:0|0:0|0:0,0:0:0:0:
240,262,404487,2,0,L|186:263,2,52.5,8|0|0,0:0|0:0|0:0,0:0:0:0:
413,222,404732,1,8,0:0:0:0:
454,192,404813,1,0,0:0:0:0:
462,142,404895,1,0,0:0:0:0:
429,102,404976,1,0,0:0:0:0:
285,68,405058,6,0,L|221:57,1,52.5,10|4,0:0|0:3,0:0:0:0:
85,99,405221,2,0,L|27:89,1,52.5,10|6,0:0|0:3,0:0:0:0:
178,181,405384,2,0,L|231:173,1,52.5,2|0,0:0|0:0,0:0:0:0:
374,206,405547,2,0,L|431:194,1,52.5,10|2,0:0|0:0,0:0:0:0:
280,295,405710,6,0,L|222:288,1,52.5,6|0,0:3|0:0,0:0:0:0:
372,207,405873,2,0,L|430:196,1,52.5,10|2,0:0|0:0,0:0:0:0:
278,138,406036,2,0,L|207:127,1,52.5,10|4,0:0|0:3,0:0:0:0:
82,98,406199,2,0,L|20:88,1,52.5,10|2,0:0|0:0,0:0:0:0:
199,53,406362,6,0,L|283:41,1,52.5,6|0,0:3|0:0,0:0:0:0:
391,58,406525,2,0,L|470:48,1,52.5,10|2,0:0|0:0,0:0:0:0:
241,159,406688,2,0,L|300:151,1,52.5,2|4,0:0|0:3,0:0:0:0:
442,181,406851,2,0,L|495:175,1,52.5,10|6,0:0|0:3,0:0:0:0:
311,354,407014,5,10,0:0:0:0:
261,338,407095,1,0,0:0:0:0:
222,303,407177,1,6,0:3:0:0:
203,255,407258,1,10,0:0:0:0:
205,203,407340,1,10,0:0:0:0:
229,157,407421,1,10,0:0:0:0:
271,125,407503,1,10,0:3:0:0:
322,114,407584,1,6,0:2:0:0:
133,92,407667,6,0,L|57:92,1,52.5,14|0,0:0|0:0,0:0:0:0:
133,92,407830,2,0,L|197:92,1,52.5,0|0,0:0|0:0,0:0:0:0:
388,171,407993,1,10,0:0:0:0:
436,155,408074,1,0,0:0:0:0:
460,110,408156,1,0,0:0:0:0:
444,61,408237,1,0,0:0:0:0:
252,209,408319,6,0,L|252:268,1,52.5,10|0,0:0|0:0,0:0:0:0:
328,253,408482,2,0,L|328:313,1,52.5,0|0,0:0|0:0,0:0:0:0:
149,139,408645,2,0,L|215:135,1,52.5,10|0,0:0|0:0,0:0:0:0:
361,127,408808,2,0,L|424:122,1,52.5,0|0,0:0|0:0,0:0:0:0:
220,42,408959,6,0,L|146:33,1,52.5,10|0,0:0|0:0,0:0:0:0:
111,28,409122,2,0,L|47:19,1,52.5,0|0,0:0|0:0,0:0:0:0:
244,145,409285,2,0,L|170:136,1,52.5,10|0,0:0|0:0,0:0:0:0:
135,131,409448,2,0,L|71:122,1,52.5,0|0,0:0|0:0,0:0:0:0:
321,311,409611,5,10,0:0:0:0:
369,293,409692,1,0,0:0:0:0:
394,248,409774,1,0,0:0:0:0:
385,197,409855,1,0,0:0:0:0:
208,248,409937,2,0,L|150:247,1,52.5,10|0,0:0|0:0,0:0:0:0:
208,248,410100,2,0,L|271:248,1,52.5,0|0,0:0|0:0,0:0:0:0:
96,161,410264,6,0,L|38:160,1,52.5,14|0,0:0|0:0,0:0:0:0:
96,161,410427,2,0,L|159:161,1,52.5,0|0,0:0|0:0,0:0:0:0:
317,161,410590,2,0,L|401:162,1,52.5,10|0,0:0|0:0,0:0:0:0:
421,161,410753,2,0,L|359:161,1,52.5,0|0,0:0|0:0,0:0:0:0:
191,316,410916,6,0,L|191:251,1,52.5,10|0,0:0|0:0,0:0:0:0:
265,259,411079,2,0,L|265:198,1,52.5,0|0,0:0|0:0,0:0:0:0:
109,168,411242,2,0,L|42:168,1,52.5,10|0,0:0|0:0,0:0:0:0:
256,104,411405,2,0,L|342:105,1,52.5,0|0,0:0|0:0,0:0:0:0:
125,17,411569,5,10,0:0:0:0:
75,29,411650,1,0,0:0:0:0:
48,72,411732,1,0,0:0:0:0:
60,122,411813,1,0,0:0:0:0:
280,208,411895,2,0,L|225:208,1,52.5,10|0,0:0|0:0,0:0:0:0:
173,207,412058,2,0,L|116:207,1,52.5,0|0,0:0|0:0,0:0:0:0:
324,349,412221,6,0,L|326:290,1,52.5,10|8,0:0|0:0,0:0:0:0:
156,210,412384,2,0,L|213:210,1,52.5,10|0,0:0|0:0,0:0:0:0:
393,162,412547,2,0,L|331:163,1,52.5,10|0,0:0|0:0,0:0:0:0:
148,136,412711,2,0,L|142:73,1,52.5,2|0,0:0|0:0,0:0:0:0:
304,22,412874,5,14,0:0:0:0:
355,22,412955,1,0,0:0:0:0:
394,56,413037,1,0,0:0:0:0:
403,106,413118,1,0,0:0:0:0:
225,183,413200,2,0,L|155:184,1,52.5,10|0,0:0|0:0,0:0:0:0:
225,183,413363,2,0,L|288:182,1,52.5,0|0,0:0|0:0,0:0:0:0:
80,332,413526,5,10,0:0:0:0:
58,285,413607,1,0,0:0:0:0:
74,236,413689,1,0,0:0:0:0:
119,212,413770,1,0,0:0:0:0:
310,268,413852,2,0,L|317:201,1,52.5,10|0,0:0|0:0,0:0:0:0:
150,87,414016,2,0,L|143:159,1,52.5,0|0,0:0|0:0,0:0:0:0:
321,94,414179,6,0,L|327:37,1,52.5,10|0,0:0|0:0,0:0:0:0:
260,17,414342,2,0,L|325:14,1,52.5,0|0,0:0|0:0,0:0:0:0:
479,75,414505,1,10,0:0:0:0:
500,121,414586,1,0,0:0:0:0:
486,170,414668,1,0,0:0:0:0:
442,198,414749,1,0,0:0:0:0:
242,346,414831,6,0,L|224:284,1,52.5,10|0,0:0|0:0,0:0:0:0:
301,269,414994,2,0,L|321:218,1,52.5,0|0,0:0|0:0,0:0:0:0:
150,201,415158,2,0,L|88:199,1,52.5,10|0,0:0|0:0,0:0:0:0:
150,201,415321,2,0,L|206:202,1,52.5,0|0,0:0|0:0,0:0:0:0:
379,166,415484,5,14,0:0:0:0:
418,134,415565,1,0,0:0:0:0:
419,83,415647,1,0,0:0:0:0:
379,51,415728,1,0,0:0:0:0:
178,92,415810,2,0,L|243:91,1,52.5,10|0,0:0|0:0,0:0:0:0:
282,92,415973,2,0,L|230:91,1,52.5,0|0,0:0|0:0,0:0:0:0:
33,196,416136,6,0,L|30:138,1,52.5,10|0,0:0|0:0,0:0:0:0:
96,115,416299,2,0,L|149:101,1,52.5,0|0,0:0|0:0,0:0:0:0:
343,175,416463,2,0,L|409:159,1,52.5,10|0,0:0|0:0,0:0:0:0:
188,276,416626,2,0,L|176:201,1,52.5,0|0,0:0|0:0,0:0:0:0:
386,345,416777,6,0,L|451:337,1,52.5,4|0,0:0|0:0,0:0:0:0:
244,278,416944,2,0,L|240:212,1,52.5,8|0,0:0|0:0,0:0:0:0:
315,210,417112,2,0,L|312:155,1,52.5,0|8,0:0|0:0,0:0:0:0:
230,147,417279,2,0,L|301:142,1,52.5,0|0,0:0|0:0,0:0:0:0:
460,132,417447,6,0,L|456:66,1,52.5,8|0,0:0|0:0,0:0:0:0:
244,50,417614,2,0,L|184:38,1,52.5,4|4,0:3|0:3,0:0:0:0:
244,50,417782,2,0,L|311:37,1,52.5,8|4,0:0|0:3,0:0:0:0:
110,109,417950,2,0,L|54:102,1,52.5,4|4,0:3|0:3,0:0:0:0:
306,310,418117,6,0,L|307:241,1,52.5,2|0,0:0|0:0,0:0:0:0:
236,241,418278,2,0,L|180:241,1,52.5,10|0,0:0|0:0,0:0:0:0:
395,174,418439,2,0,L|471:174,1,52.5,2|0,0:0|0:0,0:0:0:0:
225,112,418600,2,0,L|151:112,1,52.5,10|0,0:0|0:0,0:0:0:0:
395,174,418762,6,0,L|471:174,1,52.5,2|0,0:0|0:0,0:0:0:0:
225,112,418923,2,0,L|151:112,1,52.5,10|0,0:0|0:0,0:0:0:0:
388,325,419084,2,0,L|451:324,1,52.5,2|0,0:0|0:0,0:0:0:0:
388,325,419246,2,0,L|315:325,1,52.5,10|0,0:0|0:0,0:0:0:0:
49,336,419407,6,0,L|42:270,1,52.5,2|0,0:0|0:0,0:0:0:0:
112,256,419568,2,0,L|172:251,1,52.5,10|0,0:0|0:0,0:0:0:0:
353,237,419729,2,0,L|410:232,1,52.5,2|0,0:0|0:0,0:0:0:0:
188,67,419891,2,0,L|185:129,1,52.5,10|0,0:0|0:0,0:0:0:0:
353,237,420052,6,0,L|410:232,1,52.5,2|0,0:0|0:0,0:0:0:0:
188,67,420215,2,0,L|185:129,1,52.5,10|0,0:0|0:0,0:0:0:0:
352,128,420379,1,10,0:0:0:0:
392,97,420460,1,0,0:0:0:0:
390,47,420542,1,0,0:0:0:0:
348,19,420624,1,0,0:0:0:0:
153,143,420707,6,0,L|139:84,1,52.5,10|0,0:0|0:0,0:0:0:0:
323,304,420873,2,0,L|339:248,1,52.5,2|0,0:0|0:0,0:0:0:0:
103,305,421040,2,0,L|41:312,1,52.5,2|0,0:0|0:0,0:0:0:0:
359,143,421204,6,0,L|368:89,1,52.5,10|0,0:0|0:0,0:0:0:0:
189,303,421369,2,0,L|174:238,1,52.5,2|0,0:0|0:0,0:0:0:0:
409,305,421550,2,0,L|485:315,1,52.5,2|0,0:0|0:0,0:0:0:0:
170,152,421713,6,0,L|116:144,1,52.5,14|0,0:0|0:0,0:0:0:0:
405,34,421880,1,6,1:2:0:0:
256,192,422043,12,0,431132,2:0:0:0:
