osu file format v14

[General]
AudioFilename: audio.mp3
AudioLeadIn: 0
PreviewTime: -1
Countdown: 1
SampleSet: Normal
StackLeniency: 0.7
Mode: 0
LetterboxInBreaks: 0
WidescreenStoryboard: 0

[Editor]
Bookmarks: 14182,15487,32280,32769,38007,39963,40615,41104,41920,42409,43224
DistanceSpacing: 2.2
BeatDivisor: 4
GridSize: 8
TimelineZoom: 2.4

[Metadata]
Title:HEAVENLY PUNISHMENT
TitleUnicode:HEAVENLY PUNISHMENT
Artist:GALNERYUS
ArtistUnicode:GALNERYUS
Creator:WaffleEater
Version:Divine Punishment
Source:
Tags:power metal galneryus heavenly punishment electric guitar japanese
BeatmapID:1842658
BeatmapSetID:881271

[Difficulty]
HPDrainRate:6
CircleSize:4
OverallDifficulty:7
ApproachRate:9.3
SliderMultiplier:1.4
SliderTickRate:1

[Events]
//Background and Video events
0,0,"Saber Che Ha Ucciso Tutti.jpg",0,0
//Break Periods
//Storyboard Layer 0 (Background)
//Storyboard Layer 1 (Fail)
//Storyboard Layer 2 (Pass)
//Storyboard Layer 3 (Foreground)
//Storyboard Sound Samples

[TimingPoints]
181,326.086956521739,4,1,0,100,1,0
3584,-66.6666666666667,4,1,0,100,0,0
4074,-100,4,1,0,100,0,0
6682,-200,4,1,0,100,0,0
7171,-100,4,1,0,100,0,0
14182,-100,4,1,0,100,0,0
17117,-100,4,1,0,100,0,0
18421,-100,4,1,0,100,0,0
19726,-100,4,1,0,100,0,0
30160,-100,4,1,0,100,0,0
30650,-100,4,1,0,100,0,0
31465,-100,4,1,0,100,0,0
31954,-100,4,1,0,100,0,0

[HitObjects]
94,98,180,6,0,L|46:116,4,35
236,66,833,5,0,0:0:0:0:
236,66,1159,1,0,0:0:0:0:
305,21,1485,6,0,P|302:129|161:109,1,280
236,66,2463,1,0,0:0:0:0:
236,66,2789,1,0,0:0:0:0:
332,209,3441,5,0,0:0:0:0:
332,209,3686,1,0,0:0:0:0:
254,131,3930,1,0,0:0:0:0:
254,131,4094,2,0,B|199:143|167:185|167:185|145:128|77:150|77:150|93:187|85:220,1,280
264,230,5072,5,0,0:0:0:0:
264,230,5398,1,0,0:0:0:0:
389,90,5887,5,0,0:0:0:0:
264,230,6050,1,0,0:0:0:0:
208,63,6295,1,0,0:0:0:0:
379,200,6539,5,0,0:0:0:0:
175,164,6702,1,0,0:0:0:0:
314,22,7028,1,0,0:0:0:0:
314,22,7191,2,0,B|318:56|291:86|291:86|325:68|368:77|368:77|366:119|403:130|403:130|415:148|414:169|414:169|436:154,1,280
239,27,8170,6,0,B|223:43|202:43|202:43|186:57|183:82,1,70
136,178,8496,1,0,0:0:0:0:
186,66,8659,1,0,0:0:0:0:
172,237,8903,1,0,0:0:0:0:
315,119,9148,5,0,0:0:0:0:
389,240,9311,1,0,0:0:0:0:
447,175,9637,5,0,0:0:0:0:
277,218,9800,1,0,0:0:0:0:
454,292,9963,5,0,0:0:0:0:
372,117,10126,1,0,0:0:0:0:
356,224,10289,5,0,0:0:0:0:
450,81,10452,1,0,0:0:0:0:
272,81,10615,1,0,0:0:0:0:
265,266,10778,5,0,0:0:0:0:
285,241,10860,1,0,0:0:0:0:
313,228,10941,1,0,0:0:0:0:
344,232,11023,1,0,0:0:0:0:
367,252,11104,1,0,0:0:0:0:
395,239,11186,1,0,0:0:0:0:
398,207,11267,1,0,0:0:0:0:
374,185,11349,5,0,0:0:0:0:
342,181,11430,1,0,0:0:0:0:
322,206,11512,1,0,0:0:0:0:
315,236,11594,1,0,0:0:0:0:
320,266,11675,1,0,0:0:0:0:
298,242,11757,1,0,0:0:0:0:
288,211,11838,1,0,0:0:0:0:
280,176,11920,6,0,L|314:158,3,35
263,144,12246,1,0,0:0:0:0:
235,123,12327,1,0,0:0:0:0:
199,121,12409,1,0,0:0:0:0:
170,140,12490,5,0,0:0:0:0:
203,151,12572,1,0,0:0:0:0:
236,141,12653,1,0,0:0:0:0:
256,112,12735,1,0,0:0:0:0:
232,86,12816,1,0,0:0:0:0:
198,73,12898,6,0,L|166:27,3,35
202,110,13224,1,0,0:0:0:0:
188,142,13305,1,0,0:0:0:0:
155,155,13387,1,0,0:0:0:0:
119,153,13469,1,0,0:0:0:0:
101,123,13550,1,0,0:0:0:0:
82,152,13632,5,0,0:0:0:0:
81,187,13713,1,0,0:0:0:0:
101,215,13795,1,0,0:0:0:0:
135,220,13876,1,0,0:0:0:0:
166,204,13958,1,0,0:0:0:0:
175,170,14039,1,0,0:0:0:0:
156,140,14121,1,0,0:0:0:0:
123,128,14202,6,0,L|81:160,3,35
120,91,14528,1,0,0:0:0:0:
132,58,14610,1,0,0:0:0:0:
160,38,14691,1,0,0:0:0:0:
195,35,14773,1,0,0:0:0:0:
222,56,14854,1,0,0:0:0:0:
227,90,14936,1,0,0:0:0:0:
233,124,15017,5,0,0:0:0:0:
251,154,15099,1,0,0:0:0:0:
281,170,15180,1,0,0:0:0:0:
316,171,15262,1,0,0:0:0:0:
307,205,15344,1,0,0:0:0:0:
280,227,15425,1,0,0:0:0:0:
245,233,15507,6,0,L|262:287,3,35
215,217,15833,1,0,0:0:0:0:
206,179,15914,1,0,0:0:0:0:
223,144,15996,1,0,0:0:0:0:
184,146,16077,1,0,0:0:0:0:
161,177,16159,1,0,0:0:0:0:
162,215,16240,5,0,0:0:0:0:
188,243,16322,1,0,0:0:0:0:
226,243,16403,1,0,0:0:0:0:
254,217,16485,1,0,0:0:0:0:
261,179,16566,1,0,0:0:0:0:
293,200,16648,1,0,0:0:0:0:
298,237,16729,1,0,0:0:0:0:
289,274,16811,6,0,L|336:294,3,35
265,293,17137,1,0,0:0:0:0:
233,291,17219,1,0,0:0:0:0:
206,274,17300,1,0,0:0:0:0:
194,244,17382,1,0,0:0:0:0:
186,274,17463,1,0,0:0:0:0:
160,292,17545,5,0,0:0:0:0:
128,295,17626,1,0,0:0:0:0:
97,287,17708,1,0,0:0:0:0:
78,261,17789,1,0,0:0:0:0:
78,229,17871,1,0,0:0:0:0:
96,203,17952,1,0,0:0:0:0:
126,193,18034,1,0,0:0:0:0:
135,163,18115,6,0,L|176:163,3,35
132,152,18441,1,0,0:0:0:0:
131,136,18523,1,0,0:0:0:0:
138,122,18604,1,0,0:0:0:0:
150,112,18686,1,0,0:0:0:0:
180,106,18767,1,0,0:0:0:0:
210,112,18849,5,0,0:0:0:0:
228,138,18930,1,0,0:0:0:0:
226,169,19012,1,0,0:0:0:0:
257,166,19094,1,0,0:0:0:0:
275,141,19175,1,0,0:0:0:0:
277,109,19257,1,0,0:0:0:0:
303,92,19338,1,0,0:0:0:0:
334,94,19420,6,0,L|336:56,3,35
356,115,19746,1,0,0:0:0:0:
358,146,19827,1,0,0:0:0:0:
346,175,19909,1,0,0:0:0:0:
326,199,19990,1,0,0:0:0:0:
425,187,20235,5,0,0:0:0:0:
414,216,20316,1,0,0:0:0:0:
398,243,20398,1,0,0:0:0:0:
376,265,20479,1,0,0:0:0:0:
347,277,20561,1,0,0:0:0:0:
406,346,20724,5,0,0:0:0:0:
386,353,20805,1,0,0:0:0:0:
365,356,20887,1,0,0:0:0:0:
343,354,20969,5,0,0:0:0:0:
318,340,21050,1,0,0:0:0:0:
305,314,21132,1,0,0:0:0:0:
307,286,21213,1,0,0:0:0:0:
325,264,21295,5,0,0:0:0:0:
290,262,21376,1,0,0:0:0:0:
259,279,21458,1,0,0:0:0:0:
238,307,21539,1,0,0:0:0:0:
236,342,21621,5,0,0:0:0:0:
208,310,21702,1,0,0:0:0:0:
206,267,21784,1,0,0:0:0:0:
221,228,21865,1,0,0:0:0:0:
253,200,21947,1,0,0:0:0:0:
212,188,22028,1,0,0:0:0:0:
170,194,22110,1,0,0:0:0:0:
228,64,22354,5,0,0:0:0:0:
228,64,22436,1,0,0:0:0:0:
228,64,22517,1,0,0:0:0:0:
416,39,22844,5,0,0:0:0:0:
416,39,22925,1,0,0:0:0:0:
416,39,23007,1,0,0:0:0:0:
396,226,23170,5,0,0:0:0:0:
396,226,23251,1,0,0:0:0:0:
396,226,23333,1,0,0:0:0:0:
342,21,23496,5,0,0:0:0:0:
342,21,23577,1,0,0:0:0:0:
342,21,23659,1,0,0:0:0:0:
445,138,23822,5,0,0:0:0:0:
284,224,23985,1,0,0:0:0:0:
317,108,24148,5,0,0:0:0:0:
440,297,24311,1,0,0:0:0:0:
373,197,24474,5,0,0:0:0:0:
205,126,24637,1,0,0:0:0:0:
230,306,24800,1,0,0:0:0:0:
69,220,24963,5,0,0:0:0:0:
69,220,25045,1,0,0:0:0:0:
69,220,25126,1,0,0:0:0:0:
145,86,25452,5,0,0:0:0:0:
145,86,25534,1,0,0:0:0:0:
145,86,25615,1,0,0:0:0:0:
302,224,25778,5,0,0:0:0:0:
302,224,25860,1,0,0:0:0:0:
302,224,25941,1,0,0:0:0:0:
429,57,26104,5,0,0:0:0:0:
429,57,26186,1,0,0:0:0:0:
429,57,26267,1,0,0:0:0:0:
271,68,26430,5,0,0:0:0:0:
278,102,26512,1,0,0:0:0:0:
309,117,26594,1,0,0:0:0:0:
282,140,26675,1,0,0:0:0:0:
246,141,26757,1,0,0:0:0:0:
219,119,26838,1,0,0:0:0:0:
186,105,26920,5,0,0:0:0:0:
151,111,27001,1,0,0:0:0:0:
130,139,27083,1,0,0:0:0:0:
132,173,27164,1,0,0:0:0:0:
161,191,27246,1,0,0:0:0:0:
177,221,27327,1,0,0:0:0:0:
175,256,27409,1,0,0:0:0:0:
75,250,27572,5,0,0:0:0:0:
75,250,27653,1,0,0:0:0:0:
75,250,27735,1,0,0:0:0:0:
75,250,27816,1,0,0:0:0:0:
137,90,28061,5,0,0:0:0:0:
137,90,28142,1,0,0:0:0:0:
137,90,28224,1,0,0:0:0:0:
256,49,28387,5,0,0:0:0:0:
256,49,28469,1,0,0:0:0:0:
256,49,28550,1,0,0:0:0:0:
345,123,28713,5,0,0:0:0:0:
238,252,28876,1,0,0:0:0:0:
194,173,29039,5,0,0:0:0:0:
358,210,29202,1,0,0:0:0:0:
408,55,29365,5,0,0:0:0:0:
246,96,29528,1,0,0:0:0:0:
458,76,29691,5,0,0:0:0:0:
304,27,29854,1,0,0:0:0:0:
364,183,30017,1,0,0:0:0:0:
282,165,30180,5,0,0:0:0:0:
279,167,30262,1,0,0:0:0:0:
276,169,30344,1,0,0:0:0:0:
274,172,30425,1,0,0:0:0:0:
272,175,30507,1,0,0:0:0:0:
439,168,30670,5,0,0:0:0:0:
434,158,30751,1,0,0:0:0:0:
426,150,30833,1,0,0:0:0:0:
417,144,30914,1,0,0:0:0:0:
407,140,30996,1,0,0:0:0:0:
396,139,31077,1,0,0:0:0:0:
386,143,31159,1,0,0:0:0:0:
376,148,31240,1,0,0:0:0:0:
368,155,31322,1,0,0:0:0:0:
234,256,31485,5,0,0:0:0:0:
221,263,31566,1,0,0:0:0:0:
207,265,31648,1,0,0:0:0:0:
195,252,31729,1,0,0:0:0:0:
199,235,31811,1,0,0:0:0:0:
199,67,31974,5,0,0:0:0:0:
179,74,32055,1,0,0:0:0:0:
163,88,32137,1,0,0:0:0:0:
152,106,32219,1,0,0:0:0:0:
170,126,32300,5,0,0:0:0:0:
146,141,32382,1,0,0:0:0:0:
169,155,32463,1,0,0:0:0:0:
144,169,32545,1,0,0:0:0:0:
168,182,32626,1,0,0:0:0:0:
39,271,32789,5,0,0:0:0:0:
39,271,32871,1,0,0:0:0:0:
42,272,32952,1,0,0:0:0:0:
204,334,33278,5,0,0:0:0:0:
206,331,33360,1,0,0:0:0:0:
208,328,33441,1,0,0:0:0:0:
311,195,33604,5,0,0:0:0:0:
316,199,33686,1,0,0:0:0:0:
321,203,33767,1,0,0:0:0:0:
438,279,33930,5,0,0:0:0:0:
438,138,34094,1,0,0:0:0:0:
431,112,34175,1,0,0:0:0:0:
415,90,34257,1,0,0:0:0:0:
391,78,34338,1,0,0:0:0:0:
364,75,34420,1,0,0:0:0:0:
339,83,34501,1,0,0:0:0:0:
318,99,34583,1,0,0:0:0:0:
308,123,34664,5,0,0:0:0:0:
299,97,34746,1,0,0:0:0:0:
307,72,34827,1,0,0:0:0:0:
327,54,34909,1,0,0:0:0:0:
301,47,34990,1,0,0:0:0:0:
275,51,35072,1,0,0:0:0:0:
252,63,35153,1,0,0:0:0:0:
237,84,35235,1,0,0:0:0:0:
415,90,35398,5,0,0:0:0:0:
415,90,35479,1,0,0:0:0:0:
415,90,35561,1,0,0:0:0:0:
292,252,35887,5,0,0:0:0:0:
292,252,35969,1,0,0:0:0:0:
292,252,36050,1,0,0:0:0:0:
435,294,36213,5,0,0:0:0:0:
435,294,36295,1,0,0:0:0:0:
435,294,36376,1,0,0:0:0:0:
415,90,36539,5,0,0:0:0:0:
290,23,36702,5,0,0:0:0:0:
269,20,36784,1,0,0:0:0:0:
248,24,36865,1,0,0:0:0:0:
229,33,36947,1,0,0:0:0:0:
213,47,37028,1,0,0:0:0:0:
201,64,37110,1,0,0:0:0:0:
195,84,37191,1,0,0:0:0:0:
196,105,37273,1,0,0:0:0:0:
228,78,37354,5,0,0:0:0:0:
273,77,37436,1,0,0:0:0:0:
311,100,37517,1,0,0:0:0:0:
329,142,37599,1,0,0:0:0:0:
325,187,37680,1,0,0:0:0:0:
292,218,37762,1,0,0:0:0:0:
246,220,37844,1,0,0:0:0:0:
259,152,38007,5,0,0:0:0:0:
259,152,38088,1,0,0:0:0:0:
259,152,38170,1,0,0:0:0:0:
438,197,38496,5,0,0:0:0:0:
438,197,38577,1,0,0:0:0:0:
438,197,38659,1,0,0:0:0:0:
334,320,38822,5,0,0:0:0:0:
334,320,38903,1,0,0:0:0:0:
334,320,38985,1,0,0:0:0:0:
469,338,39148,5,0,0:0:0:0:
331,213,39311,5,0,0:0:0:0:
320,179,39392,1,0,0:0:0:0:
330,145,39474,1,0,0:0:0:0:
358,124,39555,1,0,0:0:0:0:
393,121,39637,1,0,0:0:0:0:
382,87,39719,1,0,0:0:0:0:
350,72,39800,1,0,0:0:0:0:
314,74,39882,1,0,0:0:0:0:
273,94,39963,5,0,0:0:0:0:
228,95,40045,1,0,0:0:0:0:
189,117,40126,1,0,0:0:0:0:
174,160,40208,1,0,0:0:0:0:
179,204,40289,1,0,0:0:0:0:
202,244,40371,1,0,0:0:0:0:
245,259,40452,1,0,0:0:0:0:
288,143,40615,5,0,0:0:0:0:
282,126,40697,1,0,0:0:0:0:
271,112,40778,1,0,0:0:0:0:
255,103,40860,1,0,0:0:0:0:
237,101,40941,1,0,0:0:0:0:
155,197,41104,5,0,0:0:0:0:
154,182,41186,1,0,0:0:0:0:
148,169,41267,1,0,0:0:0:0:
138,158,41349,1,0,0:0:0:0:
125,151,41430,1,0,0:0:0:0:
139,150,41512,1,0,0:0:0:0:
152,148,41594,1,0,0:0:0:0:
165,143,41675,1,0,0:0:0:0:
176,134,41757,1,0,0:0:0:0:
121,29,41920,5,0,0:0:0:0:
141,33,42001,1,0,0:0:0:0:
158,44,42083,1,0,0:0:0:0:
171,59,42164,1,0,0:0:0:0:
178,78,42246,1,0,0:0:0:0:
324,29,42409,5,0,0:0:0:0:
296,33,42490,1,0,0:0:0:0:
275,52,42572,1,0,0:0:0:0:
271,79,42653,1,0,0:0:0:0:
282,104,42735,1,0,0:0:0:0:
306,117,42816,1,0,0:0:0:0:
323,138,42898,1,0,0:0:0:0:
326,156,42979,1,0,0:0:0:0:
322,175,43061,1,0,0:0:0:0:
171,339,43224,5,0,0:0:0:0:
171,44,43469,1,0,0:0:0:0:
425,192,43713,1,0,0:0:0:0:
340,45,44121,5,0,0:0:0:0:
340,339,44365,1,0,0:0:0:0:
86,191,44610,1,0,0:0:0:0:
