osu file format v14

[General]
AudioFilename: audio.mp3
AudioLeadIn: 0
PreviewTime: 345224
Countdown: 0
SampleSet: Drum
StackLeniency: 0.7
Mode: 2
LetterboxInBreaks: 0
WidescreenStoryboard: 0

[Editor]
Bookmarks: 35140,82966,117027,192681,250071,308615,456869
DistanceSpacing: 1.1
BeatDivisor: 4
GridSize: 32
TimelineZoom: 4.699996

[Metadata]
Title:DESTINY
TitleUnicode:DESTINY
Artist:GALNERYUS
ArtistUnicode:GALNERYUS
Creator:Ascendance
Version:FINAL DESTINATION
Source:
Tags:resurrection vap j-metal jun-ichi junichi jun'ichi satoh 佐藤潤一 小野正利 久武頼正 english japanese symphonic power neo classical neoclassical syu masatoshi sho ono ajamez jemzuu -keitaro
BeatmapID:2776517
BeatmapSetID:1340228

[Difficulty]
HPDrainRate:6
CircleSize:4.2
OverallDifficulty:9.7
ApproachRate:9.7
SliderMultiplier:2.1
SliderTickRate:2

[Events]
//Background and Video events
0,0,"mommy jeanne.jpg",0,0
//Break Periods
//Storyboard Layer 0 (Background)
//Storyboard Layer 1 (Fail)
//Storyboard Layer 2 (Pass)
//Storyboard Layer 3 (Foreground)
//Storyboard Layer 4 (Overlay)
//Storyboard Sound Samples

[TimingPoints]
34813,327.868852459016,4,3,1,7,1,0
36124,-100,4,3,1,13,0,0
37435,-100,4,3,1,18,0,0
38747,-100,4,3,1,26,0,0
39403,-100,4,3,1,32,0,0
40058,-100,4,3,1,43,0,0
40714,-100,4,3,1,5,0,0
41371,327.868852459016,4,3,1,65,1,0
41371,-80,4,3,1,65,0,0
42190,-100,4,3,1,65,0,0
43993,328.317373461012,4,3,1,65,1,0
43993,-100,4,3,1,65,0,0
46619,324.324324324324,4,3,1,65,1,0
46619,-100,4,3,1,65,0,0
50514,333.333333333333,4,3,1,65,1,0
50514,-100,4,3,1,65,0,0
50847,-100,4,3,1,65,0,0
51180,322.58064516129,4,3,1,65,1,0
51663,-100,4,3,1,75,0,0
51824,326.975476839237,4,3,1,75,1,0
51988,-100,4,3,1,75,0,0
57056,326.086956521739,4,3,1,75,1,0
57219,-100,4,3,1,75,0,0
60969,320.855614973262,4,3,1,75,1,0
60969,-100,4,3,1,75,0,0
62091,-100,4,3,1,75,0,0
62251,329.67032967033,4,3,1,75,1,0
63404,-99.009900990099,4,3,1,75,0,0
63569,324.324324324324,4,3,1,75,1,0
63893,-100,4,3,1,75,0,0
66166,326.975476839237,4,3,1,75,1,0
67473,-100,4,3,1,75,0,0
68781,324.324324324324,4,3,1,75,1,0
68781,-100,4,3,1,75,0,0
70078,327.868852459016,4,3,1,65,1,0
71389,-31.25,4,3,1,65,0,0
71553,-31.25,4,3,3,65,0,0
71717,-31.25,4,3,2,65,0,0
71881,-31.25,4,3,3,65,0,0
72045,-31.25,4,3,2,65,0,0
72209,-100,4,3,1,65,0,0
72537,-100,4,3,1,60,0,0
75324,325.20325203252,4,3,1,60,1,0
75649,-100,4,3,1,60,0,0
83128,326.530612244898,4,3,1,60,1,0
83454,-100,4,3,1,60,0,0
88352,325.644504748982,4,3,1,60,1,0
88677,-100,4,3,1,60,0,0
92259,329.67032967033,4,3,1,60,1,0
92588,-100,4,3,1,60,0,0
93577,325.20325203252,4,3,1,50,1,0
93577,-100,4,3,1,50,0,0
96178,326.530612244898,4,3,1,50,1,0
96178,-100,4,3,1,50,0,0
98137,328.767123287671,4,3,1,50,1,0
98794,324.324324324324,4,3,1,50,1,0
98794,-100,4,3,1,50,0,0
100739,-100,4,3,2,50,0,0
100902,-100,4,3,1,50,0,0
102686,327.421555252387,4,3,1,60,1,0
102686,-100,4,3,1,60,0,0
103177,-100,4,3,1,60,0,0
103997,325.644504748982,4,3,1,60,1,0
104648,-100,4,3,1,60,0,0
109207,326.975476839237,4,3,1,60,1,0
109207,-100,4,3,1,60,0,0
111823,322.58064516129,4,3,1,60,1,0
112145,-100,4,3,1,60,0,0
113113,329.67032967033,4,3,1,60,1,0
113442,-100,4,3,1,60,0,0
114102,324.324324324324,4,3,1,60,1,0
114102,-100,4,3,1,60,0,0
114426,325.20325203252,4,3,1,65,1,0
115076,-100,4,3,1,60,0,0
115726,331.491712707182,4,3,1,60,1,0
116720,307.692307692307,4,3,1,60,1,0
117027,326.086956521739,4,3,1,70,1,0
117027,-100,4,3,1,70,0,0
124853,328.767123287671,4,3,1,70,1,0
124853,-100,4,3,1,70,0,0
127483,325.821341297855,4,3,1,65,1,0
128460,-100,4,3,1,65,0,0
133999,326.975476839237,4,3,1,65,1,0
137759,-100,4,3,1,60,0,0
137923,324.763193504736,4,3,1,60,1,0
138734,-100,4,3,1,60,0,0
141820,327.868852459016,4,3,1,60,1,0
141820,-100,4,3,1,60,0,0
144442,324.324324324324,4,3,1,60,1,0
144604,-100,4,3,1,60,0,0
147685,331.491712707182,4,3,1,65,1,0
148182,-99.009900990099,4,3,1,60,0,0
148348,327.421555252387,4,3,1,60,1,0
148675,-100,4,3,1,60,0,0
150967,326.086956521739,4,3,1,60,1,0
151293,-100,4,3,1,60,0,0
155369,-28.5714285714286,4,3,1,60,0,0
156021,-98.9119683481701,4,3,1,60,0,0
156184,322.58064516129,4,3,1,60,1,0
156506,-100,4,3,1,60,0,0
158442,335.195530726257,4,3,1,60,1,0
158609,-100,4,3,1,60,0,0
159112,326.086956521739,4,3,1,60,1,0
159112,-100,4,3,1,60,0,0
160090,326.530612244898,4,3,1,60,1,0
160416,-100,4,3,1,60,0,0
166620,326.086956521739,4,3,1,60,1,0
166946,-100,4,3,1,60,0,0
167924,320.855614973262,4,3,1,60,1,0
167924,-100,4,3,1,60,0,0
169206,329.67032967033,4,3,1,60,1,0
169206,-100,4,3,1,60,0,0
170525,325.99837000815,4,3,1,60,1,0
170525,-100,4,3,1,60,0,0
171176,-100,4,3,1,60,0,0
177045,324.324324324324,4,3,1,60,1,0
177045,-100,4,3,1,60,0,0
177531,-100,4,3,1,60,0,0
178342,327.868852459016,4,3,1,60,1,0
179325,314.13612565445,4,3,1,60,1,0
179639,326.975476839237,4,3,1,60,1,0
179639,-100,4,3,1,60,0,0
182254,326.175591193259,4,3,1,60,1,0
182254,-100,4,3,1,60,0,0
190083,324.763193504736,4,3,1,60,1,0
192681,326.086956521739,4,3,1,70,1,0
192681,-100,4,3,1,70,0,0
203115,326.975476839237,4,3,1,65,1,0
204095,-100,4,3,1,65,0,0
208346,325.20325203252,4,3,1,65,1,0
208346,-100,4,3,1,65,0,0
212248,327.868852459016,4,3,1,65,1,0
213559,329.670329670329,4,3,1,50,1,0
213559,-100,4,3,1,50,0,0
216031,-98.9119683481701,4,3,1,50,0,0
216196,323.450134770889,4,3,1,50,1,0
217489,-100,4,3,1,50,0,0
218136,326.086956521739,4,3,1,50,1,0
218136,-100,4,3,1,50,0,0
220581,-99.1080277502478,4,3,1,50,0,0
220744,322.58064516129,4,3,1,50,1,0
222034,328.767123287671,4,3,1,50,1,0
222034,-100,4,3,1,50,0,0
222691,327.421555252387,4,3,1,55,1,0
222691,-100,4,3,1,55,0,0
225310,327.421555252387,4,3,1,55,1,0
225310,-100,4,3,1,55,0,0
227274,327.868852459016,4,3,1,55,1,0
227274,-100,4,3,1,55,0,0
228585,324.324324324324,4,3,1,55,1,0
228585,-100,4,3,1,55,0,0
229882,324.324324324324,4,3,1,55,1,0
229882,-100,4,3,1,55,0,0
231829,322.58064516129,4,3,1,60,1,0
231829,-100,4,3,1,60,0,0
232312,-100,4,3,1,60,0,0
233119,329.67032967033,4,3,1,60,1,0
233283,-100,4,3,1,60,0,0
234437,323.450134770889,4,3,1,60,1,0
234760,-100,4,3,1,60,0,0
236379,326.086956521739,4,3,1,60,1,0
236868,-100,4,3,1,60,0,0
238987,326.975476839237,4,3,1,60,1,0
238987,-100,4,3,1,60,0,0
240948,326.086956521739,4,3,1,60,1,0
242252,-100,4,3,1,60,0,0
243556,326.086956521739,4,3,1,60,1,0
243556,-100,4,3,1,60,0,0
245513,326.975476839237,4,3,1,60,1,0
248128,323.886639676113,4,3,1,60,1,0
249099,-100,4,3,2,60,0,0
249261,-100,4,3,3,60,0,0
249342,-100,4,3,1,60,0,0
249423,-100,4,3,1,60,0,0
250071,327.868852459016,4,3,1,50,1,0
250726,-100,4,3,1,50,0,0
253349,322.58064516129,4,3,1,50,1,0
253994,322.58064516129,4,3,1,50,1,0
255284,328.317373461012,4,3,1,55,1,0
255612,-100,4,3,1,55,0,0
259223,326.086956521739,4,3,1,55,1,0
260934,-100,4,3,1,55,0,0
262476,342.857142857142,4,3,1,55,1,0
262476,-100,4,3,1,55,0,0
262818,326.086956521739,4,3,1,55,1,0
263225,281.69014084507,4,3,1,55,1,0
263225,-100,4,3,1,55,0,0
263436,301.507537688442,4,3,1,55,1,0
263511,-100,4,3,1,60,0,0
264453,319.148936170212,4,3,1,60,1,0
264931,-100,4,3,1,60,0,0
265729,326.086956521739,4,3,1,60,1,0
265892,-100,4,3,1,60,0,0
267033,326.086956521739,4,3,1,65,1,0
270293,-100,4,3,1,65,0,0
273554,326.530612244897,4,3,1,65,1,0
274860,-100,4,3,1,65,0,0
278451,326.086956521738,4,3,1,65,1,0
279429,335.195530726256,4,3,1,65,1,0
280099,328.76712328767,4,3,1,65,1,0
280263,-100,4,3,1,65,0,0
282235,319.148936170212,4,3,1,65,1,0
282713,312.499999999999,4,3,1,65,1,0
283652,340.90909090909,4,3,1,65,1,0
283993,322.580645161289,4,3,1,65,1,0
284154,-100,4,3,1,65,0,0
284476,-101.522842639594,4,3,1,65,0,0
284638,333.333333333332,4,3,1,65,1,0
285304,326.086956521739,4,3,1,70,1,0
287749,-100,4,3,1,70,0,0
290521,326.975476839237,4,3,1,70,1,0
292973,-100,4,3,1,70,0,0
293136,324.324324324324,4,3,1,70,1,0
294271,-100,4,3,1,70,0,0
294433,327.868852459016,4,3,1,70,1,0
295748,326.086956521739,4,3,1,70,1,0
298193,-100,4,3,1,70,0,0
300965,326.975476839237,4,3,1,70,1,0
303417,-100,4,3,1,70,0,0
303580,325.46786004882,4,3,1,70,1,0
306021,-100,4,3,1,70,0,0
306183,324.324324324324,4,3,1,65,1,0
308615,-100,4,3,1,60,0,0
308777,326.086956521739,4,3,1,60,1,0
308940,-100,4,3,1,60,0,0
311385,327.868852459016,4,3,1,60,1,0
311548,-100,4,3,1,60,0,0
314007,326.086956521739,4,3,1,60,1,0
314170,-100,4,3,1,60,0,0
315148,-100.502512562814,4,3,1,60,0,0
315312,329.67032967033,4,3,1,60,1,0
315476,-100,4,3,1,60,0,0
316465,-99.1080277502478,4,3,1,60,0,0
316629,325.20325203252,4,3,1,60,1,0
316791,-100,4,3,1,60,0,0
319229,326.086956521739,4,3,1,50,1,0
319229,-100,4,3,1,50,0,0
321837,322.58064516129,4,3,1,50,1,0
321837,-100,4,3,1,50,0,0
323127,326.975476839237,4,3,1,65,1,0
324434,-100,4,3,1,55,0,0
328358,324.324324324324,4,3,1,55,1,0
329655,326.975476839237,4,3,1,60,1,0
329655,-100,4,3,1,60,0,0
332270,326.086956521739,4,3,1,60,1,0
332270,-100,4,3,1,60,0,0
336183,325.20325203252,4,3,1,60,1,0
337321,-100,4,3,1,60,0,0
340085,326.975476839237,4,3,1,60,1,0
342700,325.644504748982,4,3,1,60,1,0
345305,322.58064516129,4,3,1,70,1,0
346595,-100,4,3,1,70,0,0
347885,329.67032967033,4,3,1,70,1,0
348874,-100,4,3,1,70,0,0
350522,326.086956521739,4,3,1,70,1,0
351826,-100,4,3,1,70,0,0
355739,335.195530726257,4,3,1,65,1,0
356074,326.086956521739,4,3,1,65,1,0
357052,324.324324324324,4,3,1,65,1,0
357052,-100,4,3,1,65,0,0
359646,326.530612244898,4,3,1,65,1,0
359646,-100,4,3,1,65,0,0
364870,327.421555252387,4,3,1,65,1,0
366179,-100,4,3,1,60,0,0
367487,326.708412741628,4,3,1,60,1,0
367487,-100,4,3,1,60,0,0
371407,324.324324324324,4,3,1,60,1,0
371407,-100,4,3,1,60,0,0
374001,326.086956521739,4,3,1,60,1,0
374001,-100,4,3,1,60,0,0
376610,324.324324324324,4,3,1,60,1,0
376610,-100,4,3,1,60,0,0
376934,-100,4,3,1,60,0,0
377907,329.670329670329,4,3,1,60,1,0
377907,-100,4,3,1,60,0,0
379225,324.324324324324,4,3,1,60,1,0
379225,-100,4,3,1,60,0,0
380522,326.086956521739,4,3,1,60,1,0
381174,-100,4,3,1,60,0,0
383130,322.58064516129,4,3,1,60,1,0
383452,-100,4,3,1,60,0,0
384420,329.67032967033,4,3,1,60,1,0
384749,-100,4,3,1,60,0,0
385738,326.975476839237,4,3,1,60,1,0
385738,-100,4,3,1,60,0,0
389664,327.868852459016,4,3,1,60,1,0
389664,-133.333333333333,4,3,1,60,0,0
391631,-100,4,3,1,60,0,0
392286,325.644504748982,4,3,1,55,1,0
392286,-100,4,3,1,55,0,0
396193,324.324324324324,4,3,1,55,1,0
396193,-100,4,3,1,55,0,0
397490,329.218106995884,4,3,1,55,1,0
397490,-100,4,3,1,55,0,0
398148,322.147651006711,4,3,1,55,1,0
398148,-100,4,3,1,55,0,0
398792,325.644504748982,4,3,1,55,1,0
400095,324.324324324324,4,3,1,55,1,0
400095,-100,4,3,1,55,0,0
400419,-100,4,3,1,55,0,0
402040,333.333333333333,4,3,1,55,1,0
402040,-100,4,3,1,55,0,0
402706,326.530612244898,4,3,1,55,1,0
402706,-100,4,3,1,55,0,0
407930,322.58064516129,4,3,1,55,1,0
407930,-100,4,3,1,55,0,0
409220,327.868852459016,4,3,1,55,1,0
409220,-100,4,3,1,55,0,0
411843,319.148936170213,4,3,1,55,1,0
412002,-100,4,3,1,55,0,0
412800,333.333333333333,4,3,1,55,1,0
413133,-100,4,3,1,55,0,0
413800,322.58064516129,4,3,1,55,1,0
413800,-100,4,3,1,55,0,0
414445,324.324324324324,4,3,1,55,1,0
414445,-100,4,3,1,55,0,0
417039,326.530612244898,4,3,1,55,1,0
417039,-100,4,3,1,55,0,0
420957,327.868852459016,4,3,1,55,1,0
420957,-100,4,3,1,55,0,0
422268,324.324324324324,4,3,1,55,1,0
422268,-100,4,3,1,55,0,0
422916,331.491712707182,4,3,1,55,1,0
422916,-100,4,3,1,55,0,0
423579,323.450134770889,4,3,1,55,1,0
423579,-100,4,3,1,55,0,0
424225,-100,4,3,1,55,0,0
426166,331.491712707182,4,3,1,55,1,0
426166,-100,4,3,1,55,0,0
427492,322.58064516129,4,3,1,55,1,0
427492,-100,4,3,1,55,0,0
428137,-100,4,3,1,55,0,0
428782,329.67032967033,4,3,1,55,1,0
428782,-100,4,3,1,55,0,0
429441,322.58064516129,4,3,1,55,1,0
429441,-100,4,3,1,55,0,0
430086,326.086956521739,4,3,1,55,1,0
431390,389.610389610389,4,3,1,50,1,0
431390,-100,4,3,1,50,0,0
431779,402.684563758389,4,3,1,50,1,0
431779,-100,4,3,1,50,0,0
432181,416.666666666666,4,3,1,50,1,0
432181,-100,4,3,1,50,0,0
432597,458.015267175572,4,3,1,50,1,0
432597,-100,4,3,1,50,0,0
433055,495.86776859504,4,3,1,50,1,0
433055,-100,4,3,1,50,0,0
433550,530.973451327433,4,3,1,50,1,0
434080,606.060606060605,4,3,1,50,1,0
434080,-100,4,3,1,50,0,0
434686,833.333333333331,4,3,1,50,1,0
435519,798.403193612774,4,3,1,50,1,0
454680,324.324324324324,4,3,1,65,1,0
456707,-100,4,3,1,5,0,0
456869,-100,4,3,1,5,0,0

[Colours]
Combo1 : 77,77,77
Combo2 : 192,192,192
Combo3 : 255,91,91

[HitObjects]
256,192,35141,12,0,40715,0:0:0:0:
473,49,41371,6,0,B|219:118|219:118|341:98|341:98|424:109|494:200|425:285|319:255,1,656.25,4|0,3:0|0:0,3:0:0:0:
222,260,42354,1,0,3:0:0:0:
356,280,42518,1,0,3:0:0:0:
90,69,42682,2,0,L|263:32,1,157.5,4|0,3:0|0:0,3:0:0:0:
301,33,43010,1,0,3:0:0:0:
68,75,43174,2,0,P|32:148|105:180,1,157.5,4|0,3:0|0:0,3:0:0:0:
144,191,43502,1,0,3:0:0:0:
396,290,43666,2,0,L|220:309,1,157.5,4|0,3:0|0:0,3:0:0:0:
471,362,43993,6,0,P|488:297|174:96,1,525,0|0,3:0|0:0,3:0:0:0:
294,153,44977,1,0,3:0:0:0:
437,163,45142,1,0,3:0:0:0:
164,192,45306,2,0,L|221:294,1,105,4|0,3:0|3:0,3:0:0:0:
347,306,45634,1,0,3:0:0:0:
94,335,45798,2,0,P|72:272|218:167,1,262.5,4|0,3:0|0:0,3:0:0:0:
421,120,46291,2,0,P|440:47|375:23,1,157.5,4|0,3:0|0:0,3:0:0:0:
152,30,46619,5,4,3:0:0:0:
283,59,46781,1,0,3:0:0:0:
153,122,46943,1,8,3:0:0:0:
358,233,47186,2,0,L|288:240,1,52.5,8|8,3:0|3:0,0:0:0:0:
173,283,47429,1,0,3:0:0:0:
310,319,47591,1,0,3:0:0:0:
344,281,47672,1,0,3:0:0:0:
328,233,47753,1,0,3:0:0:0:
279,223,47834,1,0,3:0:0:0:
68,224,47916,6,0,L|47:102,1,105,8|0,3:0|3:0,3:0:0:0:
118,96,48159,1,0,0:0:0:0:
193,77,48240,2,0,L|64:68,1,105,8|0,3:0|3:0,3:0:0:0:
23,58,48483,1,0,3:0:0:0:
234,151,48564,1,8,3:0:0:0:
109,263,48727,2,0,L|184:265,1,52.5,0|0,3:0|0:0,0:0:0:0:
339,168,48889,2,0,L|348:103,1,52.5,8|0,3:0|3:0,0:0:0:0:
143,259,49051,2,0,L|152:190,1,52.5,0|0,3:0|3:0,0:0:0:0:
394,22,49213,6,0,L|275:31,1,105,12|0,3:0|3:0,0:0:0:0:
432,118,49537,1,0,3:0:0:0:
166,151,49700,2,0,L|290:200,1,105,12|0,3:0|3:0,0:0:0:0:
406,219,50024,1,0,3:0:0:0:
161,324,50186,1,12,3:0:0:0:
412,244,50348,1,0,3:0:0:0:
132,235,50514,6,0,P|60:209|42:115,1,157.5,12|0,3:0|0:0,3:0:0:0:
218,74,50847,2,0,L|380:53,1,157.5,12|0,3:0|0:0,3:0:0:0:
150,10,51180,2,0,L|26:6,1,105,8|8,3:0|3:0,0:0:0:0:
287,139,51502,1,8,3:0:0:0:
37,154,51663,6,0,P|31:234|128:255,1,157.5,4|0,3:0|3:0,3:0:0:0:
255,309,51988,2,0,L|329:314,1,52.5,0|0,3:0|3:0,3:0:0:0:
129,364,52151,2,0,L|53:369,1,52.5,8|0,3:0|3:0,0:0:0:0:
132,330,52315,2,0,L|192:321,1,52.5,0|0,3:0|3:0,0:0:0:0:
360,242,52478,2,0,L|369:178,1,52.5,8|0,3:0|3:0,0:0:0:0:
291,168,52642,2,0,L|281:101,1,52.5,0|0,3:0|3:0,0:0:0:0:
364,97,52805,2,0,L|376:35,1,52.5,8|0,3:0|3:0,3:0:0:0:
157,205,52969,6,0,P|209:245|305:232,1,157.5,4|0,3:0|3:0,3:0:0:0:
247,204,53295,1,0,3:0:0:0:
190,196,53377,1,0,3:0:0:0:
375,353,53459,2,0,L|451:358,1,52.5,8|0,3:0|3:0,0:0:0:0:
372,319,53623,2,0,L|312:310,1,52.5,0|0,3:0|3:0,0:0:0:0:
141,283,53786,2,0,L|121:223,1,52.5,8|0,3:0|3:0,0:0:0:0:
205,198,53950,2,0,L|210:113,1,52.5,0|0,3:0|3:0,0:0:0:0:
297,131,54113,2,0,L|325:70,1,52.5,8|0,3:0|3:0,3:0:0:0:
100,18,54277,6,0,P|44:40|65:143,1,157.5,4|0,3:0|3:0,3:0:0:0:
217,194,54604,2,0,L|313:203,1,52.5,0|0,3:0|3:0,3:0:0:0:
98,235,54767,2,0,L|85:308,1,52.5,8|0,3:0|3:0,0:0:0:0:
271,342,54931,2,0,L|340:340,1,52.5,0|0,3:0|3:0,0:0:0:0:
142,364,55094,2,0,L|131:301,1,52.5,8|0,3:0|3:0,0:0:0:0:
208,285,55258,2,0,L|218:221,1,52.5,0|0,3:0|3:0,0:0:0:0:
141,193,55421,2,0,L|62:183,1,52.5,8|0,3:0|3:0,3:0:0:0:
309,120,55585,6,0,L|379:106,1,52.5,12|0,3:0|3:0,3:0:0:0:
290,82,55748,2,0,L|362:67,1,52.5,8|0,3:0|3:0,3:0:0:0:
268,50,55912,2,0,L|203:53,1,52.5,0|0,3:0|3:0,3:0:0:0:
144,64,56075,2,0,L|145:148,1,52.5,8|0,3:0|3:0,3:0:0:0:
336,170,56239,1,0,3:0:0:0:
363,223,56320,1,0,3:0:0:0:
341,278,56402,1,8,3:0:0:0:
285,297,56484,1,8,3:0:0:0:
454,360,56566,2,0,L|376:367,1,52.5,8|8,3:0|3:0,3:0:0:0:
219,355,56729,1,8,3:0:0:0:
489,114,56893,6,0,L|300:96,1,157.5,4|0,3:0|3:0,3:0:0:0:
382,134,57219,1,0,3:0:0:0:
435,144,57300,1,0,3:0:0:0:
253,166,57382,2,0,L|242:259,1,52.5,8|0,3:0|3:0,0:0:0:0:
319,233,57545,2,0,L|328:300,1,52.5,0|0,3:0|3:0,0:0:0:0:
132,351,57708,2,0,L|186:310,1,52.5,8|0,3:0|3:0,0:0:0:0:
240,316,57871,2,0,L|296:310,1,52.5,0|0,3:0|3:0,0:0:0:0:
99,227,58034,2,0,L|-4:219,1,52.5,8|0,3:0|3:0,3:0:0:0:
265,71,58197,6,0,P|331:86|339:170,1,157.5,4|0,3:0|3:0,3:0:0:0:
153,37,58523,2,0,L|225:27,1,52.5,0|0,3:0|3:0,3:0:0:0:
392,88,58686,2,0,L|400:165,1,52.5,8|0,3:0|3:0,0:0:0:0:
324,188,58849,2,0,L|397:191,1,52.5,0|0,3:0|3:0,0:0:0:0:
191,243,59012,2,0,L|97:256,1,52.5,8|0,3:0|3:0,0:0:0:0:
200,279,59175,1,0,3:0:0:0:
265,288,59257,1,0,3:0:0:0:
88,346,59338,2,0,L|16:356,1,52.5,8|0,3:0|3:0,3:0:0:0:
257,365,59501,6,0,P|287:306|204:265,1,157.5,4|0,3:0|3:0,3:0:0:0:
52,242,59827,2,0,L|44:168,1,52.5,0|0,3:0|3:0,3:0:0:0:
230,138,59990,2,0,L|238:69,1,52.5,8|0,3:0|3:0,0:0:0:0:
174,60,60153,1,0,3:0:0:0:
108,57,60235,1,0,3:0:0:0:
298,21,60316,2,0,L|374:30,1,52.5,8|0,3:0|3:0,0:0:0:0:
171,191,60479,2,0,L|263:191,1,52.5,0|0,3:0|3:0,0:0:0:0:
417,284,60642,2,0,L|490:286,1,52.5,8|0,3:0|3:0,3:0:0:0:
251,356,60806,6,0,L|218:269,1,52.5,4|0,3:0|3:0,3:0:0:0:
313,272,60969,2,0,L|316:208,1,52.5,8|0,3:0|3:0,3:0:0:0:
405,206,61129,2,0,L|438:119,1,52.5,0|0,3:0|3:0,3:0:0:0:
235,96,61289,2,0,L|173:94,1,52.5,8|0,3:0|3:0,3:0:0:0:
362,23,61450,2,0,L|284:23,1,52.5,0|0,3:0|3:0,3:0:0:0:
111,24,61610,1,8,3:0:0:0:
235,96,61771,2,0,L|243:176,1,52.5,8|8,3:0|3:0,0:0:0:0:
50,182,61931,2,0,L|45:247,1,52.5,8|8,3:0|3:0,0:0:0:0:
268,284,62091,6,0,P|223:340|70:340,1,212.099995792694,4|0,3:0|3:0,3:0:0:0:
342,369,62580,2,0,L|350:235,1,105,8|0,3:0|3:0,3:0:0:0:
99,190,62910,2,0,L|198:142,1,105,8|0,3:0|3:0,3:0:0:0:
339,136,63240,1,8,3:0:0:0:
85,108,63404,6,0,P|67:169|180:243,1,210,4|0,3:0|3:0,3:0:0:0:
309,335,63893,2,0,L|179:342,1,105,8|0,3:0|3:0,3:0:0:0:
465,218,64217,2,0,L|337:212,1,105,8|0,3:0|3:0,0:0:0:0:
308,199,64460,1,0,3:0:0:0:
129,129,64541,2,0,L|157:70,1,52.5,8|0,3:0|3:0,0:0:0:0:
346,22,64704,2,0,L|419:16,1,52.5,0|0,3:0|3:0,3:0:0:0:
174,14,64866,5,4,3:0:0:0:
143,55,64947,1,0,3:0:0:0:
173,102,65028,1,0,3:0:0:0:
227,110,65109,1,0,3:0:0:0:
288,145,65190,2,0,L|203:158,1,52.5,8|0,3:0|3:0,0:0:0:0:
40,205,65352,6,0,L|58:268,1,52.5,0|0,3:0|3:0,0:0:0:0:
126,284,65514,2,0,L|189:293,1,52.5,8|0,3:0|3:0,0:0:0:0:
250,354,65677,2,0,L|161:368,1,52.5,0|0,3:0|3:0,0:0:0:0:
379,325,65839,2,0,L|478:312,1,52.5,8|0,3:0|3:0,0:0:0:0:
238,234,66001,2,0,L|167:227,1,52.5,0|0,3:0|3:0,0:0:0:0:
427,174,66166,6,0,L|484:166,3,52.5,8|0|0|0,3:0|3:0|3:0|3:0,0:0:0:0:
291,52,66492,2,0,L|222:46,3,52.5,8|0|0|0,3:0|3:0|3:0|3:0,0:0:0:0:
43,84,66819,5,8,3:0:0:0:
19,131,66900,1,0,3:0:0:0:
43,178,66982,1,0,3:0:0:0:
95,188,67064,1,0,3:0:0:0:
280,264,67146,2,0,L|221:275,1,52.5,8|0,3:0|3:0,0:0:0:0:
54,357,67310,2,0,L|137:367,1,52.5,0|0,3:0|3:0,0:0:0:0:
314,309,67473,6,0,L|327:239,1,52.5,12|0,3:0|3:0,3:0:0:0:
242,237,67637,2,0,L|228:166,1,52.5,0|0,3:0|3:0,0:0:0:0:
416,94,67800,2,0,L|361:61,1,52.5,8|0,3:0|3:0,0:0:0:0:
300,56,67964,2,0,L|228:56,1,52.5,0|0,3:0|3:0,3:0:0:0:
439,30,68127,2,0,L|450:120,1,52.5,8|0,3:0|3:0,0:0:0:0:
377,136,68291,2,0,L|444:147,1,52.5,8|0,3:0|3:0,0:0:0:0:
232,237,68454,2,0,L|162:249,1,52.5,8|0,3:0|3:0,0:0:0:0:
250,269,68618,2,0,L|317:275,1,52.5,8|0,3:0|3:0,0:0:0:0:
96,354,68781,5,12,3:0:0:0:
45,349,68862,1,0,3:0:0:0:
21,305,68943,1,0,3:0:0:0:
44,260,69024,1,0,3:0:0:0:
237,104,69105,2,0,L|307:116,1,52.5,8|0,3:0|3:0,0:0:0:0:
219,136,69267,2,0,L|152:142,1,52.5,0|0,3:0|3:0,3:0:0:0:
366,62,69429,2,0,L|379:156,1,52.5,8|0,3:0|3:0,0:0:0:0:
195,211,69591,2,0,L|270:216,1,52.5,8|0,3:0|3:0,0:0:0:0:
67,344,69753,2,0,L|56:262,1,52.5,8|0,3:0|3:0,0:0:0:0:
253,286,69916,2,0,L|332:284,1,52.5,8|0,3:0|3:0,0:0:0:0:
59,188,70078,6,0,L|54:80,1,105,12|0,3:0|3:0,3:0:0:0:
119,62,70323,1,0,3:0:0:0:
186,58,70405,2,0,L|115:51,1,52.5,8|0,3:0|0:0,3:0:0:0:
66,38,70569,2,0,L|64:114,1,52.5,0|0,3:0|0:0,0:0:0:0:
263,157,70733,2,0,L|253:225,1,52.5,8|0,3:0|0:0,0:0:0:0:
183,228,70897,1,0,3:0:0:0:
368,297,70979,2,0,L|444:301,2,52.5,0|8|0,3:0|3:0|0:0,0:0:0:0:
179,369,71225,2,0,L|269:364,1,52.5,0|0,3:0|0:0,0:0:0:0:
471,367,71389,6,0,B|365:45|365:45|277:366|277:366|457:87|457:87|506:251|506:251|454:79|454:79|112:71,1,1680,8|8,3:0|3:0,3:0:0:0:
72,69,72291,1,8,3:0:0:0:
257,158,72373,2,0,L|336:161,1,52.5,8|8,3:0|3:0,0:0:0:0:
56,174,72537,6,0,P|25:246|132:295,1,210,4|0,3:0|3:0,3:0:0:0:
379,65,73028,2,0,L|241:66,1,105,8|0,3:0|3:0,3:0:0:0:
421,143,73356,2,0,L|432:275,1,105,0|0,3:0|3:0,0:0:0:0:
191,340,73684,1,8,3:0:0:0:
325,266,73848,2,0,L|128:194,1,210,0|0,3:0|3:0,3:0:0:0:
372,169,74340,2,0,L|379:49,1,105,8|0,3:0|3:0,3:0:0:0:
136,10,74668,2,0,L|253:57,1,105,0|0,3:0|3:0,0:0:0:0:
378,64,74996,1,8,3:0:0:0:
123,162,75159,6,0,P|98:248|214:279,1,210,4|0,3:0|3:0,3:0:0:0:
50,361,75649,2,0,L|38:247,1,105,8|0,3:0|3:0,3:0:0:0:
181,218,75974,1,0,3:0:0:0:
39,218,76137,1,0,3:0:0:0:
298,139,76299,1,8,3:0:0:0:
32,58,76462,6,0,L|241:25,1,210,4|0,3:0|3:0,3:0:0:0:
101,126,76950,2,0,L|222:137,1,105,8|0,3:0|3:0,3:0:0:0:
349,177,77275,1,0,3:0:0:0:
206,161,77437,1,0,3:0:0:0:
452,231,77600,1,8,3:0:0:0:
195,202,77763,6,0,P|152:245|255:314,1,210,4|0,3:0|3:0,3:0:0:0:
487,123,78250,2,0,L|364:110,1,105,8|0,3:0|3:0,3:0:0:0:
236,32,78576,2,0,L|364:14,1,105,0|0,3:0|3:0,0:0:0:0:
93,185,78901,1,8,3:0:0:0:
232,329,79063,2,0,L|454:247,1,210,0|0,3:0|3:0,3:0:0:0:
175,233,79551,2,0,L|172:119,1,105,8|0,3:0|3:0,0:0:0:0:
422,61,79876,2,0,L|275:48,1,105,8|0,3:0|3:0,0:0:0:0:
60,60,80202,1,8,3:0:0:0:
342,72,80364,6,0,P|383:136|255:163,1,210,4|0,3:0|3:0,3:0:0:0:
434,212,80852,2,0,L|452:335,1,105,8|0,3:0|3:0,3:0:0:0:
305,349,81177,1,0,3:0:0:0:
449,315,81340,1,0,3:0:0:0:
196,275,81502,1,8,3:0:0:0:
466,168,81665,6,0,L|229:144,1,210,4|0,3:0|3:0,3:0:0:0:
320,114,82071,1,0,3:0:0:0:
253,91,82153,2,0,L|122:84,1,105,8|0,3:0|3:0,3:0:0:0:
213,54,82397,1,0,3:0:0:0:
31,36,82478,1,8,3:0:0:0:
153,218,82641,2,0,L|246:211,1,52.5,0|0,3:0|3:0,0:0:0:0:
28,336,82803,1,8,3:0:0:0:
304,347,82966,6,0,P|324:291|209:223,1,210,4|0,3:0|3:0,3:0:0:0:
484,86,83454,6,0,L|491:204,1,105,12|0,3:0|3:0,3:0:0:0:
345,69,83781,1,0,3:0:0:0:
485,39,83944,2,0,L|487:152,1,105,0|8,3:0|3:0,3:0:0:0:
168,222,84270,6,0,L|370:122,1,210,12|0,3:0|3:0,3:0:0:0:
209,63,84760,2,0,L|206:185,1,105,8|0,3:0|3:0,3:0:0:0:
356,128,85087,1,0,3:0:0:0:
206,167,85250,1,0,3:0:0:0:
356,128,85413,1,8,3:0:0:0:
97,298,85576,6,0,P|31:240|109:151,1,210,4|0,3:0|3:0,3:0:0:0:
220,95,86066,2,0,L|335:100,1,105,8|0,3:0|3:0,3:0:0:0:
71,35,86393,2,0,L|186:34,2,105,0|0|8,3:0|3:0|3:0,0:0:0:0:
351,158,86883,6,0,L|117:158,1,210,4|0,3:0|3:0,3:0:0:0:
82,157,87291,1,0,3:0:0:0:
284,260,87372,2,0,L|410:260,1,105,12|0,3:0|3:0,3:0:0:0:
329,240,87617,1,0,3:0:0:0:
133,227,87699,2,0,L|264:227,2,105,8|8|8,3:0|3:0|3:0,3:0:0:0:
397,338,88189,6,0,P|464:273|394:205,1,210,4|0,3:0|3:0,3:0:0:0:
250,252,88677,2,0,L|250:136,1,105,8|0,3:0|3:0,3:0:0:0:
394,68,89003,2,0,L|273:68,2,105,0|0|8,3:0|3:0|3:0,0:0:0:0:
126,181,89491,6,0,L|346:181,1,210,4|0,3:0|3:0,3:0:0:0:
200,266,89980,2,0,L|84:267,1,105,8|0,3:0|3:0,3:0:0:0:
238,249,90305,2,0,L|238:368,1,105,0|0,3:0|3:0,0:0:0:0:
95,266,90631,1,8,3:0:0:0:
370,104,90794,6,0,L|146:104,1,210,4|0,3:0|3:0,3:0:0:0:
277,147,91282,1,8,3:0:0:0:
41,148,91445,1,0,3:0:0:0:
286,147,91608,2,0,L|417:148,1,105,8|0,3:0|3:0,0:0:0:0:
46,175,91934,2,0,L|46:295,1,105,8|0,3:0|3:0,3:0:0:0:
292,290,92259,6,0,L|144:291,1,105,8|0,3:0|3:0,0:0:0:0:
453,182,92588,2,0,L|458:326,1,105,12|0,3:0|3:0,3:0:0:0:
317,141,92918,1,8,3:0:0:0:
176,137,93083,1,0,3:0:0:0:
428,141,93248,2,0,P|487:89|422:32,1,157.5,12|0,3:0|0:0,3:0:0:0:
220,16,93577,6,0,L|2:16,1,210,4|0,3:0|3:0,3:0:0:0:
121,48,94064,1,0,0:0:0:0:
246,49,94227,2,0,L|356:49,1,105,8|0,3:0|0:0,3:0:0:0:
213,125,94552,2,0,L|206:241,1,105,0|0,3:0|3:0,0:0:0:0:
351,314,94877,6,0,P|408:276|341:167,1,210,0|0,3:0|3:0,3:0:0:0:
215,173,95365,1,0,0:0:0:0:
356,168,95528,2,0,L|363:57,1,105,8|0,3:0|0:0,0:0:0:0:
177,167,95853,2,0,L|175:302,1,105,0|0,3:0|3:0,3:0:0:0:
325,112,96178,6,0,L|103:98,1,210,0|0,3:0|3:0,3:0:0:0:
225,147,96667,1,0,0:0:0:0:
354,118,96831,2,0,L|229:103,1,105,8|0,3:0|0:0,3:0:0:0:
162,261,97157,2,0,L|292:247,1,105,0|0,3:0|3:0,0:0:0:0:
109,338,97484,6,0,P|43:288|112:194,1,210,0|0,3:0|3:0,3:0:0:0:
219,192,97973,1,0,0:0:0:0:
82,99,98137,2,0,L|82:219,1,105,8|0,3:0|0:0,0:0:0:0:
203,47,98465,2,0,L|95:46,1,105,0|0,3:0|0:0,0:0:0:0:
354,314,98794,6,0,P|426:250|344:177,1,210,4|0,3:0|3:0,3:0:0:0:
158,314,99442,2,0,P|86:250|168:177,1,210,8|0,3:0|3:0,3:0:0:0:
266,174,99929,1,0,3:0:0:0:
148,152,100091,6,0,L|261:152,1,105,0|0,3:0|0:0,3:0:0:0:
357,152,100415,1,0,3:0:0:0:
184,278,100577,2,0,P|116:204|194:139,1,210
316,99,101064,2,0,L|315:221,1,105,0|0,3:0|0:0,0:0:0:0:
118,28,101388,6,0,L|348:15,1,210,0|0,3:0|3:0,3:0:0:0:
218,66,101875,1,0,3:0:0:0:
75,131,102037,2,0,L|210:117,1,105,8|0,3:0|3:0,3:0:0:0:
326,122,102361,2,0,L|439:109,1,105,0|0,3:0|3:0,3:0:0:0:
155,259,102686,6,0,L|46:248,2,105,12|0|0,3:0|0:0|3:0,3:0:0:0:
378,258,103177,2,0,L|487:247,2,105,12|0|0,3:0|0:0|3:0,3:0:0:0:
109,263,103668,1,12,3:0:0:0:
354,263,103831,1,0,3:0:0:0:
93,262,103997,6,0,P|32:195|98:113,1,210,4|8,3:0|3:0,3:0:0:0:
221,113,104485,1,0,3:0:0:0:
91,102,104648,2,0,L|86:216,1,105,0|0,3:0|3:0,3:0:0:0:
238,105,104973,2,0,L|375:106,1,105,8|0,3:0|3:0,3:0:0:0:
120,212,105299,6,0,L|361:213,1,210,0|8,3:0|3:0,3:0:0:0:
164,252,105788,2,0,L|156:364,1,105,0|0,3:0|3:0,3:0:0:0:
273,238,106113,1,0,3:0:0:0:
110,199,106276,2,0,L|100:86,1,105,8|0,3:0|3:0,3:0:0:0:
388,291,106602,6,0,L|145:279,1,210,0|8,3:0|3:0,3:0:0:0:
288,198,107090,1,0,3:0:0:0:
168,223,107253,1,0,3:0:0:0:
166,275,107334,1,0,0:0:0:0:
165,327,107415,1,0,3:0:0:0:
311,198,107579,2,0,L|456:198,1,105,8|0,3:0|3:0,3:0:0:0:
123,260,107904,6,0,P|56:192|146:114,1,210,0|8,3:0|3:0,3:0:0:0:
235,109,108393,1,0,3:0:0:0:
102,48,108556,2,0,L|97:170,1,105,0|0,3:0|3:0,3:0:0:0:
363,78,108881,2,0,L|483:78,1,105,12|0,3:0|3:0,3:0:0:0:
136,206,109207,6,0,L|363:206,1,210,4|8,3:0|3:0,3:0:0:0:
215,118,109697,1,0,3:0:0:0:
355,107,109860,2,0,L|356:218,1,105,8|0,3:0|3:0,3:0:0:0:
177,115,110187,2,0,L|56:114,1,105,8|0,3:0|3:0,3:0:0:0:
230,45,110514,6,0,L|347:45,1,105,8|0,3:0|3:0,3:0:0:0:
154,111,110841,2,0,L|154:224,1,105,8|0,3:0|3:0,3:0:0:0:
435,167,111168,2,0,L|301:166,2,105,8|8|8,3:0|3:0|3:0,0:0:0:0:
151,328,111659,6,0,P|79:261|151:193,1,210,4|0,3:0|3:0,3:0:0:0:
424,105,112145,2,0,L|423:223,1,105,12|0,3:0|3:0,3:0:0:0:
287,101,112468,1,0,3:0:0:0:
432,99,112629,1,0,3:0:0:0:
139,187,112790,2,0,L|136:70,1,105,12|0,3:0|3:0,3:0:0:0:
254,191,113113,5,0,3:0:0:0:
365,191,113277,1,0,3:0:0:0:
60,237,113442,2,0,L|51:358,1,105,12|0,3:0|3:0,3:0:0:0:
175,216,113772,1,0,3:0:0:0:
53,233,113937,1,0,3:0:0:0:
335,242,114102,2,0,L|456:257,1,105,8|0,3:0|3:0,3:0:0:0:
121,348,114426,6,0,L|110:283,1,52.5,12|0,3:0|3:0,0:0:0:0:
208,227,114588,2,0,L|194:293,1,52.5,0|0,3:0|3:0,0:0:0:0:
129,207,114751,2,0,L|144:135,1,52.5,8|0,3:0|3:0,0:0:0:0:
347,127,114913,2,0,L|415:117,1,52.5,4|0,3:0|3:0,0:0:0:0:
326,113,115076,2,0,L|271:103,1,52.5,8|0,3:0|3:0,0:0:0:0:
65,211,115239,2,0,L|146:196,1,52.5,4|0,3:0|3:0,0:0:0:0:
293,216,115401,2,0,L|366:204,1,52.5,8|0,3:0|3:0,0:0:0:0:
140,217,115564,2,0,L|79:229,1,52.5,4|0,3:0|3:0,0:0:0:0:
324,355,115726,6,0,L|361:286,1,52.5,8|0,3:0|3:0,0:0:0:0:
266,263,115891,2,0,L|259:183,1,52.5,8|0,3:0|3:0,0:0:0:0:
177,217,116057,2,0,L|171:131,1,52.5,8|0,3:0|3:0,0:0:0:0:
86,168,116223,2,0,L|38:103,1,52.5,8|8,3:0|3:0,0:0:0:0:
272,149,116388,2,0,L|346:147,1,52.5,8|0,3:0|3:0,0:0:0:0:
146,230,116554,2,0,L|140:308,1,52.5,8|0,3:0|3:0,0:0:0:0:
420,174,116720,1,8,3:0:0:0:
244,155,116796,1,8,3:0:0:0:
66,136,116873,1,8,3:0:0:0:
244,129,116950,1,8,3:0:0:0:
426,54,117027,5,4,3:0:0:0:
479,67,117108,1,0,3:0:0:0:
502,119,117190,1,8,3:0:0:0:
475,167,117271,1,0,3:0:0:0:
420,174,117353,1,0,3:0:0:0:
364,186,117434,1,0,3:0:0:0:
342,238,117516,1,8,3:0:0:0:
369,286,117597,1,0,3:0:0:0:
424,297,117679,2,0,L|497:293,1,52.5,0|0,3:0|3:0,0:0:0:0:
284,360,117842,2,0,L|208:356,1,52.5,8|0,3:0|3:0,0:0:0:0:
415,238,118005,2,0,L|350:232,1,52.5,0|0,3:0|3:0,0:0:0:0:
189,189,118168,2,0,L|124:188,1,52.5,8|0,3:0|3:0,0:0:0:0:
345,37,118331,6,0,L|351:100,1,52.5,0|0,3:0|3:0,3:0:0:0:
281,111,118494,2,0,L|214:120,1,52.5,8|0,3:0|3:0,0:0:0:0:
297,145,118657,2,0,L|366:147,1,52.5,0|0,3:0|3:0,3:0:0:0:
165,183,118820,1,8,3:0:0:0:
117,202,118901,1,0,3:0:0:0:
101,250,118983,1,0,3:0:0:0:
126,294,119064,1,0,3:0:0:0:
176,303,119146,2,0,L|247:308,1,52.5,8|0,3:0|3:0,3:0:0:0:
44,369,119309,2,0,L|34:308,1,52.5,8|0,3:0|3:0,3:0:0:0:
223,231,119472,2,0,L|286:226,1,52.5,8|0,3:0|3:0,0:0:0:0:
73,197,119635,6,0,L|81:121,1,52.5,12|0,3:0|3:0,0:0:0:0:
150,120,119798,2,0,L|218:109,1,52.5,8|0,3:0|3:0,0:0:0:0:
275,103,119961,2,0,L|295:27,1,52.5,0|0,3:0|3:0,3:0:0:0:
100,24,120124,2,0,L|89:94,1,52.5,8|0,3:0|3:0,0:0:0:0:
172,107,120287,2,0,L|179:186,1,52.5,0|0,3:0|3:0,0:0:0:0:
258,181,120450,2,0,L|281:256,1,52.5,8|0,3:0|3:0,0:0:0:0:
96,291,120613,2,0,L|169:298,1,52.5,8|0,3:0|3:0,3:0:0:0:
338,346,120777,2,0,L|402:346,1,52.5,8|0,3:0|3:0,3:0:0:0:
192,358,120940,5,8,3:0:0:0:
166,308,121021,1,0,3:0:0:0:
188,258,121103,1,8,3:0:0:0:
241,243,121184,1,0,3:0:0:0:
433,136,121266,2,0,L|360:129,1,52.5,0|0,3:0|3:0,3:0:0:0:
187,104,121429,2,0,L|174:33,1,52.5,8|0,3:0|3:0,3:0:0:0:
246,37,121592,2,0,L|325:31,1,52.5,0|0,3:0|3:0,0:0:0:0:
228,82,121755,2,0,L|145:93,1,52.5,8|0,3:0|3:0,3:0:0:0:
365,206,121918,2,0,L|441:213,1,52.5,8|0,3:0|3:0,3:0:0:0:
224,326,122081,2,0,L|161:336,1,52.5,8|8,3:0|3:0,3:0:0:0:
389,355,122244,5,12,3:0:0:0:
438,345,122325,1,0,3:0:0:0:
462,300,122407,1,8,3:0:0:0:
442,254,122488,1,0,3:0:0:0:
370,234,122570,2,0,L|299:231,1,52.5,0|0,3:0|3:0,0:0:0:0:
385,197,122733,2,0,L|450:191,1,52.5,8|0,3:0|3:0,0:0:0:0:
252,141,122896,2,0,L|171:136,1,52.5,0|0,3:0|3:0,0:0:0:0:
380,76,123059,2,0,L|451:64,1,52.5,8|0,3:0|3:0,3:0:0:0:
237,32,123222,2,0,L|151:30,1,52.5,8|0,3:0|3:0,3:0:0:0:
249,64,123385,2,0,L|321:64,1,52.5,8|0,3:0|3:0,3:0:0:0:
70,171,123548,6,0,L|44:243,3,52.5,8|0|0|0,3:0|3:0|3:0|3:0,3:0:0:0:
252,281,123874,2,0,L|282:357,3,52.5,8|0|0|0,3:0|3:0|3:0|3:0,3:0:0:0:
473,252,124200,2,0,L|492:181,3,52.5,8|0|0|0,3:0|3:0|3:0|3:0,3:0:0:0:
278,147,124527,2,0,L|210:142,3,52.5,8|0|8|0,3:0|3:0|3:0|3:0,3:0:0:0:
26,56,124853,2,0,L|84:44,1,52.5,12|0,3:0|3:0,3:0:0:0:
293,78,125017,6,0,L|305:162,1,52.5,8|0,3:0|3:0,3:0:0:0:
221,155,125181,2,0,L|212:228,1,52.5,8|8,3:0|3:0,0:0:0:0:
406,283,125346,2,0,L|474:282,1,52.5,8|0,3:0|3:0,3:0:0:0:
265,354,125510,2,0,L|195:342,1,52.5,8|0,3:0|3:0,3:0:0:0:
278,304,125674,2,0,L|360:300,1,52.5,8|0,3:0|3:0,0:0:0:0:
133,220,125839,1,8,3:0:0:0:
180,206,125921,1,8,3:0:0:0:
233,194,126003,1,8,3:0:0:0:
292,196,126085,1,0,3:0:0:0:
81,57,126168,5,8,3:0:0:0:
36,82,126250,1,0,3:0:0:0:
23,132,126332,1,8,3:0:0:0:
49,176,126414,1,0,3:0:0:0:
105,192,126496,1,8,3:0:0:0:
169,196,126579,1,0,3:0:0:0:
103,230,126661,1,8,3:0:0:0:
36,240,126743,1,0,3:0:0:0:
227,283,126825,2,0,L|298:290,1,52.5,8|8,3:0|3:0,0:0:0:0:
96,358,126989,2,0,L|169:360,1,52.5,8|8,3:0|3:0,0:0:0:0:
339,359,127154,2,0,L|352:290,1,52.5,8|8,3:0|3:0,0:0:0:0:
170,238,127318,2,0,L|246:225,1,52.5,8|8,3:0|3:0,0:0:0:0:
452,199,127483,6,0,L|492:117,3,52.5,12|0|0|0,3:0|3:0|3:0|3:0,0:0:0:0:
279,83,127808,2,0,L|257:148,3,52.5,8|0|0|0,3:0|3:0|3:0|3:0,0:0:0:0:
61,8,128134,2,0,L|34:70,3,52.5,8|0|0|0,3:0|3:0|3:0|3:0,0:0:0:0:
237,122,128460,2,0,L|324:130,1,52.5,8|0,3:0|3:0,3:0:0:0:
86,262,128623,2,0,L|19:274,1,52.5,8|0,3:0|3:0,3:0:0:0:
249,356,128786,5,8,3:0:0:0:
277,305,128867,1,0,3:0:0:0:
257,252,128948,1,0,3:0:0:0:
202,233,129030,1,0,3:0:0:0:
393,202,129112,2,0,L|455:192,1,52.5,8|0,3:0|3:0,0:0:0:0:
233,156,129275,1,0,3:0:0:0:
199,104,129356,1,0,3:0:0:0:
229,52,129437,1,8,3:0:0:0:
295,29,129519,1,0,3:0:0:0:
370,16,129600,2,0,L|271:13,1,52.5,0|0,3:0|3:0,0:0:0:0:
120,92,129763,2,0,L|106:165,1,52.5,8|0,3:0|3:0,3:0:0:0:
310,186,129926,2,0,L|325:261,1,52.5,0|0,3:0|3:0,0:0:0:0:
99,282,130089,6,0,L|15:285,3,52.5,12|0|0|0,3:0|3:0|3:0|3:0,0:0:0:0:
258,362,130415,2,0,L|269:273,3,52.5,8|0|0|0,3:0|3:0|3:0|3:0,0:0:0:0:
472,273,130741,2,0,L|455:189,3,52.5,8|0|0|0,3:0|3:0|3:0|3:0,0:0:0:0:
259,134,131067,2,0,L|177:134,1,52.5,8|0,3:0|3:0,3:0:0:0:
414,19,131229,2,0,L|483:14,1,52.5,8|0,3:0|3:0,3:0:0:0:
258,161,131392,6,0,L|199:175,1,52.5,8|0,3:0|3:0,3:0:0:0:
271,185,131555,2,0,L|340:189,1,52.5,0|0,3:0|3:0,0:0:0:0:
117,243,131718,2,0,L|58:257,1,52.5,8|0,3:0|3:0,3:0:0:0:
130,267,131881,2,0,L|199:271,1,52.5,0|0,3:0|3:0,0:0:0:0:
396,347,132044,2,0,L|460:352,3,52.5,8|0|0|0,3:0|3:0|3:0|3:0,0:0:0:0:
265,305,132370,2,0,L|193:304,1,52.5,8|0,3:0|3:0,0:0:0:0:
412,190,132533,2,0,L|338:191,1,52.5,0|0,3:0|3:0,0:0:0:0:
126,181,132696,6,0,L|86:103,1,52.5,12|0,3:0|0:0,3:0:0:0:
184,108,132859,2,0,L|185:54,1,52.5,0|0,3:0|0:0,0:0:0:0:
272,55,133021,2,0,L|293:4,1,52.5,0|0,3:0|0:0,0:0:0:0:
76,36,133184,1,8,3:0:0:0:
42,73,133265,1,0,0:0:0:0:
57,120,133346,1,0,3:0:0:0:
106,131,133428,1,0,0:0:0:0:
300,199,133510,2,0,L|380:204,1,52.5,0|0,3:0|0:0,0:0:0:0:
149,250,133673,5,8,3:0:0:0:
98,255,133754,1,0,0:0:0:0:
72,299,133835,1,0,3:0:0:0:
90,346,133917,1,0,0:0:0:0:
280,360,133999,2,0,L|351:358,1,52.5,8|0,3:0|0:0,3:0:0:0:
272,334,134162,2,0,L|213:330,1,52.5,0|0,3:0|0:0,0:0:0:0:
422,300,134325,2,0,L|434:227,1,52.5,8|0,3:0|0:0,3:0:0:0:
353,232,134489,2,0,L|344:175,1,52.5,0|0,3:0|3:0,0:0:0:0:
141,102,134652,6,0,L|204:55,1,52.5,8|0,3:0|0:0,0:0:0:0:
260,65,134816,1,0,0:0:0:0:
453,228,134898,2,0,L|390:275,1,52.5,8|0,3:0|0:0,0:0:0:0:
334,265,135062,1,0,0:0:0:0:
141,342,135143,2,0,L|63:344,1,52.5,8|0,3:0|0:0,0:0:0:0:
303,350,135306,5,8,3:0:0:0:
331,308,135387,1,0,3:0:0:0:
310,262,135469,1,0,3:0:0:0:
260,256,135551,1,0,3:0:0:0:
57,149,135633,2,0,L|138:143,1,52.5,8|0,3:0|3:0,3:0:0:0:
322,99,135797,2,0,L|390:82,1,52.5,0|0,3:0|3:0,3:0:0:0:
293,55,135960,2,0,L|227:42,1,52.5,8|0,3:0|3:0,0:0:0:0:
159,29,136124,2,0,L|240:15,1,52.5,0|0,3:0|3:0,0:0:0:0:
417,109,136287,2,0,L|426:188,1,52.5,8|0,3:0|3:0,3:0:0:0:
233,206,136451,2,0,L|223:278,1,52.5,0|0,3:0|3:0,3:0:0:0:
417,321,136614,6,0,L|299:337,1,105,8|8,3:0|3:0,0:0:0:0:
373,359,136860,1,0,3:0:0:0:
203,360,136941,2,0,L|123:353,1,52.5,8|0,3:0|3:0,0:0:0:0:
219,318,137105,2,0,L|311:312,1,52.5,8|0,3:0|3:0,0:0:0:0:
72,252,137268,2,0,L|128:235,1,52.5,8|8,3:0|3:0,0:0:0:0:
320,97,137432,2,0,L|264:80,1,52.5,8|8,3:0|3:0,0:0:0:0:
65,79,137595,1,8,3:0:0:0:
336,19,137759,6,0,P|407:56|375:129,1,157.5,4|0,3:0|3:0,3:0:0:0:
230,179,138085,2,0,L|135:193,1,52.5,0|0,3:0|3:0,0:0:0:0:
387,228,138247,2,0,L|405:301,1,52.5,8|0,3:0|3:0,0:0:0:0:
321,296,138410,2,0,L|307:362,1,52.5,0|0,3:0|3:0,0:0:0:0:
393,364,138572,2,0,L|462:357,1,52.5,8|0,3:0|3:0,0:0:0:0:
257,252,138734,2,0,L|161:243,1,52.5,0|0,3:0|3:0,3:0:0:0:
395,134,138897,2,0,L|292:133,1,52.5,8|0,3:0|3:0,3:0:0:0:
133,58,139059,6,0,L|291:41,1,157.5,4|0,3:0|3:0,3:0:0:0:
114,158,139384,2,0,L|38:157,1,52.5,0|0,3:0|3:0,3:0:0:0:
237,213,139546,2,0,L|247:273,1,52.5,8|0,3:0|3:0,0:0:0:0:
174,291,139709,2,0,L|86:301,1,52.5,0|0,3:0|3:0,0:0:0:0:
287,362,139871,2,0,L|225:353,1,52.5,8|0,3:0|3:0,0:0:0:0:
296,305,140033,2,0,L|365:293,1,52.5,0|0,3:0|3:0,0:0:0:0:
190,189,140196,2,0,L|255:179,1,52.5,8|0,3:0|3:0,3:0:0:0:
432,69,140358,6,0,L|274:52,1,157.5,4|0,3:0|3:0,3:0:0:0:
330,94,140683,1,0,3:0:0:0:
390,107,140764,1,0,3:0:0:0:
238,150,140845,2,0,L|227:222,1,52.5,8|0,3:0|3:0,0:0:0:0:
398,243,141008,2,0,L|407:309,1,52.5,0|0,3:0|3:0,0:0:0:0:
338,332,141170,2,0,L|412:337,1,52.5,8|0,3:0|3:0,0:0:0:0:
205,365,141333,2,0,L|133:354,1,52.5,0|0,3:0|3:0,0:0:0:0:
218,322,141495,2,0,L|297:310,1,52.5,8|0,3:0|3:0,3:0:0:0:
74,298,141657,6,0,L|49:233,1,52.5,12|0,3:0|3:0,3:0:0:0:
132,223,141820,2,0,L|139:143,1,52.5,8|0,3:0|3:0,3:0:0:0:
219,168,141983,2,0,L|237:105,1,52.5,8|0,3:0|3:0,3:0:0:0:
45,56,142147,2,0,L|110:48,1,52.5,8|0,3:0|3:0,3:0:0:0:
293,95,142311,2,0,L|155:123,1,105,8|8,3:0|3:0,3:0:0:0:
247,153,142557,1,8,3:0:0:0:
411,249,142639,2,0,L|342:252,1,52.5,8|8,3:0|3:0,0:0:0:0:
183,343,142803,1,8,3:0:0:0:
466,357,142967,6,0,P|483:297|377:289,1,157.5,4|0,3:0|3:0,3:0:0:0:
333,211,143295,2,0,L|399:197,1,52.5,0|0,3:0|3:0,3:0:0:0:
456,179,143459,2,0,L|460:102,1,52.5,8|0,3:0|3:0,0:0:0:0:
265,77,143623,2,0,L|176:76,1,52.5,0|0,3:0|3:0,0:0:0:0:
394,38,143787,2,0,L|404:106,1,52.5,8|0,3:0|3:0,0:0:0:0:
331,116,143951,2,0,L|262:121,1,52.5,0|0,3:0|3:0,0:0:0:0:
452,217,144115,2,0,L|386:225,1,52.5,8|0,3:0|3:0,3:0:0:0:
199,310,144279,6,0,L|371:332,1,157.5,4|0,3:0|3:0,3:0:0:0:
162,217,144604,2,0,L|93:215,1,52.5,0|0,3:0|3:0,3:0:0:0:
278,119,144766,2,0,L|332:108,1,52.5,8|0,3:0|3:0,0:0:0:0:
271,90,144928,2,0,L|196:82,1,52.5,0|0,3:0|3:0,0:0:0:0:
28,33,145090,2,0,L|92:42,1,52.5,8|0,3:0|3:0,0:0:0:0:
150,57,145252,2,0,L|158:133,1,52.5,0|0,3:0|3:0,0:0:0:0:
81,129,145414,2,0,L|74:195,1,52.5,8|0,3:0|3:0,3:0:0:0:
293,267,145577,6,0,L|123:291,1,157.5,4|0,3:0|3:0,3:0:0:0:
193,324,145901,1,0,3:0:0:0:
260,335,145982,1,0,3:0:0:0:
69,354,146063,1,8,3:0:0:0:
39,312,146144,1,0,3:0:0:0:
58,266,146225,1,0,3:0:0:0:
107,256,146306,1,0,3:0:0:0:
301,175,146387,2,0,L|367:166,1,52.5,8|0,3:0|3:0,0:0:0:0:
290,143,146550,2,0,L|214:135,1,52.5,0|0,3:0|3:0,0:0:0:0:
435,71,146712,2,0,L|499:61,1,52.5,8|0,3:0|3:0,3:0:0:0:
242,39,146874,6,0,P|197:98|280:128,1,157.5,4|0,3:0|3:0,3:0:0:0:
315,228,147198,1,0,3:0:0:0:
395,236,147279,1,0,3:0:0:0:
234,282,147360,1,8,3:0:0:0:
70,328,147442,1,8,3:0:0:0:
232,364,147523,1,8,3:0:0:0:
396,358,147604,1,8,3:0:0:0:
221,364,147685,5,8,3:0:0:0:
364,163,148016,1,8,3:0:0:0:
30,80,148182,6,0,L|237:38,1,210,4|0,3:0|3:0,3:0:0:0:
467,340,148675,6,0,L|276:340,1,157.5,8|0,3:0|0:0,3:0:0:0:
249,327,149002,1,0,3:0:0:0:
488,254,149166,2,0,L|494:129,1,105,8|0,3:0|0:0,0:0:0:0:
181,89,149493,1,8,3:0:0:0:
463,46,149821,1,8,3:0:0:0:
172,17,150148,1,8,3:0:0:0:
467,209,150476,2,0,L|359:222,1,105,8|8,3:0|3:0,0:0:0:0:
77,335,150803,6,0,L|291:340,1,210,4|0,3:0|3:0,3:0:0:0:
132,244,151293,2,0,L|252:217,1,105,8|0,3:0|3:0,3:0:0:0:
374,163,151619,1,0,3:0:0:0:
234,220,151782,1,0,3:0:0:0:
475,68,151945,1,8,3:0:0:0:
189,26,152108,6,0,P|148:89|249:140,1,210,4|0,3:0|3:0,3:0:0:0:
385,233,152597,2,0,L|262:265,1,105,8|0,3:0|3:0,3:0:0:0:
142,289,152923,1,0,3:0:0:0:
283,259,153086,1,0,3:0:0:0:
46,357,153249,1,8,3:0:0:0:
321,171,153412,6,0,L|105:159,1,210,4|0,3:0|3:0,3:0:0:0:
375,32,153901,2,0,L|383:146,1,105,8|0,3:0|3:0,3:0:0:0:
245,165,154227,1,0,3:0:0:0:
487,282,154390,2,0,L|370:301,1,105,8|0,3:0|0:0,0:0:0:0:
74,351,154717,5,8,3:0:0:0:
360,322,155043,1,8,3:0:0:0:
51,52,155369,2,0,B|359:253|359:253|314:73|314:73|282:252|282:252|234:73|234:73|283:252|283:252|352:75,1,1286.25001226664,8|0,3:0|0:0,0:0:0:0:
78,301,156021,6,0,P|50:233|172:162,1,211.050000805092,4|0,3:0|3:0,3:0:0:0:
263,188,156506,1,8,3:0:0:0:
404,260,156667,1,0,3:0:0:0:
166,277,156829,2,0,L|250:349,1,105,0|0,3:0|3:0,0:0:0:0:
384,357,157151,1,8,3:0:0:0:
108,133,157313,6,0,P|183:199|301:148,1,210,4|0,3:0|3:0,3:0:0:0:
229,115,157716,1,0,3:0:0:0:
47,54,157796,1,8,3:0:0:0:
170,31,157958,2,0,L|221:45,1,52.5,0|0,3:0|3:0,0:0:0:0:
45,253,158119,1,8,3:0:0:0:
177,288,158280,2,0,L|248:289,1,52.5,0|0,3:0|3:0,0:0:0:0:
46,363,158442,1,8,3:0:0:0:
323,331,158609,6,0,B|262:255|262:255|144:241,1,210,4|0,3:0|3:0,3:0:0:0:
454,98,159112,6,0,L|339:82,1,105,8|0,3:0|3:0,3:0:0:0:
209,63,159438,1,0,3:0:0:0:
350,83,159601,1,0,3:0:0:0:
105,171,159764,1,8,3:0:0:0:
385,193,159927,6,0,P|405:266|286:333,1,210,4|0,3:0|3:0,3:0:0:0:
457,362,160416,2,0,L|471:241,1,105,8|0,3:0|3:0,3:0:0:0:
220,298,160743,2,0,L|328:237,1,105,0|0,3:0|3:0,0:0:0:0:
458,179,161069,1,8,3:0:0:0:
174,186,161232,6,0,B|228:98|228:98|352:86,1,210,4|0,3:0|3:0,3:0:0:0:
186,58,161722,2,0,L|166:185,1,105,8|0,3:0|3:0,3:0:0:0:
325,204,162049,2,0,L|249:280,1,105,0|0,3:0|3:0,0:0:0:0:
15,312,162375,1,8,3:0:0:0:
300,370,162538,6,0,P|259:308|114:298,1,210,4|0,3:0|3:0,3:0:0:0:
194,261,162947,1,0,3:0:0:0:
401,250,163028,2,0,L|416:136,1,105,12|0,3:0|3:0,3:0:0:0:
353,125,163273,1,0,3:0:0:0:
151,84,163355,1,8,3:0:0:0:
276,40,163518,2,0,L|342:29,1,52.5,0|0,3:0|0:0,0:0:0:0:
141,186,163681,1,8,3:0:0:0:
430,131,163845,6,0,P|477:200|368:247,1,210,4|0,3:0|3:0,3:0:0:0:
247,321,164334,2,0,L|372:334,1,105,8|0,3:0|3:0,3:0:0:0:
205,380,164661,2,0,L|230:260,1,105,0|0,3:0|3:0,0:0:0:0:
376,246,164987,1,8,3:0:0:0:
96,149,165151,6,0,L|310:104,1,210,4|0,3:0|3:0,3:0:0:0:
152,150,165641,2,0,L|139:37,1,105,8|0,3:0|3:0,3:0:0:0:
286,29,165967,2,0,L|190:123,1,105,0|0,3:0|3:0,0:0:0:0:
69,134,166294,1,8,3:0:0:0:
353,232,166457,6,0,L|113:301,1,210,4|0,3:0|3:0,3:0:0:0:
280,349,166946,1,8,3:0:0:0:
421,349,167109,1,0,3:0:0:0:
164,367,167272,2,0,L|166:213,1,105,8|0,3:0|3:0,0:0:0:0:
318,214,167598,2,0,L|436:203,1,105,8|0,3:0|3:0,3:0:0:0:
170,133,167924,1,8,3:0:0:0:
307,92,168084,1,0,3:0:0:0:
140,40,168244,2,0,L|-1:49,1,105,8|0,3:0|3:0,3:0:0:0:
334,215,168565,6,0,L|210:232,1,105,12|8,3:0|3:0,0:0:0:0:
166,253,168806,1,8,3:0:0:0:
358,308,168886,2,0,L|442:315,1,52.5,8|8,3:0|3:0,0:0:0:0:
201,353,169046,2,0,L|136:359,1,52.5,8|8,3:0|3:0,0:0:0:0:
378,379,169206,6,0,P|447:357|440:258,1,157.5,4|0,3:0|0:0,3:0:0:0:
229,229,169535,6,0,P|142:218|158:95,1,210,8|0,3:0|3:0,3:0:0:0:
275,92,170030,1,0,3:0:0:0:
90,20,170195,2,0,L|201:10,1,105,8|0,3:0|3:0,3:0:0:0:
444,197,170525,2,0,L|320:220,1,105,0|0,3:0|0:0,3:0:0:0:
490,290,170850,1,8,3:0:0:0:
230,358,171013,2,0,L|289:262,1,105,0|0,3:0|3:0,0:0:0:0:
425,234,171339,1,0,3:0:0:0:
246,157,171502,2,0,L|128:155,1,105,8|0,3:0|3:0,3:0:0:0:
403,115,171828,6,0,L|415:7,1,105,0|0,3:0|0:0,3:0:0:0:
149,56,172154,2,0,L|254:59,1,105,8|0,3:0|3:0,0:0:0:0:
121,150,172480,2,0,L|4:163,1,105,0|0,3:0|3:0,3:0:0:0:
255,274,172806,2,0,L|106:291,1,105,8|0,3:0|3:0,3:0:0:0:
220,323,173051,1,0,0:0:0:0:
302,334,173132,2,0,L|130:359,1,157.5,0|0,3:0|0:0,3:0:0:0:
354,231,173458,6,0,L|481:202,1,105,8|0,3:0|3:0,0:0:0:0:
323,135,173784,1,8,3:0:0:0:
179,122,173947,1,0,3:0:0:0:
445,37,174110,2,0,P|479:99|406:150,1,157.5,8|0,3:0|0:0,0:0:0:0:
199,254,174436,2,0,L|395:272,1,157.5,4|0,3:0|0:0,3:0:0:0:
132,358,174762,6,0,P|55:346|97:220,1,210,8|0,3:0|3:0,0:0:0:0:
199,174,175251,1,0,3:0:0:0:
22,102,175414,2,0,L|149:78,1,105,8|0,3:0|3:0,3:0:0:0:
369,56,175740,2,0,L|316:147,1,105,0|0,3:0|0:0,3:0:0:0:
176,177,176066,1,8,3:0:0:0:
411,261,176229,2,0,L|285:276,1,105,0|0,3:0|3:0,0:0:0:0:
450,347,176555,1,0,3:0:0:0:
201,363,176718,2,0,P|253:314|363:316,1,157.5,8|0,3:0|0:0,3:0:0:0:
242,271,177045,6,0,L|52:246,1,157.5,0|0,3:0|0:0,3:0:0:0:
319,186,177369,1,12,3:0:0:0:
185,165,177531,2,0,L|218:52,1,105,0|0,3:0|0:0,3:0:0:0:
352,46,177855,1,0,3:0:0:0:
100,31,178017,2,0,L|73:140,1,105,8|0,3:0|3:0,3:0:0:0:
358,206,178342,6,0,L|246:231,1,105,12|8,3:0|3:0,0:0:0:0:
406,292,178669,1,8,3:0:0:0:
134,284,178833,2,0,L|232:332,1,105,12|8,3:0|3:0,0:0:0:0:
379,348,179161,1,8,3:0:0:0:
81,338,179325,2,0,P|54:277|148:226,1,157.5,12|0,3:0|0:0,0:0:0:0:
341,108,179639,6,0,L|163:96,1,157.5,4|0,3:0|0:0,3:0:0:0:
410,37,179965,6,0,P|481:53|442:185,1,210,12|0,3:0|3:0,0:0:0:0:
352,210,180456,1,0,3:0:0:0:
110,285,180619,2,0,L|283:299,1,157.5,8|0,3:0|0:0,3:0:0:0:
61,355,180946,6,0,L|31:250,1,105,0|0,3:0|0:0,3:0:0:0:
154,200,181273,1,8,3:0:0:0:
296,120,181437,2,0,L|197:68,1,105,0|0,3:0|3:0,0:0:0:0:
64,61,181764,1,0,3:0:0:0:
339,199,181927,6,0,L|168:229,1,157.5,12|0,3:0|0:0,3:0:0:0:
422,300,182254,6,0,P|483:265|396:184,1,210,4|8,3:0|3:0,3:0:0:0:
291,157,182743,1,0,3:0:0:0:
438,71,182906,2,0,L|329:74,1,105,0|0,3:0|3:0,3:0:0:0:
187,103,183232,2,0,P|162:177|243:202,1,157.5,8|0,3:0|0:0,3:0:0:0:
308,234,183558,2,0,L|429:242,1,105,0|0,3:0|0:0,3:0:0:0:
123,357,183884,6,0,L|293:326,1,157.5,8|0,3:0|0:0,0:0:0:0:
342,316,184211,1,0,3:0:0:0:
196,276,184374,1,0,3:0:0:0:
448,282,184537,2,0,P|468:222|363:186,1,157.5,12|0,3:0|0:0,3:0:0:0:
187,133,184863,6,0,L|74:115,1,105,12|0,3:0|3:0,3:0:0:0:
232,53,185189,2,0,L|358:27,1,105,8|0,3:0|3:0,3:0:0:0:
100,34,185515,1,8,3:0:0:0:
337,58,185678,1,0,3:0:0:0:
66,136,185841,6,0,P|44:195|122:239,1,157.5,12|0,3:0|0:0,3:0:0:0:
177,247,186168,1,8,3:0:0:0:
331,259,186331,1,0,3:0:0:0:
62,346,186494,2,0,L|90:233,1,105,8|0,3:0|3:0,3:0:0:0:
328,138,186820,1,8,3:0:0:0:
181,115,186983,1,8,3:0:0:0:
442,57,187146,1,0,3:0:0:0:
156,33,187309,6,0,L|389:-25,1,210,4|0,3:0|3:0,3:0:0:0:
206,107,187798,2,0,L|206:246,1,105,8|0,3:0|3:0,3:0:0:0:
374,224,188125,2,0,L|498:229,1,105,8|0,3:0|3:0,0:0:0:0:
219,356,188451,1,12,3:0:0:0:
372,341,188614,1,0,3:0:0:0:
130,275,188777,6,0,L|1:260,1,105,8|0,3:0|3:0,0:0:0:0:
304,218,189103,2,0,L|318:96,1,105,12|0,3:0|3:0,3:0:0:0:
179,58,189429,1,8,3:0:0:0:
23,61,189592,1,0,3:0:0:0:
284,30,189756,2,0,L|152:46,1,105,12|0,3:0|3:0,3:0:0:0:
457,124,190082,5,12,3:0:0:0:
488,167,190163,1,0,3:0:0:0:
474,220,190245,1,0,3:0:0:0:
424,241,190326,1,0,3:0:0:0:
229,300,190407,2,0,L|144:310,1,52.5,8|0,3:0|3:0,0:0:0:0:
382,354,190570,5,4,3:0:0:0:
404,308,190651,1,0,3:0:0:0:
380,264,190732,1,8,3:0:0:0:
330,258,190813,1,0,3:0:0:0:
122,212,190894,2,0,L|166:165,1,52.5,12|0,3:0|3:0,0:0:0:0:
231,147,191057,2,0,L|320:146,1,52.5,8|0,3:0|3:0,0:0:0:0:
85,71,191219,2,0,L|22:66,1,52.5,12|0,3:0|3:0,0:0:0:0:
237,44,191382,6,0,L|299:39,1,52.5,8|0,3:0|3:0,0:0:0:0:
73,153,191544,2,0,L|57:227,1,52.5,8|0,3:0|3:0,0:0:0:0:
146,218,191706,2,0,L|154:286,1,52.5,8|0,3:0|3:0,0:0:0:0:
244,282,191869,2,0,L|272:338,1,52.5,8|0,3:0|3:0,0:0:0:0:
79,366,192031,6,0,L|139:369,1,52.5,8|8,3:0|3:0,0:0:0:0:
339,295,192193,2,0,L|410:287,1,52.5,8|8,3:0|3:0,0:0:0:0:
181,188,192356,2,0,L|266:170,1,52.5,8|8,3:0|3:0,0:0:0:0:
428,117,192518,1,8,3:0:0:0:
231,72,192599,1,8,3:0:0:0:
45,52,192681,6,0,L|111:36,1,52.5,4|0,3:0|3:0,3:0:0:0:
296,263,192844,1,8,3:0:0:0:
341,239,192925,1,0,3:0:0:0:
357,191,193007,1,0,3:0:0:0:
335,145,193088,1,0,3:0:0:0:
288,122,193170,2,0,L|211:126,1,52.5,8|0,3:0|3:0,0:0:0:0:
299,116,193333,2,0,L|361:108,1,52.5,0|0,3:0|3:0,0:0:0:0:
181,22,193496,2,0,L|171:96,1,52.5,8|0,3:0|3:0,0:0:0:0:
331,212,193659,2,0,L|338:147,1,52.5,0|0,3:0|3:0,0:0:0:0:
254,233,193822,2,0,L|326:220,1,52.5,8|0,3:0|3:0,0:0:0:0:
470,352,193985,6,0,L|451:278,1,52.5,0|0,3:0|3:0,3:0:0:0:
376,273,194148,2,0,L|322:255,1,52.5,8|0,3:0|3:0,0:0:0:0:
427,226,194311,2,0,L|432:311,1,52.5,0|0,3:0|3:0,3:0:0:0:
207,269,194474,5,8,3:0:0:0:
153,254,194555,1,0,3:0:0:0:
131,202,194637,1,0,3:0:0:0:
164,154,194718,1,0,3:0:0:0:
233,98,194800,2,0,L|240:175,1,52.5,8|0,3:0|3:0,0:0:0:0:
88,63,194963,2,0,L|24:62,3,52.5,8|0|8|8,3:0|3:0|3:0|3:0,0:0:0:0:
278,325,195289,5,4,3:0:0:0:
334,298,195370,1,0,3:0:0:0:
342,248,195452,1,8,3:0:0:0:
294,211,195533,1,0,3:0:0:0:
192,186,195615,2,0,L|245:174,1,52.5,0|0,3:0|3:0,0:0:0:0:
320,155,195778,2,0,L|260:140,1,52.5,8|0,3:0|3:0,0:0:0:0:
184,130,195941,1,0,3:0:0:0:
118,111,196022,1,0,3:0:0:0:
105,62,196104,1,8,3:0:0:0:
154,19,196185,1,0,3:0:0:0:
354,26,196267,2,0,L|276:16,1,52.5,0|0,3:0|3:0,3:0:0:0:
95,69,196431,2,0,L|165:68,1,52.5,8|0,3:0|3:0,3:0:0:0:
344,89,196594,6,0,L|337:167,1,52.5,8|0,3:0|3:0,3:0:0:0:
259,134,196757,2,0,L|253:208,1,52.5,8|0,3:0|3:0,0:0:0:0:
173,182,196920,2,0,L|168:248,1,52.5,0|0,3:0|3:0,3:0:0:0:
367,336,197083,5,8,3:0:0:0:
417,326,197164,1,0,3:0:0:0:
452,288,197246,1,0,3:0:0:0:
459,237,197327,1,0,3:0:0:0:
434,191,197409,1,8,3:0:0:0:
387,169,197490,1,0,3:0:0:0:
193,211,197572,1,8,3:0:0:0:
274,181,197653,2,0,L|333:200,2,52.5,8|8|8,3:0|3:0|3:0,0:0:0:0:
88,338,197898,5,4,3:0:0:0:
42,315,197979,1,0,3:0:0:0:
27,266,198061,1,8,3:0:0:0:
53,222,198142,1,0,3:0:0:0:
105,210,198224,2,0,L|184:224,2,52.5,0|0|8,3:0|3:0|3:0,3:0:0:0:
39,191,198469,1,0,3:0:0:0:
38,138,198550,1,0,3:0:0:0:
105,108,198632,1,0,3:0:0:0:
272,34,198713,6,0,L|297:114,1,52.5,8|0,3:0|3:0,3:0:0:0:
198,113,198876,2,0,L|175:184,1,52.5,8|0,3:0|3:0,3:0:0:0:
275,178,199039,2,0,L|291:246,1,52.5,8|0,3:0|3:0,3:0:0:0:
119,350,199202,5,8,3:0:0:0:
61,336,199283,1,0,3:0:0:0:
44,288,199365,1,8,3:0:0:0:
81,238,199446,1,0,3:0:0:0:
320,177,199528,2,0,L|234:163,1,52.5,0|0,3:0|3:0,3:0:0:0:
188,156,199691,2,0,L|119:147,1,52.5,8|0,3:0|3:0,0:0:0:0:
393,350,199854,5,0,3:0:0:0:
455,337,199935,1,0,3:0:0:0:
472,289,200017,1,8,3:0:0:0:
430,238,200098,1,0,3:0:0:0:
192,177,200180,2,0,L|278:163,1,52.5,8|0,3:0|3:0,3:0:0:0:
431,90,200343,2,0,L|362:81,1,52.5,8|0,3:0|3:0,3:0:0:0:
193,51,200507,6,0,L|130:42,1,52.5,4|0,3:0|3:0,3:0:0:0:
321,227,200670,2,0,L|381:211,1,52.5,8|0,3:0|3:0,0:0:0:0:
321,227,200833,1,8,3:0:0:0:
248,212,200914,1,8,3:0:0:0:
236,151,200996,1,8,3:0:0:0:
300,115,201077,1,0,3:0:0:0:
483,82,201159,2,0,L|409:73,1,52.5,8|0,3:0|3:0,3:0:0:0:
251,87,201322,2,0,L|175:77,1,52.5,8|0,3:0|3:0,0:0:0:0:
379,179,201485,2,0,L|443:190,1,52.5,8|8,3:0|3:0,3:0:0:0:
222,221,201648,2,0,L|126:211,1,52.5,8|0,3:0|3:0,0:0:0:0:
446,357,201811,6,0,L|463:289,1,52.5,8|0,3:0|3:0,0:0:0:0:
286,255,201974,2,0,L|198:235,1,52.5,8|0,3:0|3:0,0:0:0:0:
67,182,202137,2,0,L|76:125,1,52.5,8|0,3:0|3:0,0:0:0:0:
244,151,202300,2,0,L|315:139,1,52.5,8|0,3:0|3:0,0:0:0:0:
468,134,202463,1,8,3:0:0:0:
482,84,202544,1,8,3:0:0:0:
460,38,202626,1,8,3:0:0:0:
413,17,202707,1,8,3:0:0:0:
177,46,202789,2,0,L|271:35,1,52.5,8|8,3:0|3:0,0:0:0:0:
432,171,202952,2,0,L|351:158,1,52.5,8|8,3:0|3:0,0:0:0:0:
93,329,203115,5,12,3:0:0:0:
36,308,203196,1,0,3:0:0:0:
26,258,203278,1,0,3:0:0:0:
70,214,203360,1,0,3:0:0:0:
219,248,203441,1,8,3:0:0:0:
162,227,203522,1,0,3:0:0:0:
152,177,203604,1,0,3:0:0:0:
196,133,203686,1,0,3:0:0:0:
356,333,203768,1,8,3:0:0:0:
413,312,203849,1,0,3:0:0:0:
423,262,203931,1,0,3:0:0:0:
378,218,204013,1,0,3:0:0:0:
215,198,204095,2,0,L|204:131,1,52.5,8|0,3:0|3:0,3:0:0:0:
380,228,204259,2,0,L|391:312,1,52.5,8|0,3:0|3:0,3:0:0:0:
175,343,204422,6,0,L|186:272,1,52.5,8|0,3:0|3:0,0:0:0:0:
267,289,204586,2,0,L|278:228,1,52.5,0|0,3:0|3:0,0:0:0:0:
450,180,204749,2,0,L|371:175,1,52.5,8|0,3:0|3:0,0:0:0:0:
186,208,204913,1,0,3:0:0:0:
114,181,204994,1,0,3:0:0:0:
85,130,205076,1,8,3:0:0:0:
115,83,205158,1,0,3:0:0:0:
196,58,205240,2,0,L|265:73,1,52.5,0|0,3:0|3:0,0:0:0:0:
42,246,205403,1,8,3:0:0:0:
96,218,205484,1,0,3:0:0:0:
98,168,205566,1,0,3:0:0:0:
46,139,205648,1,0,3:0:0:0:
212,65,205730,5,12,3:0:0:0:
291,98,205812,2,0,L|298:166,2,52.5,0|0|0,3:0|3:0|3:0,0:0:0:0:
116,162,206057,2,0,L|31:160,1,52.5,8|0,3:0|3:0,0:0:0:0:
116,163,206221,2,0,L|190:162,1,52.5,0|0,3:0|3:0,0:0:0:0:
371,264,206384,1,8,3:0:0:0:
424,234,206465,1,0,3:0:0:0:
426,183,206547,1,0,3:0:0:0:
375,153,206629,1,0,3:0:0:0:
205,117,206711,2,0,L|202:194,1,52.5,8|0,3:0|3:0,3:0:0:0:
48,174,206875,2,0,L|45:255,1,52.5,8|0,3:0|3:0,3:0:0:0:
231,204,207038,6,0,L|310:200,3,52.5,8|0|0|0,3:0|3:0|3:0|3:0,3:0:0:0:
83,122,207365,2,0,L|4:118,3,52.5,8|0|0|0,3:0|3:0|3:0|3:0,3:0:0:0:
253,66,207692,6,0,L|328:70,1,52.5,8|0,3:0|3:0,0:0:0:0:
140,145,207856,2,0,L|84:143,1,52.5,0|0,3:0|3:0,0:0:0:0:
309,44,208019,6,0,L|380:47,1,52.5,8|0,3:0|3:0,0:0:0:0:
103,167,208183,2,0,L|42:167,1,52.5,0|0,3:0|3:0,0:0:0:0:
278,352,208346,5,12,3:0:0:0:
333,303,208427,1,0,0:0:0:0:
344,230,208508,1,0,3:0:0:0:
310,164,208589,1,0,0:0:0:0:
239,139,208671,1,0,3:0:0:0:
165,141,208752,1,0,0:0:0:0:
392,206,208833,1,8,3:0:0:0:
440,189,208914,1,0,0:0:0:0:
462,142,208995,1,0,3:0:0:0:
444,94,209076,1,0,0:0:0:0:
225,38,209159,2,0,L|150:24,1,52.5,0|0,3:0|0:0,0:0:0:0:
322,107,209321,2,0,L|390:97,1,52.5,8|0,3:0|0:0,3:0:0:0:
426,136,209484,2,0,L|336:122,1,52.5,0|0,3:0|0:0,0:0:0:0:
157,331,209646,6,0,L|75:320,1,52.5,8|0,3:0|0:0,3:0:0:0:
173,300,209809,2,0,L|186:226,1,52.5,0|0,3:0|0:0,0:0:0:0:
84,264,209972,1,8,3:0:0:0:
22,233,210053,1,0,0:0:0:0:
24,177,210134,1,0,3:0:0:0:
78,150,210215,1,0,0:0:0:0:
304,166,210297,5,8,3:0:0:0:
366,166,210378,1,0,0:0:0:0:
304,166,210459,1,0,0:0:0:0:
115,93,210541,1,8,3:0:0:0:
177,89,210622,1,0,0:0:0:0:
239,85,210703,1,0,0:0:0:0:
33,38,210785,2,0,L|22:123,1,52.5,8|0,3:0|0:0,0:0:0:0:
245,259,210947,6,0,L|251:191,1,52.5,12|0,3:0|3:0,0:0:0:0:
165,279,211110,2,0,L|228:267,1,52.5,0|0,3:0|3:0,0:0:0:0:
282,268,211272,2,0,L|356:268,1,52.5,8|0,3:0|3:0,0:0:0:0:
62,356,211435,2,0,L|80:285,1,52.5,0|0,3:0|3:0,0:0:0:0:
171,308,211598,2,0,L|191:242,1,52.5,8|0,3:0|3:0,0:0:0:0:
86,236,211760,2,0,L|22:221,1,52.5,0|0,3:0|3:0,0:0:0:0:
278,275,211923,2,0,L|303:198,1,52.5,8|0,3:0|3:0,3:0:0:0:
198,126,212085,2,0,L|207:201,1,52.5,0|0,3:0|3:0,3:0:0:0:
422,342,212248,5,8,3:0:0:0:
467,316,212329,1,8,3:0:0:0:
479,267,212411,1,8,3:0:0:0:
453,226,212493,1,8,3:0:0:0:
258,221,212575,1,8,3:0:0:0:
231,177,212657,1,8,3:0:0:0:
238,140,212739,1,8,3:0:0:0:
281,115,212821,1,8,3:0:0:0:
455,129,212903,1,8,3:0:0:0:
487,76,212985,1,0,3:0:0:0:
468,32,213067,1,8,3:0:0:0:
416,14,213149,1,0,3:0:0:0:
245,15,213231,1,8,3:0:0:0:
185,15,213313,1,0,3:0:0:0:
28,92,213395,1,8,3:0:0:0:
86,90,213477,1,0,3:0:0:0:
262,212,213559,6,0,P|323:165|469:155,1,210,4|0,3:0|0:0,3:0:0:0:
308,330,214053,2,0,P|222:332|120:234,1,210
387,355,214548,2,0,P|456:291|362:213,1,210
226,135,215042,2,0,L|440:109,1,210
287,263,215537,2,0,L|284:154,1,105
408,268,215866,1,0,3:0:0:0:
113,327,216031,6,0,P|45:265|124:192,1,210,4|0,3:0|0:0,3:0:0:0:
254,237,216519,2,0,P|319:199|276:87,1,210
18,46,217004,2,0,L|266:21,1,210,0|0,0:0|3:0,0:0:0:0:
470,156,217489,2,0,L|308:137,1,157.5,4|0,3:0|0:0,3:0:0:0:
135,340,217813,2,0,L|310:319,1,157.5,4|0,3:0|0:0,3:0:0:0:
83,263,218136,6,0,P|17:212|85:113,1,210,4|0,3:0|0:0,3:0:0:0:
242,84,218625,2,0,L|20:57,1,210
338,313,219114,2,0,P|416:256|334:149,1,210
237,116,219603,2,0,L|475:102,1,210
285,25,220092,2,0,L|138:32,1,105
72,38,220418,1,0,3:0:0:0:
293,279,220581,6,0,P|368:221|294:130,1,210,4|0,3:0|0:0,3:0:0:0:
163,136,221066,2,0,L|161:368,1,210
382,39,221550,2,0,L|145:23,1,210,0|0,0:0|3:0,0:0:0:0:
444,145,222034,2,0,L|457:318,1,157.5,4|0,3:0|0:0,3:0:0:0:
231,75,222362,2,0,L|240:235,1,157.5,4|0,3:0|0:0,3:0:0:0:
449,35,222691,6,0,L|216:23,1,210,4|0,3:0|3:0,3:0:0:0:
381,123,223182,1,0,3:0:0:0:
132,318,223345,2,0,P|77:267|135:196,1,157.5,12|0,3:0|0:0,3:0:0:0:
209,176,223673,2,0,L|326:157,1,105,0|0,3:0|3:0,0:0:0:0:
184,289,224000,6,0,L|73:278,1,105,0|0,3:0|3:0,3:0:0:0:
268,248,224328,2,0,L|308:351,1,105,0|0,3:0|3:0,3:0:0:0:
60,193,224655,2,0,L|226:157,1,157.5,12|0,3:0|0:0,3:0:0:0:
127,93,224982,1,0,3:0:0:0:
388,171,225146,1,0,3:0:0:0:
249,267,225310,6,0,P|191:205|255:156,1,157.5,0|0,3:0|0:0,3:0:0:0:
319,93,225637,2,0,L|332:218,1,105,0|0,3:0|3:0,0:0:0:0:
61,47,225964,2,0,L|46:161,1,105,12|0,3:0|3:0,3:0:0:0:
188,34,226292,2,0,L|57:19,1,105,0|0,3:0|3:0,3:0:0:0:
351,258,226619,6,0,P|388:222|338:144,1,157.5,0|0,3:0|0:0,0:0:0:0:
172,182,226947,2,0,P|119:140|154:64,1,157.5,0|0,3:0|0:0,3:0:0:0:
412,28,227274,6,0,L|222:5,1,157.5,12|0,3:0|0:0,3:0:0:0:
167,128,227601,2,0,L|278:116,1,105,0|0,3:0|3:0,0:0:0:0:
38,361,227929,2,0,P|23:268|140:213,1,210,0|0,3:0|3:0,3:0:0:0:
229,207,228421,1,0,3:0:0:0:
468,257,228585,6,0,L|470:149,1,105,12|0,3:0|3:0,3:0:0:0:
331,253,228909,1,0,3:0:0:0:
477,290,229071,2,0,L|365:283,2,105,0|0|0,3:0|3:0|0:0,0:0:0:0:
170,167,229557,2,0,L|357:148,1,157.5,0|0,3:0|0:0,0:0:0:0:
72,82,229882,6,0,L|61:232,1,105,12|0,3:0|0:0,3:0:0:0:
221,214,230206,2,0,L|233:329,1,105,0|0,3:0|3:0,0:0:0:0:
63,169,230530,2,0,L|166:150,1,105,0|0,3:0|3:0,3:0:0:0:
48,287,230854,2,0,L|162:266,1,105,8|0,3:0|3:0,3:0:0:0:
425,320,231179,6,0,L|243:303,1,157.5,4|0,3:0|0:0,0:0:0:0:
451,228,231503,2,0,P|501:165|428:108,1,157.5,8|0,3:0|0:0,3:0:0:0:
258,60,231829,6,0,L|133:78,2,105,12|0|0,3:0|3:0|3:0,3:0:0:0:
133,180,232312,2,0,L|8:198,2,105,8|0|0,3:0|3:0|3:0,3:0:0:0:
457,59,232796,6,0,L|332:77,2,105,8|0|0,3:0|3:0|3:0,3:0:0:0:
144,172,233283,2,0,L|291:194,2,105,8|0|0,3:0|3:0|3:0,3:0:0:0:
426,338,233778,2,0,L|432:229,1,105,8|0,3:0|3:0,3:0:0:0:
307,187,234108,1,0,3:0:0:0:
145,263,234272,6,0,L|138:153,1,105,8|0,3:0|3:0,3:0:0:0:
292,180,234598,1,0,3:0:0:0:
48,93,234760,2,0,L|32:209,1,105,8|0,3:0|3:0,3:0:0:0:
172,77,235083,1,0,3:0:0:0:
464,93,235245,2,0,L|480:209,1,105,8|0,3:0|3:0,3:0:0:0:
340,77,235568,1,0,3:0:0:0:
74,32,235730,6,0,L|190:17,1,105,8|0,3:0|3:0,3:0:0:0:
294,202,236054,2,0,L|176:189,1,105,8|0,3:0|3:0,3:0:0:0:
435,368,236379,6,0,L|446:249,1,105,8|0,3:0|3:0,0:0:0:0:
296,202,236705,1,0,3:0:0:0:
435,368,236868,2,0,L|446:249,1,105,8|0,3:0|3:0,3:0:0:0:
296,202,237194,1,0,3:0:0:0:
36,181,237357,6,0,L|147:156,2,105,8|0|0,3:0|3:0|3:0,0:0:0:0:
315,359,237846,2,0,L|204:334,2,105,8|0|0,3:0|3:0|3:0,3:0:0:0:
64,330,238335,2,0,L|59:204,1,105,8|0,3:0|3:0,0:0:0:0:
181,183,238661,5,8,3:0:0:0:
433,185,238824,1,0,3:0:0:0:
308,170,238987,1,8,3:0:0:0:
183,156,239150,1,0,3:0:0:0:
459,67,239313,2,0,L|334:83,2,105,8|0|8,3:0|3:0|3:0,0:0:0:0:
187,263,239804,2,0,L|312:279,2,105,0|8|0,3:0|3:0|3:0,0:0:0:0:
430,358,240294,6,0,P|467:299|439:244,1,105,8|0,3:0|3:0,0:0:0:0:
400,244,240540,1,0,3:0:0:0:
201,200,240621,2,0,L|83:218,1,105,8|0,3:0|3:0,3:0:0:0:
157,235,240867,1,0,3:0:0:0:
466,173,240948,6,0,L|486:302,1,105,12|0,3:0|3:0,0:0:0:0:
255,82,241274,2,0,L|258:205,1,105,8|0,3:0|3:0,0:0:0:0:
32,173,241600,2,0,L|12:302,1,105,8|0,3:0|3:0,0:0:0:0:
257,82,241926,2,0,L|254:205,1,105,8|0,3:0|3:0,0:0:0:0:
25,53,242252,6,0,L|145:38,1,105,8|0,3:0|3:0,3:0:0:0:
191,33,242496,1,0,0:0:0:0:
339,255,242578,2,0,L|221:244,1,105,8|0,3:0|3:0,0:0:0:0:
480,66,242904,2,0,L|488:190,1,105,8|0,3:0|3:0,0:0:0:0:
163,41,243230,2,0,L|279:32,1,105,8|0,3:0|3:0,0:0:0:0:
36,128,243556,6,0,L|24:264,1,105,8|0,3:0|3:0,3:0:0:0:
95,240,243800,1,0,0:0:0:0:
331,244,243882,2,0,L|178:244,1,105,8|0,3:0|3:0,0:0:0:0:
95,240,244208,1,8,3:0:0:0:
391,237,244371,2,0,L|391:362,1,105,0|8,3:0|3:0,0:0:0:0:
235,219,244697,1,0,3:0:0:0:
496,116,244860,2,0,L|361:107,1,105,8|0,3:0|3:0,3:0:0:0:
152,321,245186,2,0,L|295:302,1,105,8|0,3:0|3:0,3:0:0:0:
313,300,245431,1,0,0:0:0:0:
74,249,245513,5,12,3:0:0:0:
27,227,245594,1,0,3:0:0:0:
13,178,245676,1,0,3:0:0:0:
40,135,245758,1,0,3:0:0:0:
231,73,245839,2,0,L|160:61,1,52.5,8|0,3:0|3:0,0:0:0:0:
329,244,246003,1,0,3:0:0:0:
375,223,246084,1,0,3:0:0:0:
394,176,246166,1,8,3:0:0:0:
373,129,246248,1,0,3:0:0:0:
198,92,246330,2,0,L|274:74,1,52.5,0|0,3:0|3:0,0:0:0:0:
452,23,246493,5,8,3:0:0:0:
459,73,246574,1,0,3:0:0:0:
430,116,246656,1,0,3:0:0:0:
381,129,246738,1,0,3:0:0:0:
205,180,246820,2,0,L|203:119,1,52.5,8|0,3:0|3:0,0:0:0:0:
386,263,246984,2,0,L|480:262,1,52.5,0|0,3:0|3:0,0:0:0:0:
386,263,247147,2,0,L|313:262,1,52.5,8|0,3:0|3:0,0:0:0:0:
150,291,247311,2,0,L|77:291,1,52.5,0|0,3:0|3:0,0:0:0:0:
301,358,247474,6,0,L|311:302,1,52.5,8|0,3:0|3:0,0:0:0:0:
229,281,247638,2,0,L|241:211,1,52.5,0|0,3:0|3:0,0:0:0:0:
419,191,247801,2,0,L|364:188,1,52.5,8|0,3:0|3:0,0:0:0:0:
169,155,247965,5,0,3:0:0:0:
120,115,248046,1,0,3:0:0:0:
126,64,248128,1,8,3:0:0:0:
184,39,248208,1,0,3:0:0:0:
360,36,248289,2,0,L|299:26,1,52.5,0|0,3:0|3:0,0:0:0:0:
116,233,248451,5,8,3:0:0:0:
188,221,248532,1,0,3:0:0:0:
260,211,248613,1,0,3:0:0:0:
332,199,248694,1,0,3:0:0:0:
89,64,248775,2,0,L|90:142,1,52.5,8|0,3:0|3:0,0:0:0:0:
301,346,248937,6,0,P|302:250|143:197,1,262.5,0|0,3:0|3:0,0:0:0:0:
398,103,249423,2,0,L|418:167,1,52.5,8|0,3:0|3:0,0:0:0:0:
225,22,249585,2,0,L|204:78,1,52.5,0|0,3:0|3:0,0:0:0:0:
429,80,249747,1,8,3:0:0:0:
262,59,249828,1,0,3:0:0:0:
94,43,249909,1,0,3:0:0:0:
261,37,249990,1,0,3:0:0:0:
445,48,250071,5,12,3:0:0:0:
483,142,250234,1,0,3:0:0:0:
440,234,250398,1,0,3:0:0:0:
343,265,250562,1,0,3:0:0:0:
212,306,250726,1,8,3:0:0:0:
302,331,250889,1,0,3:0:0:0:
398,342,251053,1,0,3:0:0:0:
492,345,251217,1,0,3:0:0:0:
359,345,251382,6,0,L|353:234,1,105,0|0,3:0|3:0,0:0:0:0:
211,245,251710,2,0,L|199:133,1,105,0|0,3:0|3:0,0:0:0:0:
341,52,252038,2,0,L|220:40,1,105,8|0,3:0|3:0,0:0:0:0:
105,100,252366,2,0,L|216:88,1,105,0|0,3:0|3:0,0:0:0:0:
72,51,252693,5,0,3:0:0:0:
34,145,252856,1,0,3:0:0:0:
77,237,253020,1,0,3:0:0:0:
174,268,253184,1,0,3:0:0:0:
319,349,253349,6,0,L|178:356,1,105,8|0,3:0|3:0,0:0:0:0:
450,207,253671,1,0,3:0:0:0:
206,256,253832,1,0,3:0:0:0:
331,259,253994,6,0,L|445:247,1,105,8|0,3:0|3:0,0:0:0:0:
180,143,254316,1,0,3:0:0:0:
174,268,254477,1,0,3:0:0:0:
433,80,254639,6,0,L|304:62,1,105,8|0,3:0|3:0,0:0:0:0:
81,76,254961,1,12,3:0:0:0:
328,46,255123,1,0,3:0:0:0:
73,103,255284,5,8,3:0:0:0:
61,152,255366,1,0,3:0:0:0:
84,198,255448,1,0,3:0:0:0:
132,219,255530,1,0,3:0:0:0:
327,156,255612,6,0,P|362:202|230:291,1,262.5,12|0,3:0|0:0,3:0:0:0:
478,361,256104,6,0,L|493:287,1,52.5,12|8,3:0|3:0,0:0:0:0:
282,226,256268,2,8,L|274:165,1,52.5,8|8,3:0|3:0,0:0:0:0:
458,118,256433,1,8,3:0:0:0:
333,46,256597,6,0,L|420:40,1,52.5,8|0,3:0|3:0,0:0:0:0:
206,103,256761,2,0,L|132:97,1,52.5,0|0,3:0|3:0,0:0:0:0:
344,127,256925,1,8,3:0:0:0:
374,169,257007,1,0,3:0:0:0:
352,216,257089,1,8,3:0:0:0:
297,226,257171,1,0,3:0:0:0:
121,322,257253,6,0,L|202:335,1,52.5,8|0,3:0|3:0,0:0:0:0:
342,355,257418,2,0,L|416:353,1,52.5,0|0,3:0|3:0,0:0:0:0:
198,223,257582,2,0,L|130:215,1,52.5,8|0,3:0|3:0,3:0:0:0:
374,169,257746,1,0,3:0:0:0:
251,103,257910,2,0,L|335:95,1,52.5,8|0,3:0|3:0,0:0:0:0:
247,71,258074,2,0,L|179:64,1,52.5,0|0,3:0|3:0,0:0:0:0:
395,63,258238,6,0,P|470:82|412:202,1,210,12|0,3:0|3:0,3:0:0:0:
342,232,258731,2,0,L|270:228,1,52.5,8|0,3:0|3:0,0:0:0:0:
465,342,258895,2,0,L|380:347,1,52.5,0|0,3:0|3:0,0:0:0:0:
220,334,259059,1,8,3:0:0:0:
342,232,259223,6,0,L|269:225,1,52.5,0|8,3:0|3:0,0:0:0:0:
159,211,259467,1,8,3:0:0:0:
393,133,259630,1,8,3:0:0:0:
255,111,259793,1,8,3:0:0:0:
489,58,259956,1,8,3:0:0:0:
243,26,260119,2,0,L|172:24,1,52.5,8|0,3:0|3:0,0:0:0:0:
369,146,260282,2,0,L|444:152,2,52.5,0|0|0,3:0|3:0|3:0,0:0:0:0:
170,186,260527,1,8,3:0:0:0:
423,338,260690,6,0,L|303:344,1,105,12|8,3:0|3:0,0:0:0:0:
143,360,260934,2,0,L|130:278,1,52.5,0|0,3:0|3:0,3:0:0:0:
218,291,261098,2,0,L|230:231,1,52.5,8|0,3:0|3:0,0:0:0:0:
45,163,261261,2,0,L|134:159,1,52.5,0|8,3:0|3:0,0:0:0:0:
170,105,261424,2,0,L|100:99,1,52.5,0|0,3:0|3:0,3:0:0:0:
289,132,261587,2,0,L|371:122,1,52.5,8|8,3:0|3:0,0:0:0:0:
154,53,261750,2,0,L|230:57,1,52.5,8|0,3:0|3:0,0:0:0:0:
404,41,261913,6,0,L|300:33,1,105,0|8,0:0|3:0,0:0:0:0:
239,41,262157,1,0,0:0:0:0:
424,177,262239,2,0,L|505:185,1,52.5,8|0,3:0|0:0,0:0:0:0:
279,283,262402,1,8,3:0:0:0:
223,316,262476,6,0,L|336:332,1,105,8|0,3:0|3:0,3:0:0:0:
131,365,262733,1,8,3:0:0:0:
259,274,262899,1,0,3:0:0:0:
397,272,263062,1,8,3:0:0:0:
127,150,263225,6,0,L|-12:143,1,105,4|0,3:0|3:0,3:0:0:0:
205,85,263436,1,0,0:0:0:0:
139,72,263511,2,0,L|117:9,2,52.5,0|0|0,3:0|3:0|3:0,3:0:0:0:
306,94,263737,2,0,L|314:157,1,52.5,0|0,3:0|0:0,0:0:0:0:
248,164,263888,2,0,L|241:226,1,52.5,0|0,3:0|3:0,3:0:0:0:
414,276,264039,2,0,L|365:309,1,52.5,0|0,3:0|3:0,0:0:0:0:
194,348,264189,2,0,L|125:351,1,52.5,0|0,3:0|3:0,0:0:0:0:
332,362,264340,1,0,3:0:0:0:
237,343,264453,6,0,L|218:287,3,52.5,8|0|0|0,3:0|3:0|3:0|3:0,3:0:0:0:
411,168,264772,1,8,3:0:0:0:
292,201,264931,2,0,L|445:134,1,157.5,8|0,3:0|3:0,3:0:0:0:
377,118,265250,1,0,3:0:0:0:
436,137,265330,1,0,3:0:0:0:
247,80,265410,1,8,3:0:0:0:
363,41,265570,2,0,L|232:148,1,157.5,8|0,3:0|3:0,3:0:0:0:
302,161,265892,1,0,3:0:0:0:
241,140,265973,1,0,3:0:0:0:
72,175,266055,1,8,3:0:0:0:
330,306,266218,6,0,L|246:313,1,52.5,0|0,3:0|3:0,0:0:0:0:
87,281,266381,2,0,L|147:254,1,52.5,8|0,3:0|3:0,3:0:0:0:
195,263,266544,2,0,L|199:207,1,52.5,0|0,3:0|3:0,0:0:0:0:
372,80,266707,2,0,L|309:68,1,52.5,8|0,3:0|3:0,0:0:0:0:
135,50,266870,2,0,L|69:59,1,52.5,0|0,3:0|3:0,0:0:0:0:
269,146,267033,6,0,L|281:214,1,52.5,8|0,3:0|3:0,0:0:0:0:
344,198,267196,2,0,L|356:266,1,52.5,0|0,3:0|3:0,0:0:0:0:
170,306,267359,1,8,3:0:0:0:
291,197,267522,2,0,L|303:265,1,52.5,8|0,3:0|3:0,0:0:0:0:
366,249,267685,2,0,L|378:317,1,52.5,0|0,3:0|3:0,0:0:0:0:
192,357,267848,1,8,3:0:0:0:
318,327,268011,5,8,3:0:0:0:
138,242,268092,2,0,L|110:193,2,52.5,0|8|0,3:0|3:0|3:0,0:0:0:0:
286,102,268337,2,0,L|223:96,1,52.5,8|0,3:0|3:0,0:0:0:0:
400,35,268500,2,0,L|476:24,1,52.5,0|0,3:0|3:0,0:0:0:0:
269,141,268663,6,0,L|257:209,1,52.5,8|0,3:0|3:0,3:0:0:0:
194,193,268826,2,0,L|182:261,1,52.5,0|0,3:0|3:0,3:0:0:0:
368,301,268989,1,8,3:0:0:0:
247,192,269152,2,0,L|235:260,1,52.5,8|0,3:0|3:0,0:0:0:0:
172,244,269315,2,0,L|160:312,1,52.5,0|0,3:0|3:0,0:0:0:0:
346,352,269478,1,8,3:0:0:0:
93,366,269641,6,0,L|79:297,1,52.5,8|0,3:0|3:0,3:0:0:0:
157,287,269804,2,0,L|160:212,1,52.5,8|0,3:0|3:0,3:0:0:0:
234,225,269967,2,0,L|246:167,1,52.5,8|0,3:0|3:0,0:0:0:0:
56,152,270130,2,0,L|40:88,1,52.5,0|0,3:0|3:0,0:0:0:0:
220,54,270293,6,0,L|281:49,1,52.5,12|0,3:0|3:0,3:0:0:0:
214,77,270456,2,0,L|284:72,1,52.5,0|0,3:0|3:0,3:0:0:0:
446,158,270619,1,8,3:0:0:0:
325,217,270783,2,0,L|264:212,1,52.5,0|0,3:0|3:0,0:0:0:0:
331,243,270946,2,0,L|261:238,1,52.5,8|0,3:0|3:0,0:0:0:0:
99,321,271109,1,0,3:0:0:0:
224,344,271272,5,8,3:0:0:0:
52,213,271353,2,0,L|112:209,2,52.5,0|0|0,3:0|3:0|3:0,0:0:0:0:
220,133,271598,2,0,L|294:122,1,52.5,8|0,3:0|3:0,3:0:0:0:
104,39,271761,2,0,L|28:41,1,52.5,0|0,3:0|3:0,3:0:0:0:
234,77,271924,6,0,L|295:72,1,52.5,8|0,3:0|3:0,0:0:0:0:
225,100,272087,2,0,L|295:95,1,52.5,0|0,3:0|3:0,3:0:0:0:
459,180,272250,1,8,3:0:0:0:
334,234,272413,2,0,L|273:229,1,52.5,0|0,3:0|3:0,0:0:0:0:
343,257,272576,2,0,L|273:252,1,52.5,8|0,3:0|3:0,3:0:0:0:
109,337,272739,1,0,3:0:0:0:
363,359,272902,6,0,L|303:349,1,52.5,8|0,3:0|3:0,3:0:0:0:
242,344,273065,2,0,L|235:282,1,52.5,0|0,3:0|3:0,3:0:0:0:
416,228,273228,2,0,L|351:220,1,52.5,8|0,3:0|3:0,0:0:0:0:
189,213,273391,2,0,L|179:139,1,52.5,0|0,3:0|3:0,0:0:0:0:
370,140,273554,6,0,L|360:72,1,52.5,12|0,3:0|3:0,0:0:0:0:
218,100,273717,2,0,L|208:32,1,52.5,0|0,3:0|3:0,0:0:0:0:
61,44,273880,1,8,3:0:0:0:
180,200,274043,2,0,L|190:132,1,52.5,0|0,3:0|3:0,0:0:0:0:
332,160,274206,2,0,L|342:92,1,52.5,8|0,3:0|3:0,0:0:0:0:
489,104,274369,1,0,3:0:0:0:
243,320,274533,6,0,L|178:312,1,52.5,8|0,3:0|3:0,0:0:0:0:
259,280,274696,2,0,L|316:285,1,52.5,0|0,3:0|3:0,0:0:0:0:
248,246,274860,2,0,L|185:242,1,52.5,8|0,3:0|3:0,3:0:0:0:
370,195,275023,2,0,L|458:182,1,52.5,0|0,3:0|3:0,3:0:0:0:
249,165,275186,6,0,L|239:97,1,52.5,8|0,3:0|3:0,3:0:0:0:
97,125,275349,2,0,L|87:57,1,52.5,0|0,3:0|3:0,3:0:0:0:
265,40,275512,1,8,3:0:0:0:
142,319,275676,2,0,L|152:251,1,52.5,0|0,3:0|3:0,0:0:0:0:
294,279,275839,2,0,L|304:211,1,52.5,8|0,3:0|3:0,0:0:0:0:
448,179,276002,1,0,3:0:0:0:
193,147,276166,6,0,L|272:135,1,52.5,8|0,3:0|3:0,0:0:0:0:
419,35,276329,2,0,L|348:27,1,52.5,0|0,3:0|3:0,0:0:0:0:
203,54,276492,1,8,3:0:0:0:
366,29,276574,2,0,L|434:35,2,52.5,0|0|0,3:0|3:0|3:0,0:0:0:0:
177,172,276819,6,0,L|103:182,1,52.5,12|0,3:0|3:0,0:0:0:0:
304,250,276982,2,0,L|233:258,1,52.5,0|0,3:0|3:0,0:0:0:0:
72,289,277145,1,8,3:0:0:0:
194,338,277309,2,0,L|268:328,1,52.5,0|0,3:0|3:0,0:0:0:0:
67,260,277472,2,0,L|138:252,1,52.5,8|0,3:0|3:0,0:0:0:0:
299,221,277635,1,0,3:0:0:0:
61,182,277798,6,0,L|34:129,3,52.5,8|0|0|0,3:0|3:0|3:0|3:0,0:0:0:0:
220,130,278125,2,0,L|247:77,3,52.5,8|0|0|0,3:0|3:0|3:0|3:0,0:0:0:0:
417,181,278451,6,0,L|484:191,1,52.5,8|0,3:0|3:0,0:0:0:0:
308,265,278614,2,0,L|375:275,1,52.5,0|0,3:0|3:0,0:0:0:0:
194,332,278777,1,8,3:0:0:0:
312,145,278940,2,0,L|379:155,1,52.5,0|0,3:0|3:0,0:0:0:0:
203,229,279103,2,0,L|270:239,1,52.5,8|0,3:0|3:0,0:0:0:0:
89,296,279266,1,0,3:0:0:0:
330,44,279429,6,0,L|267:47,1,52.5,12|0,3:0|3:0,0:0:0:0:
93,171,279596,2,0,L|161:162,1,52.5,0|0,3:0|3:0,0:0:0:0:
332,158,279764,2,0,L|255:165,3,52.5,8|0|0|0,3:0|3:0|3:0|3:0,0:0:0:0:
85,334,280099,5,8,3:0:0:0:
315,365,280263,2,0,L|318:249,1,105,8|0,3:0|3:0,3:0:0:0:
77,218,280592,5,12,3:0:0:0:
319,261,280756,1,0,3:0:0:0:
62,132,280920,2,0,L|56:11,1,105,8|0,3:0|3:0,3:0:0:0:
303,23,281249,5,8,3:0:0:0:
164,42,281414,1,0,0:0:0:0:
417,90,281578,2,0,L|426:229,1,105,12|0,3:0|3:0,3:0:0:0:
168,305,281907,6,0,L|390:317,1,210,12|8,3:0|3:0,3:0:0:0:
147,376,282394,1,8,3:0:0:0:
379,315,282554,1,8,3:0:0:0:
113,275,282713,5,8,3:0:0:0:
232,246,282869,2,0,L|236:188,1,52.5,0|0,3:0|3:0,0:0:0:0:
68,130,283025,2,0,L|133:122,2,52.5,8|0|0,3:0|3:0|3:0,0:0:0:0:
211,53,283259,1,0,3:0:0:0:
359,144,283338,2,0,L|275:140,2,52.5,8|0|0,3:0|3:0|3:0,0:0:0:0:
212,249,283572,1,0,3:0:0:0:
73,300,283652,2,0,L|3:305,1,52.5,8|8,3:0|3:0,0:0:0:0:
203,367,283822,2,0,L|267:367,1,52.5,8|8,3:0|3:0,0:0:0:0:
35,343,283993,5,12,3:0:0:0:
280,300,284154,2,0,L|284:154,1,105,8|0,3:0|3:0,3:0:0:0:
23,157,284476,2,0,L|246:124,1,210,8|0,3:0|0:0,3:0:0:0:
477,44,284971,2,0,L|403:42,1,52.5,8|8,3:0|3:0,0:0:0:0:
200,40,285138,2,0,L|266:28,1,52.5,8|8,3:0|3:0,0:0:0:0:
468,157,285304,6,0,L|390:162,1,52.5,12|0,3:0|3:0,0:0:0:0:
242,182,285467,2,0,L|239:254,1,52.5,8|0,3:0|3:0,0:0:0:0:
309,261,285630,2,0,L|241:267,1,52.5,0|0,3:0|3:0,0:0:0:0:
83,132,285793,2,0,L|165:117,1,52.5,8|0,3:0|3:0,0:0:0:0:
195,75,285956,2,0,L|113:69,1,52.5,0|0,3:0|3:0,0:0:0:0:
318,28,286119,2,0,L|326:104,1,52.5,8|0,3:0|3:0,0:0:0:0:
252,102,286282,2,0,L|246:163,1,52.5,0|0,3:0|3:0,0:0:0:0:
411,209,286445,2,0,L|483:220,1,52.5,8|0,3:0|3:0,0:0:0:0:
289,313,286608,6,0,L|208:319,1,52.5,0|0,3:0|3:0,0:0:0:0:
414,365,286771,2,0,L|430:288,1,52.5,8|0,3:0|3:0,0:0:0:0:
354,293,286934,2,0,L|345:235,1,52.5,0|0,3:0|3:0,0:0:0:0:
173,186,287097,2,0,L|244:175,1,52.5,8|0,3:0|3:0,0:0:0:0:
288,116,287260,2,0,L|222:110,1,52.5,0|0,3:0|3:0,0:0:0:0:
66,39,287423,2,0,L|136:40,1,52.5,8|0,3:0|3:0,0:0:0:0:
47,72,287586,2,0,L|43:149,1,52.5,0|0,3:0|3:0,0:0:0:0:
223,189,287749,2,0,L|292:201,1,52.5,8|0,3:0|3:0,3:0:0:0:
78,324,287912,6,0,L|65:256,1,52.5,4|0,3:0|3:0,0:0:0:0:
244,297,288075,2,0,L|319:305,1,52.5,8|0,3:0|3:0,0:0:0:0:
224,328,288238,2,0,L|215:246,1,52.5,0|0,3:0|3:0,0:0:0:0:
390,215,288401,2,0,L|346:178,1,52.5,8|0,3:0|3:0,0:0:0:0:
289,166,288564,2,0,L|208:162,1,52.5,0|0,3:0|3:0,0:0:0:0:
417,90,288727,2,0,L|472:85,1,52.5,8|0,3:0|3:0,0:0:0:0:
292,42,288890,2,0,L|218:40,1,52.5,0|0,3:0|3:0,0:0:0:0:
305,22,289054,2,0,L|238:18,1,52.5,8|0,3:0|3:0,0:0:0:0:
72,104,289217,6,0,L|79:178,1,52.5,0|0,3:0|3:0,0:0:0:0:
257,233,289380,2,0,L|194:226,1,52.5,8|0,3:0|3:0,0:0:0:0:
146,279,289543,2,0,L|133:195,1,52.5,0|0,3:0|3:0,0:0:0:0:
319,346,289706,2,0,L|242:333,1,52.5,8|0,3:0|3:0,0:0:0:0:
203,300,289869,2,0,L|277:288,1,52.5,0|0,3:0|3:0,0:0:0:0:
435,282,290032,2,0,L|434:215,1,52.5,8|0,3:0|3:0,0:0:0:0:
365,208,290195,2,0,L|424:205,1,52.5,0|0,3:0|3:0,0:0:0:0:
241,137,290358,2,0,L|178:133,1,52.5,8|0,3:0|3:0,3:0:0:0:
388,68,290521,6,0,L|446:64,1,52.5,4|0,3:0|3:0,0:0:0:0:
252,68,290684,2,0,L|243:159,1,52.5,8|0,3:0|3:0,0:0:0:0:
317,142,290847,2,0,L|252:149,1,52.5,0|0,3:0|3:0,0:0:0:0:
88,203,291011,2,0,L|140:252,1,52.5,8|0,3:0|3:0,0:0:0:0:
189,260,291174,2,0,L|271:255,1,52.5,0|0,3:0|3:0,0:0:0:0:
49,355,291338,2,0,L|33:277,1,52.5,8|0,3:0|3:0,0:0:0:0:
115,284,291501,2,0,L|112:230,1,52.5,0|0,3:0|3:0,0:0:0:0:
288,156,291665,2,0,L|200:152,1,52.5,8|0,3:0|3:0,0:0:0:0:
42,53,291828,6,0,L|106:61,1,52.5,0|0,3:0|3:0,0:0:0:0:
157,102,291992,2,0,L|79:117,1,52.5,8|0,3:0|3:0,0:0:0:0:
280,178,292155,2,0,L|346:178,1,52.5,0|0,3:0|3:0,0:0:0:0:
260,207,292319,2,0,L|257:268,1,52.5,8|0,3:0|3:0,0:0:0:0:
430,329,292482,2,0,L|368:349,1,52.5,0|0,3:0|3:0,0:0:0:0:
191,333,292646,2,0,L|256:306,1,52.5,8|0,3:0|3:0,0:0:0:0:
301,306,292809,2,0,L|304:206,1,52.5,0|0,3:0|3:0,0:0:0:0:
116,205,292973,2,0,L|44:213,1,52.5,8|0,3:0|3:0,3:0:0:0:
256,160,293136,6,0,L|261:104,1,52.5,4|0,3:0|3:0,0:0:0:0:
68,53,293298,2,0,L|54:117,1,52.5,8|0,3:0|3:0,0:0:0:0:
130,111,293460,2,0,L|143:175,1,52.5,0|0,3:0|3:0,0:0:0:0:
310,243,293622,2,0,L|385:246,1,52.5,8|0,3:0|3:0,0:0:0:0:
179,348,293784,2,0,L|214:298,1,52.5,0|0,3:0|3:0,0:0:0:0:
270,291,293946,2,0,L|339:291,1,52.5,8|0,3:0|3:0,0:0:0:0:
138,237,294108,2,0,L|70:240,1,52.5,0|0,3:0|3:0,0:0:0:0:
278,166,294271,2,0,L|348:158,1,52.5,8|0,3:0|3:0,3:0:0:0:
126,152,294433,6,0,L|110:88,1,52.5,4|0,3:0|3:0,0:0:0:0:
303,40,294596,2,0,L|228:42,1,52.5,8|0,3:0|3:0,0:0:0:0:
185,92,294760,2,0,L|265:90,1,52.5,0|0,3:0|3:0,0:0:0:0:
425,151,294924,2,0,L|350:153,1,52.5,8|0,3:0|3:0,0:0:0:0:
307,203,295088,2,0,L|387:201,1,52.5,8|8,3:0|3:0,0:0:0:0:
184,321,295252,2,0,L|115:326,1,52.5,8|8,3:0|3:0,0:0:0:0:
274,361,295416,1,8,3:0:0:0:
416,355,295498,1,8,3:0:0:0:
255,323,295580,2,0,L|185:327,1,52.5,8|8,3:0|3:0,0:0:0:0:
406,226,295748,5,12,3:0:0:0:
474,214,295829,2,0,L|498:166,2,52.5,0|0|0,3:0|3:0|3:0,0:0:0:0:
293,168,296074,1,8,3:0:0:0:
361,156,296155,2,0,L|385:108,2,52.5,0|0|0,3:0|3:0|3:0,0:0:0:0:
168,115,296400,1,12,3:0:0:0:
236,103,296481,2,0,L|260:55,2,52.5,0|0|0,3:0|3:0|3:0,0:0:0:0:
35,75,296726,1,8,3:0:0:0:
103,63,296807,2,0,L|127:15,2,52.5,0|0|0,3:0|3:0|3:0,0:0:0:0:
294,122,297052,6,0,L|362:135,1,52.5,12|0,3:0|3:0,0:0:0:0:
282,149,297215,2,0,L|223:153,1,52.5,0|0,3:0|3:0,0:0:0:0:
415,215,297378,2,0,L|421:284,1,52.5,8|0,3:0|3:0,0:0:0:0:
347,281,297541,2,0,L|341:340,1,52.5,0|0,3:0|3:0,0:0:0:0:
164,375,297704,2,0,L|241:342,1,52.5,12|0,3:0|3:0,0:0:0:0:
277,346,297867,2,0,L|281:271,1,52.5,0|0,3:0|3:0,0:0:0:0:
105,268,298030,2,0,L|43:256,1,52.5,8|0,3:0|3:0,0:0:0:0:
261,198,298193,2,0,L|332:200,1,52.5,0|0,3:0|3:0,3:0:0:0:
106,158,298356,5,12,3:0:0:0:
38,170,298437,2,0,L|14:218,2,52.5,0|0|0,3:0|3:0|3:0,0:0:0:0:
219,216,298682,1,8,3:0:0:0:
151,228,298763,2,0,L|127:276,2,52.5,0|0|0,3:0|3:0|3:0,0:0:0:0:
344,269,299008,1,12,3:0:0:0:
276,281,299089,2,0,L|252:329,2,52.5,0|0|0,3:0|3:0|3:0,0:0:0:0:
477,309,299334,1,8,3:0:0:0:
409,321,299416,2,0,L|385:369,2,52.5,0|0|0,3:0|3:0|3:0,0:0:0:0:
218,288,299661,6,0,L|210:214,1,52.5,12|0,3:0|3:0,0:0:0:0:
287,228,299824,2,0,L|295:163,1,52.5,0|0,3:0|3:0,0:0:0:0:
110,167,299987,2,0,L|153:118,1,52.5,8|0,3:0|3:0,0:0:0:0:
208,121,300150,2,0,L|266:123,1,52.5,0|0,3:0|3:0,0:0:0:0:
68,111,300313,2,0,L|56:55,1,52.5,12|0,3:0|3:0,0:0:0:0:
130,56,300476,2,0,L|136:0,1,52.5,0|0,3:0|3:0,0:0:0:0:
333,90,300639,2,0,L|280:124,1,52.5,8|0,3:0|3:0,0:0:0:0:
92,188,300802,2,0,L|31:190,1,52.5,0|0,3:0|3:0,0:0:0:0:
238,231,300965,6,0,L|246:291,1,52.5,12|0,3:0|3:0,0:0:0:0:
171,292,301128,2,0,L|166:360,1,52.5,0|0,3:0|3:0,0:0:0:0:
354,358,301291,2,0,L|423:349,1,52.5,12|0,3:0|3:0,0:0:0:0:
340,333,301455,2,0,L|425:319,1,52.5,0|0,3:0|3:0,0:0:0:0:
202,240,301618,6,0,L|145:231,1,52.5,12|0,3:0|3:0,0:0:0:0:
222,211,301782,2,0,L|290:197,1,52.5,0|0,3:0|3:0,0:0:0:0:
104,163,301945,2,0,L|44:155,1,52.5,12|0,3:0|3:0,0:0:0:0:
218,100,302109,2,0,L|166:91,1,52.5,0|0,3:0|3:0,0:0:0:0:
343,59,302272,6,0,L|405:51,1,52.5,12|0,3:0|3:0,0:0:0:0:
326,45,302436,2,0,L|321:114,1,52.5,0|0,3:0|3:0,0:0:0:0:
493,187,302599,2,0,L|414:208,1,52.5,12|0,3:0|3:0,0:0:0:0:
268,288,302763,2,0,L|330:296,1,52.5,0|0,3:0|3:0,0:0:0:0:
125,359,302926,6,0,L|110:296,1,52.5,12|0,3:0|3:0,0:0:0:0:
188,304,303090,2,0,L|196:243,1,52.5,0|0,3:0|3:0,0:0:0:0:
372,144,303253,2,0,L|309:132,1,52.5,12|0,3:0|3:0,0:0:0:0:
136,43,303417,2,0,L|215:39,1,52.5,0|0,3:0|3:0,3:0:0:0:
409,87,303580,6,0,L|361:154,1,52.5,12|0,3:0|3:0,0:0:0:0:
316,135,303742,1,8,3:0:0:0:
132,169,303824,2,0,L|181:205,1,52.5,0|8,3:0|3:0,0:0:0:0:
243,202,303986,1,0,3:0:0:0:
70,273,304068,2,0,L|5:270,1,52.5,8|0,3:0|3:0,0:0:0:0:
194,335,304230,6,0,L|276:341,2,52.5,12|0|8,3:0|3:0|3:0,0:0:0:0:
377,284,304475,2,0,L|438:282,2,52.5,0|8|0,3:0|3:0|3:0,0:0:0:0:
194,198,304719,2,0,L|269:198,1,52.5,8|0,3:0|3:0,0:0:0:0:
429,161,304881,6,0,L|427:99,1,52.5,12|0,3:0|3:0,0:0:0:0:
360,93,305044,1,8,3:0:0:0:
180,120,305125,2,0,L|205:69,1,52.5,0|8,3:0|3:0,0:0:0:0:
274,60,305288,1,0,3:0:0:0:
90,30,305370,2,0,L|83:97,1,52.5,8|0,3:0|3:0,0:0:0:0:
266,155,305532,6,0,L|184:175,1,52.5,12|0,3:0|3:0,0:0:0:0:
280,190,305695,2,0,L|341:197,1,52.5,8|0,3:0|3:0,0:0:0:0:
140,223,305858,2,0,L|125:287,1,52.5,8|0,3:0|3:0,0:0:0:0:
207,275,306021,2,0,L|219:331,1,52.5,8|0,3:0|3:0,3:0:0:0:
25,344,306183,6,0,L|86:353,1,52.5,12|0,3:0|3:0,0:0:0:0:
228,353,306345,1,8,3:0:0:0:
387,258,306426,2,0,L|296:241,1,52.5,0|8,3:0|3:0,0:0:0:0:
153,191,306588,2,0,L|206:158,1,52.5,0|8,3:0|3:0,0:0:0:0:
270,153,306750,1,0,3:0:0:0:
70,111,306831,6,0,L|9:100,1,52.5,12|0,3:0|3:0,0:0:0:0:
165,61,306993,1,8,3:0:0:0:
316,134,307074,2,0,L|245:145,1,52.5,0|8,3:0|3:0,0:0:0:0:
445,224,307237,2,0,L|502:224,2,52.5,0|8|0,3:0|3:0|3:0,0:0:0:0:
266,363,307480,6,0,L|258:279,1,52.5,12|0,3:0|3:0,3:0:0:0:
419,267,307642,1,8,3:0:0:0:
256,255,307723,2,0,L|249:185,1,52.5,8|12,3:0|3:0,0:0:0:0:
432,161,307885,1,8,3:0:0:0:
250,142,307966,2,0,L|195:138,1,52.5,8|8,3:0|3:0,0:0:0:0:
401,68,308128,6,0,L|471:65,1,52.5,12|8,3:0|3:0,0:0:0:0:
303,32,308291,1,8,3:0:0:0:
145,46,308372,1,8,3:0:0:0:
319,137,308453,2,0,L|388:140,1,52.5,12|8,3:0|3:0,3:0:0:0:
128,320,308615,6,0,P|78:286|136:203,1,157.5,4|0,3:0|3:0,3:0:0:0:
289,208,308940,2,0,L|296:145,1,52.5,0|0,3:0|3:0,3:0:0:0:
215,194,309103,2,0,L|209:253,1,52.5,8|0,3:0|3:0,0:0:0:0:
413,214,309266,2,0,L|477:207,1,52.5,0|0,3:0|3:0,0:0:0:0:
257,133,309429,2,0,L|191:135,1,52.5,8|0,3:0|3:0,0:0:0:0:
257,133,309592,2,0,L|350:130,1,52.5,0|0,3:0|3:0,0:0:0:0:
97,269,309755,2,0,L|89:204,1,52.5,8|0,3:0|3:0,3:0:0:0:
355,322,309918,6,0,L|168:310,1,157.5,4|0,3:0|3:0,3:0:0:0:
419,229,310244,2,0,L|355:224,1,52.5,0|0,3:0|3:0,3:0:0:0:
292,199,310407,2,0,L|231:192,1,52.5,8|0,3:0|3:0,0:0:0:0:
475,124,310570,2,0,L|411:123,1,52.5,0|0,3:0|3:0,0:0:0:0:
217,93,310733,2,0,L|215:28,1,52.5,8|0,3:0|3:0,0:0:0:0:
298,78,310896,2,0,L|298:146,1,52.5,0|0,3:0|3:0,0:0:0:0:
117,183,311059,2,0,L|54:184,1,52.5,8|0,3:0|3:0,3:0:0:0:
262,253,311222,6,0,L|457:254,1,157.5,4|0,3:0|3:0,3:0:0:0:
193,175,311548,2,0,L|134:175,1,52.5,0|0,3:0|3:0,3:0:0:0:
193,175,311712,2,0,L|281:175,1,52.5,8|0,3:0|3:0,0:0:0:0:
51,80,311876,2,0,L|117:80,1,52.5,0|0,3:0|3:0,0:0:0:0:
302,47,312040,2,0,L|233:47,1,52.5,8|0,3:0|3:0,0:0:0:0:
168,45,312204,2,0,L|224:45,1,52.5,0|0,3:0|3:0,0:0:0:0:
431,91,312368,2,0,L|374:91,1,52.5,8|0,3:0|3:0,3:0:0:0:
206,91,312532,1,12,3:0:0:0:
23,93,312614,1,0,3:0:0:0:
206,91,312696,6,0,L|291:89,1,52.5,8|0,3:0|3:0,3:0:0:0:
206,91,312860,2,0,L|140:92,1,52.5,8|0,3:0|3:0,3:0:0:0:
359,191,313024,2,0,L|367:246,1,52.5,8|0,3:0|3:0,3:0:0:0:
166,151,313188,2,0,L|233:142,1,52.5,8|0,3:0|3:0,3:0:0:0:
446,74,313352,6,0,L|392:68,1,52.5,8|8,3:0|3:0,0:0:0:0:
157,182,313516,2,0,L|213:174,1,52.5,8|8,3:0|3:0,0:0:0:0:
452,100,313680,2,0,L|364:86,1,52.5,8|0,3:0|3:0,3:0:0:0:
121,35,313844,6,0,L|312:12,1,157.5,4|0,3:0|3:0,3:0:0:0:
113,231,314170,2,0,L|111:162,1,52.5,0|0,3:0|3:0,3:0:0:0:
193,225,314333,2,0,L|193:282,1,52.5,8|0,3:0|3:0,0:0:0:0:
20,144,314496,2,0,L|78:132,1,52.5,0|0,3:0|3:0,0:0:0:0:
332,103,314659,2,0,L|241:86,1,52.5,8|0,3:0|3:0,0:0:0:0:
202,176,314822,2,0,L|266:170,1,52.5,0|0,3:0|3:0,0:0:0:0:
457,267,314985,2,0,L|403:258,1,52.5,8|0,3:0|3:0,3:0:0:0:
198,325,315148,6,0,L|29:308,1,157.5,4|0,3:0|3:0,3:0:0:0:
257,240,315476,2,0,L|327:229,1,52.5,0|0,3:0|3:0,3:0:0:0:
257,240,315641,2,0,L|187:230,1,52.5,8|0,3:0|3:0,0:0:0:0:
390,149,315806,2,0,L|333:141,1,52.5,0|0,3:0|3:0,0:0:0:0:
156,89,315971,2,0,L|215:78,1,52.5,8|0,3:0|3:0,0:0:0:0:
298,59,316136,2,0,L|243:54,1,52.5,0|0,3:0|3:0,0:0:0:0:
56,116,316301,2,0,L|113:118,1,52.5,8|0,3:0|3:0,3:0:0:0:
314,229,316465,6,0,L|144:243,1,157.5,4|0,3:0|3:0,3:0:0:0:
392,316,316791,2,0,L|477:326,1,52.5,0|0,3:0|3:0,3:0:0:0:
382,300,316954,2,0,L|319:306,1,52.5,8|0,3:0|3:0,0:0:0:0:
117,264,317116,2,0,L|106:208,1,52.5,0|0,3:0|3:0,0:0:0:0:
299,207,317279,2,0,L|311:156,1,52.5,8|0,3:0|3:0,0:0:0:0:
236,282,317442,2,0,L|220:224,1,52.5,0|0,3:0|3:0,0:0:0:0:
453,215,317604,2,0,L|397:201,1,52.5,8|0,3:0|3:0,3:0:0:0:
230,138,317767,2,0,L|162:124,1,52.5,12|0,3:0|3:0,3:0:0:0:
435,38,317929,5,8,3:0:0:0:
137,127,318092,2,0,L|111:203,2,52.5,0|0|8,3:0|3:0|3:0,0:0:0:0:
200,108,318336,1,0,3:0:0:0:
401,89,318417,2,0,L|410:21,1,52.5,0|0,3:0|3:0,3:0:0:0:
158,93,318580,5,8,3:0:0:0:
286,133,318742,1,0,3:0:0:0:
158,93,318905,1,8,3:0:0:0:
286,133,319068,1,0,3:0:0:0:
56,254,319229,5,4,3:0:0:0:
332,327,319555,2,0,L|105:350,2,210,0|0|0,0:0|0:0|3:0,0:0:0:0:
459,315,320370,1,0,3:0:0:0:
161,175,320533,5,4,3:0:0:0:
362,180,320859,1,0,0:0:0:0:
233,185,321022,2,0,L|13:186,1,210,0|0,0:0|3:0,0:0:0:0:
139,150,321511,1,0,3:0:0:0:
29,152,321674,1,0,0:0:0:0:
305,347,321837,6,0,P|480:195|271:34,1,525,4|0,3:0|0:0,3:0:0:0:
181,24,322804,1,0,3:0:0:0:
314,24,322966,1,0,3:0:0:0:
61,341,323127,6,0,P|50:264|167:189,1,210,4|0,3:0|0:0,3:0:0:0:
430,247,323617,2,0,L|446:133,1,105,4|0,3:0|0:0,3:0:0:0:
317,253,323944,1,0,0:0:0:0:
56,59,324107,2,0,L|67:168,1,105,4|0,3:0|0:0,3:0:0:0:
390,65,324434,6,0,L|153:35,1,210,4|0,3:0|3:0,3:0:0:0:
53,48,324925,1,0,3:0:0:0:
191,100,325088,2,0,L|197:208,1,105,8|0,3:0|3:0,3:0:0:0:
47,295,325415,2,0,L|52:190,1,105,0|0,3:0|3:0,3:0:0:0:
309,352,325742,5,12,3:0:0:0:
425,310,325905,1,0,3:0:0:0:
415,199,326068,1,0,3:0:0:0:
161,115,326233,2,0,L|52:136,2,105,12|0|0,3:0|3:0|3:0,3:0:0:0:
477,336,326723,2,0,L|338:319,1,105,12|0,3:0|3:0,3:0:0:0:
128,239,327050,6,0,L|115:344,1,105,8|0,3:0|3:0,0:0:0:0:
262,227,327377,1,8,3:0:0:0:
30,142,327541,2,0,L|21:70,2,52.5,0|0|8,3:0|3:0|3:0,0:0:0:0:
301,87,327868,2,0,L|245:76,1,52.5,8|0,3:0|3:0,0:0:0:0:
182,160,328031,2,0,L|239:155,1,52.5,8|8,3:0|3:0,0:0:0:0:
439,210,328195,2,0,L|371:213,1,52.5,8|8,3:0|3:0,0:0:0:0:
169,286,328358,6,0,L|57:296,2,105,12|0|0,3:0|3:0|3:0,0:0:0:0:
452,312,328844,2,0,L|340:322,2,105,12|0|0,3:0|3:0|3:0,0:0:0:0:
153,152,329330,1,12,3:0:0:0:
401,212,329493,1,0,3:0:0:0:
124,345,329655,6,0,P|62:296|128:215,1,157.5,12|0,3:0|0:0,3:0:0:0:
306,152,329981,2,0,L|421:172,1,105,12|0,3:0|3:0,3:0:0:0:
270,46,330308,2,0,L|158:60,1,105,0|0,3:0|3:0,0:0:0:0:
456,330,330635,2,0,L|463:217,1,105,8|0,3:0|3:0,3:0:0:0:
305,270,330962,6,0,L|129:251,1,157.5,0|0,3:0|0:0,3:0:0:0:
366,174,331289,2,0,L|474:159,1,105,12|0,3:0|3:0,0:0:0:0:
334,304,331616,2,0,L|449:294,1,105,0|0,3:0|3:0,0:0:0:0:
131,189,331943,2,0,L|123:310,1,105,8|0,3:0|3:0,3:0:0:0:
291,342,332270,6,0,P|353:278|305:217,1,157.5,0|0,3:0|0:0,3:0:0:0:
146,98,332596,2,0,L|134:215,1,105,12|0,3:0|3:0,0:0:0:0:
289,83,332922,2,0,L|400:65,1,105,0|0,3:0|3:0,3:0:0:0:
242,345,333248,2,0,L|133:333,1,105,8|0,3:0|3:0,3:0:0:0:
445,367,333574,6,0,P|500:318|431:243,1,157.5,0|0,3:0|0:0,3:0:0:0:
254,242,333900,2,0,L|248:126,1,105,12|0,3:0|3:0,0:0:0:0:
376,230,334226,2,0,L|381:344,1,105,0|0,3:0|3:0,3:0:0:0:
81,172,334552,2,0,L|80:33,1,105,8|0,3:0|3:0,3:0:0:0:
360,115,334878,6,0,L|470:106,1,105,8|0,3:0|3:0,0:0:0:0:
205,271,335204,2,0,L|95:281,1,105,12|0,3:0|3:0,0:0:0:0:
247,177,335530,2,0,L|371:194,1,105,8|0,3:0|3:0,0:0:0:0:
36,53,335856,2,0,L|32:164,1,105,12|0,3:0|3:0,0:0:0:0:
334,42,336183,5,8,3:0:0:0:
90,44,336345,1,0,3:0:0:0:
334,42,336508,2,0,L|451:42,1,105,12|0,3:0|3:0,0:0:0:0:
381,67,336752,1,0,0:0:0:0:
179,124,336833,2,0,L|96:124,1,52.5,8|0,3:0|0:0,0:0:0:0:
333,205,336996,2,0,L|462:206,1,105,8|0,3:0|3:0,0:0:0:0:
152,345,337321,6,0,P|88:275|172:207,1,210,4|0,3:0|3:0,3:0:0:0:
447,253,337809,2,0,L|447:136,1,105,12|0,3:0|3:0,3:0:0:0:
328,253,338134,1,0,3:0:0:0:
447,253,338296,1,0,3:0:0:0:
144,255,338459,2,0,L|29:255,1,105,12|0,3:0|3:0,3:0:0:0:
165,162,338784,6,0,L|40:162,1,105,8|0,3:0|3:0,3:0:0:0:
440,100,339109,2,0,L|449:207,1,105,12|0,3:0|3:0,3:0:0:0:
321,198,339435,2,0,L|328:304,1,105,8|0,3:0|3:0,3:0:0:0:
49,171,339760,2,0,L|41:50,1,105,8|0,3:0|3:0,3:0:0:0:
356,152,340085,6,0,L|493:152,1,105,12|0,3:0|3:0,0:0:0:0:
401,128,340330,1,0,3:0:0:0:
195,199,340411,2,0,L|188:118,1,52.5,8|0,3:0|3:0,0:0:0:0:
396,297,340575,2,0,L|329:286,1,52.5,4|0,3:0|3:0,0:0:0:0:
116,327,340738,2,0,L|62:321,1,52.5,8|0,3:0|3:0,0:0:0:0:
257,273,340902,2,0,L|320:278,1,52.5,8|0,3:0|3:0,0:0:0:0:
94,304,341065,2,0,L|33:298,1,52.5,8|0,3:0|3:0,0:0:0:0:
288,257,341229,2,0,L|359:260,1,52.5,12|0,3:0|3:0,0:0:0:0:
92,214,341392,5,8,3:0:0:0:
44,188,341473,1,0,3:0:0:0:
39,137,341555,1,8,3:0:0:0:
82,99,341637,1,0,3:0:0:0:
316,41,341719,2,0,L|226:40,1,52.5,8|0,3:0|3:0,0:0:0:0:
76,40,341883,2,0,L|151:40,1,52.5,8|0,3:0|3:0,0:0:0:0:
316,41,342046,2,0,L|377:40,1,52.5,8|8,3:0|3:0,0:0:0:0:
171,139,342210,2,0,L|246:139,1,52.5,8|8,3:0|3:0,0:0:0:0:
453,186,342373,2,0,L|378:186,1,52.5,8|0,3:0|0:0,0:0:0:0:
83,186,342537,5,8,3:0:0:0:
256,192,342619,12,0,345142,3:0:0:0:
130,340,345305,5,4,3:0:0:0:
84,315,345385,1,0,3:0:0:0:
57,271,345466,1,8,3:0:0:0:
57,219,345546,1,0,3:0:0:0:
83,174,345627,1,0,3:0:0:0:
128,149,345708,1,0,3:0:0:0:
181,147,345788,2,0,L|246:157,1,52.5,8|0,3:0|3:0,0:0:0:0:
181,147,345950,6,0,L|119:138,1,52.5,0|0,3:0|3:0,0:0:0:0:
314,261,346111,2,0,L|376:245,1,52.5,8|0,3:0|3:0,0:0:0:0:
156,184,346272,2,0,L|246:165,1,52.5,0|0,3:0|3:0,0:0:0:0:
367,159,346434,2,0,L|437:142,1,52.5,8|0,3:0|3:0,0:0:0:0:
188,37,346595,5,0,3:0:0:0:
136,59,346675,1,0,3:0:0:0:
132,110,346756,1,8,3:0:0:0:
176,145,346836,1,0,3:0:0:0:
367,162,346917,2,0,L|297:162,1,52.5,0|0,3:0|3:0,3:0:0:0:
138,302,347079,6,0,L|146:239,1,52.5,8|0,3:0|3:0,0:0:0:0:
222,256,347240,2,0,L|231:199,1,52.5,0|0,3:0|3:0,0:0:0:0:
307,207,347401,2,0,L|316:150,1,52.5,8|0,3:0|3:0,0:0:0:0:
151,112,347563,2,0,L|91:99,1,52.5,8|0,3:0|3:0,0:0:0:0:
312,211,347724,2,0,L|371:220,1,52.5,8|8,3:0|3:0,0:0:0:0:
181,341,347885,5,4,3:0:0:0:
167,291,347967,1,0,3:0:0:0:
189,244,348049,1,8,3:0:0:0:
236,223,348132,1,0,3:0:0:0:
311,255,348214,2,0,L|325:199,1,52.5,0|0,3:0|3:0,0:0:0:0:
241,331,348379,2,0,L|223:276,1,52.5,8|0,3:0|3:0,0:0:0:0:
329,357,348544,5,0,3:0:0:0:
375,335,348626,1,0,3:0:0:0:
389,286,348708,1,8,3:0:0:0:
363,243,348791,1,0,3:0:0:0:
204,223,348874,2,0,L|208:152,1,52.5,8|0,3:0|3:0,3:0:0:0:
290,171,349038,2,0,L|294:94,1,52.5,8|0,3:0|3:0,3:0:0:0:
86,70,349203,6,0,L|14:70,1,52.5,8|0,3:0|3:0,3:0:0:0:
100,70,349368,2,0,L|159:70,1,52.5,8|0,3:0|3:0,0:0:0:0:
86,70,349533,2,0,L|14:70,1,52.5,0|0,3:0|3:0,3:0:0:0:
266,250,349698,5,8,3:0:0:0:
316,225,349780,1,0,3:0:0:0:
321,174,349862,1,0,3:0:0:0:
277,135,349945,1,0,3:0:0:0:
101,97,350027,2,0,L|160:89,1,52.5,8|0,3:0|3:0,0:0:0:0:
361,101,350192,2,0,L|359:43,1,52.5,8|8,3:0|3:0,0:0:0:0:
289,136,350357,2,0,L|284:77,1,52.5,8|8,3:0|3:0,0:0:0:0:
483,297,350522,5,4,3:0:0:0:
495,246,350603,1,0,3:0:0:0:
485,195,350685,1,8,3:0:0:0:
456,152,350766,1,0,3:0:0:0:
411,125,350848,1,0,3:0:0:0:
360,118,350929,1,0,3:0:0:0:
200,222,351011,6,0,L|179:157,1,52.5,8|0,3:0|3:0,0:0:0:0:
269,304,351174,2,0,L|286:249,1,52.5,0|0,3:0|3:0,0:0:0:0:
86,322,351337,2,0,L|73:248,1,52.5,8|0,3:0|3:0,0:0:0:0:
281,243,351500,2,0,L|346:227,1,52.5,8|0,3:0|3:0,0:0:0:0:
150,141,351663,2,0,L|82:128,1,52.5,8|0,3:0|3:0,0:0:0:0:
336,169,351826,5,8,3:0:0:0:
382,147,351907,1,0,3:0:0:0:
398,98,351989,1,0,3:0:0:0:
373,53,352070,1,0,3:0:0:0:
165,30,352152,2,0,L|225:22,1,52.5,8|0,3:0|3:0,3:0:0:0:
395,57,352315,2,0,L|450:50,1,52.5,0|0,3:0|3:0,0:0:0:0:
236,162,352478,6,0,L|174:152,1,52.5,8|0,3:0|3:0,3:0:0:0:
236,162,352641,2,0,L|290:153,1,52.5,0|0,3:0|3:0,0:0:0:0:
116,263,352804,2,0,L|56:251,1,52.5,8|0,3:0|3:0,3:0:0:0:
305,231,352967,2,0,L|371:219,1,52.5,0|0,3:0|3:0,0:0:0:0:
158,150,353130,6,0,L|222:139,1,52.5,4|0,3:0|3:0,0:0:0:0:
420,333,353293,1,8,3:0:0:0:
466,311,353374,1,0,3:0:0:0:
481,262,353456,1,0,3:0:0:0:
455,218,353537,1,0,3:0:0:0:
282,172,353619,2,0,L|339:162,1,52.5,8|0,3:0|3:0,0:0:0:0:
494,94,353782,6,0,L|428:84,1,52.5,0|0,3:0|3:0,0:0:0:0:
255,83,353945,2,0,L|198:77,1,52.5,8|0,3:0|3:0,0:0:0:0:
382,214,354108,2,0,L|307:202,1,52.5,0|0,3:0|3:0,0:0:0:0:
164,235,354272,2,0,L|94:227,1,52.5,8|0,3:0|3:0,0:0:0:0:
300,337,354435,5,8,3:0:0:0:
343,310,354516,1,0,3:0:0:0:
346,260,354598,1,8,3:0:0:0:
308,228,354679,1,0,3:0:0:0:
128,174,354761,2,0,L|192:163,1,52.5,8|0,3:0|3:0,0:0:0:0:
331,174,354924,2,0,L|406:161,1,52.5,8|0,3:0|3:0,0:0:0:0:
139,74,355087,2,0,L|73:64,3,52.5,8|8|8|8,3:0|3:0|3:0|3:0,0:0:0:0:
297,149,355413,2,0,L|363:139,3,52.5,8|8|8|8,3:0|3:0|3:0|3:0,0:0:0:0:
99,236,355739,6,0,L|43:224,1,52.5,12|0,3:0|3:0,0:0:0:0:
99,236,355906,2,0,L|161:228,1,52.5,0|0,3:0|3:0,0:0:0:0:
364,240,356074,2,0,L|420:228,1,52.5,8|0,3:0|3:0,0:0:0:0:
364,240,356237,2,0,L|302:232,1,52.5,0|0,3:0|3:0,0:0:0:0:
99,236,356400,2,0,L|43:224,1,52.5,8|0,3:0|3:0,0:0:0:0:
99,236,356563,2,0,L|161:228,1,52.5,0|0,3:0|3:0,0:0:0:0:
358,150,356726,2,0,L|301:137,1,52.5,8|0,3:0|3:0,0:0:0:0:
126,125,356889,2,0,L|60:119,1,52.5,8|0,3:0|3:0,0:0:0:0:
299,321,357052,5,8,3:0:0:0:
342,295,357133,1,0,3:0:0:0:
349,245,357214,1,0,3:0:0:0:
313,209,357295,1,0,3:0:0:0:
128,179,357376,2,0,L|190:169,1,52.5,8|0,3:0|3:0,3:0:0:0:
361,106,357538,6,0,L|303:95,1,52.5,8|0,3:0|3:0,3:0:0:0:
240,98,357700,2,0,L|187:90,1,52.5,0|0,3:0|3:0,0:0:0:0:
252,92,357862,2,0,L|319:102,1,52.5,8|0,3:0|3:0,3:0:0:0:
124,241,358024,2,0,L|178:235,1,52.5,8|0,3:0|3:0,3:0:0:0:
358,267,358187,2,0,L|417:260,1,52.5,0|0,3:0|3:0,0:0:0:0:
193,241,358349,6,0,L|127:227,3,52.5,12|0|0|0,3:0|3:0|3:0|3:0,0:0:0:0:
356,167,358673,2,0,L|422:153,3,52.5,8|0|0|0,3:0|3:0|3:0|3:0,0:0:0:0:
193,241,358997,2,0,L|127:227,3,52.5,8|0|0|0,3:0|3:0|3:0|3:0,0:0:0:0:
311,329,359322,2,0,L|255:319,1,52.5,8|0,3:0|3:0,3:0:0:0:
111,237,359484,2,0,L|45:226,1,52.5,8|0,3:0|3:0,3:0:0:0:
260,199,359646,5,8,3:0:0:0:
317,184,359727,2,0,L|338:113,2,52.5,0|0|0,3:0|3:0|3:0,0:0:0:0:
137,69,359972,2,0,L|195:60,1,52.5,8|0,3:0|3:0,3:0:0:0:
378,83,360135,2,0,L|440:75,1,52.5,0|0,3:0|3:0,0:0:0:0:
242,131,360299,5,8,3:0:0:0:
199,159,360380,1,0,3:0:0:0:
189,209,360462,1,0,3:0:0:0:
219,250,360543,1,0,3:0:0:0:
400,313,360625,2,0,L|319:302,1,52.5,8|0,3:0|3:0,0:0:0:0:
169,333,360788,2,0,L|96:325,1,52.5,0|0,3:0|3:0,0:0:0:0:
359,353,360952,5,12,3:0:0:0:
406,331,361033,1,0,0:0:0:0:
434,288,361115,1,0,3:0:0:0:
435,236,361196,1,0,0:0:0:0:
408,192,361278,1,0,3:0:0:0:
362,169,361360,1,0,0:0:0:0:
189,225,361441,2,0,L|173:157,1,52.5,8|0,3:0|0:0,3:0:0:0:
264,149,361605,2,0,L|282:94,1,52.5,0|0,3:0|0:0,0:0:0:0:
370,99,361768,2,0,L|443:85,1,52.5,0|0,3:0|0:0,0:0:0:0:
253,318,361931,2,0,L|198:310,1,52.5,8|0,3:0|0:0,3:0:0:0:
400,110,362094,2,0,L|461:98,1,52.5,0|0,3:0|0:0,0:0:0:0:
220,242,362258,5,8,3:0:0:0:
174,213,362339,1,0,0:0:0:0:
168,162,362421,1,0,3:0:0:0:
207,123,362502,1,0,0:0:0:0:
395,330,362584,1,8,3:0:0:0:
441,301,362665,1,0,0:0:0:0:
447,250,362747,1,0,3:0:0:0:
407,211,362828,1,0,0:0:0:0:
203,208,362911,6,0,L|136:222,2,52.5,8|0|0,3:0|0:0|0:0,0:0:0:0:
368,159,363156,2,0,L|435:173,2,52.5,8|0|0,3:0|0:0|0:0,0:0:0:0:
203,208,363401,2,0,L|136:222,1,52.5,8|0,3:0|0:0,0:0:0:0:
359,332,363564,6,0,L|371:271,1,52.5,12|0,3:0|3:0,0:0:0:0:
280,251,363727,2,0,L|268:200,1,52.5,0|0,3:0|3:0,0:0:0:0:
186,194,363890,2,0,L|135:161,1,52.5,8|0,3:0|3:0,0:0:0:0:
360,191,364054,2,0,L|378:128,1,52.5,0|0,3:0|3:0,0:0:0:0:
286,269,364217,2,0,L|271:210,1,52.5,8|0,3:0|3:0,0:0:0:0:
377,275,364380,2,0,L|427:254,1,52.5,0|0,3:0|3:0,0:0:0:0:
235,210,364543,2,0,L|177:200,1,52.5,8|0,3:0|3:0,3:0:0:0:
380,303,364707,2,0,L|473:309,1,52.5,0|0,3:0|3:0,3:0:0:0:
211,344,364870,5,8,3:0:0:0:
161,324,364951,1,0,3:0:0:0:
157,267,365033,1,8,3:0:0:0:
202,233,365115,1,0,3:0:0:0:
367,219,365197,2,0,L|370:155,1,52.5,8|0,3:0|3:0,0:0:0:0:
186,141,365361,2,0,L|121:135,1,52.5,8|0,3:0|3:0,0:0:0:0:
352,96,365524,6,0,L|417:98,1,52.5,8|8,3:0|3:0,0:0:0:0:
155,165,365688,2,0,L|97:161,1,52.5,8|8,3:0|3:0,0:0:0:0:
381,78,365852,2,0,L|444:78,1,52.5,8|8,3:0|3:0,0:0:0:0:
121,187,366015,2,0,L|58:187,1,52.5,8|8,3:0|3:0,0:0:0:0:
357,334,366179,6,0,L|381:268,1,52.5,4|0,3:0|0:0,3:0:0:0:
196,229,366343,2,0,L|131:211,1,52.5
388,167,366507,2,0,L|452:146,1,52.5,8|0,3:0|0:0,0:0:0:0:
205,21,366670,1,0,3:0:0:0:
164,53,366751,1,0,0:0:0:0:
149,102,366834,1,0,3:0:0:0:
163,152,366915,1,0,0:0:0:0:
202,186,366997,1,0,3:0:0:0:
253,192,367079,1,0,0:0:0:0:
114,317,367161,6,0,L|167:309,1,52.5,8|0,3:0|0:0,3:0:0:0:
337,331,367325,2,0,L|395:321,1,52.5,0|0,3:0|0:0,0:0:0:0:
212,288,367487,6,0,L|220:225,1,52.5,0|0,3:0|0:0,3:0:0:0:
308,215,367650,2,0,L|260:187,1,52.5
174,155,367813,2,0,L|167:98,1,52.5,8|0,3:0|0:0,0:0:0:0:
356,31,367977,1,0,3:0:0:0:
404,49,368058,1,0,0:0:0:0:
432,92,368140,1,0,3:0:0:0:
428,143,368222,1,0,0:0:0:0:
394,182,368303,1,0,3:0:0:0:
343,193,368385,1,0,0:0:0:0:
141,282,368467,6,0,L|198:270,1,52.5,8|0,3:0|0:0,3:0:0:0:
367,309,368630,2,0,L|436:300,1,52.5,0|0,3:0|0:0,0:0:0:0:
200,269,368793,6,0,L|185:198,1,52.5,0|0,3:0|0:0,3:0:0:0:
277,191,368957,2,0,L|292:129,1,52.5
381,146,369120,2,0,L|399:88,1,52.5,8|0,3:0|0:0,0:0:0:0:
199,103,369283,2,0,L|138:88,1,52.5,0|0,3:0|0:0,3:0:0:0:
222,131,369447,2,0,L|230:190,1,52.5,0|0,3:0|0:0,0:0:0:0:
310,164,369610,2,0,L|318:216,1,52.5,0|0,3:0|0:0,0:0:0:0:
134,276,369773,6,0,L|193:269,1,52.5,8|0,3:0|0:0,3:0:0:0:
369,321,369937,2,0,L|438:315,1,52.5,0|0,3:0|0:0,0:0:0:0:
192,273,370100,5,8,3:0:0:0:
143,256,370181,1,0,3:0:0:0:
128,201,370263,1,0,3:0:0:0:
165,161,370345,1,0,3:0:0:0:
356,107,370427,2,0,L|298:92,1,52.5,8|0,3:0|3:0,3:0:0:0:
141,127,370590,2,0,L|81:115,1,52.5,0|0,3:0|3:0,0:0:0:0:
276,243,370754,2,0,L|278:184,1,52.5,8|0,3:0|3:0,0:0:0:0:
196,189,370917,2,0,L|196:124,1,52.5,8|0,3:0|3:0,0:0:0:0:
393,323,371080,1,8,3:0:0:0:
442,298,371161,1,0,3:0:0:0:
453,249,371243,1,8,3:0:0:0:
427,200,371325,1,0,3:0:0:0:
202,340,371407,5,12,3:0:0:0:
152,322,371488,1,0,0:0:0:0:
115,286,371569,1,0,0:0:0:0:
96,238,371650,1,0,0:0:0:0:
98,186,371731,1,8,3:0:0:0:
121,139,371812,1,0,0:0:0:0:
162,106,371893,1,0,3:0:0:0:
212,93,371974,1,0,0:0:0:0:
276,91,372055,6,0,L|222:78,1,52.5,0|0,3:0|0:0,3:0:0:0:
26,37,372217,2,0,L|106:22,1,52.5,8|0,3:0|0:0,0:0:0:0:
282,65,372379,2,0,L|341:50,1,52.5,8|0,3:0|0:0,0:0:0:0:
159,186,372542,2,0,L|219:172,1,52.5,8|0,3:0|0:0,0:0:0:0:
426,298,372704,5,8,3:0:0:0:
474,268,372785,1,0,0:0:0:0:
478,217,372866,1,0,3:0:0:0:
435,181,372947,1,0,0:0:0:0:
241,93,373028,2,0,L|306:82,1,52.5,8|0,3:0|0:0,3:0:0:0:
437,206,373190,2,0,L|351:197,1,52.5,0|0,3:0|0:0,0:0:0:0:
211,296,373352,6,0,L|203:241,1,52.5,8|0,3:0|0:0,3:0:0:0:
276,282,373515,2,0,L|284:344,1,52.5,0|0,3:0|0:0,0:0:0:0:
76,224,373677,2,0,L|151:218,1,52.5,8|0,3:0|0:0,3:0:0:0:
325,172,373839,2,0,L|381:167,1,52.5,0|0,3:0|0:0,0:0:0:0:
157,88,374001,6,0,L|95:85,3,52.5,8|0|0|0,3:0|0:0|3:0|0:0,3:0:0:0:
276,258,374327,1,8,3:0:0:0:
329,232,374408,1,0,0:0:0:0:
332,178,374490,1,0,3:0:0:0:
290,145,374571,1,0,0:0:0:0:
97,334,374653,6,0,L|152:329,1,52.5,8|0,3:0|0:0,3:0:0:0:
333,343,374816,2,0,L|405:337,1,52.5,0|0,3:0|0:0,0:0:0:0:
178,242,374979,2,0,L|247:238,1,52.5,8|0,3:0|0:0,3:0:0:0:
451,184,375142,2,0,L|378:186,1,52.5,0|0,3:0|0:0,0:0:0:0:
159,225,375305,5,8,3:0:0:0:
115,198,375386,1,0,3:0:0:0:
112,148,375468,1,0,3:0:0:0:
152,117,375549,1,0,3:0:0:0:
349,78,375631,2,0,L|288:69,1,52.5,8|0,3:0|3:0,0:0:0:0:
136,101,375794,2,0,L|83:93,1,52.5,0|0,3:0|3:0,0:0:0:0:
362,62,375957,6,0,L|433:57,1,52.5,8|0,3:0|3:0,0:0:0:0:
118,110,376120,2,0,L|56:101,1,52.5,8|0,3:0|3:0,0:0:0:0:
382,78,376283,2,0,L|452:73,1,52.5,8|0,3:0|3:0,0:0:0:0:
95,123,376446,2,0,L|21:112,1,52.5,8|0,3:0|3:0,0:0:0:0:
304,339,376609,6,0,L|334:282,1,52.5,12|0,3:0|3:0,3:0:0:0:
234,259,376772,2,0,L|226:202,1,52.5,0|0,3:0|3:0,0:0:0:0:
145,225,376934,2,0,L|135:160,1,52.5,8|0,3:0|3:0,3:0:0:0:
241,175,377096,2,0,L|295:155,1,52.5,0|0,3:0|3:0,0:0:0:0:
111,352,377258,1,8,3:0:0:0:
64,330,377339,1,0,3:0:0:0:
49,281,377420,1,0,3:0:0:0:
74,237,377501,1,0,3:0:0:0:
245,221,377582,2,0,L|302:222,1,52.5,8|0,3:0|3:0,0:0:0:0:
104,157,377745,2,0,L|45:156,1,52.5,8|0,3:0|3:0,0:0:0:0:
283,227,377907,5,8,3:0:0:0:
332,210,377989,1,0,0:0:0:0:
364,170,378071,1,0,3:0:0:0:
367,118,378154,1,0,0:0:0:0:
341,73,378236,1,0,3:0:0:0:
295,51,378319,1,0,0:0:0:0:
201,97,378401,6,0,L|186:44,1,52.5,8|0,3:0|0:0,3:0:0:0:
276,161,378566,2,0,L|292:104,1,52.5,0|0,3:0|0:0,0:0:0:0:
194,186,378731,2,0,L|140:182,1,52.5,0|0,3:0|0:0,0:0:0:0:
335,327,378896,1,8,3:0:0:0:
384,297,378978,1,0,0:0:0:0:
385,246,379060,1,0,3:0:0:0:
338,211,379143,1,0,0:0:0:0:
115,308,379225,6,0,L|94:218,1,52.5,12|0,3:0|3:0,3:0:0:0:
186,225,379387,2,0,L|175:168,1,52.5,0|0,3:0|3:0,0:0:0:0:
96,163,379549,2,0,L|25:148,1,52.5,0|0,3:0|3:0,0:0:0:0:
289,288,379711,2,0,L|311:233,1,52.5,8|0,3:0|3:0,3:0:0:0:
222,208,379873,2,0,L|210:134,1,52.5,0|0,3:0|3:0,0:0:0:0:
127,140,380035,2,0,L|81:113,1,52.5,0|0,3:0|3:0,0:0:0:0:
321,131,380197,2,0,L|392:108,1,52.5,8|0,3:0|3:0,3:0:0:0:
190,219,380360,2,0,L|136:233,1,52.5,0|0,3:0|3:0,0:0:0:0:
398,352,380522,5,8,3:0:0:0:
445,329,380603,1,0,3:0:0:0:
447,278,380685,1,0,3:0:0:0:
403,245,380766,1,0,3:0:0:0:
212,256,380848,2,0,L|240:207,1,52.5,8|0,3:0|3:0,0:0:0:0:
418,212,381011,2,0,L|446:152,1,52.5,0|0,3:0|3:0,0:0:0:0:
343,135,381174,2,0,L|331:78,1,52.5,8|0,3:0|3:0,3:0:0:0:
414,33,381337,2,0,L|355:21,1,52.5,0|0,3:0|3:0,0:0:0:0:
175,90,381500,2,0,L|115:79,1,52.5,8|0,3:0|3:0,3:0:0:0:
302,222,381663,2,0,L|367:211,1,52.5,0|0,3:0|3:0,0:0:0:0:
110,343,381826,6,0,L|91:289,1,52.5,12|0,3:0|3:0,0:0:0:0:
183,278,381989,2,0,L|201:224,1,52.5,8|0,3:0|3:0,0:0:0:0:
291,228,382152,2,0,L|346:217,1,52.5,8|0,3:0|3:0,3:0:0:0:
128,164,382315,2,0,L|121:96,1,52.5,8|0,3:0|3:0,0:0:0:0:
214,168,382478,2,0,L|227:243,1,52.5,8|0,3:0|3:0,0:0:0:0:
142,247,382641,2,0,L|81:236,1,52.5,8|0,3:0|3:0,3:0:0:0:
313,327,382804,2,0,L|366:313,1,52.5,8|0,3:0|3:0,0:0:0:0:
125,260,382967,2,0,L|71:248,1,52.5,0|0,3:0|3:0,0:0:0:0:
403,259,383130,6,0,L|383:182,1,52.5,8|0,3:0|3:0,0:0:0:0:
303,182,383291,2,0,L|251:158,1,52.5,0|0,3:0|3:0,0:0:0:0:
176,166,383452,2,0,L|108:174,1,52.5,8|0,3:0|3:0,3:0:0:0:
376,40,383613,2,0,L|401:102,1,52.5,0|0,3:0|3:0,0:0:0:0:
318,121,383775,2,0,L|300:177,1,52.5,8|0,3:0|3:0,3:0:0:0:
395,174,383936,2,0,L|452:164,1,52.5,0|0,3:0|3:0,0:0:0:0:
251,272,384097,2,0,L|180:281,1,52.5,8|0,3:0|3:0,3:0:0:0:
411,188,384259,2,0,L|471:177,1,52.5,0|0,3:0|3:0,0:0:0:0:
188,188,384420,6,0,L|173:136,1,52.5,12|0,3:0|3:0,0:0:0:0:
263,123,384584,2,0,L|314:94,1,52.5,8|0,3:0|3:0,0:0:0:0:
201,54,384749,2,0,L|144:39,1,52.5,8|0,3:0|3:0,3:0:0:0:
390,335,384914,2,0,L|413:261,1,52.5,8|0,3:0|3:0,0:0:0:0:
321,247,385079,2,0,L|299:196,1,52.5,8|0,3:0|3:0,0:0:0:0:
213,190,385244,2,0,L|149:164,1,52.5,8|0,3:0|3:0,3:0:0:0:
408,124,385409,2,0,L|469:103,1,52.5,8|0,3:0|3:0,0:0:0:0:
191,198,385573,2,0,L|126:182,1,52.5,8|0,3:0|3:0,0:0:0:0:
215,231,385738,6,0,L|270:222,1,52.5,8|0,3:0|3:0,3:0:0:0:
75,157,385901,2,0,L|153:138,1,52.5,0|0,3:0|3:0,0:0:0:0:
320,143,386064,2,0,L|373:130,1,52.5,8|0,3:0|3:0,0:0:0:0:
197,250,386228,2,0,L|189:186,1,52.5,8|0,3:0|3:0,3:0:0:0:
404,295,386391,2,0,L|320:279,1,52.5,0|0,3:0|3:0,0:0:0:0:
135,123,386555,2,0,L|70:112,1,52.5,8|0,3:0|3:0,0:0:0:0:
341,260,386718,2,0,L|401:251,1,52.5,8|0,3:0|3:0,0:0:0:0:
116,135,386882,2,0,L|56:126,1,52.5,8|0,3:0|3:0,0:0:0:0:
333,179,387045,5,12,3:0:0:0:
378,156,387126,1,0,3:0:0:0:
393,108,387208,1,0,3:0:0:0:
367,64,387290,1,0,3:0:0:0:
164,26,387372,2,0,L|107:24,1,52.5,8|0,3:0|3:0,3:0:0:0:
164,26,387536,2,0,L|225:26,1,52.5,0|0,3:0|3:0,0:0:0:0:
409,103,387699,2,0,L|319:101,1,52.5,8|0,3:0|3:0,0:0:0:0:
175,100,387863,2,0,L|106:100,1,52.5,0|0,3:0|3:0,0:0:0:0:
291,159,388026,2,0,L|223:157,1,52.5,8|0,3:0|3:0,0:0:0:0:
57,160,388190,2,0,L|4:159,1,52.5,0|0,3:0|3:0,0:0:0:0:
158,250,388353,6,0,L|230:249,1,52.5,8|0,3:0|0:0,0:0:0:0:
388,263,388517,2,0,L|331:263,1,52.5,8|0,3:0|0:0,0:0:0:0:
154,271,388680,2,0,L|67:270,1,52.5,8|0,3:0|0:0,0:0:0:0:
282,274,388844,2,0,L|345:273,1,52.5,8|0,3:0|0:0,0:0:0:0:
155,276,389007,2,0,L|63:275,1,52.5,8|0,3:0|0:0,0:0:0:0:
291,287,389171,2,0,L|360:286,1,52.5,8|0,3:0|0:0,0:0:0:0:
117,252,389334,2,0,L|54:254,1,52.5,8|0,3:0|0:0,0:0:0:0:
341,311,389498,2,0,L|405:310,1,52.5,8|0,3:0|0:0,0:0:0:0:
53,353,389664,6,0,P|100:123|474:359,1,866.250033044816,12|0,3:0|0:0,0:0:0:0:
455,79,391631,6,0,L|79:50,1,367.5
286,229,392286,6,0,L|399:207,1,105,4|0,3:0|0:0,3:0:0:0:
268,337,392611,2,0,L|158:327,1,105,0|0,3:0|3:0,0:0:0:0:
452,364,392937,2,0,L|458:249,1,105,8|0,3:0|3:0,3:0:0:0:
338,192,393262,1,0,3:0:0:0:
467,123,393425,1,0,3:0:0:0:
172,236,393588,6,0,L|59:221,1,105,4|0,3:0|0:0,3:0:0:0:
207,348,393914,2,0,L|324:334,1,105,0|0,3:0|3:0,0:0:0:0:
21,267,394239,1,12,0:0:0:0:
137,287,394402,1,0,3:0:0:0:
21,267,394565,1,0,3:0:0:0:
137,287,394728,1,0,3:0:0:0:
408,325,394891,6,0,P|484:264|396:169,1,210,4|0,3:0|3:0,3:0:0:0:
323,155,395379,1,0,3:0:0:0:
70,183,395542,2,0,L|64:72,1,105,8|0,3:0|3:0,3:0:0:0:
198,210,395868,2,0,L|250:223,2,52.5,0|0|0,3:0|0:0|3:0,3:0:0:0:
63,322,396193,6,0,L|174:309,1,105,4|0,3:0|0:0,3:0:0:0:
304,349,396517,2,0,L|417:335,1,105,0|0,3:0|3:0,0:0:0:0:
156,151,396841,2,0,L|155:262,1,105,8|0,0:0|3:0,0:0:0:0:
300,188,397165,2,0,L|409:188,1,105,0|0,3:0|3:0,3:0:0:0:
127,298,397490,6,0,B|14:298|14:298|129:297|129:297|8:299,1,315,4|0,3:0|3:0,3:0:0:0:
182,222,398148,2,0,L|190:337,1,105,8|0,3:0|3:0,3:0:0:0:
47,223,398470,2,0,L|38:108,1,105,0|0,3:0|3:0,3:0:0:0:
345,341,398792,5,4,3:0:0:0:
445,282,398954,1,0,3:0:0:0:
441,181,399117,1,0,3:0:0:0:
337,132,399280,1,0,3:0:0:0:
49,64,399443,2,0,L|36:179,1,105,8|0,3:0|3:0,0:0:0:0:
261,69,399768,1,0,3:0:0:0:
483,68,399931,1,0,3:0:0:0:
257,61,400095,5,4,3:0:0:0:
109,69,400257,1,0,3:0:0:0:
242,86,400419,2,0,L|237:217,1,105,0|0,3:0|3:0,3:0:0:0:
371,69,400743,2,0,L|230:68,1,105,8|0,3:0|3:0,3:0:0:0:
97,113,401067,2,0,L|93:219,1,105,0|0,3:0|3:0,3:0:0:0:
401,339,401392,6,0,L|409:201,1,105,4|0,3:0|0:0,3:0:0:0:
268,218,401716,2,0,L|170:244,2,70,0|0|0,3:0|0:0|0:0,0:0:0:0:
359,230,402040,2,0,L|501:197,1,105,8|0,3:0|3:0,3:0:0:0:
322,339,402373,2,0,L|200:325,1,105,8|8,3:0|3:0,3:0:0:0:
159,319,402623,1,0,0:0:0:0:
374,304,402706,6,0,P|504:164|358:35,1,420,4|8,3:0|3:0,3:0:0:0:
233,45,403685,1,0,3:0:0:0:
361,45,403848,1,0,3:0:0:0:
115,38,404012,6,0,P|56:71|125:178,1,210,4|0,3:0|3:0,3:0:0:0:
221,175,404501,1,0,3:0:0:0:
445,170,404665,2,0,L|446:282,1,105,12|0,3:0|3:0,3:0:0:0:
296,167,404991,2,0,L|187:166,1,105,0|0,3:0|3:0,3:0:0:0:
458,123,405318,6,0,L|471:49,2,52.5,4|0|0,3:0|0:0|3:0,3:0:0:0:
326,239,405644,2,0,L|441:233,1,105,0|0,3:0|3:0,0:0:0:0:
124,343,405971,2,0,P|55:287|122:185,1,210,8|0,3:0|3:0,3:0:0:0:
215,182,406461,1,0,3:0:0:0:
367,186,406624,6,0,L|369:77,1,105,4|0,3:0|0:0,3:0:0:0:
113,173,406950,2,0,L|113:289,1,105,0|0,3:0|3:0,0:0:0:0:
255,168,407277,2,0,L|315:160,2,52.5,8|0|0,3:0|0:0|3:0,3:0:0:0:
113,173,407603,2,0,L|113:57,1,105,0|0,3:0|3:0,3:0:0:0:
412,339,407930,6,0,P|484:284|441:183,1,210,4|0,3:0|3:0,3:0:0:0:
316,178,408413,1,0,3:0:0:0:
93,326,408575,2,0,P|21:271|64:170,1,210,8|0,3:0|3:0,3:0:0:0:
175,165,409058,1,0,3:0:0:0:
445,177,409220,6,0,L|449:61,1,105,4|0,3:0|3:0,3:0:0:0:
210,162,409547,2,0,L|104:158,1,105,0|0,3:0|3:0,3:0:0:0:
240,270,409875,2,0,L|308:271,2,52.5,8|0|0,3:0|0:0|3:0,0:0:0:0:
102,349,410203,2,0,L|92:212,1,105,0|0,3:0|3:0,3:0:0:0:
384,351,410531,6,0,P|455:284|366:195,1,210,4|0,3:0|3:0,3:0:0:0:
283,196,411023,1,0,3:0:0:0:
404,96,411187,1,8,3:0:0:0:
408,148,411268,1,0,0:0:0:0:
412,200,411350,1,0,3:0:0:0:
170,57,411515,2,0,L|50:43,1,105,4|0,3:0|0:0,3:0:0:0:
194,146,411843,5,4,3:0:0:0:
458,120,412002,2,0,L|328:100,2,105,0|0|0,3:0|3:0|3:0,3:0:0:0:
174,235,412481,2,0,L|58:250,1,105,8|0,3:0|3:0,0:0:0:0:
325,183,412800,2,0,L|440:205,1,105,8|8,3:0|3:0,0:0:0:0:
127,350,413133,6,0,P|63:286|144:190,1,210,4|0,3:0|3:0,3:0:0:0:
248,189,413633,1,0,3:0:0:0:
479,199,413800,2,0,L|476:80,1,105,8|0,3:0|3:0,3:0:0:0:
233,194,414122,2,0,L|114:193,1,105,0|0,3:0|3:0,3:0:0:0:
419,294,414445,5,4,3:0:0:0:
303,293,414607,1,0,0:0:0:0:
187,293,414769,1,0,3:0:0:0:
462,354,414931,2,0,P|462:255|350:206,1,210,0|0,3:0|3:0,3:0:0:0:
233,206,415417,1,0,3:0:0:0:
364,204,415580,1,0,3:0:0:0:
121,345,415742,6,0,P|39:291|131:134,1,315,4|0,3:0|3:0,3:0:0:0:
389,151,416390,1,8,3:0:0:0:
258,150,416553,2,0,L|136:149,2,105,0|0|0,3:0|3:0|3:0,0:0:0:0:
33,230,417039,6,0,L|143:229,1,105,4|0,3:0|0:0,3:0:0:0:
284,258,417365,2,0,L|400:258,1,105,0|0,3:0|3:0,0:0:0:0:
115,349,417692,2,0,L|111:241,1,105,12|0,0:0|3:0,0:0:0:0:
248,295,418018,2,0,L|357:291,1,105,0|0,3:0|3:0,3:0:0:0:
83,234,418345,6,0,P|35:145|134:64,1,210,4|0,3:0|3:0,3:0:0:0:
328,254,418834,2,0,P|396:218|344:90,1,210,0|0,3:0|3:0,0:0:0:0:
221,85,419324,2,0,L|83:84,1,105,0|0,3:0|3:0,3:0:0:0:
418,221,419651,6,0,L|490:221,2,52.5,4|0|0,3:0|0:0|3:0,0:0:0:0:
299,221,419977,1,0,3:0:0:0:
418,221,420141,1,0,3:0:0:0:
155,274,420304,2,0,L|48:274,1,105,12|0,3:0|3:0,0:0:0:0:
299,221,420630,2,0,L|412:221,1,105,0|0,3:0|3:0,0:0:0:0:
73,347,420957,6,0,L|60:230,1,105,4|0,3:0|3:0,3:0:0:0:
233,151,421284,2,0,L|227:259,1,105,0|0,3:0|3:0,3:0:0:0:
379,307,421612,2,0,L|392:190,1,105,12|0,3:0|3:0,3:0:0:0:
253,98,421940,2,0,L|369:94,1,105,4|0,3:0|3:0,3:0:0:0:
301,76,422186,1,0,0:0:0:0:
65,40,422268,6,0,L|64:152,1,105,4|8,3:0|0:0,3:0:0:0:
197,253,422592,1,0,3:0:0:0:
144,253,422673,1,0,0:0:0:0:
92,253,422754,1,0,3:0:0:0:
311,193,422916,2,0,L|426:193,1,105,8|0,3:0|3:0,3:0:0:0:
171,122,423247,2,0,L|82:122,2,52.5,8|0|8,3:0|0:0|3:0,3:0:0:0:
433,336,423579,6,0,P|487:292|412:183,1,210,4|0,3:0|3:0,3:0:0:0:
314,183,424064,1,0,3:0:0:0:
68,108,424225,2,0,L|68:222,1,105,8|0,3:0|3:0,3:0:0:0:
204,162,424549,1,0,3:0:0:0:
444,166,424711,1,0,3:0:0:0:
165,167,424872,6,0,L|51:167,1,105,4|0,3:0|0:0,3:0:0:0:
191,269,425196,1,0,3:0:0:0:
138,269,425276,1,0,0:0:0:0:
86,269,425357,1,0,3:0:0:0:
361,312,425519,2,0,L|446:312,2,70,8|0|0,3:0|0:0|0:0,3:0:0:0:
151,312,425843,2,0,L|66:312,2,70,8|0|0,3:0|0:0|0:0,3:0:0:0:
383,356,426166,5,4,3:0:0:0:
482,306,426331,1,0,0:0:0:0:
482,205,426497,1,0,3:0:0:0:
383,151,426663,1,0,3:0:0:0:
152,70,426828,2,0,L|147:193,1,105,8|0,3:0|3:0,3:0:0:0:
380,114,427160,2,0,L|498:106,1,105,0|0,3:0|3:0,3:0:0:0:
179,294,427492,6,0,P|106:280|97:139,1,210,4|0,3:0|0:0,3:0:0:0:
223,137,427975,2,0,L|284:126,1,52.5,0|0,3:0|0:0,0:0:0:0:
81,48,428137,2,0,L|69:165,1,105,8|0,3:0|0:0,3:0:0:0:
369,224,428459,2,0,L|381:341,1,105,0|0,3:0|3:0,0:0:0:0:
69,214,428782,6,0,L|206:195,1,105,4|0,3:0|0:0,3:0:0:0:
321,237,429111,2,0,L|436:223,1,105,0|0,3:0|3:0,0:0:0:0:
165,338,429441,1,8,3:0:0:0:
116,315,429521,1,0,0:0:0:0:
109,264,429602,1,0,0:0:0:0:
150,221,429682,1,0,0:0:0:0:
328,255,429763,1,8,3:0:0:0:
377,232,429843,1,0,0:0:0:0:
384,181,429924,1,0,0:0:0:0:
342,138,430004,1,0,0:0:0:0:
150,340,430086,6,0,L|132:280,1,52.5,12|0,3:0|0:0,0:0:0:0:
216,256,430249,2,0,L|239:205,1,52.5
324,218,430412,2,0,L|377:197,1,52.5,8|0,3:0|0:0,0:0:0:0:
456,198,430575,2,0,L|472:138,1,52.5
240,90,430738,6,0,L|179:80,1,52.5,8|0,3:0|0:0,0:0:0:0:
380,166,430901,2,0,L|434:149,1,52.5
225,101,431064,2,0,L|160:90,1,52.5,8|0,3:0|0:0,0:0:0:0:
403,179,431227,2,0,L|468:159,1,52.5
128,218,431390,5,12,3:0:0:0:
351,284,431779,1,8,3:0:0:0:
130,223,432181,1,8,3:0:0:0:
347,285,432597,1,8,3:0:0:0:
132,224,433055,1,10,3:0:0:0:
366,268,433550,1,0,3:0:0:0:
135,227,434080,1,8,3:0:0:0:
420,170,434686,1,0,3:0:0:0:
121,136,435519,5,4,3:0:0:0:
256,192,435718,12,0,454281,0:0:0:0:
488,174,454680,5,4,3:0:0:0:
18,122,455004,5,4,3:0:0:0:
256,192,455085,12,0,456869,0:0:0:0:
