osu file format v14

[General]
AudioFilename: audio.mp3
AudioLeadIn: 0
PreviewTime: 452480
Countdown: 0
SampleSet: Soft
StackLeniency: 0.2
Mode: 0
LetterboxInBreaks: 1
WidescreenStoryboard: 1

[Editor]
Bookmarks: 19673,41828,64416,87004,112416,146298,168886,191475,214063,239475,273357,301592,327004,349592,377827,400416,423004,444180,451239,462533,485138,527490,558549,567020,603726,626314,660196,669123,715388,761653,807918,831050,842616
DistanceSpacing: 1.1
BeatDivisor: 4
GridSize: 16
TimelineZoom: 2

[Metadata]
Title:ANGEL OF SALVATION
TitleUnicode:ANGEL OF SALVATION
Artist:GALNERYUS
ArtistUnicode:GALNERYUS
Creator:BarkingMadDog
Version:Marathon
Source:
Tags:bmd power symphonic neoclassical metal Violin Concerto in D major, Op. 35 Pyotr Ilyich Tchaikovsky SYU Masatoshi Ono 小野 正利 Sho Taka Yuhki Junichi Satoh Akane Liv LIV MOON
BeatmapID:4562014
BeatmapSetID:1039491

[Difficulty]
HPDrainRate:5.8
CircleSize:4.1
OverallDifficulty:9
ApproachRate:9.3
SliderMultiplier:1.7
SliderTickRate:1

[Events]
//Background and Video events
0,0,"bg.jpg",0,0
//Break Periods
2,451351,460479
//Storyboard Layer 0 (Background)
//Storyboard Layer 1 (Fail)
//Storyboard Layer 2 (Pass)
//Storyboard Layer 3 (Foreground)
//Storyboard Layer 4 (Overlay)
//Storyboard Sound Samples

[TimingPoints]
39027,352.941176470588,4,2,1,70,1,0
39379,-100,4,2,1,70,0,0
39622,352.941176470588,4,2,1,70,1,0
39886,352.941176470588,4,2,1,70,1,0
40416,352.941176470588,4,2,1,70,1,0
41121,-100,4,2,1,70,0,0
41828,352.941176470588,4,2,1,70,1,0
41828,-80,4,2,1,70,0,0
64416,-90.9090909090909,4,2,1,60,0,0
87004,-95.2380952380952,4,2,1,60,0,0
112416,-80,4,2,1,75,0,1
145945,-100,4,2,1,75,0,1
146298,-166.666666666667,4,2,1,55,0,0
151239,-83.3333333333333,4,2,1,55,0,0
151945,-166.666666666667,4,2,1,55,0,0
154769,-142.857142857143,4,2,1,55,0,0
168886,-117.647058823529,4,2,1,60,0,0
191474,-133.333333333333,4,2,1,50,0,0
191827,-133.333333333333,4,2,2,50,0,0
212651,-133.333333333333,4,2,1,60,0,0
214063,-95.2380952380952,4,2,1,60,0,0
239475,-80,4,2,1,75,0,1
273004,-100,4,2,1,75,0,1
273357,-50,4,2,1,50,0,0
273710,-100,4,2,1,50,0,0
276180,-50,4,2,1,50,0,0
276533,-100,4,2,1,50,0,0
279004,-50,4,2,1,50,0,0
279357,-100,4,2,1,50,0,0
281827,-50,4,2,1,50,0,0
282180,-100,4,2,1,50,0,0
283239,-50,4,2,1,50,0,0
283592,-100,4,2,1,50,0,0
284651,-44.4444444444445,4,2,1,50,0,0
285004,-80,4,2,1,50,0,0
286063,-66.6666666666667,4,2,1,50,0,0
286416,-80,4,2,1,50,0,0
287475,-40,4,2,1,50,0,0
287827,-80,4,2,1,50,0,0
288886,-66.6666666666667,4,2,1,50,0,0
289239,-80,4,2,1,50,0,0
290298,-44.4444444444445,4,2,1,50,0,0
290651,-80,4,2,1,50,0,0
291710,-66.6666666666667,4,2,1,50,0,0
292063,-80,4,2,1,50,0,0
293475,-80,4,2,1,50,0,0
294533,-44.4444444444445,4,2,1,50,0,0
294886,-80,4,2,1,50,0,0
295945,-50,4,2,1,50,0,0
297357,-100,4,2,1,50,0,0
301592,-100,4,2,1,60,0,0
327004,-66.6666666666667,4,2,1,65,0,0
327357,-80,4,2,1,65,0,0
328416,-66.6666666666667,4,2,1,65,0,0
328769,-80,4,2,1,65,0,0
332651,-66.6666666666667,4,2,1,65,0,0
333004,-80,4,2,1,65,0,0
338298,-66.6666666666667,4,2,1,65,0,0
338651,-80,4,2,1,65,0,0
339710,-66.6666666666667,4,2,1,65,0,0
340063,-80,4,2,1,65,0,0
341122,-66.6666666666667,4,2,1,65,0,0
341475,-80,4,2,1,65,0,0
349592,-95.2380952380952,4,2,1,60,0,0
377827,-166.666666666667,4,2,1,65,0,0
387004,-100,4,2,1,70,0,0
389122,-80,4,2,1,65,0,0
400416,-100,4,2,1,60,0,0
423004,-80,4,2,1,70,0,0
444180,-95.2380952380952,4,2,1,65,0,0
451151,-80,4,2,1,65,0,0
462533,-80,4,2,1,75,0,1
483710,363.636363636363,4,2,1,50,1,0
483710,-80,4,2,1,50,0,0
484437,368.098159509202,4,2,1,50,1,0
484437,-80,4,2,1,50,0,0
484621,338.983050847457,4,2,1,50,1,0
484621,-80,4,2,1,50,0,0
484790,348.837209302325,4,2,1,50,1,0
484790,-80,4,2,1,50,0,0
485138,352.941176470588,4,2,1,55,1,0
485138,-80,4,2,1,55,0,0
522549,-133.333333333333,4,2,1,55,0,0
522902,-66.6666666666667,4,2,1,55,0,0
523255,-80,4,2,1,55,0,0
527491,-80,4,2,1,60,0,0
538785,-80,4,2,1,70,0,1
558549,-80,4,2,1,60,0,0
567020,-80,4,2,1,55,0,0
588902,-100,4,2,1,60,0,0
589255,-133.333333333333,4,2,1,60,0,0
589608,-80,4,2,1,45,0,0
592432,-80,4,2,1,55,0,0
600902,-80,4,2,1,65,0,0
603726,-80,4,2,1,75,0,1
626314,-80,4,2,1,75,0,1
660196,-400,4,2,1,60,0,0
662314,353.982300884956,4,2,1,60,1,0
662314,-400,4,2,1,60,0,0
662667,357.142857142857,4,2,1,60,1,0
662667,-400,4,2,1,60,0,0
663024,363.636363636363,4,2,1,60,1,0
663751,359.820089955022,4,2,1,60,1,0
664470,363.086232980332,4,2,1,60,1,0
664833,372.093023255814,4,2,1,60,1,0
665205,374.414976599064,4,2,1,60,1,0
665579,388.349514563106,4,2,1,60,1,0
665967,363.086232980333,4,2,1,60,1,0
666330,367.534456355284,4,2,1,60,1,0
666513,399.334442595674,4,2,1,60,1,0
666712,411.663807890223,4,2,1,60,1,0
667123,410.256410256411,4,2,1,60,1,0
667533,363.636363636363,4,2,1,60,1,0
667714,384,4,2,1,60,1,0
667906,401.33779264214,4,2,1,60,1,0
668106,388.349514563107,4,2,1,60,1,0
668300,404.040404040404,4,2,1,60,1,0
668502,403.361344537815,4,2,1,60,1,0
668906,433.212996389891,4,2,1,60,1,0
669123,361.44578313253,4,2,1,65,1,0
715388,-100,4,2,1,70,0,0
761653,-100,4,2,1,75,0,0
807918,-100,4,2,1,70,0,0
831050,-100,4,2,1,65,0,0

[Colours]
Combo1 : 43,86,234
Combo2 : 215,215,215
Combo3 : 163,163,173
Combo4 : 63,109,233

[HitObjects]
93,347,39027,5,6,0:0:0:0:
93,347,39203,1,8,0:0:0:0:
53,272,39379,2,0,L|59:184,1,85,8|8,0:0|0:0,0:0:0:0:
58,187,39622,1,8,0:0:0:0:
58,187,39710,5,8,0:0:0:0:
205,101,39886,2,0,L|200:159,1,42.5,8|0,0:0|0:0,0:0:0:0:
204,235,40062,1,8,0:0:0:0:
204,235,40150,1,8,0:0:0:0:
204,235,40238,1,8,0:0:0:0:
343,304,40415,5,6,1:2:0:0:
356,314,40504,1,2,1:2:0:0:
371,320,40592,1,6,1:2:0:0:
387,322,40680,1,2,1:2:0:0:
403,320,40768,1,2,1:2:0:0:
419,315,40857,1,2,1:2:0:0:
432,304,40945,1,2,1:2:0:0:
442,290,41033,1,2,1:2:0:0:
447,273,41121,5,6,1:2:0:0:
430,276,41210,1,2,1:2:0:0:
409,278,41298,1,2,1:2:0:0:
383,282,41386,1,2,1:2:0:0:
353,285,41474,1,2,1:2:0:0:
318,288,41563,1,2,1:2:0:0:
280,292,41651,1,2,1:2:0:0:
237,296,41739,1,2,1:2:0:0:
190,301,41827,5,14,1:2:0:0:
189,290,41916,1,0,1:2:0:0:
188,279,42004,1,0,1:2:0:0:
187,268,42092,1,0,1:2:0:0:
186,257,42180,1,8,1:2:0:0:
185,246,42269,1,0,1:2:0:0:
184,235,42357,1,0,1:2:0:0:
184,224,42445,1,0,1:2:0:0:
183,213,42533,1,8,1:2:0:0:
182,202,42622,1,0,1:2:0:0:
181,191,42710,1,0,1:2:0:0:
180,180,42798,1,0,1:2:0:0:
179,169,42886,6,0,L|175:117,1,53.125,10|0,1:2|1:2,1:2:0:0:
262,80,43063,2,0,L|266:132,1,53.125,2|0,1:2|1:2,1:2:0:0:
347,176,43239,5,10,1:2:0:0:
368,179,43328,1,0,1:2:0:0:
388,182,43416,1,0,1:2:0:0:
408,185,43504,1,0,1:2:0:0:
428,188,43592,1,8,1:2:0:0:
448,191,43680,1,0,1:2:0:0:
469,194,43769,1,0,1:2:0:0:
489,198,43857,1,0,1:2:0:0:
509,202,43945,6,0,P|502:225|479:250,3,53.125,10|0|0|0,1:2|1:2|1:2|1:2,1:2:0:0:
512,324,44298,2,0,P|488:330|454:323,1,53.125,10|0,1:2|1:2,1:2:0:0:
402,384,44475,2,0,P|384:366|374:334,1,53.125,10|0,1:2|1:2,1:2:0:0:
237,215,44651,5,14,1:2:0:0:
258,213,44739,1,0,1:2:0:0:
279,211,44828,1,0,1:2:0:0:
300,209,44916,1,0,1:2:0:0:
320,206,45004,1,8,1:2:0:0:
341,204,45092,1,0,1:2:0:0:
362,202,45180,1,0,1:2:0:0:
383,200,45269,1,0,1:2:0:0:
404,198,45357,1,8,1:2:0:0:
425,195,45445,1,0,1:2:0:0:
445,191,45533,1,0,1:2:0:0:
466,189,45622,1,0,1:2:0:0:
487,187,45710,6,0,L|481:129,1,53.125,10|0,1:2|1:2,1:2:0:0:
384,93,45886,2,0,L|378:40,1,53.125,10|0,1:2|1:2,1:2:0:0:
291,144,46063,5,10,1:2:0:0:
280,145,46151,1,0,1:2:0:0:
269,147,46239,1,0,1:2:0:0:
258,148,46328,1,0,1:2:0:0:
247,149,46416,1,8,1:2:0:0:
236,151,46504,1,0,1:2:0:0:
225,153,46592,1,0,1:2:0:0:
214,154,46680,1,0,1:2:0:0:
203,156,46769,6,0,L|209:224,3,53.125,10|0|0|0,1:2|1:2|1:2|1:2,1:2:0:0:
112,242,47122,2,0,L|117:190,3,53.125,10|0|0|0,1:2|1:2|1:2|1:2,1:2:0:0:
102,351,47475,5,14,1:2:0:0:
125,372,47563,1,0,1:2:0:0:
154,383,47651,1,0,1:2:0:0:
185,383,47739,1,0,1:2:0:0:
214,371,47828,1,8,1:2:0:0:
242,356,47916,1,0,1:2:0:0:
259,329,48004,1,0,1:2:0:0:
269,298,48092,1,0,1:2:0:0:
269,266,48180,1,8,1:2:0:0:
257,235,48269,1,0,1:2:0:0:
231,213,48357,1,0,1:2:0:0:
201,200,48445,1,0,1:2:0:0:
169,199,48533,6,0,L|113:205,1,53.125,10|0,1:2|1:2,1:2:0:0:
19,300,48710,2,0,L|71:295,1,53.125,2|0,1:2|1:2,1:2:0:0:
191,352,48886,5,10,1:2:0:0:
212,349,48975,1,0,1:2:0:0:
232,345,49063,1,0,1:2:0:0:
253,342,49151,1,0,1:2:0:0:
274,340,49239,1,8,1:2:0:0:
295,337,49327,1,0,1:2:0:0:
316,333,49416,2,0,L|310:276,1,53.125,2|0,1:2|1:2,1:2:0:0:
392,212,49592,5,10,1:2:0:0:
393,201,49680,1,0,1:2:0:0:
395,190,49769,1,0,1:2:0:0:
397,179,49857,1,0,1:2:0:0:
399,168,49945,1,8,1:2:0:0:
400,157,50033,1,0,1:2:0:0:
402,146,50122,1,0,1:2:0:0:
404,135,50210,1,0,1:2:0:0:
406,124,50298,5,14,1:2:0:0:
385,129,50386,1,0,1:2:0:0:
363,133,50475,1,0,1:2:0:0:
342,139,50563,1,0,1:2:0:0:
321,143,50651,1,8,1:2:0:0:
300,147,50739,1,0,1:2:0:0:
279,151,50827,2,0,L|272:83,1,53.125,2|0,1:2|1:2,1:2:0:0:
191,54,51004,5,10,1:2:0:0:
191,64,51092,2,0,L|187:126,1,53.125,0|0,1:2|1:2,1:2:0:0:
102,162,51269,1,2,1:2:0:0:
101,151,51357,2,0,L|97:97,1,53.125,8|0,1:2|1:2,1:2:0:0:
12,63,51533,2,0,L|8:116,1,53.125,2|0,1:2|1:2,1:2:0:0:
178,229,51710,5,10,1:2:0:0:
158,233,51798,1,0,1:2:0:0:
138,238,51886,1,0,1:2:0:0:
117,243,51975,1,0,1:2:0:0:
97,247,52063,1,8,1:2:0:0:
77,252,52151,1,0,1:2:0:0:
57,257,52239,1,0,1:2:0:0:
38,260,52327,1,0,1:2:0:0:
17,264,52416,5,0,1:2:0:0:
33,284,52504,1,2,1:2:0:0:
50,295,52592,1,2,1:2:0:0:
70,298,52680,1,2,1:2:0:0:
91,293,52769,1,2,1:2:0:0:
113,278,52857,1,2,1:2:0:0:
133,253,52945,1,2,1:2:0:0:
166,237,53033,1,2,1:2:0:0:
207,247,53122,5,14,1:2:0:0:
199,288,53210,1,0,1:2:0:0:
176,323,53298,1,0,1:2:0:0:
136,339,53386,1,0,1:2:0:0:
93,342,53475,1,8,1:2:0:0:
54,325,53563,1,0,1:2:0:0:
26,293,53651,1,0,1:2:0:0:
17,251,53739,1,0,1:2:0:0:
23,209,53827,1,8,1:2:0:0:
50,175,53916,1,0,1:2:0:0:
87,155,54004,1,0,1:2:0:0:
129,153,54092,1,0,1:2:0:0:
167,169,54180,6,0,L|161:236,1,53.125,10|0,1:2|1:2,1:2:0:0:
74,256,54357,2,0,L|68:189,1,53.125,10|0,1:2|1:2,1:2:0:0:
179,70,54533,5,10,1:2:0:0:
217,51,54622,1,0,1:2:0:0:
259,47,54710,1,0,1:2:0:0:
298,62,54798,1,0,1:2:0:0:
329,90,54886,1,8,1:2:0:0:
346,129,54975,1,0,1:2:0:0:
341,171,55063,1,0,1:2:0:0:
321,208,55151,1,0,1:2:0:0:
285,230,55239,5,10,1:2:0:0:
268,191,55327,1,0,1:2:0:0:
273,149,55416,1,0,1:2:0:0:
293,112,55504,1,0,1:2:0:0:
329,90,55592,6,0,L|400:99,1,53.125,10|0,1:2|1:2,1:2:0:0:
373,189,55769,2,0,L|425:182,1,53.125,2|0,1:2|1:2,1:2:0:0:
487,21,55945,5,14,1:2:0:0:
438,0,56033,1,0,1:2:0:0:
384,6,56122,1,0,1:2:0:0:
344,41,56210,1,0,1:2:0:0:
326,90,56298,1,8,1:2:0:0:
337,141,56386,1,0,1:2:0:0:
373,179,56475,1,0,1:2:0:0:
424,192,56563,1,0,1:2:0:0:
463,227,56651,1,8,1:2:0:0:
479,277,56739,1,0,1:2:0:0:
467,328,56827,1,0,1:2:0:0:
428,364,56916,1,0,1:2:0:0:
376,374,57004,6,0,P|350:372|327:358,1,53.125,10|0,1:2|1:2,1:2:0:0:
238,334,57180,2,0,P|226:310|227:283,1,53.125,2|0,1:2|1:2,1:2:0:0:
414,180,57357,5,10,1:2:0:0:
372,187,57445,1,0,1:2:0:0:
329,192,57533,1,0,1:2:0:0:
286,199,57622,1,0,1:2:0:0:
244,206,57710,1,8,1:2:0:0:
202,211,57798,1,0,1:2:0:0:
160,217,57886,1,0,1:2:0:0:
117,223,57975,1,0,1:2:0:0:
75,229,58063,5,10,1:2:0:0:
76,239,58151,1,8,1:2:0:0:
77,249,58239,1,8,1:2:0:0:
78,259,58327,1,8,1:2:0:0:
79,269,58416,1,8,1:2:0:0:
80,279,58504,1,8,1:2:0:0:
82,289,58592,1,8,1:2:0:0:
83,299,58680,1,8,1:2:0:0:
85,309,58769,6,0,L|140:304,1,53.125,4|0,1:2|0:0,0:0:0:0:
191,381,58945,2,0,L|246:376,1,53.125,4|0,1:2|0:0,0:0:0:0:
278,266,59122,1,8,0:2:0:0:
278,266,59210,1,8,0:2:0:0:
278,266,59298,2,8,L|333:261,1,53.125,8|8,0:2|0:2,0:2:0:0:
412,384,59475,6,0,L|407:329,1,53.125,4|0,1:2|0:0,0:0:0:0:
484,278,59651,2,0,L|479:223,1,53.125,4|0,1:2|0:0,0:0:0:0:
369,191,59827,1,8,0:2:0:0:
369,191,59916,1,8,0:2:0:0:
369,191,60004,2,8,L|364:136,1,53.125,8|8,0:2|0:2,0:2:0:0:
465,56,60180,6,0,L|406:61,1,53.125,4|0,1:2|0:0,0:0:0:0:
364,138,60357,2,0,L|305:143,1,53.125,4|0,1:2|0:0,0:0:0:0:
240,96,60533,1,8,0:2:0:0:
240,96,60622,1,8,0:2:0:0:
240,96,60710,2,8,L|181:101,1,53.125,8|8,0:2|0:2,0:2:0:0:
98,0,60886,6,0,L|103:58,1,53.125,4|0,1:2|0:0,0:0:0:0:
34,114,61063,2,0,L|39:172,1,53.125,4|0,1:2|0:0,0:0:0:0:
109,236,61239,1,8,0:2:0:0:
109,236,61327,1,8,0:2:0:0:
109,236,61416,2,8,L|114:294,1,53.125,8|8,0:2|0:2,0:2:0:0:
169,366,61592,5,6,1:2:0:0:
211,360,61680,1,2,1:2:0:0:
253,352,61769,1,2,1:2:0:0:
294,345,61857,1,2,1:2:0:0:
335,337,61945,5,10,1:2:0:0:
329,305,62033,1,2,1:2:0:0:
322,273,62122,1,2,1:2:0:0:
317,241,62210,1,2,1:2:0:0:
311,209,62298,5,10,1:2:0:0:
331,213,62386,1,2,1:2:0:0:
352,216,62475,1,2,1:2:0:0:
372,220,62563,1,2,1:2:0:0:
392,223,62651,5,10,1:2:0:0:
390,212,62739,1,2,1:2:0:0:
387,201,62827,1,2,1:2:0:0:
385,190,62916,1,2,1:2:0:0:
383,179,63004,5,14,1:2:0:0:
352,186,63092,1,10,1:2:0:0:
320,191,63180,1,10,1:2:0:0:
288,195,63269,1,10,1:2:0:0:
256,198,63357,1,10,1:2:0:0:
224,202,63445,1,10,1:2:0:0:
192,205,63533,1,10,1:2:0:0:
160,210,63622,1,10,1:2:0:0:
128,213,63710,5,6,1:2:0:0:
455,58,64063,1,10,0:2:0:0:
454,68,64151,1,8,0:2:0:0:
453,78,64239,1,8,0:2:0:0:
452,88,64327,1,8,0:2:0:0:
451,97,64416,6,0,L|444:201,1,93.5000028533936,4|8,1:2|0:2,0:0:0:0:
316,228,64769,1,2,0:2:0:0:
315,218,64857,2,0,L|307:132,1,46.7500014266968,0|8,1:2|0:2,0:0:0:0:
297,30,65122,5,2,1:2:0:0:
226,205,65298,1,8,0:2:0:0:
224,212,65386,1,2,1:2:0:0:
133,106,65563,1,0,1:2:0:0:
137,99,65651,1,8,0:2:0:0:
4,198,65827,6,0,L|104:214,1,93.5000028533936,2|8,1:2|0:2,0:0:0:0:
112,356,66180,1,2,0:2:0:0:
102,354,66269,2,0,L|13:341,1,46.7500014266968,0|10,1:2|0:2,0:0:0:0:
111,194,66533,5,0,1:2:0:0:
196,342,66710,1,10,0:2:0:0:
194,331,66798,1,0,1:2:0:0:
279,165,66975,1,0,1:2:0:0:
281,176,67063,1,8,0:2:0:0:
437,316,67239,6,0,L|342:301,1,93.5000028533936,2|8,1:2|0:2,0:0:0:0:
373,123,67592,1,2,0:2:0:0:
373,123,67680,1,0,1:2:0:0:
373,123,67769,6,0,L|468:138,1,93.5000028533936,10|0,0:2|1:2,0:0:0:0:
269,271,68122,1,10,0:2:0:0:
267,281,68210,1,0,1:2:0:0:
212,103,68386,1,0,1:2:0:0:
214,93,68475,1,10,0:2:0:0:
3,172,68651,6,0,P|96:184|137:189,2,93.5000028533936,2|8|0,1:2|0:2|0:0,0:0:0:0:
31,357,69180,1,8,0:2:0:0:
34,345,69269,2,0,P|39:297|43:258,1,46.7500014266968,0|0,0:0|1:2,0:0:0:0:
232,95,69533,5,12,0:2:0:0:
230,113,69622,1,8,0:2:0:0:
228,131,69710,1,8,0:2:0:0:
226,149,69798,1,8,0:2:0:0:
224,167,69886,1,8,0:2:0:0:
222,185,69975,1,8,0:2:0:0:
220,203,70063,1,0,1:2:0:0:
145,294,70239,5,12,0:2:0:0:
84,101,70416,1,2,0:2:0:0:
84,101,70504,1,0,1:2:0:0:
84,101,70592,1,8,0:2:0:0:
278,205,70769,5,0,1:2:0:0:
80,240,70945,1,10,0:2:0:0:
69,242,71033,1,0,1:2:0:0:
180,109,71210,1,0,1:2:0:0:
186,101,71298,1,10,0:2:0:0:
339,272,71475,6,0,L|242:284,1,93.5000028533936,2|8,1:2|0:2,0:0:0:0:
227,384,71827,1,2,0:2:0:0:
238,382,71916,2,0,L|310:372,1,46.7500014266968,0|10,1:2|0:2,0:0:0:0:
406,360,72180,5,0,1:2:0:0:
330,191,72357,1,8,0:2:0:0:
326,181,72445,1,2,1:2:0:0:
504,290,72622,1,0,1:2:0:0:
500,302,72710,1,10,0:2:0:0:
482,160,72886,5,2,1:2:0:0:
482,160,73063,1,10,0:2:0:0:
339,272,73239,1,2,0:2:0:0:
410,74,73416,1,10,0:2:0:0:
428,240,73592,6,0,P|360:229|287:217,2,140.25000428009,2|2|10,1:2|1:2|0:2,0:0:0:0:
512,69,74298,2,0,P|467:61|415:52,1,93.5000028533936,2|8,1:2|0:2,0:0:0:0:
333,0,74563,1,0,0:0:0:0:
333,0,74651,2,0,B|307:36|307:36|319:83,1,93.5000028533936,0|8,0:0|0:2,0:0:0:0:
319,83,74916,1,0,1:2:0:0:
319,83,75004,1,0,1:2:0:0:
506,164,75180,6,0,P|483:160|459:156,1,46.7500014266968,8|0,0:2|0:0,0:0:0:0:
282,225,75357,1,8,0:2:0:0:
300,229,75445,1,8,0:2:0:0:
318,232,75533,1,8,0:2:0:0:
336,235,75622,1,8,0:2:0:0:
354,239,75710,6,0,P|348:288|341:347,1,93.5000028533936,4|8,1:2|0:2,0:0:0:0:
211,382,76063,1,2,0:2:0:0:
210,370,76151,2,0,P|205:325|200:279,1,46.7500014266968,0|8,1:2|0:2,0:0:0:0:
83,178,76416,5,2,1:2:0:0:
266,142,76592,1,8,0:2:0:0:
275,140,76680,1,0,1:2:0:0:
122,91,76857,1,0,1:2:0:0:
112,88,76945,1,8,0:2:0:0:
270,228,77122,6,0,P|318:221|377:212,1,93.5000028533936,2|8,1:2|0:2,0:0:0:0:
422,338,77475,1,2,0:2:0:0:
411,340,77563,2,0,L|323:352,1,46.7500014266968,0|10,1:2|0:2,0:0:0:0:
167,196,77827,5,0,1:2:0:0:
272,311,78004,1,10,0:2:0:0:
279,319,78092,1,0,1:2:0:0:
94,272,78269,1,0,1:2:0:0:
83,268,78357,1,10,0:2:0:0:
312,187,78533,6,0,P|305:139|298:94,1,93.5000028533936,2|8,1:2|0:2,0:0:0:0:
444,10,78886,1,2,0:2:0:0:
444,10,78975,1,0,1:2:0:0:
444,10,79063,6,0,P|451:56|459:103,1,93.5000028533936,10|0,0:2|1:2,0:0:0:0:
408,258,79416,1,10,0:2:0:0:
410,267,79504,1,0,1:2:0:0:
381,108,79680,1,0,1:2:0:0:
379,99,79769,1,10,0:2:0:0:
209,218,79945,6,0,P|113:207|72:202,2,93.5000028533936,2|8|0,1:2|0:2|0:0,0:0:0:0:
322,192,80475,1,8,0:2:0:0:
321,203,80563,2,0,P|316:248|311:289,1,46.7500014266968,0|0,0:0|1:2,0:0:0:0:
69,384,80827,5,12,0:2:0:0:
72,365,80916,1,8,0:2:0:0:
75,346,81004,1,8,0:2:0:0:
78,327,81092,1,8,0:2:0:0:
81,308,81180,1,8,0:2:0:0:
83,289,81269,1,8,0:2:0:0:
86,270,81357,1,0,1:2:0:0:
251,203,81533,5,14,0:2:0:0:
170,317,81710,1,0,0:0:0:0:
170,317,81798,1,0,1:2:0:0:
170,317,81886,1,10,0:2:0:0:
62,104,82063,5,2,1:2:0:0:
243,198,82239,1,10,0:2:0:0:
251,203,82327,1,0,1:2:0:0:
43,248,82504,1,0,1:2:0:0:
33,250,82592,1,10,0:2:0:0:
179,39,82769,6,0,P|172:83|165:131,1,93.5000028533936,2|8,1:2|0:2,0:0:0:0:
331,211,83122,1,2,0:2:0:0:
331,211,83210,1,0,1:2:0:0:
331,211,83298,6,0,P|338:164|346:118,1,93.5000028533936,10|0,0:2|1:2,0:0:0:0:
276,19,83651,1,10,0:2:0:0:
278,9,83739,1,0,1:2:0:0:
237,216,83916,1,0,1:2:0:0:
235,227,84004,1,8,0:2:0:0:
483,100,84180,6,0,P|405:110|312:122,2,140.25000428009,4|2|10,1:2|0:2|0:2,0:0:0:0:
367,354,84886,2,0,L|355:262,1,93.5000028533936,2|8,1:2|0:2,0:0:0:0:
435,209,85151,2,0,L|446:303,1,93.5000028533936,2|0,1:2|1:2,0:0:0:0:
456,380,85416,1,10,0:2:0:0:
168,326,85592,5,0,1:2:0:0:
162,318,85680,1,2,0:2:0:0:
156,304,85769,1,6,0:2:0:0:
154,285,85857,1,2,0:2:0:0:
157,261,85945,1,2,1:2:0:0:
171,237,86033,1,2,0:2:0:0:
199,221,86122,1,10,0:2:0:0:
235,215,86210,1,10,0:2:0:0:
274,230,86298,1,10,0:2:0:0:
304,259,86386,1,10,0:2:0:0:
341,264,86475,1,10,1:2:0:0:
373,257,86563,1,10,1:2:0:0:
394,239,86651,1,10,1:2:0:0:
406,219,86739,1,10,1:2:0:0:
413,201,86827,1,10,1:2:0:0:
413,186,86916,1,10,1:2:0:0:
408,178,87004,6,0,L|316:185,1,89.2499972763062,6|0,1:2|1:2,0:0:0:0:
265,260,87269,1,0,1:2:0:0:
265,260,87357,2,0,L|176:253,1,89.2499972763062,10|0,1:2|1:2,0:0:0:0:
109,197,87622,1,0,1:2:0:0:
109,197,87710,2,0,L|21:203,1,89.2499972763062,2|0,1:2|1:2,0:0:0:0:
20,203,87975,1,0,1:2:0:0:
20,203,88063,1,10,1:2:0:0:
96,18,88239,5,0,1:2:0:0:
96,18,88327,1,0,1:2:0:0:
96,18,88416,2,0,L|103:107,1,89.2499972763062,2|0,1:2|1:2,0:0:0:0:
186,157,88680,1,0,1:2:0:0:
186,157,88769,2,0,L|192:69,1,89.2499972763062,10|2,1:2|1:2,0:0:0:0:
271,15,89033,1,0,1:2:0:0:
271,15,89122,2,0,L|277:105,1,89.2499972763062,0|0,1:2|1:2,1:2:0:0:
354,161,89386,1,0,1:2:0:0:
354,161,89475,2,0,L|361:72,1,89.2499972763062,10|0,1:2|1:2,1:2:0:0:
443,16,89739,1,0,1:2:0:0:
443,16,89827,6,0,P|484:30|512:64,1,89.2499972763062,2|0,1:2|1:2,1:2:0:0:
512,160,90092,1,0,1:2:0:0:
512,160,90180,2,0,P|478:188|435:195,1,89.2499972763062,8|2,1:2|1:2,1:2:0:0:
354,161,90445,1,0,1:2:0:0:
354,161,90533,2,0,P|345:117|361:76,1,89.2499972763062,0|0,1:2|1:2,1:2:0:0:
361,76,90798,1,0,1:2:0:0:
361,76,90886,1,10,1:2:0:0:
506,243,91063,5,2,1:2:0:0:
506,243,91151,1,0,1:2:0:0:
506,243,91239,2,0,P|514:286|499:327,1,89.2499972763062,2|0,1:2|1:2,1:2:0:0:
498,327,91504,1,0,1:2:0:0:
498,327,91592,1,8,1:2:0:0:
215,257,91769,6,0,L|168:252,2,44.6249986381531,0|0|0,1:2|1:2|1:2,1:2:0:0:
433,280,92122,2,0,L|388:284,1,44.6249986381531,0|0,1:2|1:2,1:2:0:0:
300,292,92298,1,12,1:2:0:0:
450,188,92475,2,0,L|405:191,1,44.6249986381531,0|0,1:2|1:2,1:2:0:0:
306,380,92651,6,0,L|299:288,1,89.2499972763062,4|0,1:2|1:2,1:2:0:0:
224,237,92916,1,0,1:2:0:0:
224,237,93004,2,0,L|231:148,1,89.2499972763062,10|0,1:2|1:2,1:2:0:0:
297,90,93269,1,0,1:2:0:0:
297,90,93357,2,0,L|291:1,1,89.2499972763062,2|0,1:2|1:2,1:2:0:0:
290,0,93622,1,0,1:2:0:0:
290,0,93710,1,10,1:2:0:0:
51,90,93886,5,0,1:2:0:0:
51,90,93975,1,0,1:2:0:0:
51,90,94063,2,0,L|144:98,1,89.2499972763062,2|0,1:2|1:2,1:2:0:0:
176,193,94327,1,0,1:2:0:0:
176,192,94416,2,0,L|87:184,1,89.2499972763062,10|2,1:2|1:2,1:2:0:0:
36,288,94680,1,0,1:2:0:0:
35,288,94769,2,0,L|123:280,1,89.2499972763062,0|0,1:2|1:2,1:2:0:0:
273,329,95033,1,0,1:2:0:0:
273,329,95122,2,0,L|265:236,1,89.2499972763062,10|0,1:2|1:2,1:2:0:0:
264,231,95386,1,0,1:2:0:0:
263,221,95475,5,6,1:2:0:0:
424,301,95651,1,0,1:2:0:0:
416,306,95739,1,0,1:2:0:0:
409,311,95827,1,10,1:2:0:0:
397,134,96004,1,2,1:2:0:0:
405,138,96092,1,0,1:2:0:0:
413,142,96180,1,4,1:2:0:0:
310,317,96357,6,0,L|259:322,2,44.6249986381531,2|0|10,1:2|1:2|1:2,1:2:0:0:
511,210,96710,2,0,L|455:215,1,44.6249986381531,2|0,1:2|1:2,1:2:0:0:
400,349,96886,6,0,L|392:259,1,89.2499972763062,6|0,1:2|1:2,1:2:0:0:
384,189,97151,1,0,1:2:0:0:
383,181,97239,1,8,1:2:0:0:
472,75,97416,6,0,L|476:131,1,44.6249986381531,0|0,1:2|1:2,1:2:0:0:
289,242,97592,1,12,1:2:0:0:
256,256,97680,1,8,1:2:0:0:
220,252,97769,1,8,1:2:0:0:
191,230,97857,1,8,1:2:0:0:
173,199,97945,1,8,1:2:0:0:
169,163,98033,1,8,1:2:0:0:
182,129,98122,1,8,1:2:0:0:
210,107,98210,1,8,1:2:0:0:
244,97,98298,5,4,1:2:0:0:
251,113,98386,1,0,1:2:0:0:
255,130,98475,1,0,1:2:0:0:
254,147,98563,1,0,1:2:0:0:
246,163,98651,6,0,P|202:169|155:176,1,89.2499972763062,10|0,1:2|1:2,1:2:0:0:
0,259,98916,1,0,1:2:0:0:
0,259,99004,2,0,P|44:253|91:246,1,89.2499972763062,10|0,1:2|1:2,1:2:0:0:
152,302,99269,1,2,1:2:0:0:
152,302,99357,5,8,1:2:0:0:
222,159,99533,2,0,P|195:163|162:168,1,44.6249986381531,2|0,1:2|1:2,1:2:0:0:
87,347,99710,6,0,P|119:377|175:373,1,89.2499972763062,2|0,1:2|1:2,1:2:0:0:
162,378,99975,1,0,1:2:0:0:
162,378,100063,1,10,1:2:0:0:
392,228,100239,1,2,1:2:0:0:
392,228,100327,1,0,1:2:0:0:
392,228,100416,2,0,P|347:234|303:240,1,89.2499972763062,0|0,1:2|1:2,1:2:0:0:
303,240,100680,1,0,1:2:0:0:
303,240,100769,1,10,1:2:0:0:
134,199,100945,2,0,P|156:195|178:192,1,44.6249986381531,0|0,1:2|1:2,1:2:0:0:
353,112,101122,5,4,1:2:0:0:
201,0,101298,1,0,1:2:0:0:
201,0,101386,1,0,1:2:0:0:
201,0,101475,2,0,P|207:44|213:88,1,89.2499972763062,10|0,1:2|1:2,1:2:0:0:
350,213,101739,1,0,1:2:0:0:
350,213,101827,2,0,P|343:168|337:124,1,89.2499972763062,6|2,1:2|1:2,1:2:0:0:
369,53,102092,1,0,1:2:0:0:
369,53,102180,1,8,1:2:0:0:
207,187,102357,2,0,P|229:183|251:180,1,44.6249986381531,2|0,1:2|1:2,1:2:0:0:
495,203,102533,6,0,P|453:190|428:139,1,89.2499972763062,6|0,1:2|1:2,1:2:0:0:
429,153,102798,1,0,1:2:0:0:
429,153,102886,1,10,1:2:0:0:
146,278,103063,1,2,1:2:0:0:
146,278,103151,1,0,1:2:0:0:
146,278,103239,2,0,P|190:284|234:290,1,89.2499972763062,4|0,1:2|1:2,1:2:0:0:
234,290,103504,1,0,1:2:0:0:
234,290,103592,1,10,1:2:0:0:
436,160,103769,2,0,P|412:157|382:152,1,44.6249986381531,0|0,1:2|1:2,1:2:0:0:
260,183,103945,5,6,1:2:0:0:
263,165,104033,1,2,1:2:0:0:
265,147,104122,1,2,1:2:0:0:
267,129,104210,1,2,1:2:0:0:
269,111,104298,1,10,1:2:0:0:
380,269,104475,1,2,1:2:0:0:
380,269,104563,1,0,1:2:0:0:
380,269,104651,6,0,P|373:313|367:357,1,89.2499972763062,0|0,1:2|1:2,1:2:0:0:
458,384,104916,1,0,1:2:0:0:
458,384,105004,2,0,P|464:339|470:295,1,89.2499972763062,10|0,1:2|1:2,1:2:0:0:
487,144,105269,1,0,1:2:0:0:
487,144,105357,6,0,P|442:150|398:156,1,89.2499972763062,2|0,1:2|1:2,1:2:0:0:
324,167,105622,1,0,1:2:0:0:
315,169,105710,1,10,1:2:0:0:
104,74,105886,2,0,P|130:71|158:67,1,44.6249986381531,2|0,1:2|1:2,1:2:0:0:
337,0,106063,2,0,P|361:44|346:90,1,89.2499972763062,0|0,1:2|1:2,1:2:0:0:
246,224,106327,1,0,1:2:0:0:
246,224,106416,2,0,P|239:179|233:135,1,89.2499972763062,10|0,1:2|1:2,1:2:0:0:
223,63,106680,1,0,1:2:0:0:
221,54,106769,5,2,1:2:0:0:
105,188,106945,1,0,1:2:0:0:
87,184,107033,1,0,1:2:0:0:
69,180,107122,1,10,1:2:0:0:
268,234,107298,1,2,1:2:0:0:
285,231,107386,1,0,1:2:0:0:
302,228,107475,6,0,P|300:207|297:184,3,44.6249986381531,0|0|0|0,1:2|0:0|1:2|1:2,0:0:0:0:
377,304,107827,2,0,P|375:325|372:348,3,44.6249986381531,8|0|0|0,1:2|0:0|1:2|1:2,0:0:0:0:
436,212,108180,6,2,P|413:214|391:217,1,44.6249986381531,6|2,1:2|0:0,0:0:0:0:
282,318,108357,1,6,1:2:0:0:
264,320,108445,1,2,0:2:0:0:
246,322,108533,1,10,0:2:0:0:
228,325,108622,1,2,0:2:0:0:
210,327,108710,1,2,0:2:0:0:
192,329,108798,1,2,0:2:0:0:
174,331,108886,5,14,0:2:0:0:
190,316,108975,1,2,0:2:0:0:
199,291,109063,1,10,0:2:0:0:
199,259,109151,1,10,0:2:0:0:
187,225,109239,1,10,0:2:0:0:
156,198,109327,1,10,0:2:0:0:
111,192,109416,1,10,0:2:0:0:
67,213,109504,1,10,0:2:0:0:
42,260,109592,6,0,L|87:256,1,44.6249986381531,6|0,1:2|1:2,1:2:0:0:
151,321,109769,2,0,L|197:326,1,44.6249986381531,6|0,1:2|1:2,1:2:0:0:
254,246,109945,1,10,1:2:0:0:
254,246,110033,1,10,1:2:0:0:
254,246,110122,2,0,L|301:241,1,44.6249986381531,2|2,1:2|1:2,1:2:0:0:
510,368,110298,6,0,L|505:321,1,44.6249986381531,6|0,1:2|1:2,1:2:0:0:
414,180,110475,2,0,L|418:225,1,44.6249986381531,6|0,1:2|1:2,1:2:0:0:
356,384,110651,1,10,1:2:0:0:
356,384,110739,1,10,1:2:0:0:
356,384,110827,2,0,L|351:340,1,44.6249986381531,2|2,1:2|1:2,1:2:0:0:
462,219,111004,6,0,L|415:224,1,44.6249986381531,2|0,1:2|1:2,1:2:0:0:
271,337,111180,2,0,L|227:332,1,44.6249986381531,4|0,1:2|1:2,1:2:0:0:
86,288,111357,1,10,1:2:0:0:
77,286,111445,1,2,1:2:0:0:
68,284,111533,1,2,1:2:0:0:
59,281,111622,1,2,1:2:0:0:
50,279,111710,5,14,1:2:0:0:
76,277,111798,1,10,1:2:0:0:
102,271,111886,1,10,1:2:0:0:
132,265,111975,1,10,1:2:0:0:
167,260,112063,1,10,1:2:0:0:
206,254,112151,1,10,1:2:0:0:
250,249,112239,1,10,1:2:0:0:
298,241,112327,1,10,1:2:0:0:
356,233,112416,5,4,1:2:0:0:
373,271,112504,1,0,1:2:0:0:
367,313,112592,1,0,1:2:0:0:
345,349,112680,1,0,1:2:0:0:
308,371,112769,1,10,1:2:0:0:
266,379,112857,1,0,1:2:0:0:
225,365,112945,1,0,1:2:0:0:
194,335,113033,1,0,1:2:0:0:
178,295,113122,1,10,1:2:0:0:
185,253,113210,1,0,1:2:0:0:
208,217,113298,1,0,1:2:0:0:
243,193,113386,1,0,1:2:0:0:
265,156,113475,1,10,1:2:0:0:
269,113,113563,1,0,1:2:0:0:
254,73,113651,1,2,1:2:0:0:
221,46,113739,1,0,1:2:0:0:
180,33,113827,5,8,1:2:0:0:
153,66,113916,1,0,1:2:0:0:
144,107,114004,1,0,1:2:0:0:
152,148,114092,1,0,1:2:0:0:
177,182,114180,1,8,1:2:0:0:
214,201,114269,1,0,1:2:0:0:
256,204,114357,1,0,1:2:0:0:
295,187,114445,1,0,1:2:0:0:
326,158,114533,1,8,1:2:0:0:
337,116,114622,1,0,1:2:0:0:
331,73,114710,6,0,P|306:75|275:79,1,53.125,2|0,1:2|1:2,1:2:0:0:
219,136,114886,2,0,P|194:138|163:142,1,53.125,10|0,1:2|1:2,1:2:0:0:
105,202,115063,2,0,P|80:204|49:208,1,53.125,2|0,1:2|1:2,1:2:0:0:
230,345,115239,5,10,1:2:0:0:
252,366,115327,1,0,1:2:0:0:
283,376,115416,1,0,1:2:0:0:
316,372,115504,1,0,1:2:0:0:
340,351,115592,1,10,1:2:0:0:
353,321,115680,1,0,1:2:0:0:
351,287,115769,1,2,1:2:0:0:
333,260,115857,1,0,1:2:0:0:
303,244,115945,1,8,1:2:0:0:
285,217,116033,1,0,1:2:0:0:
281,184,116122,1,2,1:2:0:0:
295,154,116210,1,0,1:2:0:0:
321,134,116298,1,8,1:2:0:0:
353,129,116386,1,0,1:2:0:0:
385,136,116475,1,2,1:2:0:0:
407,161,116563,1,0,1:2:0:0:
418,190,116651,2,0,L|412:245,3,53.125,8|0|0|0,1:2|1:2|1:2|1:2,1:2:0:0:
482,302,117004,5,10,1:2:0:0:
482,302,117092,1,0,1:2:0:0:
482,302,117180,2,0,P|462:320|432:327,1,53.125,0|0,1:2|1:2,1:2:0:0:
378,380,117357,1,14,1:2:0:0:
378,380,117445,1,0,1:2:0:0:
378,380,117533,2,0,P|352:372|331:349,1,53.125,0|0,1:2|1:2,1:2:0:0:
261,338,117710,1,14,1:2:0:0:
261,338,117798,1,0,1:2:0:0:
261,338,117886,2,0,P|255:312|264:282,1,53.125,0|0,1:2|1:2,1:2:0:0:
332,203,118063,5,14,1:2:0:0:
353,179,118151,1,0,1:2:0:0:
362,148,118239,1,0,1:2:0:0:
356,116,118327,1,0,1:2:0:0:
339,88,118416,1,10,1:2:0:0:
312,70,118504,1,0,1:2:0:0:
280,64,118592,1,0,1:2:0:0:
248,70,118680,1,0,1:2:0:0:
222,88,118769,1,10,1:2:0:0:
199,110,118857,1,0,1:2:0:0:
168,118,118945,1,0,1:2:0:0:
136,112,119033,1,0,1:2:0:0:
109,93,119122,1,8,1:2:0:0:
94,64,119210,1,0,1:2:0:0:
93,32,119298,2,0,L|154:38,1,53.125,2|0,1:2|1:2,1:2:0:0:
251,125,119475,5,8,1:2:0:0:
272,123,119563,1,0,1:2:0:0:
293,121,119651,1,0,1:2:0:0:
314,118,119739,1,0,1:2:0:0:
335,116,119827,6,0,L|395:110,3,53.125,10|0|0|0,1:2|1:2|1:2|1:2,1:2:0:0:
491,197,120180,2,0,L|455:148,3,53.125,10|0|0|0,1:2|1:2|1:2|1:2,1:2:0:0:
483,23,120533,2,0,L|458:77,3,53.125,10|0|0|0,1:2|1:2|1:2|1:2,1:2:0:0:
394,196,120886,5,10,1:2:0:0:
394,196,120975,1,0,1:2:0:0:
394,196,121063,2,0,L|328:203,1,53.125,0|0,1:2|1:2,1:2:0:0:
302,284,121239,5,10,1:2:0:0:
302,284,121327,1,0,1:2:0:0:
302,284,121416,2,0,L|368:291,1,53.125,2|0,1:2|1:2,1:2:0:0:
289,105,121592,5,8,1:2:0:0:
289,105,121680,1,0,1:2:0:0:
289,105,121769,2,0,L|223:112,1,53.125,2|0,1:2|1:2,1:2:0:0:
197,193,121945,5,8,1:2:0:0:
197,193,122033,1,0,1:2:0:0:
197,193,122122,2,0,L|263:200,1,53.125,2|0,1:2|1:2,1:2:0:0:
461,277,122298,5,14,1:2:0:0:
442,332,122386,1,8,1:2:0:0:
396,360,122475,1,8,1:2:0:0:
348,356,122563,1,8,1:2:0:0:
314,329,122651,1,8,1:2:0:0:
299,294,122739,1,0,1:2:0:0:
301,262,122827,1,0,1:2:0:0:
314,238,122916,1,8,1:2:0:0:
328,222,123004,5,8,1:2:0:0:
344,249,123092,1,0,1:2:0:0:
349,280,123180,1,8,1:2:0:0:
338,310,123269,1,8,1:2:0:0:
314,329,123357,1,8,1:2:0:0:
285,343,123445,1,8,1:2:0:0:
253,340,123533,1,8,1:2:0:0:
225,323,123622,1,8,1:2:0:0:
209,295,123710,5,12,1:2:0:0:
239,285,123798,1,0,1:2:0:0:
270,287,123886,1,0,1:2:0:0:
298,302,123975,1,0,1:2:0:0:
314,329,124063,1,10,1:2:0:0:
335,352,124151,1,0,1:2:0:0:
363,366,124239,1,0,1:2:0:0:
394,367,124327,1,0,1:2:0:0:
424,357,124416,1,10,1:2:0:0:
448,336,124504,1,0,1:2:0:0:
463,308,124592,1,0,1:2:0:0:
461,276,124680,1,0,1:2:0:0:
449,245,124769,1,10,1:2:0:0:
427,221,124857,1,0,1:2:0:0:
397,209,124945,1,2,1:2:0:0:
365,211,125033,1,0,1:2:0:0:
334,222,125122,5,8,1:2:0:0:
350,249,125210,1,0,1:2:0:0:
377,265,125298,1,0,1:2:0:0:
408,271,125386,1,0,1:2:0:0:
438,262,125475,1,8,1:2:0:0:
464,244,125563,1,0,1:2:0:0:
480,216,125651,1,0,1:2:0:0:
486,184,125739,1,0,1:2:0:0:
477,153,125827,1,8,1:2:0:0:
457,127,125916,1,0,1:2:0:0:
427,114,126004,6,0,L|375:119,1,53.125,2|0,1:2|1:2,1:2:0:0:
312,203,126180,2,0,L|244:197,1,53.125,10|0,1:2|1:2,1:2:0:0:
171,133,126357,2,0,L|118:137,1,53.125,2|0,1:2|1:2,1:2:0:0:
18,323,126533,5,14,1:2:0:0:
42,345,126622,1,0,1:2:0:0:
74,352,126710,1,0,1:2:0:0:
105,342,126798,1,0,1:2:0:0:
127,317,126886,1,10,1:2:0:0:
134,286,126975,1,0,1:2:0:0:
124,254,127063,1,2,1:2:0:0:
100,231,127151,1,0,1:2:0:0:
68,223,127239,1,8,1:2:0:0:
44,200,127327,1,0,1:2:0:0:
35,169,127416,1,2,1:2:0:0:
42,138,127504,1,0,1:2:0:0:
65,115,127592,1,8,1:2:0:0:
96,104,127680,1,0,1:2:0:0:
128,112,127769,1,2,1:2:0:0:
152,133,127857,1,0,1:2:0:0:
161,165,127945,2,0,P|142:184|105:192,3,53.125,8|0|0|0,1:2|1:2|1:2|1:2,1:2:0:0:
257,178,128298,5,8,1:2:0:0:
257,178,128386,1,0,1:2:0:0:
257,178,128475,2,0,P|264:203|259:229,1,53.125,0|0,1:2|1:2,1:2:0:0:
297,100,128651,1,8,1:2:0:0:
297,100,128739,1,0,1:2:0:0:
297,100,128827,2,0,P|322:106|342:124,1,53.125,2|0,1:2|1:2,1:2:0:0:
247,29,129004,1,10,1:2:0:0:
247,29,129092,1,0,1:2:0:0:
247,29,129180,2,0,P|265:10|290:2,1,53.125,2|0,1:2|1:2,1:2:0:0:
161,165,129357,5,14,1:2:0:0:
192,169,129445,1,0,1:2:0:0:
223,172,129533,1,0,1:2:0:0:
254,176,129622,1,0,1:2:0:0:
285,180,129710,1,8,1:2:0:0:
316,182,129798,1,0,1:2:0:0:
347,185,129886,2,0,L|415:191,1,53.125,2|0,1:2|1:2,1:2:0:0:
457,284,130063,5,10,1:2:0:0:
436,287,130151,1,0,1:2:0:0:
414,289,130239,1,0,1:2:0:0:
392,291,130327,1,0,1:2:0:0:
370,294,130416,6,0,L|302:300,1,53.125,8|0,1:2|1:2,1:2:0:0:
241,370,130592,2,0,L|173:364,1,53.125,0|0,1:2|1:2,1:2:0:0:
74,304,130769,5,8,1:2:0:0:
73,293,130857,1,0,1:2:0:0:
72,282,130945,1,0,1:2:0:0:
70,271,131033,1,0,1:2:0:0:
69,260,131122,2,0,L|63:195,3,53.125,10|0|0|0,1:2|1:2|1:2|1:2,1:2:0:0:
164,165,131475,5,10,1:2:0:0:
163,175,131563,2,0,L|161:229,1,53.125,0|0,1:2|1:2,1:2:0:0:
148,384,131739,1,2,1:2:0:0:
149,375,131827,2,0,L|153:320,1,53.125,8|0,1:2|1:2,1:2:0:0:
256,204,132004,2,0,L|261:256,1,53.125,2|0,1:2|1:2,1:2:0:0:
76,351,132180,5,14,1:2:0:0:
34,337,132269,1,0,1:2:0:0:
6,303,132357,1,0,1:2:0:0:
2,262,132445,1,0,1:2:0:0:
16,222,132533,1,10,1:2:0:0:
50,195,132622,1,0,1:2:0:0:
92,190,132710,1,2,1:2:0:0:
130,207,132798,1,0,1:2:0:0:
156,239,132886,6,0,L|210:244,1,53.125,8|0,1:2|1:2,1:2:0:0:
241,166,133063,2,0,L|187:162,1,53.125,0|0,1:2|1:2,1:2:0:0:
51,170,133239,2,0,L|105:166,1,53.125,8|0,1:2|1:2,1:2:0:0:
128,85,133416,2,0,L|75:88,1,53.125,0|0,1:2|1:2,1:2:0:0:
95,299,133592,5,12,1:2:0:0:
131,350,133680,1,8,1:2:0:0:
189,360,133769,1,8,1:2:0:0:
237,331,133857,1,8,1:2:0:0:
254,281,133945,1,8,1:2:0:0:
239,236,134033,1,0,1:2:0:0:
205,208,134122,1,0,1:2:0:0:
196,170,134210,1,8,1:2:0:0:
206,137,134298,1,8,1:2:0:0:
230,117,134386,1,0,1:2:0:0:
254,109,134475,1,8,1:2:0:0:
275,110,134563,1,8,1:2:0:0:
291,114,134651,1,8,1:2:0:0:
301,121,134739,1,8,1:2:0:0:
307,125,134827,1,8,1:2:0:0:
312,130,134916,1,8,1:2:0:0:
314,134,135004,5,14,1:2:0:0:
296,160,135092,1,0,1:2:0:0:
267,174,135180,1,0,1:2:0:0:
235,177,135269,1,0,1:2:0:0:
204,168,135357,1,8,1:2:0:0:
178,149,135445,1,0,1:2:0:0:
164,120,135533,1,0,1:2:0:0:
164,87,135622,1,0,1:2:0:0:
175,57,135710,1,8,1:2:0:0:
196,33,135798,1,0,1:2:0:0:
225,21,135886,6,0,P|252:24|281:27,1,53.125,2|0,1:2|1:2,1:2:0:0:
386,109,136063,2,0,P|359:106|330:103,1,53.125,10|0,1:2|1:2,1:2:0:0:
208,158,136239,2,0,P|235:161|264:164,1,53.125,2|0,1:2|1:2,1:2:0:0:
456,248,136416,5,14,1:2:0:0:
473,271,136504,1,0,1:2:0:0:
479,304,136592,1,0,1:2:0:0:
471,334,136680,1,0,1:2:0:0:
453,362,136769,1,8,1:2:0:0:
426,381,136857,1,0,1:2:0:0:
394,384,136945,1,0,1:2:0:0:
364,375,137033,1,0,1:2:0:0:
338,354,137122,1,8,1:2:0:0:
322,328,137210,1,0,1:2:0:0:
318,295,137298,1,0,1:2:0:0:
325,264,137386,1,0,1:2:0:0:
346,240,137475,6,0,P|349:213|352:182,1,53.125,10|0,1:2|1:2,1:2:0:0:
477,87,137651,2,0,P|474:114|471:145,1,53.125,2|0,1:2|1:2,1:2:0:0:
453,356,137827,5,14,1:2:0:0:
450,334,137916,1,0,1:2:0:0:
448,312,138004,1,0,1:2:0:0:
446,290,138092,1,0,1:2:0:0:
444,268,138180,1,0,1:2:0:0:
442,246,138269,1,0,1:2:0:0:
440,224,138357,5,14,1:2:0:0:
397,229,138445,1,0,1:2:0:0:
355,235,138533,1,0,1:2:0:0:
312,240,138622,1,0,1:2:0:0:
270,245,138710,1,0,1:2:0:0:
228,251,138798,1,0,1:2:0:0:
185,256,138886,5,14,1:2:0:0:
190,224,138975,1,0,1:2:0:0:
195,192,139063,1,0,1:2:0:0:
200,160,139151,1,0,1:2:0:0:
207,129,139239,5,10,1:2:0:0:
205,107,139327,1,0,1:2:0:0:
203,85,139416,1,0,1:2:0:0:
200,64,139504,1,0,1:2:0:0:
197,42,139592,6,0,L|139:46,1,53.125,4|0,1:2|1:2,1:2:0:0:
33,117,139769,1,0,1:2:0:0:
42,147,139857,1,8,1:2:0:0:
64,169,139945,1,8,1:2:0:0:
93,180,140033,1,0,1:2:0:0:
124,181,140122,1,0,1:2:0:0:
154,171,140210,1,8,1:2:0:0:
178,150,140298,2,0,L|231:145,1,53.125,10|8,1:2|1:2,1:2:0:0:
317,209,140475,2,0,L|370:204,1,53.125,10|0,1:2|1:2,1:2:0:0:
471,39,140651,5,14,1:2:0:0:
469,60,140739,1,0,1:2:0:0:
467,81,140827,1,0,1:2:0:0:
465,102,140916,1,0,1:2:0:0:
462,123,141004,1,8,1:2:0:0:
460,144,141092,1,0,1:2:0:0:
458,165,141180,1,0,1:2:0:0:
456,186,141269,1,0,1:2:0:0:
454,207,141357,1,8,1:2:0:0:
452,228,141445,1,0,1:2:0:0:
449,249,141533,1,0,1:2:0:0:
447,270,141622,1,0,1:2:0:0:
445,291,141710,6,0,L|392:286,1,53.125,10|0,1:2|1:2,1:2:0:0:
304,349,141886,2,0,L|251:344,1,53.125,2|0,1:2|1:2,1:2:0:0:
130,202,142063,5,14,1:2:0:0:
150,204,142151,1,0,1:2:0:0:
170,207,142239,1,0,1:2:0:0:
190,210,142327,1,0,1:2:0:0:
211,212,142416,1,8,1:2:0:0:
231,215,142504,1,0,1:2:0:0:
251,217,142592,1,0,1:2:0:0:
271,220,142680,1,0,1:2:0:0:
291,223,142769,5,14,1:2:0:0:
299,253,142857,1,0,1:2:0:0:
293,284,142945,1,8,1:2:0:0:
271,307,143033,1,8,1:2:0:0:
242,321,143122,1,8,1:2:0:0:
210,321,143210,1,8,1:2:0:0:
180,308,143298,1,8,1:2:0:0:
163,281,143386,1,8,1:2:0:0:
158,249,143475,5,10,1:2:0:0:
197,233,143563,1,0,1:2:0:0:
239,233,143651,1,0,1:2:0:0:
274,256,143739,1,0,1:2:0:0:
294,293,143827,1,0,1:2:0:0:
312,331,143916,1,0,1:2:0:0:
347,353,144004,1,0,1:2:0:0:
388,363,144092,1,0,1:2:0:0:
429,353,144180,1,8,1:2:0:0:
463,327,144269,1,0,1:2:0:0:
481,288,144357,1,0,1:2:0:0:
481,245,144445,1,0,1:2:0:0:
462,206,144533,2,0,P|459:175|456:138,3,53.125,0|0|0|0,1:2|1:2|1:2|1:2,1:2:0:0:
481,63,144886,5,14,0:2:0:0:
440,28,144975,1,8,0:2:0:0:
387,18,145063,1,8,0:2:0:0:
337,35,145151,1,8,0:2:0:0:
306,78,145239,1,8,0:2:0:0:
275,121,145327,1,8,0:2:0:0:
225,138,145416,1,8,0:2:0:0:
172,128,145504,1,8,0:2:0:0:
131,93,145592,6,0,P|128:57|124:15,2,70.8333333333333,4|0|0,1:2|1:2|1:2,1:2:0:0:
75,167,145945,6,0,P|77:196|80:232,2,56.6666666666667,0|0|0,1:2|1:2|1:2,1:2:0:0:
0,121,146298,6,0,L|206:136,1,203.999993774414,6|2,1:2|0:2,0:0:0:0:
294,185,147357,2,0,B|313:156|313:156|301:84,2,101.999996887207,2|4|2,0:0|0:2|0:0,0:0:0:0:
291,189,148151,1,2,0:0:0:0:
288,193,148239,1,2,0:0:0:0:
361,248,148416,5,10,0:2:0:0:
203,135,148592,1,2,1:2:0:0:
393,179,148769,1,10,1:2:0:0:
231,277,148945,1,2,1:2:0:0:
375,44,149122,6,0,L|360:250,1,203.999993774414,6|2,1:2|1:2,0:0:0:0:
360,247,150004,1,2,0:0:0:0:
468,221,150180,5,14,0:0:0:0:
347,344,150357,1,2,0:0:0:0:
271,128,150533,5,10,0:2:0:0:
433,299,150769,5,6,1:2:0:0:
203,353,151004,5,6,1:2:0:0:
322,232,151239,6,0,L|353:201,2,33.9999989624024,10|10|10,0:2|0:2|0:2,0:0:0:0:
296,258,151475,5,6,1:2:0:0:
77,171,151710,5,6,1:2:0:0:
376,9,151945,6,0,P|468:18|449:108,1,203.999993774414,6|2,1:2|1:2,0:0:0:0:
359,293,153004,2,0,P|367:188|376:71,1,203.999993774414,14|0,0:2|1:2,0:0:0:0:
374,89,153886,1,0,1:2:0:0:
470,199,154063,5,14,0:2:0:0:
359,291,154239,1,2,0:0:0:0:
466,299,154416,1,2,0:0:0:0:
367,192,154592,1,2,0:0:0:0:
264,358,154769,6,0,P|206:352|140:344,1,118.999996368408,6|0,1:2|0:0,0:0:0:0:
63,384,155298,1,0,1:2:0:0:
63,384,155475,2,0,P|59:352|55:322,1,59.4999981842042,10|2,1:2|0:0,0:0:0:0:
126,232,155827,1,14,1:2:0:0:
105,114,156004,1,2,0:0:0:0:
11,191,156180,5,2,1:2:0:0:
213,86,156357,1,8,0:2:0:0:
34,57,156533,1,0,1:2:0:0:
178,163,156710,1,0,1:2:0:0:
120,0,156886,6,0,P|124:32|128:62,1,59.4999981842042,10|2,0:2|0:0,0:0:0:0:
127,59,157151,1,2,0:0:0:0:
127,59,157239,1,2,0:2:0:0:
93,200,157416,1,10,0:2:0:0:
306,133,157592,6,0,P|244:141|188:148,1,118.999996368408,6|8,1:2|0:0,0:0:0:0:
167,240,158122,1,0,1:2:0:0:
167,240,158298,2,0,P|197:236|226:232,1,59.4999981842042,10|0,1:2|0:0,0:0:0:0:
320,350,158651,2,0,P|316:321|312:291,1,59.4999981842042,2|0,1:2|0:0,0:0:0:0:
406,181,159004,6,0,P|398:119|391:63,1,118.999996368408,0|0,1:2|1:2,0:0:0:0:
471,18,159533,1,0,1:2:0:0:
471,18,159710,2,0,P|475:48|479:77,1,59.4999981842042,10|0,1:2|0:0,0:0:0:0:
492,163,160063,1,2,1:2:0:0:
390,62,160239,1,2,0:2:0:0:
273,218,160416,6,0,P|332:210|391:202,1,118.999996368408,2|0,1:2|0:0,0:0:0:0:
232,289,160945,1,0,1:2:0:0:
232,289,161122,2,0,P|209:273|197:243,1,59.4999981842042,10|0,1:2|0:0,0:0:0:0:
337,112,161475,2,0,P|333:142|329:171,1,59.4999981842042,2|0,1:2|0:0,0:0:0:0:
392,384,161827,6,0,P|400:322|407:266,1,118.999996368408,2|0,1:2|1:2,0:0:0:0:
407,265,162357,1,0,1:2:0:0:
484,219,162533,5,10,1:2:0:0:
321,314,162710,1,2,0:0:0:0:
505,375,162886,1,2,1:2:0:0:
408,184,163063,1,2,0:0:0:0:
321,314,163239,6,0,P|261:321|202:329,1,118.999996368408,2|0,1:2|0:0,0:0:0:0:
187,159,163769,1,2,0:0:0:0:
187,159,163857,1,2,0:0:0:0:
187,159,163945,1,10,1:2:0:0:
251,245,164122,5,2,0:0:0:0:
76,184,164298,1,2,1:2:0:0:
309,135,164475,1,2,0:0:0:0:
179,353,164651,6,0,P|171:291|164:235,1,118.999996368408,2|2,1:2|1:2,0:0:0:0:
307,85,165180,1,2,1:2:0:0:
307,85,165357,2,0,P|304:114|300:144,1,59.4999981842042,8|0,1:2|0:0,0:0:0:0:
213,135,165710,2,0,P|217:106|221:73,1,59.4999981842042,2|0,1:2|0:0,0:0:0:0:
408,250,166063,6,0,P|348:242|289:234,1,118.999996368408,2|0,1:2|0:0,0:0:0:0:
289,235,166592,1,0,1:2:0:0:
398,74,166769,5,8,0:2:0:0:
213,135,166945,1,0,1:2:0:0:
408,250,167122,2,0,P|411:220|414:190,1,59.4999981842042,12|0,0:0|0:0,0:0:0:0:
304,33,167475,5,2,1:2:0:0:
408,250,167651,1,8,0:2:0:0:
487,66,167827,1,8,0:2:0:0:
269,161,168004,1,8,0:2:0:0:
491,263,168180,1,8,0:2:0:0:
396,50,168357,1,8,0:2:0:0:
307,235,168533,1,8,0:2:0:0:
512,148,168710,1,8,0:2:0:0:
235,19,168886,6,0,P|244:90|253:162,1,144.500002756119,6|0,1:2|1:2,0:0:0:0:
160,217,169416,1,0,1:2:0:0:
160,217,169592,2,0,P|155:182|149:144,1,72.2500013780594,10|0,1:2|0:0,0:0:0:0:
341,37,169945,2,0,P|346:72|351:108,1,72.2500013780594,2|0,1:2|1:2,0:0:0:0:
271,249,170298,5,8,1:2:0:0:
158,61,170475,1,0,0:0:0:0:
395,193,170651,6,0,P|419:189|442:185,2,48.1666675853729,2|2|2,1:2|0:2|0:2,0:2:0:0:
350,202,171004,5,14,1:2:0:0:
173,161,171180,1,2,0:0:0:0:
394,74,171357,1,2,1:2:0:0:
271,249,171533,1,2,1:2:0:0:
65,105,171710,6,0,P|136:96|208:86,1,144.500002756119,10|0,0:2|1:2,0:0:0:0:
208,86,172239,1,0,1:2:0:0:
9,49,172416,5,10,1:2:0:0:
101,182,172592,1,2,0:0:0:0:
179,0,172769,1,2,1:2:0:0:
34,133,172945,1,2,1:2:0:0:
267,161,173122,5,10,1:2:0:0:
97,25,173298,2,0,P|102:60|107:96,1,72.2500013780594,0|0,0:0|1:2,0:0:0:0:
125,205,173651,1,0,1:2:0:0:
297,44,173827,5,14,1:2:0:0:
17,166,174004,1,2,0:0:0:0:
17,166,174092,1,2,0:0:0:0:
17,166,174180,1,2,1:2:0:0:
248,269,174357,1,2,1:2:0:0:
97,25,174533,6,0,P|105:96|114:170,1,144.500002756119,14|0,1:2|1:2,0:0:0:0:
66,263,175063,1,0,1:2:0:0:
66,263,175239,2,0,P|101:267|137:272,1,72.2500013780594,10|0,1:2|0:0,0:0:0:0:
271,346,175592,2,0,P|235:351|200:356,1,72.2500013780594,2|0,1:2|1:2,0:0:0:0:
108,364,175945,5,8,1:2:0:0:
232,178,176122,2,0,P|227:213|222:249,1,72.2500013780594,0|0,0:0|1:2,0:0:0:0:
200,356,176475,1,0,1:2:0:0:
37,218,176651,5,14,1:2:0:0:
265,159,176827,1,2,0:0:0:0:
136,290,177004,1,2,1:2:0:0:
78,100,177180,1,2,1:2:0:0:
246,265,177357,6,0,P|317:256|389:246,1,144.500002756119,10|0,1:2|1:2,0:0:0:0:
389,246,177886,1,0,1:2:0:0:
258,349,178063,5,10,1:2:0:0:
157,178,178239,1,2,0:0:0:0:
389,246,178416,1,2,1:2:0:0:
181,317,178592,1,2,1:2:0:0:
342,160,178769,5,10,1:2:0:0:
282,371,178945,2,0,P|277:335|272:299,1,72.2500013780594,8|0,0:2|1:2,0:0:0:0:
253,191,179298,1,0,1:2:0:0:
93,345,179475,5,14,1:2:0:0:
389,246,179651,1,2,0:0:0:0:
389,246,179739,1,2,0:0:0:0:
389,246,179827,1,10,1:2:0:0:
161,131,180004,1,10,1:2:0:0:
329,384,180180,6,0,B|320:328|320:328|296:305|296:305|287:251,1,144.500002756119,14|0,1:2|1:2,0:0:0:0:
146,384,180710,1,0,1:2:0:0:
146,384,180886,2,0,P|181:379|217:374,1,72.2500013780594,10|0,1:2|0:0,0:0:0:0:
460,255,181239,2,0,P|424:250|389:246,1,72.2500013780594,2|0,1:2|1:2,0:0:0:0:
168,288,181592,5,8,1:2:0:0:
328,87,181769,2,0,P|333:123|338:159,1,72.2500013780594,0|0,0:0|1:2,0:0:0:0:
285,272,182122,1,0,1:2:0:0:
24,164,182298,6,0,P|59:159|95:154,1,72.2500013780594,14|0,1:2|0:0,0:0:0:0:
238,136,182651,1,2,1:2:0:0:
48,38,182827,1,2,1:2:0:0:
203,213,183004,6,0,P|193:140|184:70,1,144.500002756119,10|0,1:2|1:2,0:0:0:0:
284,18,183533,1,0,1:2:0:0:
284,18,183710,2,0,B|299:51|299:51|290:86,1,72.2500013780594,8|0,1:2|0:0,0:0:0:0:
97,192,184063,2,0,B|79:160|79:160|85:124,1,72.2500013780594,2|0,1:2|1:2,0:0:0:0:
172,59,184416,5,10,1:2:0:0:
205,296,184592,2,0,L|195:225,1,72.2500013780594,0|0,0:0|1:2,0:0:0:0:
85,124,184945,1,0,1:2:0:0:
116,348,185122,6,0,L|106:277,1,72.2500013780594,14|0,1:2|0:0,0:0:0:0:
85,124,185475,1,2,1:2:0:0:
308,255,185651,5,2,1:2:0:0:
308,255,185739,1,2,0:0:0:0:
308,255,185827,2,0,B|363:263|363:263|384:289|384:289|441:298,1,144.500002756119,10|0,1:2|1:2,0:0:0:0:
306,351,186357,5,2,1:2:0:0:
306,351,186445,1,2,0:0:0:0:
306,351,186533,1,14,1:2:0:0:
188,192,186710,1,2,0:0:0:0:
439,298,186886,1,2,1:2:0:0:
216,384,187063,1,2,1:2:0:0:
308,255,187239,6,0,P|298:183|288:111,1,144.500002756119,10|0,1:2|1:2,0:0:0:0:
288,111,187769,1,2,1:2:0:0:
142,268,187945,5,12,1:2:0:0:
399,172,188122,1,2,0:0:0:0:
399,172,188210,1,2,0:0:0:0:
399,172,188298,1,2,1:2:0:0:
190,62,188475,1,2,1:2:0:0:
324,238,188651,6,0,B|406:256|376:197|461:213,1,144.500002756119,10|0,1:2|1:2,0:0:0:0:
460,212,189180,1,0,1:2:0:0:
449,362,189357,6,0,P|444:327|439:291,1,72.2500013780594,12|0,1:2|0:0,0:0:0:0:
356,87,189710,2,0,P|351:123|346:158,1,72.2500013780594,0|2,1:2|1:2,0:0:0:0:
152,376,190063,6,0,P|187:371|223:365,1,72.2500013780594,14|0,0:2|1:2,0:0:0:0:
510,301,190416,2,0,P|474:296|438:290,1,72.2500013780594,12|0,0:2|1:2,0:0:0:0:
160,239,190769,5,8,0:2:0:0:
300,127,190945,1,8,0:2:0:0:
223,364,191122,1,8,0:2:0:0:
128,167,191298,1,8,0:2:0:0:
254,272,191475,6,0,P|317:264|386:255,1,127.500004863739,4|10,1:2|0:0,0:0:0:0:
461,245,192004,1,2,0:0:0:0:
461,245,192180,2,0,P|457:212|453:181,1,63.7500024318696,10|0,0:0|0:0,0:0:0:0:
372,192,192533,2,0,P|376:223|379:255,1,63.7500024318696,10|0,0:0|0:0,0:0:0:0:
459,63,192886,6,0,P|401:45|335:85,1,127.500004863739,10|10,0:0|0:0,0:0:0:0:
261,120,193416,2,0,P|257:88|253:56,1,63.7500024318696,2|8,0:0|0:0,0:0:0:0:
169,15,193769,2,0,P|165:46|161:78,1,63.7500024318696,2|8,0:0|0:0,0:0:0:0:
150,169,194122,1,2,1:2:0:0:
23,152,194298,6,0,P|86:160|155:169,1,127.500004863739,10|10,1:2|0:2,0:0:0:0:
21,297,194827,2,0,P|25:265|28:233,1,63.7500024318696,2|8,0:0|0:0,0:0:0:0:
119,244,195180,2,0,P|115:275|111:307,1,63.7500024318696,2|8,0:0|0:2,0:0:0:0:
59,381,195533,1,2,0:0:0:0:
272,219,195710,5,10,0:0:0:0:
296,310,195886,1,0,0:0:0:0:
203,287,196063,1,8,0:0:0:0:
357,245,196239,2,0,P|388:248|420:252,1,63.7500024318696,4|8,0:0|0:0,0:0:0:0:
233,369,196592,5,4,0:0:0:0:
187,201,196769,1,8,0:0:0:0:
357,245,196945,1,0,1:2:0:0:
203,287,197122,6,0,P|156:292|99:299,1,95.6250036478044,12|0,1:2|0:0,0:0:0:0:
104,304,197475,2,0,P|100:272|96:240,1,63.7500024318696,10|0,0:0|0:0,0:0:0:0:
200,171,197827,1,10,0:0:0:0:
200,171,198004,2,0,P|196:139|192:107,1,63.7500024318696,2|8,0:0|0:2,0:0:0:0:
129,16,198357,1,2,0:0:0:0:
0,180,198533,6,0,B|72:193|50:141|120:152,1,127.500004863739,10|10,0:2|0:2,0:0:0:0:
239,232,199063,2,0,P|175:240|112:248,1,127.500004863739,6|0,0:0|0:0,0:0:0:0:
112,248,199592,1,8,0:0:0:0:
223,129,199769,1,0,1:2:0:0:
300,303,199945,5,8,1:2:0:0:
300,303,200122,1,2,0:0:0:0:
145,169,200298,1,10,0:2:0:0:
340,100,200475,1,2,0:0:0:0:
190,263,200651,6,0,P|196:311|202:367,2,95.6250036478044,10|2|2,0:2|0:0|0:0,0:0:0:0:
240,127,201357,6,0,P|231:63|223:0,1,127.500004863739,10|8,0:2|0:2,0:0:0:0:
55,95,201886,2,0,P|86:90|118:87,1,63.7500024318696,0|8,1:2|0:2,0:0:0:0:
354,59,202239,5,2,1:2:0:0:
223,0,202416,1,12,0:2:0:0:
294,216,202592,1,2,1:2:0:0:
489,50,202769,6,0,P|426:58|357:67,1,127.500004863739,4|10,1:2|0:0,0:0:0:0:
282,77,203298,1,2,0:0:0:0:
282,77,203475,2,0,P|278:45|274:13,1,63.7500024318696,10|0,0:0|0:0,0:0:0:0:
190,24,203827,2,0,P|194:56|198:88,1,63.7500024318696,10|0,0:0|0:0,0:0:0:0:
199,263,204180,6,0,P|257:281|323:241,1,127.500004863739,10|10,0:0|0:0,0:0:0:0:
400,207,204710,2,0,P|404:239|408:271,1,63.7500024318696,2|8,0:0|0:0,0:0:0:0:
497,317,205063,2,0,P|501:285|505:253,1,63.7500024318696,2|8,0:0|0:2,0:0:0:0:
484,156,205416,1,2,1:2:0:0:
314,252,205592,6,0,P|251:260|182:269,1,127.500004863739,10|10,1:2|0:0,0:0:0:0:
9,315,206122,2,0,P|-3:289|6:248,1,63.7500024318696,2|8,0:0|0:0,0:0:0:0:
96,247,206475,2,0,P|108:272|98:313,1,63.7500024318696,2|8,0:0|0:0,0:0:0:0:
63,384,206827,1,2,0:0:0:0:
135,157,207004,5,10,0:0:0:0:
195,234,207180,1,0,0:0:0:0:
96,247,207357,1,8,0:0:0:0:
229,148,207533,2,0,P|233:116|237:84,1,63.7500024318696,0|8,1:2|0:0,0:0:0:0:
156,323,207886,5,0,1:2:0:0:
39,170,208063,1,14,0:2:0:0:
229,148,208239,1,0,1:2:0:0:
75,264,208416,6,0,P|69:311|62:358,1,95.6250036478044,12|0,1:2|0:0,0:0:0:0:
58,365,208769,2,0,P|90:369|122:373,1,63.7500024318696,10|0,0:2|0:0,0:0:0:0:
239,321,209122,1,10,0:0:0:0:
239,321,209298,2,0,P|271:317|303:313,1,63.7500024318696,2|8,0:0|0:2,0:0:0:0:
402,364,209651,1,2,0:0:0:0:
467,253,209827,6,0,P|474:189|482:126,1,127.500004863739,10|10,0:2|0:2,0:0:0:0:
391,113,210357,2,0,P|383:176|375:239,1,127.500004863739,2|0,0:0|0:0,0:0:0:0:
375,239,210886,1,8,0:2:0:0:
275,157,211063,1,0,0:0:0:0:
121,275,211239,6,0,L|24:262,2,95.6250036478044,14|2|2,1:2|0:0|0:0,0:0:0:0:
280,248,211945,2,0,P|276:216|272:184,1,63.7500024318696,14|0,0:2|0:0,0:0:0:0:
192,174,212210,2,0,P|196:206|200:238,1,63.7500024318696,6|0,0:0|0:0,0:0:0:0:
211,314,212475,1,2,1:2:0:0:
428,371,212651,5,6,1:2:0:0:
430,362,212739,1,2,0:0:0:0:
432,348,212827,1,0,1:2:0:0:
435,330,212916,1,2,0:0:0:0:
439,308,213004,1,10,0:2:0:0:
443,281,213092,1,2,0:0:0:0:
448,250,213180,1,10,0:2:0:0:
454,214,213269,1,10,0:2:0:0:
460,174,213357,1,10,1:2:0:0:
454,134,213445,1,10,1:2:0:0:
431,106,213533,1,10,1:2:0:0:
402,94,213622,1,2,1:2:0:0:
375,95,213710,1,2,1:2:0:0:
353,102,213798,1,2,1:2:0:0:
340,114,213886,1,2,1:2:0:0:
332,125,213975,1,2,1:2:0:0:
327,133,214063,6,0,L|320:225,1,89.2499972763062,4|0,1:2|1:2,0:0:0:0:
229,253,214327,1,0,1:2:0:0:
229,253,214416,2,0,L|236:161,1,89.2499972763062,10|0,1:2|1:2,0:0:0:0:
155,113,214680,1,0,1:2:0:0:
155,113,214769,2,0,L|148:205,1,89.2499972763062,2|0,1:2|1:2,0:0:0:0:
148,201,215033,1,0,1:2:0:0:
148,201,215122,1,10,1:2:0:0:
63,378,215298,5,0,1:2:0:0:
63,378,215386,1,0,1:2:0:0:
63,378,215475,2,0,L|155:385,1,89.2499972763062,2|0,1:2|1:2,0:0:0:0:
206,286,215739,1,0,1:2:0:0:
206,286,215827,2,0,L|114:293,1,89.2499972763062,10|2,1:2|1:2,0:0:0:0:
65,200,216092,1,0,1:2:0:0:
65,200,216180,2,0,L|157:207,1,89.2499972763062,0|0,1:2|1:2,0:0:0:0:
206,107,216445,1,0,1:2:0:0:
206,107,216533,2,0,L|114:114,1,89.2499972763062,10|0,1:2|1:2,0:0:0:0:
22,126,216798,1,0,1:2:0:0:
22,126,216886,6,0,B|1:86|1:86|14:42,1,89.2499972763062,2|0,1:2|1:2,0:0:0:0:
107,0,217151,1,0,1:2:0:0:
107,0,217239,2,0,B|152:1|152:1|183:35,1,89.2499972763062,8|2,1:2|1:2,0:0:0:0:
171,137,217504,1,0,1:2:0:0:
171,137,217592,2,0,B|146:175|146:175|102:185,1,89.2499972763062,0|0,1:2|1:2,0:0:0:0:
104,185,217857,1,0,1:2:0:0:
104,185,217945,1,10,1:2:0:0:
299,110,218122,5,2,1:2:0:0:
299,110,218210,1,0,1:2:0:0:
299,110,218298,2,0,L|391:117,1,89.2499972763062,2|0,1:2|1:2,0:0:0:0:
387,116,218563,1,0,1:2:0:0:
387,116,218651,1,8,1:2:0:0:
330,290,218827,6,0,L|325:346,2,44.6249986381531,0|0|0,1:2|1:2|1:2,0:0:0:0:
469,90,219180,2,0,L|475:137,1,44.6249986381531,0|0,1:2|1:2,0:0:0:0:
488,216,219357,1,12,1:2:0:0:
396,54,219533,2,0,L|390:98,1,44.6249986381531,0|0,1:2|1:2,0:0:0:0:
488,216,219710,6,0,L|397:226,1,89.2499972763062,4|0,1:2|1:2,0:0:0:0:
330,290,219975,1,0,1:2:0:0:
330,290,220063,2,0,L|241:280,1,89.2499972763062,10|0,1:2|1:2,0:0:0:0:
177,354,220327,1,0,1:2:0:0:
177,354,220416,2,0,L|88:363,1,89.2499972763062,2|0,1:2|1:2,0:0:0:0:
88,363,220680,1,0,1:2:0:0:
88,363,220769,1,10,1:2:0:0:
132,158,220945,5,0,1:2:0:0:
132,158,221033,1,0,1:2:0:0:
132,158,221122,2,0,L|141:69,1,89.2499972763062,2|0,1:2|1:2,0:0:0:0:
227,15,221386,1,0,1:2:0:0:
227,15,221475,2,0,L|236:103,1,89.2499972763062,10|2,1:2|1:2,0:0:0:0:
323,164,221739,1,0,1:2:0:0:
323,164,221827,2,0,L|332:75,1,89.2499972763062,0|0,1:2|1:2,0:0:0:0:
508,148,222092,1,0,1:2:0:0:
508,148,222180,2,0,L|419:138,1,89.2499972763062,10|0,1:2|1:2,0:0:0:0:
410,138,222445,1,0,1:2:0:0:
401,137,222533,5,6,1:2:0:0:
293,294,222710,1,0,1:2:0:0:
292,302,222798,1,0,1:2:0:0:
291,310,222886,1,10,1:2:0:0:
455,241,223063,1,2,1:2:0:0:
454,233,223151,1,0,1:2:0:0:
453,225,223239,1,4,1:2:0:0:
394,342,223416,6,0,L|402:404,2,44.6249986381531,0|0|10,1:2|1:2|1:2,0:0:0:0:
368,120,223769,2,0,L|373:165,1,44.6249986381531,2|0,1:2|1:2,0:0:0:0:
512,238,223945,6,0,L|423:247,1,89.2499972763062,6|0,1:2|1:2,1:2:0:0:
347,258,224210,1,0,1:2:0:0:
338,259,224298,1,8,1:2:0:0:
255,381,224475,6,0,L|304:376,1,44.6249986381531,0|0,1:2|1:2,0:0:0:0:
373,164,224651,1,4,1:2:0:0:
357,131,224739,1,8,1:2:0:0:
326,112,224827,1,8,1:2:0:0:
290,104,224916,1,8,1:2:0:0:
255,114,225004,1,8,1:2:0:0:
230,139,225092,1,8,1:2:0:0:
217,172,225180,1,8,1:2:0:0:
220,207,225269,1,8,1:2:0:0:
238,237,225357,5,4,1:2:0:0:
249,223,225445,1,0,1:2:0:0:
254,206,225533,1,0,1:2:0:0:
255,188,225622,1,0,1:2:0:0:
244,173,225710,6,0,P|238:129|232:82,1,89.2499972763062,14|0,1:2|1:2,0:0:0:0:
75,8,225975,1,0,1:2:0:0:
75,8,226063,2,0,P|81:52|87:99,1,89.2499972763062,2|2,1:2|1:2,0:0:0:0:
62,173,226327,1,0,1:2:0:0:
62,173,226416,1,8,1:2:0:0:
236,78,226592,2,0,P|210:82|176:87,1,44.6249986381531,2|0,1:2|1:2,0:0:0:0:
0,220,226769,6,0,P|32:250|88:246,1,89.2499972763062,2|0,1:2|1:2,0:0:0:0:
75,251,227033,1,0,1:2:0:0:
75,251,227122,1,10,1:2:0:0:
339,154,227298,1,2,1:2:0:0:
339,154,227386,1,0,1:2:0:0:
339,154,227475,2,0,P|295:160|248:166,1,89.2499972763062,0|0,1:2|1:2,0:0:0:0:
250,165,227739,1,0,1:2:0:0:
250,165,227827,1,8,1:2:0:0:
33,141,228004,2,0,P|55:137|77:134,1,44.6249986381531,0|0,1:2|1:2,0:0:0:0:
281,56,228180,5,4,1:2:0:0:
160,194,228357,1,0,1:2:0:0:
160,194,228445,1,0,1:2:0:0:
160,194,228533,2,0,L|170:104,1,89.2499972763062,10|0,1:2|1:2,0:0:0:0:
365,23,228798,1,0,1:2:0:0:
365,23,228886,2,0,L|354:113,1,89.2499972763062,6|2,1:2|1:2,0:0:0:0:
392,185,229151,1,0,1:2:0:0:
392,185,229239,1,8,1:2:0:0:
213,283,229416,2,0,P|236:286|261:289,1,44.6249986381531,2|0,1:2|1:2,0:0:0:0:
504,262,229592,6,0,P|462:275|437:326,1,89.2499972763062,6|0,1:2|1:2,0:0:0:0:
438,311,229857,1,0,1:2:0:0:
438,311,229945,1,10,1:2:0:0:
132,384,230122,1,2,1:2:0:0:
132,384,230210,1,0,1:2:0:0:
132,384,230298,2,0,P|175:378|220:372,1,89.2499972763062,4|0,1:2|1:2,0:0:0:0:
220,372,230563,1,0,1:2:0:0:
220,372,230651,1,14,1:2:0:0:
411,207,230827,2,0,P|388:210|363:213,1,44.6249986381531,2|0,1:2|1:2,0:0:0:0:
268,265,231004,5,6,1:2:0:0:
266,247,231092,1,0,1:2:0:0:
263,229,231180,1,0,1:2:0:0:
261,211,231269,1,0,1:2:0:0:
259,193,231357,1,10,1:2:0:0:
100,166,231533,1,2,1:2:0:0:
100,166,231622,1,0,1:2:0:0:
100,166,231710,6,0,L|112:256,1,89.2499972763062,0|0,1:2|1:2,0:0:0:0:
28,283,231975,1,0,1:2:0:0:
28,283,232063,2,0,L|16:194,1,89.2499972763062,10|0,1:2|1:2,0:0:0:0:
0,16,232327,1,0,1:2:0:0:
0,16,232416,2,0,P|44:22|88:27,1,89.2499972763062,2|0,1:2|1:2,0:0:0:0:
163,42,232680,1,0,1:2:0:0:
171,44,232769,1,10,1:2:0:0:
363,161,232945,2,0,P|339:158|310:154,1,44.6249986381531,2|0,1:2|1:2,0:0:0:0:
103,181,233122,2,0,B|90:140|90:140|112:100,1,89.2499972763062,0|0,1:2|1:2,0:0:0:0:
263,13,233386,1,0,1:2:0:0:
263,13,233475,2,0,L|252:102,1,89.2499972763062,10|0,1:2|1:2,0:0:0:0:
241,177,233739,1,0,1:2:0:0:
240,185,233827,5,2,1:2:0:0:
391,75,234004,1,0,1:2:0:0:
373,72,234092,1,0,1:2:0:0:
355,69,234180,1,10,1:2:0:0:
471,240,234357,1,2,1:2:0:0:
489,237,234445,1,0,1:2:0:0:
507,234,234533,6,0,L|513:284,3,44.6249986381531,0|0|0|0,1:2|0:0|1:2|1:2,0:0:0:0:
468,110,234886,2,0,L|473:65,3,44.6249986381531,8|0|0|0,1:2|0:0|1:2|1:2,0:0:0:0:
385,202,235239,6,0,L|340:207,1,44.6249986381531,6|2,1:2|0:0,0:0:0:0:
211,284,235416,1,2,1:2:0:0:
194,282,235504,1,2,0:0:0:0:
177,280,235592,1,10,0:0:0:0:
160,277,235680,1,2,0:2:0:0:
143,275,235769,1,2,0:0:0:0:
126,273,235857,1,2,0:0:0:0:
109,271,235945,5,14,1:2:0:0:
120,252,236033,1,2,0:0:0:0:
141,235,236122,1,10,0:2:0:0:
170,224,236210,1,10,0:2:0:0:
205,225,236298,1,10,0:2:0:0:
240,244,236386,1,10,0:2:0:0:
262,282,236475,1,10,0:2:0:0:
259,330,236563,1,10,0:2:0:0:
224,370,236651,6,0,L|179:365,1,44.6249986381531,6|0,1:2|1:2,0:0:0:0:
30,282,236827,2,0,L|74:286,1,44.6249986381531,6|0,1:2|1:2,0:0:0:0:
247,250,237004,1,10,0:2:0:0:
247,250,237092,1,10,0:2:0:0:
247,250,237180,2,0,L|202:245,1,44.6249986381531,2|2,1:2|1:2,1:2:0:0:
38,37,237357,6,0,L|33:81,1,44.6249986381531,6|0,1:2|1:2,1:2:0:0:
127,219,237533,2,0,L|131:174,1,44.6249986381531,6|0,1:2|1:2,0:0:0:0:
217,17,237710,1,10,0:2:0:0:
217,17,237798,1,10,0:2:0:0:
217,17,237886,2,0,L|212:66,1,44.6249986381531,2|2,1:2|1:2,1:2:0:0:
283,187,238063,6,0,L|327:191,1,44.6249986381531,2|0,1:2|1:2,0:0:0:0:
501,145,238239,2,0,L|456:140,1,44.6249986381531,4|0,1:2|1:2,0:0:0:0:
314,81,238416,1,10,0:2:0:0:
313,72,238504,1,10,0:2:0:0:
312,63,238592,1,2,1:2:0:0:
311,54,238680,1,2,1:2:0:0:
310,45,238769,5,14,1:2:0:0:
307,71,238857,1,10,1:2:0:0:
304,102,238945,1,10,1:2:0:0:
301,137,239033,1,10,1:2:0:0:
298,177,239122,1,10,1:2:0:0:
293,221,239210,1,10,1:2:0:0:
288,269,239298,1,10,1:2:0:0:
282,322,239386,1,10,1:2:0:0:
274,380,239475,5,12,1:2:0:0:
315,372,239563,1,0,1:2:0:0:
350,348,239651,1,0,1:2:0:0:
369,310,239739,1,0,1:2:0:0:
369,267,239827,1,10,1:2:0:0:
352,227,239916,1,0,1:2:0:0:
318,201,240004,1,0,1:2:0:0:
276,191,240092,1,0,1:2:0:0:
234,201,240180,1,10,1:2:0:0:
201,228,240269,1,0,1:2:0:0:
161,242,240357,1,0,1:2:0:0:
118,237,240445,1,0,1:2:0:0:
82,213,240533,1,10,1:2:0:0:
60,175,240622,1,0,1:2:0:0:
57,132,240710,1,2,1:2:0:0:
74,93,240798,1,0,1:2:0:0:
105,64,240886,5,8,1:2:0:0:
145,76,240975,1,0,1:2:0:0:
176,104,241063,1,0,1:2:0:0:
189,144,241151,1,0,1:2:0:0:
187,186,241239,1,8,1:2:0:0:
165,222,241327,1,0,1:2:0:0:
130,247,241416,1,0,1:2:0:0:
87,252,241504,1,0,1:2:0:0:
46,238,241592,1,8,1:2:0:0:
14,210,241680,1,0,1:2:0:0:
1,169,241769,6,0,L|58:173,1,53.125,2|0,1:2|1:2,1:2:0:0:
130,247,241945,2,0,L|187:251,1,53.125,10|0,1:2|1:2,1:2:0:0:
258,138,242122,2,0,L|315:142,1,53.125,2|0,1:2|1:2,1:2:0:0:
493,290,242298,5,10,1:2:0:0:
498,320,242386,1,0,1:2:0:0:
488,351,242475,1,0,1:2:0:0:
463,373,242563,1,0,1:2:0:0:
430,379,242651,1,10,1:2:0:0:
398,368,242739,1,0,1:2:0:0:
376,344,242827,1,2,1:2:0:0:
369,311,242916,1,0,1:2:0:0:
381,279,243004,1,8,1:2:0:0:
372,244,243092,1,0,1:2:0:0:
350,220,243180,1,2,1:2:0:0:
319,209,243269,1,0,1:2:0:0:
284,218,243357,1,8,1:2:0:0:
262,240,243445,1,0,1:2:0:0:
251,271,243533,1,2,1:2:0:0:
260,306,243622,1,0,1:2:0:0:
282,329,243710,2,0,L|339:334,3,53.125,8|0|0|0,1:2|1:2|1:2|1:2,1:2:0:0:
417,376,244063,5,8,1:2:0:0:
417,376,244151,1,0,1:2:0:0:
417,376,244239,2,0,P|424:349|418:317,1,53.125,0|0,1:2|1:2,1:2:0:0:
491,271,244416,1,12,1:2:0:0:
491,271,244504,1,0,1:2:0:0:
491,271,244592,2,0,P|472:251|440:239,1,53.125,0|0,1:2|1:2,1:2:0:0:
436,155,244769,1,12,1:2:0:0:
436,155,244857,1,0,1:2:0:0:
436,155,244945,2,0,P|409:161|383:182,1,53.125,0|0,1:2|1:2,1:2:0:0:
314,40,245122,5,12,1:2:0:0:
284,54,245210,1,0,1:2:0:0:
264,79,245298,1,0,1:2:0:0:
256,110,245386,1,0,1:2:0:0:
259,142,245475,1,10,1:2:0:0:
276,168,245563,1,0,1:2:0:0:
301,188,245651,1,0,1:2:0:0:
331,196,245739,1,0,1:2:0:0:
361,192,245827,1,10,1:2:0:0:
388,176,245916,1,0,1:2:0:0:
419,169,246004,1,0,1:2:0:0:
450,175,246092,1,0,1:2:0:0:
475,193,246180,1,10,1:2:0:0:
494,218,246269,1,0,1:2:0:0:
500,249,246357,2,0,L|440:255,1,53.125,2|0,1:2|1:2,1:2:0:0:
327,311,246533,5,8,1:2:0:0:
305,308,246622,1,0,1:2:0:0:
283,306,246710,1,0,1:2:0:0:
261,303,246798,1,0,1:2:0:0:
239,301,246886,6,0,L|182:295,3,53.125,10|0|0|0,1:2|1:2|1:2|1:2,1:2:0:0:
96,196,247239,2,0,L|119:248,3,53.125,10|0|0|0,1:2|1:2|1:2|1:2,1:2:0:0:
78,373,247592,2,0,L|111:326,3,53.125,10|0|0|0,1:2|1:2|1:2|1:2,1:2:0:0:
203,219,247945,5,14,1:2:0:0:
203,219,248033,1,0,1:2:0:0:
203,219,248122,2,0,L|210:153,1,53.125,0|0,1:2|1:2,1:2:0:0:
291,127,248298,5,10,1:2:0:0:
291,127,248386,1,0,1:2:0:0:
291,127,248475,2,0,L|298:193,1,53.125,2|0,1:2|1:2,1:2:0:0:
112,114,248651,5,8,1:2:0:0:
112,114,248739,1,0,1:2:0:0:
112,114,248827,2,0,L|119:48,1,53.125,2|0,1:2|1:2,1:2:0:0:
200,22,249004,5,8,1:2:0:0:
200,22,249092,1,0,1:2:0:0:
200,22,249180,2,0,L|207:88,1,53.125,2|0,1:2|1:2,1:2:0:0:
323,270,249357,5,14,1:2:0:0:
296,319,249445,1,8,1:2:0:0:
253,339,249533,1,8,1:2:0:0:
210,331,249622,1,8,1:2:0:0:
181,305,249710,1,8,1:2:0:0:
166,276,249798,1,0,1:2:0:0:
167,244,249886,1,0,1:2:0:0:
180,215,249975,1,8,1:2:0:0:
205,196,250063,5,8,1:2:0:0:
226,219,250151,1,0,1:2:0:0:
233,249,250239,1,8,1:2:0:0:
230,280,250327,1,8,1:2:0:0:
214,308,250416,1,8,1:2:0:0:
189,328,250504,1,8,1:2:0:0:
157,334,250592,1,8,1:2:0:0:
125,328,250680,1,8,1:2:0:0:
97,311,250769,5,12,1:2:0:0:
128,309,250857,1,0,1:2:0:0:
159,306,250945,1,0,1:2:0:0:
190,304,251033,1,0,1:2:0:0:
221,300,251122,1,10,1:2:0:0:
252,298,251210,1,0,1:2:0:0:
283,296,251298,1,0,1:2:0:0:
314,293,251386,1,0,1:2:0:0:
345,289,251475,1,10,1:2:0:0:
374,273,251563,1,0,1:2:0:0:
395,249,251651,1,0,1:2:0:0:
402,217,251739,1,0,1:2:0:0:
399,185,251827,1,10,1:2:0:0:
381,157,251916,1,0,1:2:0:0:
355,138,252004,1,2,1:2:0:0:
323,133,252092,1,0,1:2:0:0:
291,140,252180,5,8,1:2:0:0:
280,170,252269,1,0,1:2:0:0:
281,201,252357,1,0,1:2:0:0:
294,229,252445,1,0,1:2:0:0:
316,251,252533,1,8,1:2:0:0:
345,262,252622,1,0,1:2:0:0:
376,261,252710,1,0,1:2:0:0:
405,250,252798,1,0,1:2:0:0:
425,226,252886,1,8,1:2:0:0:
438,196,252975,1,0,1:2:0:0:
435,164,253063,6,0,L|430:111,1,53.125,2|0,1:2|1:2,1:2:0:0:
314,0,253239,2,0,L|319:53,1,53.125,10|0,1:2|1:2,1:2:0:0:
229,218,253416,2,0,L|224:165,1,53.125,2|0,1:2|1:2,1:2:0:0:
49,46,253592,5,14,1:2:0:0:
72,26,253680,1,0,1:2:0:0:
102,18,253769,1,0,1:2:0:0:
134,22,253857,1,0,1:2:0:0:
160,35,253945,1,10,1:2:0:0:
181,60,254033,1,0,1:2:0:0:
188,91,254122,1,2,1:2:0:0:
184,122,254210,1,0,1:2:0:0:
169,150,254298,1,8,1:2:0:0:
146,172,254386,1,0,1:2:0:0:
131,200,254475,1,2,1:2:0:0:
130,231,254563,1,0,1:2:0:0:
141,260,254651,1,8,1:2:0:0:
161,284,254739,1,0,1:2:0:0:
188,299,254827,1,0,1:2:0:0:
220,300,254916,1,0,1:2:0:0:
250,290,255004,2,0,L|254:238,3,53.125,10|0|0|0,1:2|1:2|1:2|1:2,1:2:0:0:
325,183,255357,5,8,1:2:0:0:
325,183,255445,1,0,1:2:0:0:
325,183,255533,2,0,P|306:163|282:153,1,53.125,0|0,1:2|1:2,1:2:0:0:
271,66,255710,1,8,1:2:0:0:
271,66,255798,1,0,1:2:0:0:
271,66,255886,2,0,P|245:72|223:87,1,53.125,2|0,1:2|1:2,1:2:0:0:
143,52,256063,1,10,1:2:0:0:
143,52,256151,1,0,1:2:0:0:
143,52,256239,2,0,P|135:77|138:103,1,53.125,2|0,1:2|1:2,1:2:0:0:
50,136,256416,5,14,1:2:0:0:
62,165,256504,1,0,1:2:0:0:
86,185,256592,1,0,1:2:0:0:
115,197,256680,1,0,1:2:0:0:
146,201,256769,1,8,1:2:0:0:
176,193,256857,1,0,1:2:0:0:
202,175,256945,2,0,L|258:180,1,53.125,2|0,1:2|1:2,1:2:0:0:
445,246,257122,5,10,1:2:0:0:
448,225,257210,1,0,1:2:0:0:
450,203,257298,1,0,1:2:0:0:
452,181,257386,1,0,1:2:0:0:
454,159,257475,6,0,L|460:94,1,53.125,8|0,1:2|1:2,1:2:0:0:
360,71,257651,2,0,L|366:136,1,53.125,0|0,1:2|1:2,1:2:0:0:
352,257,257827,5,8,1:2:0:0:
351,267,257916,1,0,1:2:0:0:
350,277,258004,1,0,1:2:0:0:
349,287,258092,1,0,1:2:0:0:
348,297,258180,2,0,L|343:356,3,53.125,10|0|0|0,1:2|1:2|1:2|1:2,1:2:0:0:
240,378,258533,5,10,1:2:0:0:
241,367,258622,2,0,L|246:311,1,53.125,0|0,1:2|1:2,1:2:0:0:
292,154,258798,1,2,1:2:0:0:
291,163,258886,2,0,L|285:223,1,53.125,8|0,1:2|1:2,1:2:0:0:
146,336,259063,2,0,L|140:276,1,53.125,2|0,1:2|1:2,1:2:0:0:
197,55,259239,5,14,1:2:0:0:
226,25,259327,1,0,1:2:0:0:
265,7,259416,1,0,1:2:0:0:
307,11,259504,1,0,1:2:0:0:
345,28,259592,1,10,1:2:0:0:
368,63,259680,1,0,1:2:0:0:
376,105,259769,1,2,1:2:0:0:
367,146,259857,1,0,1:2:0:0:
339,177,259945,6,0,L|286:172,1,53.125,8|0,1:2|1:2,1:2:0:0:
250,248,260122,2,0,L|303:253,1,53.125,0|0,1:2|1:2,1:2:0:0:
440,241,260298,2,0,L|387:246,1,53.125,8|0,1:2|1:2,1:2:0:0:
370,330,260475,2,0,L|423:325,1,53.125,0|0,1:2|1:2,1:2:0:0:
497,88,260651,5,12,1:2:0:0:
481,27,260739,1,8,1:2:0:0:
429,0,260827,1,8,1:2:0:0:
374,10,260916,1,8,1:2:0:0:
342,51,261004,1,8,1:2:0:0:
340,98,261092,1,0,1:2:0:0:
362,136,261180,1,0,1:2:0:0:
358,175,261269,1,8,1:2:0:0:
337,202,261357,1,8,1:2:0:0:
307,213,261445,1,0,1:2:0:0:
283,211,261533,1,8,1:2:0:0:
263,204,261622,1,8,1:2:0:0:
249,195,261710,1,10,1:2:0:0:
243,185,261798,1,8,1:2:0:0:
238,179,261886,1,10,1:2:0:0:
235,172,261975,1,8,1:2:0:0:
235,168,262063,5,14,1:2:0:0:
265,164,262151,1,0,1:2:0:0:
295,171,262239,1,0,1:2:0:0:
322,188,262327,1,0,1:2:0:0:
339,215,262416,1,8,1:2:0:0:
346,246,262504,1,0,1:2:0:0:
338,277,262592,1,0,1:2:0:0:
319,303,262680,1,0,1:2:0:0:
291,319,262769,1,8,1:2:0:0:
259,324,262857,1,0,1:2:0:0:
227,315,262945,6,0,L|222:262,1,53.125,2|0,1:2|1:2,1:2:0:0:
135,160,263122,2,0,L|140:213,1,53.125,10|0,1:2|1:2,1:2:0:0:
72,327,263298,2,0,L|67:274,1,53.125,2|0,1:2|1:2,1:2:0:0:
122,59,263475,5,14,1:2:0:0:
147,40,263563,1,0,1:2:0:0:
177,29,263651,1,0,1:2:0:0:
208,29,263739,1,0,1:2:0:0:
238,37,263827,1,8,1:2:0:0:
264,55,263916,1,0,1:2:0:0:
281,81,264004,1,0,1:2:0:0:
292,110,264092,1,0,1:2:0:0:
290,141,264180,1,8,1:2:0:0:
279,171,264269,1,0,1:2:0:0:
259,196,264357,1,0,1:2:0:0:
231,211,264445,1,0,1:2:0:0:
199,217,264533,6,0,L|145:212,1,53.125,10|0,1:2|1:2,1:2:0:0:
46,86,264710,2,0,L|100:81,1,53.125,10|0,1:2|1:2,1:2:0:0:
316,142,264886,5,14,1:2:0:0:
293,140,264975,1,0,1:2:0:0:
272,138,265063,1,0,1:2:0:0:
250,136,265151,1,0,1:2:0:0:
228,133,265239,1,0,1:2:0:0:
206,131,265327,1,0,1:2:0:0:
184,129,265416,5,14,1:2:0:0:
226,124,265504,1,0,1:2:0:0:
268,120,265592,1,0,1:2:0:0:
310,116,265680,1,0,1:2:0:0:
352,112,265769,1,0,1:2:0:0:
394,107,265857,1,0,1:2:0:0:
436,103,265945,5,14,1:2:0:0:
434,134,266033,1,0,1:2:0:0:
431,166,266122,1,0,1:2:0:0:
430,197,266210,1,0,1:2:0:0:
427,228,266298,5,10,1:2:0:0:
428,249,266386,1,0,1:2:0:0:
430,270,266475,1,0,1:2:0:0:
431,291,266563,1,0,1:2:0:0:
433,311,266651,6,0,L|437:366,1,53.125,4|0,1:2|1:2,1:2:0:0:
507,251,266827,1,0,1:2:0:0:
484,228,266916,1,0,1:2:0:0:
453,216,267004,1,8,1:2:0:0:
421,214,267092,1,0,1:2:0:0:
391,224,267180,1,8,1:2:0:0:
365,242,267269,1,0,1:2:0:0:
348,269,267357,2,0,L|291:275,1,53.125,10|8,1:2|1:2,1:2:0:0:
220,351,267533,2,0,L|163:357,1,53.125,10|0,1:2|1:2,1:2:0:0:
32,226,267710,5,14,1:2:0:0:
53,227,267798,1,0,1:2:0:0:
74,229,267886,1,0,1:2:0:0:
95,231,267975,1,0,1:2:0:0:
115,234,268063,1,8,1:2:0:0:
136,235,268151,1,0,1:2:0:0:
156,238,268239,1,0,1:2:0:0:
176,241,268327,1,0,1:2:0:0:
197,243,268416,1,8,1:2:0:0:
218,245,268504,1,0,1:2:0:0:
238,246,268592,1,0,1:2:0:0:
258,249,268680,1,0,1:2:0:0:
279,251,268769,6,0,L|273:194,1,53.125,10|0,1:2|1:2,1:2:0:0:
175,157,268945,2,0,L|169:214,1,53.125,2|0,1:2|1:2,1:2:0:0:
195,341,269122,5,14,1:2:0:0:
216,339,269210,1,0,1:2:0:0:
237,337,269298,1,0,1:2:0:0:
258,335,269386,1,0,1:2:0:0:
279,332,269475,1,8,1:2:0:0:
300,330,269563,1,0,1:2:0:0:
321,328,269651,1,0,1:2:0:0:
342,326,269739,1,0,1:2:0:0:
363,323,269827,5,14,1:2:0:0:
351,352,269916,1,0,1:2:0:0:
324,369,270004,1,8,1:2:0:0:
293,376,270092,1,8,1:2:0:0:
261,369,270180,1,8,1:2:0:0:
237,347,270269,1,8,1:2:0:0:
221,319,270357,1,8,1:2:0:0:
222,287,270445,1,0,1:2:0:0:
235,258,270533,5,14,1:2:0:0:
249,298,270622,1,0,1:2:0:0:
239,339,270710,1,0,1:2:0:0:
209,369,270798,1,0,1:2:0:0:
167,378,270886,1,0,1:2:0:0:
125,366,270975,1,0,1:2:0:0:
95,335,271063,1,0,1:2:0:0:
86,293,271151,1,0,1:2:0:0:
99,252,271239,1,12,1:2:0:0:
132,226,271327,1,0,1:2:0:0:
164,198,271416,1,0,1:2:0:0:
179,158,271504,1,0,1:2:0:0:
171,116,271592,1,0,1:2:0:0:
143,84,271680,1,0,1:2:0:0:
102,70,271769,1,0,1:2:0:0:
60,80,271857,1,0,1:2:0:0:
32,112,271945,5,12,1:2:0:0:
45,140,272033,1,0,0:2:0:0:
70,159,272122,1,8,0:2:0:0:
100,168,272210,1,8,0:2:0:0:
131,164,272298,1,8,0:2:0:0:
160,151,272386,1,0,0:2:0:0:
178,124,272475,1,8,0:2:0:0:
186,93,272563,1,8,0:2:0:0:
180,61,272651,5,8,0:2:0:0:
159,64,272739,1,8,0:2:0:0:
138,67,272827,1,8,0:2:0:0:
116,69,272916,1,8,0:2:0:0:
99,71,273004,2,0,P|76:73|41:76,3,42.5,2|0|0|0,1:2|1:2|1:2|1:2,1:2:0:0:
6,173,273357,22,0,B|4:159|-7:149|-7:149|91:158|91:158|94:180|114:195,1,170,6|2,1:2|0:2,0:0:0:0:
113,194,273622,1,2,0:2:0:0:
113,194,273710,5,2,1:2:0:0:
171,137,273886,1,2,1:2:0:0:
249,288,274063,5,2,0:2:0:0:
163,281,274239,1,2,1:2:0:0:
256,142,274416,85,10,0:2:0:0:
292,217,274592,1,2,1:2:0:0:
119,200,274769,6,0,L|128:104,1,85,2|2,1:2|0:2,0:0:0:0:
126,116,275033,1,2,0:2:0:0:
126,116,275122,85,2,1:2:0:0:
209,209,275298,1,2,1:2:0:0:
313,72,275475,69,10,0:2:0:0:
321,73,275563,1,10,0:2:0:0:
333,74,275651,1,10,0:2:0:0:
349,76,275739,1,10,0:2:0:0:
369,79,275827,1,10,0:2:0:0:
394,81,275916,1,10,0:2:0:0:
423,84,276004,1,10,0:2:0:0:
456,87,276092,1,10,0:2:0:0:
498,90,276180,6,0,B|479:86|467:69|467:69|445:120|445:120|455:162|455:162|458:165|458:165|465:202,1,170,6|2,1:2|0:2,0:0:0:0:
463,193,276445,1,2,0:2:0:0:
463,193,276533,5,2,1:2:0:0:
386,210,276710,1,2,1:2:0:0:
408,66,276886,69,2,0:2:0:0:
438,277,277063,1,2,1:2:0:0:
353,286,277239,5,10,0:2:0:0:
323,75,277416,1,2,1:2:0:0:
470,200,277592,6,0,L|383:210,1,85,2|2,1:2|0:2,0:0:0:0:
385,209,277857,1,2,0:2:0:0:
385,209,277945,5,2,1:2:0:0:
419,126,278122,1,0,1:2:0:0:
441,295,278298,53,10,1:2:0:0:
416,318,278386,1,10,0:2:0:0:
387,325,278475,1,10,0:2:0:0:
361,321,278563,1,10,0:2:0:0:
343,308,278651,1,10,1:2:0:0:
327,300,278739,1,10,1:2:0:0:
310,296,278827,1,10,1:2:0:0:
293,298,278916,1,10,1:2:0:0:
280,304,279004,6,0,B|263:318|240:316|240:316|148:306|148:306|173:317|188:339,1,170,6|2,1:2|0:2,0:0:0:0:
176,325,279269,1,2,0:2:0:0:
176,325,279357,5,2,1:2:0:0:
190,238,279533,1,2,1:2:0:0:
24,300,279710,5,2,0:2:0:0:
93,357,279886,1,2,1:2:0:0:
121,182,280063,85,10,0:2:0:0:
38,213,280239,1,2,1:2:0:0:
190,238,280416,6,0,L|196:154,1,85,2|2,1:2|0:2,0:0:0:0:
196,153,280680,1,2,0:2:0:0:
196,153,280769,1,2,1:2:0:0:
111,270,280945,1,2,1:2:0:0:
289,116,281122,53,10,1:2:0:0:
280,118,281210,1,10,0:2:0:0:
267,119,281298,1,10,0:2:0:0:
250,122,281386,1,10,0:2:0:0:
228,124,281475,1,14,1:2:0:0:
202,127,281563,1,10,1:2:0:0:
172,129,281651,1,10,1:2:0:0:
138,132,281739,1,10,1:2:0:0:
95,135,281827,6,0,B|137:151|137:151|210:115|210:115|212:87|229:72,1,170,6|2,1:2|0:2,0:0:0:0:
225,75,282092,1,2,0:2:0:0:
225,75,282180,5,2,1:2:0:0:
317,92,282357,1,2,1:2:0:0:
262,231,282533,69,2,0:2:0:0:
285,19,282710,1,2,1:2:0:0:
369,29,282886,5,14,0:2:0:0:
345,241,283063,1,2,1:2:0:0:
96,83,283239,86,0,B|108:68|110:49|110:49|176:104|176:104|170:125|170:125|172:128|172:128|157:174,1,170,6|2,1:2|1:2,0:0:0:0:
143,233,283504,1,2,0:0:0:0:
139,241,283592,21,2,1:2:0:0:
123,240,283680,1,2,0:2:0:0:
106,239,283769,1,2,1:2:0:0:
90,237,283857,1,10,1:2:0:0:
74,235,283945,5,10,1:2:0:0:
99,233,284033,1,2,0:2:0:0:
129,232,284122,1,10,0:2:0:0:
162,230,284210,1,2,0:2:0:0:
199,226,284298,1,10,0:2:0:0:
241,221,284386,1,10,0:2:0:0:
287,217,284475,1,10,0:2:0:0:
337,211,284563,1,10,0:2:0:0:
394,208,284651,54,0,B|403:192|418:186|418:186|322:178|322:178|317:174|317:174|237:166,1,191.250007295609,6|0,1:2|0:2,0:0:0:0:
172,194,284916,1,2,1:2:0:0:
172,194,285004,2,0,L|177:134,1,53.125,10|0,1:2|0:0,0:0:0:0:
265,115,285180,2,0,L|261:176,1,53.125,2|0,0:2|0:0,0:0:0:0:
87,225,285357,6,0,L|82:167,1,53.125,2|0,1:2|0:0,0:0:0:0:
176,141,285533,2,0,L|171:199,1,53.125,2|0,0:2|0:0,0:0:0:0:
242,307,285710,2,0,L|237:249,1,53.125,10|0,0:2|0:0,0:0:0:0:
329,217,285886,2,0,L|324:275,1,53.125,2|0,0:2|0:0,0:0:0:0:
430,384,286063,86,0,B|425:324|425:324|423:321|423:321|418:252,1,127.500004863739,2|0,1:2|0:2,0:0:0:0:
508,224,286327,1,2,1:2:0:0:
508,224,286416,2,0,B|519:248|519:248|510:282,1,53.125,10|0,1:2|0:0,0:0:0:0:
328,349,286592,2,0,B|317:325|317:325|326:291,1,53.125,2|0,0:2|0:0,0:0:0:0:
344,84,286769,5,2,1:2:0:0:
351,75,286857,1,2,0:2:0:0:
364,67,286945,1,2,1:2:0:0:
382,58,287033,1,2,0:2:0:0:
408,54,287122,1,10,0:2:0:0:
439,58,287210,1,2,0:2:0:0:
471,74,287298,1,10,0:2:0:0:
498,106,287386,1,10,0:2:0:0:
505,148,287475,86,0,B|481:157|469:180|469:180|375:169|375:169|373:166|373:166|308:159,1,212.5,6|0,1:2|0:2,0:0:0:0:
239,237,287739,1,2,1:2:0:0:
239,237,287827,2,0,L|181:242,1,53.125,10|0,1:2|0:0,0:0:0:0:
147,157,288004,2,0,L|205:152,1,53.125,2|0,0:2|0:0,0:0:0:0:
278,332,288180,6,0,L|220:327,1,53.125,2|0,1:2|0:0,0:0:0:0:
186,241,288357,2,0,L|244:236,1,53.125,2|0,0:2|0:0,0:0:0:0:
354,170,288533,2,0,L|296:165,1,53.125,10|0,0:2|0:0,0:0:0:0:
262,81,288710,2,0,L|320:76,1,53.125,2|0,0:2|0:0,0:0:0:0:
456,246,288886,86,0,B|396:251|396:251|393:253|393:253|324:258,1,127.500004863739,2|0,1:2|0:2,0:0:0:0:
239,289,289151,1,2,1:2:0:0:
239,289,289239,2,0,B|228:265|228:265|237:231,1,53.125,10|0,0:2|0:0,0:0:0:0:
397,125,289416,2,0,B|408:149|408:149|399:183,1,53.125,2|0,0:0|0:0,0:0:0:0:
313,355,289592,5,10,1:2:0:0:
273,381,289680,1,10,0:2:0:0:
230,382,289769,1,10,0:2:0:0:
200,359,289857,1,10,0:2:0:0:
182,332,289945,1,10,1:2:0:0:
160,317,290033,1,10,1:2:0:0:
138,313,290122,1,10,1:2:0:0:
122,315,290210,1,10,1:2:0:0:
112,320,290298,86,0,B|107:339|95:352|95:352|203:344|203:344|210:317|230:305,1,191.250007295609,6|0,1:2|0:2,0:0:0:0:
326,318,290563,1,2,1:2:0:0:
326,318,290651,2,0,L|321:260,1,53.125,10|0,0:2|0:0,0:0:0:0:
223,253,290827,2,0,L|228:311,1,53.125,2|0,0:2|0:0,0:0:0:0:
417,355,291004,6,0,L|422:297,1,53.125,2|0,1:2|0:0,0:0:0:0:
321,265,291180,2,0,L|326:323,1,53.125,2|0,0:0|0:0,0:0:0:0:
499,246,291357,2,0,L|504:188,1,53.125,10|0,0:2|0:0,0:0:0:0:
403,156,291533,2,0,L|408:214,1,53.125,2|0,0:2|0:0,0:0:0:0:
233,357,291710,86,0,B|228:297|228:297|226:294|226:294|221:225,1,127.500004863739,2|0,1:2|0:2,0:0:0:0:
314,195,291975,1,2,1:2:0:0:
314,195,292063,2,0,B|325:219|325:219|316:253,1,53.125,10|0,0:2|0:0,0:0:0:0:
136,329,292239,2,0,B|125:305|125:305|134:271,1,53.125,2|0,0:0|0:0,0:0:0:0:
53,84,292416,5,10,1:2:0:0:
60,91,292504,1,10,0:2:0:0:
74,98,292592,1,10,0:2:0:0:
94,103,292680,1,10,0:2:0:0:
120,101,292769,1,10,1:2:0:0:
149,89,292857,1,10,1:2:0:0:
176,63,292945,1,10,1:2:0:0:
216,50,293033,1,10,1:2:0:0:
259,69,293122,86,0,L|311:74,3,53.125,6|0|0|2,1:2|1:2|1:2|1:2,1:2:0:0:
296,166,293475,2,0,L|359:160,1,53.125,10|0,1:2|1:2,1:2:0:0:
430,0,293651,2,0,L|367:6,1,53.125,2|0,1:2|1:2,1:2:0:0:
259,69,293827,6,0,L|322:75,1,53.125,2|0,1:2|1:2,1:2:0:0:
459,90,294004,1,2,1:2:0:0:
459,90,294092,1,2,1:2:0:0:
459,90,294180,2,0,L|396:84,1,53.125,10|0,1:2|1:2,1:2:0:0:
296,166,294357,2,0,L|359:160,1,53.125,2|0,1:2|1:2,1:2:0:0:
512,268,294533,86,0,B|490:297|490:297|400:308|400:308|397:305|397:305|286:319,1,191.250007295609,6|0,1:2|1:2,1:2:0:0:
247,347,294798,1,2,1:2:0:0:
247,347,294886,2,0,L|241:281,1,53.125,10|0,0:2|0:0,0:0:0:0:
332,259,295063,2,0,L|338:325,1,53.125,2|0,0:2|0:0,0:0:0:0:
79,380,295239,5,10,0:2:0:0:
75,332,295327,1,10,0:2:0:0:
71,289,295416,1,2,1:2:0:0:
68,251,295504,1,2,0:0:0:0:
66,219,295592,1,10,1:2:0:0:
63,192,295680,1,10,1:2:0:0:
61,170,295769,1,2,1:2:0:0:
60,154,295857,1,2,1:2:0:0:
59,142,295945,86,0,B|121:150|121:150|151:176|151:176|221:185,1,170,6|0,1:2|0:0,0:0:0:0:
303,197,296298,1,2,1:2:0:0:
303,197,296475,1,2,1:2:0:0:
58,187,296651,6,0,B|120:179|120:179|150:153|150:153|220:144,1,170,6|0,0:2|1:2,0:0:0:0:
371,132,297004,1,2,1:2:0:0:
371,132,297092,1,2,0:2:0:0:
371,132,297180,1,2,1:2:0:0:
279,25,297357,85,6,1:2:0:0:
279,25,297445,1,0,1:2:0:0:
279,25,297533,2,0,L|284:78,1,42.5,0|0,1:2|1:2,1:2:0:0:
198,101,297710,1,2,1:2:0:0:
198,101,297798,1,0,1:2:0:0:
198,101,297886,2,0,L|193:47,1,42.5,0|0,1:2|1:2,1:2:0:0:
28,58,298063,5,6,1:2:0:0:
28,58,298151,1,0,1:2:0:0:
28,58,298239,2,0,L|23:104,1,42.5,0|0,1:2|1:2,1:2:0:0:
110,139,298416,1,2,1:2:0:0:
110,139,298504,1,2,1:2:0:0:
110,139,298592,2,0,L|113:90,1,42.5,2|2,1:2|1:2,1:2:0:0:
279,25,298769,85,10,1:2:0:0:
295,27,298857,1,2,0:2:0:0:
311,30,298945,1,10,0:2:0:0:
327,33,299033,1,10,0:2:0:0:
343,36,299122,5,2,1:2:0:0:
340,61,299210,1,2,0:2:0:0:
338,86,299298,1,10,1:2:0:0:
335,111,299386,1,10,0:2:0:0:
332,136,299475,85,10,0:2:0:0:
298,133,299563,1,10,0:2:0:0:
264,130,299651,1,2,1:2:0:0:
230,125,299739,1,2,1:2:0:0:
196,119,299827,5,10,1:2:0:0:
199,161,299916,1,2,0:2:0:0:
202,203,300004,1,10,0:2:0:0:
205,245,300092,1,10,0:2:0:0:
210,287,300180,86,0,L|215:344,3,42.5,6|0|8|8,1:2|0:0|0:2|0:2,0:0:0:0:
110,358,300533,2,0,B|101:336|101:336|104:317,1,42.5,6|0,1:2|0:0,0:0:0:0:
319,335,300710,2,0,B|322:316|322:316|313:294,1,42.5,6|0,1:2|0:0,0:0:0:0:
88,193,300886,5,10,1:2:0:0:
126,195,300975,1,2,0:2:0:0:
159,197,301063,1,2,1:2:0:0:
188,199,301151,1,2,0:2:0:0:
213,201,301239,1,2,0:2:0:0:
234,203,301327,1,2,0:2:0:0:
250,205,301416,1,2,0:2:0:0:
262,206,301504,1,2,0:2:0:0:
270,207,301592,5,6,1:2:0:0:
341,159,301769,1,2,0:0:0:0:
341,159,301857,1,2,0:0:0:0:
341,159,301945,1,2,0:0:0:0:
348,246,302122,1,6,1:2:0:0:
191,167,302298,5,6,1:2:0:0:
197,92,302475,1,2,0:0:0:0:
197,92,302563,1,2,0:0:0:0:
197,92,302651,1,2,0:0:0:0:
197,92,302739,1,2,0:0:0:0:
197,92,302827,2,0,L|192:38,1,42.5,6|2,1:2|0:0,0:0:0:0:
79,180,303004,85,10,0:2:0:0:
95,209,303092,1,2,0:2:0:0:
124,226,303180,1,10,0:2:0:0:
156,234,303269,1,10,0:2:0:0:
190,233,303357,1,2,1:2:0:0:
220,218,303445,1,2,1:2:0:0:
244,194,303533,1,2,1:2:0:0:
272,174,303622,1,2,1:2:0:0:
305,171,303710,1,10,1:2:0:0:
338,177,303798,1,2,0:2:0:0:
367,194,303886,1,2,1:2:0:0:
387,221,303975,1,2,1:2:0:0:
399,252,304063,1,2,1:2:0:0:
399,285,304151,1,2,1:2:0:0:
386,316,304239,1,2,1:2:0:0:
363,340,304327,1,2,1:2:0:0:
332,355,304416,5,6,1:2:0:0:
274,152,304592,1,6,1:2:0:0:
444,267,304769,1,10,0:2:0:0:
444,267,304857,1,10,0:2:0:0:
444,267,304945,2,2,L|389:272,1,42.5,10|10,0:2|0:2,0:2:0:0:
184,288,305122,85,6,1:2:0:0:
353,152,305298,1,6,1:2:0:0:
266,325,305475,1,10,0:2:0:0:
266,325,305563,1,10,0:2:0:0:
266,325,305651,2,2,L|261:268,1,42.5,10|10,0:2|0:2,0:2:0:0:
260,160,305827,69,10,0:2:0:0:
260,160,305916,1,8,0:2:0:0:
260,160,306004,2,0,L|254:112,1,42.5,0|0,1:2|1:2,0:2:0:0:
182,88,306180,5,2,1:2:0:0:
182,88,306269,1,0,1:2:0:0:
182,88,306357,2,2,L|176:136,1,42.5,0|0,1:2|1:2,1:2:0:0:
100,160,306533,85,10,0:2:0:0:
100,160,306622,1,8,0:2:0:0:
100,160,306710,2,0,L|94:112,1,42.5,0|0,1:2|1:2,0:2:0:0:
23,89,306886,5,10,0:2:0:0:
23,89,306975,1,8,0:2:0:0:
23,89,307063,2,8,L|17:137,1,42.5,8|8,0:2|0:2,0:2:0:0:
95,271,307239,5,6,1:2:0:0:
62,352,307416,1,2,0:0:0:0:
62,352,307504,1,2,0:0:0:0:
62,352,307592,1,2,0:0:0:0:
10,280,307769,1,6,1:2:0:0:
166,342,307945,5,6,1:2:0:0:
221,278,308122,1,2,0:2:0:0:
221,278,308210,1,2,0:2:0:0:
221,278,308298,1,2,0:2:0:0:
221,278,308386,1,2,0:2:0:0:
221,278,308475,2,2,L|215:230,1,42.5,2|2,1:2|0:2,0:2:0:0:
151,144,308651,85,10,0:2:0:0:
180,126,308739,1,2,0:2:0:0:
213,122,308827,1,10,0:2:0:0:
246,128,308916,1,10,0:2:0:0:
273,147,309004,1,10,1:2:0:0:
298,169,309092,1,2,1:2:0:0:
324,189,309180,1,2,1:2:0:0:
357,195,309269,1,2,1:2:0:0:
390,190,309357,1,2,1:2:0:0:
420,174,309445,1,2,0:2:0:0:
440,147,309533,1,2,1:2:0:0:
454,115,309622,1,2,1:2:0:0:
454,81,309710,1,2,1:2:0:0:
442,49,309798,1,2,1:2:0:0:
420,22,309886,1,2,1:2:0:0:
390,4,309975,1,2,1:2:0:0:
356,1,310063,5,6,1:2:0:0:
300,205,310239,1,6,0:2:0:0:
444,73,310416,1,10,0:2:0:0:
444,73,310504,1,10,0:2:0:0:
444,73,310592,2,2,L|389:78,1,42.5,10|10,0:2|0:2,0:2:0:0:
199,92,310769,85,6,1:2:0:0:
380,203,310945,1,6,1:2:0:0:
286,43,311122,1,10,0:2:0:0:
286,43,311210,1,10,0:2:0:0:
286,43,311298,2,2,L|291:98,1,42.5,10|10,0:2|0:2,0:2:0:0:
305,204,311475,69,10,0:2:0:0:
305,204,311563,1,8,0:2:0:0:
305,204,311651,2,0,L|310:259,1,42.5,0|0,1:2|1:2,0:2:0:0:
221,278,311827,5,10,1:2:0:0:
221,278,311916,1,8,1:2:0:0:
221,278,312004,2,0,L|226:223,1,42.5,0|0,1:2|1:2,1:2:0:0:
134,206,312180,85,10,0:2:0:0:
134,206,312269,1,8,0:2:0:0:
134,206,312357,2,0,L|139:261,1,42.5,0|0,1:2|1:2,0:2:0:0:
50,277,312533,5,10,0:2:0:0:
50,277,312622,1,8,0:2:0:0:
50,277,312710,2,8,L|55:222,1,42.5,8|8,0:2|0:2,0:2:0:0:
121,59,312886,85,14,1:2:0:0:
224,235,313063,1,2,1:2:0:0:
224,235,313151,1,2,1:2:0:0:
224,235,313239,1,10,1:2:0:0:
15,132,313416,2,2,L|67:127,1,42.5,2|0,1:2|1:2,0:2:0:0:
247,55,313592,5,10,1:2:0:0:
115,240,313769,1,2,1:2:0:0:
96,243,313857,1,2,1:2:0:0:
77,245,313945,1,10,0:2:0:0:
58,247,314033,1,2,0:2:0:0:
39,249,314122,1,2,1:2:0:0:
20,251,314210,1,2,1:2:0:0:
1,253,314298,85,10,1:2:0:0:
29,221,314386,1,2,0:2:0:0:
70,212,314475,1,2,1:2:0:0:
111,221,314563,1,2,1:2:0:0:
140,250,314651,1,10,1:2:0:0:
158,287,314739,1,2,0:2:0:0:
189,314,314827,1,2,1:2:0:0:
231,320,314916,1,2,1:2:0:0:
270,305,315004,1,10,1:2:0:0:
295,270,315092,1,2,1:2:0:0:
300,227,315180,1,2,1:2:0:0:
281,188,315269,1,2,1:2:0:0:
245,164,315357,1,10,0:2:0:0:
219,130,315445,1,2,0:2:0:0:
218,87,315533,1,2,1:2:0:0:
237,49,315622,1,2,1:2:0:0:
273,26,315710,5,10,1:2:0:0:
426,96,315886,2,0,L|366:100,1,42.5,2|0,1:2|1:2,0:0:0:0:
220,157,316063,85,10,0:2:0:0:
186,153,316151,1,2,0:0:0:0:
152,149,316239,1,2,1:2:0:0:
118,145,316327,1,2,1:2:0:0:
84,140,316416,2,0,L|32:135,3,42.5,10|0|0|0,1:2|1:2|1:2|1:2,0:0:0:0:
66,240,316769,5,10,0:0:0:0:
82,238,316857,1,2,0:0:0:0:
98,236,316945,1,2,1:2:0:0:
114,234,317033,1,2,1:2:0:0:
131,232,317122,85,14,1:2:0:0:
172,238,317210,1,0,1:2:0:0:
218,244,317298,1,0,1:2:0:0:
264,249,317386,1,0,1:2:0:0:
310,254,317475,5,10,1:2:0:0:
305,220,317563,1,0,1:2:0:0:
301,186,317651,1,0,1:2:0:0:
295,152,317739,1,0,1:2:0:0:
289,118,317827,85,10,1:2:0:0:
263,122,317916,1,0,1:2:0:0:
237,126,318004,1,0,1:2:0:0:
211,129,318092,1,0,1:2:0:0:
185,133,318180,5,10,1:2:0:0:
186,150,318269,1,0,1:2:0:0:
188,166,318357,1,0,1:2:0:0:
189,182,318445,1,0,1:2:0:0:
191,198,318533,85,14,1:2:0:0:
300,43,318710,1,2,1:2:0:0:
300,43,318798,1,2,1:2:0:0:
300,43,318886,1,10,1:2:0:0:
80,132,319063,2,0,L|135:137,1,42.5,2|0,1:2|1:2,0:0:0:0:
306,208,319239,5,10,1:2:0:0:
209,12,319416,1,2,1:2:0:0:
208,28,319504,1,2,1:2:0:0:
207,44,319592,1,10,1:2:0:0:
205,60,319680,1,2,0:2:0:0:
204,77,319769,1,2,1:2:0:0:
203,93,319857,1,2,1:2:0:0:
202,109,319945,85,10,1:2:0:0:
234,81,320033,1,2,0:2:0:0:
276,75,320122,1,2,1:2:0:0:
315,90,320210,1,2,1:2:0:0:
341,123,320298,1,10,1:2:0:0:
346,164,320386,1,2,0:2:0:0:
331,204,320475,1,2,1:2:0:0:
296,229,320563,1,2,1:2:0:0:
253,233,320651,1,10,1:2:0:0:
214,215,320739,1,2,1:2:0:0:
171,217,320827,1,2,1:2:0:0:
135,240,320916,1,2,1:2:0:0:
120,279,321004,1,10,1:2:0:0:
124,321,321092,1,2,0:2:0:0:
148,355,321180,1,2,1:2:0:0:
187,372,321269,1,2,1:2:0:0:
229,367,321357,5,10,1:2:0:0:
339,240,321533,2,0,L|344:183,1,42.5,2|0,1:2|1:2,0:0:0:0:
201,95,321710,85,10,1:2:0:0:
204,128,321798,1,2,0:0:0:0:
208,161,321886,1,2,1:2:0:0:
211,195,321975,1,2,1:2:0:0:
216,228,322063,2,0,L|221:283,3,42.5,10|0|0|0,1:2|1:2|1:2|1:2,0:0:0:0:
111,263,322416,5,10,1:2:0:0:
113,246,322504,1,2,0:0:0:0:
115,229,322592,1,2,1:2:0:0:
117,212,322680,1,2,1:2:0:0:
119,194,322769,85,14,1:2:0:0:
169,197,322857,1,0,1:2:0:0:
219,203,322945,1,0,1:2:0:0:
269,207,323033,1,0,1:2:0:0:
320,212,323122,5,14,1:2:0:0:
315,169,323210,1,0,1:2:0:0:
310,126,323298,1,0,1:2:0:0:
306,83,323386,1,0,1:2:0:0:
302,40,323475,85,14,1:2:0:0:
335,43,323563,1,0,1:2:0:0:
368,47,323651,1,0,1:2:0:0:
401,50,323739,1,0,1:2:0:0:
434,54,323827,5,14,1:2:0:0:
431,79,323916,1,0,1:2:0:0:
430,104,324004,1,0,1:2:0:0:
428,129,324092,1,0,1:2:0:0:
425,154,324180,6,0,L|421:202,5,28.3333333333333,6|0|0|0|0|0,1:2|1:2|1:2|1:2|1:2|1:2,1:2:0:0:
340,206,324533,6,0,L|338:178,5,28.3333333333333,2|0|0|0|0|0,1:2|1:2|1:2|1:2|1:2|1:2,1:2:0:0:
255,155,324886,86,0,L|252:183,5,28.3333333333333,10|8|8|8|0|0,1:2|1:2|1:2|1:2|1:2|1:2,1:2:0:0:
169,207,325239,6,0,L|167:178,5,28.3333333333333,2|0|0|0|0|0,1:2|1:2|1:2|1:2|1:2|1:2,1:2:0:0:
179,292,325592,53,6,1:2:0:0:
205,313,325680,1,2,0:0:0:0:
239,317,325769,1,10,1:2:0:0:
270,305,325857,1,2,0:0:0:0:
295,282,325945,1,10,0:2:0:0:
317,256,326033,1,2,0:0:0:0:
349,243,326122,1,10,0:2:0:0:
382,246,326210,1,10,0:2:0:0:
412,261,326298,5,10,1:2:0:0:
369,260,326386,1,2,1:2:0:0:
326,256,326475,1,10,1:2:0:0:
283,253,326563,1,2,1:2:0:0:
240,249,326651,1,10,1:2:0:0:
197,246,326739,1,10,1:2:0:0:
154,242,326827,1,10,1:2:0:0:
111,238,326916,1,10,1:2:0:0:
68,234,327004,6,0,B|73:175|73:175|71:172|71:172|77:102,1,127.500004863739,6|8,1:2|0:2,0:0:0:0:
160,53,327269,1,0,0:0:0:0:
160,53,327357,2,0,L|165:-5,3,53.125,0|0|8|0,0:0|1:2|0:2|1:2,0:0:0:0:
213,154,327710,5,2,1:2:0:0:
241,185,327798,1,0,0:0:0:0:
281,197,327886,1,8,0:2:0:0:
323,195,327975,1,0,1:2:0:0:
359,174,328063,1,0,0:0:0:0:
383,139,328151,1,0,1:2:0:0:
391,97,328239,1,8,0:2:0:0:
374,57,328327,1,0,0:0:0:0:
348,28,328416,6,2,L|338:161,1,127.500004863739,0|10,1:2|0:2,0:0:0:0:
246,172,328680,1,0,0:0:0:0:
246,172,328769,2,0,B|239:148|239:148|249:122,1,53.125,2|0,0:0|1:2,0:0:0:0:
430,74,328945,2,0,B|437:98|437:98|427:124,1,53.125,10|0,0:2|0:0,0:0:0:0:
312,305,329122,5,2,1:2:0:0:
311,295,329210,2,0,L|306:239,1,53.125,2|8,0:0|0:2,0:0:0:0:
402,273,329386,1,2,1:2:0:0:
401,263,329475,2,0,L|396:207,1,53.125,2|0,0:0|1:2,0:0:0:0:
488,227,329651,2,0,L|483:171,1,53.125,10|0,0:2|0:0,0:0:0:0:
407,60,329827,5,2,1:2:0:0:
409,69,329916,2,0,L|414:125,1,53.125,2|8,0:0|0:2,0:0:0:0:
317,43,330092,1,2,0:0:0:0:
318,53,330180,2,0,L|323:109,1,53.125,2|0,0:0|1:2,0:0:0:0:
227,34,330357,2,0,L|232:90,1,53.125,10|0,0:2|0:0,0:0:0:0:
241,205,330533,5,2,1:2:0:0:
228,234,330622,1,2,0:0:0:0:
207,258,330710,1,10,0:2:0:0:
180,275,330798,1,2,1:2:0:0:
148,280,330886,1,2,0:0:0:0:
116,276,330975,1,2,1:2:0:0:
88,260,331063,1,10,0:2:0:0:
65,237,331151,1,2,0:0:0:0:
58,205,331239,6,0,L|52:152,1,53.125,2|0,1:2|0:0,0:0:0:0:
151,115,331416,2,0,L|145:167,1,53.125,10|0,0:2|0:0,0:0:0:0:
150,288,331592,1,2,0:0:0:0:
150,288,331680,1,2,1:2:0:0:
150,288,331769,1,10,0:2:0:0:
150,288,331857,1,2,0:0:0:0:
150,288,331945,6,0,L|206:293,1,53.125,2|0,1:2|0:0,0:0:0:0:
288,357,332122,1,10,0:2:0:0:
309,354,332210,1,8,0:0:0:0:
330,352,332298,1,8,1:2:0:0:
351,350,332386,1,8,0:2:0:0:
372,348,332475,1,8,0:2:0:0:
393,345,332563,1,8,0:2:0:0:
412,343,332651,6,0,B|415:281|415:281|416:278|416:278|420:212,1,127.500004863739,6|10,1:2|0:2,0:0:0:0:
462,113,332916,1,0,0:0:0:0:
458,122,333004,5,2,0:0:0:0:
436,124,333092,1,2,1:2:0:0:
414,126,333180,1,10,0:2:0:0:
392,128,333269,1,2,0:0:0:0:
370,129,333357,5,2,1:2:0:0:
353,114,333445,1,2,0:0:0:0:
329,101,333533,1,10,0:2:0:0:
296,99,333622,1,2,1:2:0:0:
261,113,333710,1,2,0:0:0:0:
234,146,333798,1,2,1:2:0:0:
230,193,333886,1,10,0:2:0:0:
254,240,333975,1,2,0:0:0:0:
309,258,334063,5,2,1:2:0:0:
313,248,334151,1,2,0:0:0:0:
314,232,334239,1,10,0:0:0:0:
310,211,334327,1,2,0:0:0:0:
296,187,334416,1,2,0:0:0:0:
272,165,334504,1,2,1:2:0:0:
235,159,334592,1,10,0:2:0:0:
194,170,334680,1,2,0:0:0:0:
167,210,334769,5,2,1:2:0:0:
206,226,334857,1,2,0:0:0:0:
242,221,334945,1,10,0:2:0:0:
268,202,335033,1,2,1:2:0:0:
281,178,335122,1,2,0:0:0:0:
285,157,335210,1,2,1:2:0:0:
282,141,335298,1,10,0:2:0:0:
279,130,335386,1,2,0:0:0:0:
272,121,335475,6,2,L|267:64,3,53.125,6|2|10|2,1:2|0:2|0:2|0:2,0:2:0:0:
180,32,335827,2,2,L|176:85,3,53.125,2|2|10|2,0:2|1:2|0:2|0:2,0:2:0:0:
98,196,336180,2,2,L|93:143,3,53.125,2|2|10|2,1:2|0:2|0:2|1:2,0:2:0:0:
7,108,336533,2,2,L|2:160,3,53.125,2|2|10|2,0:2|1:2|0:2|0:2,0:2:0:0:
25,312,336886,5,6,1:2:0:0:
25,312,336975,1,0,0:0:0:0:
25,312,337063,2,0,L|20:251,1,53.125,8|0,0:2|0:0,0:0:0:0:
116,232,337239,5,2,0:2:0:0:
116,232,337327,1,0,1:2:0:0:
116,232,337416,2,0,L|111:293,1,53.125,8|0,0:2|0:0,0:0:0:0:
208,322,337592,5,2,1:2:0:0:
208,322,337680,1,0,0:0:0:0:
208,322,337769,2,0,L|203:261,1,53.125,8|0,0:2|0:0,0:0:0:0:
296,234,337945,5,10,0:2:0:0:
296,234,338033,1,8,0:2:0:0:
296,234,338122,2,0,L|291:295,1,53.125,8|8,1:2|1:2,0:0:0:0:
409,384,338298,6,0,B|403:372|392:365|392:365|389:316|389:316|387:315|387:315|381:242,1,127.500004863739,4|8,1:2|0:2,0:0:0:0:
436,181,338563,1,0,0:0:0:0:
436,181,338651,2,0,L|432:128,3,53.125,2|0|8|0,0:0|1:2|0:2|0:0,0:0:0:0:
343,139,339004,5,2,1:2:0:0:
343,139,339092,1,0,0:0:0:0:
343,139,339180,2,0,L|347:86,1,53.125,8|0,0:2|1:2,0:0:0:0:
479,40,339357,1,2,0:0:0:0:
479,40,339445,1,0,1:2:0:0:
479,40,339533,2,0,L|426:36,1,53.125,8|0,0:2|0:0,0:0:0:0:
236,5,339710,6,0,B|231:64|231:64|232:68|232:68|227:142,1,127.500004863739,2|8,1:2|0:2,0:0:0:0:
196,224,339975,1,0,0:0:0:0:
196,224,340063,2,0,B|222:233|222:233|247:228,1,53.125,0|0,0:0|1:2,0:0:0:0:
459,183,340239,5,10,0:2:0:0:
459,183,340327,1,0,0:0:0:0:
459,183,340416,2,0,P|434:174|417:155,1,53.125,0|0,1:2|0:0,0:0:0:0:
328,257,340592,1,10,0:2:0:0:
328,257,340680,1,0,1:2:0:0:
328,257,340769,2,0,P|337:232|332:207,1,53.125,0|0,0:0|1:2,0:0:0:0:
466,290,340945,2,0,P|440:295|421:313,1,53.125,10|0,0:2|0:0,0:0:0:0:
316,379,341122,6,0,B|255:374|255:374|251:375|251:375|177:370,1,127.500004863739,2|8,1:2|0:2,0:0:0:0:
97,384,341386,1,0,0:0:0:0:
97,384,341475,2,0,L|103:321,1,53.125,2|0,0:0|1:2,0:0:0:0:
194,318,341651,2,0,L|188:394,1,53.125,10|0,0:2|0:0,0:0:0:0:
10,350,341827,6,0,L|16:287,1,53.125,2|0,1:2|0:0,0:0:0:0:
91,240,342004,1,10,0:2:0:0:
91,240,342092,1,0,1:2:0:0:
91,240,342180,2,0,L|85:177,1,53.125,0|0,0:0|1:2,0:0:0:0:
160,129,342357,2,0,L|166:66,1,53.125,10|0,0:2|0:0,0:0:0:0:
253,272,342533,5,6,1:2:0:0:
289,294,342622,1,2,0:0:0:0:
329,283,342710,1,10,0:2:0:0:
346,244,342798,1,2,0:0:0:0:
329,207,342886,5,2,0:0:0:0:
289,217,342975,1,2,1:2:0:0:
271,256,343063,1,10,0:2:0:0:
289,294,343151,1,2,0:0:0:0:
329,306,343239,5,2,1:2:0:0:
346,268,343327,1,2,0:0:0:0:
329,229,343416,1,10,0:2:0:0:
289,217,343504,1,2,0:0:0:0:
253,240,343592,1,2,1:2:0:0:
212,233,343680,1,2,0:0:0:0:
188,199,343769,1,10,0:2:0:0:
194,158,343857,1,10,0:2:0:0:
228,133,343945,5,6,1:2:0:0:
239,150,344033,1,2,0:0:0:0:
245,170,344122,1,10,0:2:0:0:
242,191,344210,1,2,0:0:0:0:
232,210,344298,2,0,P|207:217|177:209,1,53.125,2|2,0:0|1:2,0:0:0:0:
40,151,344475,1,10,0:2:0:0:
40,151,344563,1,2,0:0:0:0:
40,151,344651,5,2,1:2:0:0:
29,134,344739,1,2,0:0:0:0:
23,114,344827,1,10,0:2:0:0:
26,93,344916,1,2,1:2:0:0:
36,74,345004,2,0,P|61:67|91:75,3,53.125,2|0|8|0,0:0|1:2|0:2|0:0,0:0:0:0:
182,21,345357,5,6,1:2:0:0:
213,26,345445,1,2,0:0:0:0:
244,29,345533,1,10,0:2:0:0:
275,32,345622,1,2,0:0:0:0:
306,36,345710,5,2,0:0:0:0:
305,57,345798,1,2,1:2:0:0:
303,78,345886,1,10,0:2:0:0:
301,99,345975,1,2,0:0:0:0:
300,120,346063,5,2,1:2:0:0:
289,119,346151,1,2,0:0:0:0:
278,118,346239,1,10,0:2:0:0:
267,117,346327,1,2,1:2:0:0:
256,116,346416,2,0,L|260:60,2,53.125,2|0|8,0:0|1:2|0:2,0:0:0:0:
104,266,346769,5,6,1:2:0:0:
111,273,346857,1,2,0:0:0:0:
125,279,346945,1,10,0:2:0:0:
146,280,347033,1,2,0:0:0:0:
171,273,347122,1,2,0:0:0:0:
195,252,347210,1,2,1:2:0:0:
227,234,347298,1,10,0:2:0:0:
269,232,347386,1,2,0:0:0:0:
307,261,347475,6,0,L|361:265,1,53.125,6|0,1:2|0:0,0:0:0:0:
397,180,347651,2,0,L|336:175,1,53.125,10|0,0:0|0:2,0:0:0:0:
422,346,347827,2,0,L|476:350,1,53.125,2|0,0:2|1:2,0:0:0:0:
505,262,348004,2,0,L|451:258,1,53.125,10|0,0:2|0:0,0:0:0:0:
203,345,348180,5,6,1:2:0:0:
150,336,348269,1,2,0:0:0:0:
129,287,348357,1,2,1:2:0:0:
160,246,348445,1,2,0:0:0:0:
212,253,348533,5,10,0:2:0:0:
207,296,348622,1,2,0:0:0:0:
174,322,348710,1,2,1:2:0:0:
131,315,348798,1,10,0:2:0:0:
105,280,348886,5,10,0:2:0:0:
137,271,348975,1,2,0:0:0:0:
166,281,349063,1,10,0:2:0:0:
183,307,349151,1,10,0:0:0:0:
186,338,349239,5,10,0:2:0:0:
167,327,349327,1,10,0:2:0:0:
156,308,349416,1,10,0:2:0:0:
155,285,349504,1,10,0:2:0:0:
160,268,349592,6,0,L|167:176,1,89.2499972763062,6|2,1:2|1:2,0:0:0:0:
242,125,349857,1,2,1:2:0:0:
242,125,349945,2,0,L|235:33,1,89.2499972763062,10|2,1:2|1:2,0:0:0:0:
242,42,350210,1,2,1:2:0:0:
242,42,350298,1,2,1:2:0:0:
261,227,350475,1,2,1:2:0:0:
261,227,350563,1,0,1:2:0:0:
261,227,350651,1,10,1:2:0:0:
353,79,350827,5,2,1:2:0:0:
353,79,350916,1,2,1:2:0:0:
353,79,351004,2,0,L|456:87,1,89.2499972763062,2|2,1:2|1:2,0:0:0:0:
498,164,351269,1,2,1:2:0:0:
498,164,351357,2,0,L|395:172,1,89.2499972763062,10|2,1:2|1:2,0:0:0:0:
358,248,351622,1,2,1:2:0:0:
358,248,351710,2,0,L|461:256,1,89.2499972763062,0|2,1:2|1:2,0:0:0:0:
501,334,351975,1,2,1:2:0:0:
501,334,352063,2,0,L|398:342,1,89.2499972763062,10|2,1:2|1:2,0:0:0:0:
283,356,352327,1,2,1:2:0:0:
283,356,352416,6,0,B|265:313|265:313|280:273,1,89.2499972763062,2|0,1:2|1:2,0:0:0:0:
238,151,352680,1,0,1:2:0:0:
238,151,352769,2,0,B|284:156|284:156|311:189,1,89.2499972763062,8|2,1:2|1:2,0:0:0:0:
444,219,353033,1,0,1:2:0:0:
444,219,353122,2,0,B|415:256|415:256|373:263,1,89.2499972763062,2|0,1:2|1:2,0:0:0:0:
373,263,353386,1,0,1:2:0:0:
373,263,353475,1,10,1:2:0:0:
198,319,353651,5,2,1:2:0:0:
198,319,353739,1,2,1:2:0:0:
198,319,353827,2,0,L|190:216,1,89.2499972763062,2|2,1:2|1:2,0:0:0:0:
101,189,354092,1,2,1:2:0:0:
101,189,354180,2,0,L|109:292,1,89.2499972763062,10|2,1:2|1:2,0:0:0:0:
44,335,354445,1,0,1:2:0:0:
44,335,354533,6,0,L|-14:341,3,44.6249986381531,0|8|2|2,1:2|1:2|1:2|1:2,0:0:0:0:
198,319,354886,1,14,1:2:0:0:
215,317,354975,1,2,0:2:0:0:
232,315,355063,1,2,1:2:0:0:
249,313,355151,1,2,1:2:0:0:
266,310,355239,6,0,L|258:207,1,89.2499972763062,6|0,1:2|1:2,0:0:0:0:
184,167,355504,1,0,1:2:0:0:
184,167,355592,2,0,L|191:75,1,89.2499972763062,8|0,1:2|1:2,0:0:0:0:
190,78,355857,1,0,1:2:0:0:
190,78,355945,1,0,1:2:0:0:
190,271,356122,1,0,1:2:0:0:
190,271,356210,1,0,1:2:0:0:
190,271,356298,1,10,1:2:0:0:
292,130,356475,5,2,1:2:0:0:
292,130,356563,1,0,1:2:0:0:
292,130,356651,2,0,L|387:138,1,89.2499972763062,2|2,1:2|1:2,0:0:0:0:
471,194,356916,1,2,1:2:0:0:
471,194,357004,2,0,B|480:105,1,89.2499972763062,10|2,1:2|1:2,0:0:0:0:
479,105,357269,1,0,1:2:0:0:
479,105,357357,5,2,1:2:0:0:
350,0,357533,2,0,L|347:43,1,44.6249986381531,2|0,1:2|1:2,0:0:0:0:
335,224,357710,5,10,1:2:0:0:
262,22,357886,2,0,L|259:65,1,44.6249986381531,0|0,1:2|1:2,0:0:0:0:
244,251,358063,6,0,L|240:298,3,44.6249986381531,6|0|0|0,1:2|0:0|1:2|1:2,0:0:0:0:
252,163,358416,1,10,1:2:0:0:
234,164,358504,1,2,0:0:0:0:
217,166,358592,1,2,1:2:0:0:
199,168,358680,1,2,1:2:0:0:
182,169,358769,5,6,1:2:0:0:
191,129,358857,1,2,0:0:0:0:
173,96,358945,1,2,1:2:0:0:
141,83,359033,1,2,1:2:0:0:
110,91,359122,1,10,1:2:0:0:
90,113,359210,1,2,0:0:0:0:
83,137,359298,1,2,1:2:0:0:
88,159,359386,1,2,1:2:0:0:
97,172,359475,5,6,1:2:0:0:
141,156,359563,1,2,0:0:0:0:
158,116,359651,1,2,1:2:0:0:
145,78,359739,1,2,1:2:0:0:
112,59,359827,1,10,1:2:0:0:
77,63,359916,1,2,0:0:0:0:
52,83,360004,1,2,1:2:0:0:
42,109,360092,1,2,1:2:0:0:
45,135,360180,5,6,1:2:0:0:
92,156,360269,1,2,0:0:0:0:
139,142,360357,1,2,1:2:0:0:
163,103,360445,1,2,1:2:0:0:
159,59,360533,1,14,1:2:0:0:
132,27,360622,1,2,0:0:0:0:
95,20,360710,1,2,1:2:0:0:
62,30,360798,1,2,1:2:0:0:
39,52,360886,6,0,L|47:147,1,89.2499972763062,6|0,1:2|1:2,0:0:0:0:
46,140,361151,1,0,1:2:0:0:
46,140,361239,1,8,1:2:0:0:
132,264,361416,1,2,1:2:0:0:
132,264,361504,1,0,1:2:0:0:
132,264,361592,2,0,L|124:169,1,89.2499972763062,0|0,1:2|1:2,0:0:0:0:
125,176,361857,1,0,1:2:0:0:
125,176,361945,1,10,1:2:0:0:
248,23,362122,5,2,1:2:0:0:
248,23,362210,1,2,1:2:0:0:
248,23,362298,2,0,L|343:15,1,89.2499972763062,2|2,1:2|1:2,0:0:0:0:
475,80,362563,1,2,1:2:0:0:
475,80,362651,2,0,L|380:88,1,89.2499972763062,10|2,1:2|1:2,0:0:0:0:
259,175,362916,1,0,1:2:0:0:
259,175,363004,2,0,L|354:167,1,89.2499972763062,2|0,1:2|1:2,0:0:0:0:
486,232,363269,1,2,1:2:0:0:
486,232,363357,2,0,L|391:240,1,89.2499972763062,10|2,1:2|1:2,0:0:0:0:
269,324,363622,1,0,1:2:0:0:
269,324,363710,6,0,L|156:316,1,89.2499972763062,6|0,1:2|1:2,0:0:0:0:
179,317,363975,1,0,1:2:0:0:
179,317,364063,1,10,1:2:0:0:
97,336,364239,2,0,B|102:288,1,44.6249986381531,2|0,1:2|1:2,0:0:0:0:
238,146,364416,6,0,L|231:236,1,89.2499972763062,6|2,1:2|1:2,0:0:0:0:
231,234,364680,1,0,1:2:0:0:
231,234,364769,1,10,1:2:0:0:
41,100,364945,5,2,1:2:0:0:
40,108,365033,1,0,1:2:0:0:
39,116,365122,1,6,1:2:0:0:
58,145,365210,1,2,0:0:0:0:
91,158,365298,1,2,1:2:0:0:
126,154,365386,1,2,1:2:0:0:
156,134,365475,1,10,1:2:0:0:
185,113,365563,1,2,0:0:0:0:
220,108,365651,1,2,1:2:0:0:
253,121,365739,1,2,1:2:0:0:
272,150,365827,5,6,1:2:0:0:
271,167,365916,1,10,0:2:0:0:
269,184,366004,1,2,1:2:0:0:
268,201,366092,1,2,1:2:0:0:
266,218,366180,5,14,1:2:0:0:
267,226,366269,1,2,0:0:0:0:
268,234,366357,1,2,1:2:0:0:
269,242,366445,1,2,1:2:0:0:
270,250,366533,6,0,L|274:305,3,44.6249986381531,6|0|0|0,1:2|1:2|1:2|1:2,0:0:0:0:
351,344,366886,2,0,L|360:244,1,89.2499972763062,8|2,1:2|1:2,0:0:0:0:
436,202,367151,1,0,1:2:0:0:
436,202,367239,2,0,L|445:302,1,89.2499972763062,0|2,1:2|1:2,0:0:0:0:
444,290,367504,1,2,1:2:0:0:
444,290,367592,1,10,1:2:0:0:
280,384,367769,5,2,1:2:0:0:
280,384,367857,1,2,1:2:0:0:
280,384,367945,2,0,L|274:295,1,89.2499972763062,2|2,1:2|1:2,0:0:0:0:
116,216,368210,1,2,1:2:0:0:
116,216,368298,2,0,L|196:255,1,89.2499972763062,10|2,1:2|1:2,0:0:0:0:
344,153,368563,1,2,1:2:0:0:
344,153,368651,2,0,L|269:202,1,89.2499972763062,2|2,1:2|1:2,0:0:0:0:
269,202,368916,1,2,1:2:0:0:
269,202,369004,1,10,1:2:0:0:
153,348,369180,2,0,L|199:344,1,44.6249986381531,0|0,1:2|1:2,0:0:0:0:
377,329,369357,5,6,1:2:0:0:
275,208,369533,1,2,1:2:0:0:
277,225,369622,1,2,1:2:0:0:
279,242,369710,1,10,1:2:0:0:
176,196,369886,1,2,1:2:0:0:
178,213,369975,1,2,1:2:0:0:
180,230,370063,1,2,1:2:0:0:
79,185,370239,1,2,1:2:0:0:
81,202,370327,1,2,1:2:0:0:
83,219,370416,5,10,1:2:0:0:
119,349,370592,2,0,L|123:304,1,44.6249986381531,0|0,1:2|1:2,0:0:0:0:
141,124,370769,5,14,1:2:0:0:
153,111,370857,1,2,1:2:0:0:
168,101,370945,1,2,1:2:0:0:
185,98,371033,1,2,1:2:0:0:
202,96,371122,1,10,1:2:0:0:
219,99,371210,1,2,1:2:0:0:
234,107,371298,1,2,1:2:0:0:
248,117,371386,1,2,1:2:0:0:
258,131,371475,5,2,1:2:0:0:
240,144,371563,1,2,1:2:0:0:
214,150,371651,1,2,1:2:0:0:
183,143,371739,1,2,1:2:0:0:
154,121,371827,1,10,1:2:0:0:
140,82,371916,1,2,1:2:0:0:
150,38,372004,1,2,1:2:0:0:
189,9,372092,1,2,1:2:0:0:
237,12,372180,6,0,L|292:17,1,44.6249986381531,14|0,1:2|1:2,1:2:0:0:
429,104,372357,2,0,L|374:99,1,44.6249986381531,2|0,1:2|1:2,1:2:0:0:
227,154,372533,1,10,1:2:0:0:
227,154,372622,1,2,1:2:0:0:
227,154,372710,2,0,L|271:158,1,44.6249986381531,2|2,1:2|1:2,1:2:0:0:
467,340,372886,6,0,L|472:285,1,44.6249986381531,10|0,1:2|1:2,1:2:0:0:
399,181,373063,2,0,L|394:236,1,44.6249986381531,2|0,1:2|1:2,1:2:0:0:
278,360,373239,1,10,1:2:0:0:
278,360,373327,1,0,1:2:0:0:
278,360,373416,2,0,L|283:305,1,44.6249986381531,2|2,1:2|1:2,1:2:0:0:
161,169,373592,5,10,1:2:0:0:
161,169,373680,1,0,1:2:0:0:
161,169,373769,2,0,L|157:219,1,44.6249986381531,0|0,1:2|1:2,1:2:0:0:
40,378,373945,1,10,1:2:0:0:
40,378,374033,1,0,1:2:0:0:
40,378,374122,2,0,L|44:328,1,44.6249986381531,2|2,1:2|1:2,1:2:0:0:
1,196,374298,5,10,1:2:0:0:
41,168,374386,1,2,1:2:0:0:
85,164,374475,1,10,1:2:0:0:
120,181,374563,1,10,1:2:0:0:
143,207,374651,1,10,1:2:0:0:
159,233,374739,1,2,1:2:0:0:
183,243,374827,1,2,1:2:0:0:
205,243,374916,1,2,1:2:0:0:
221,237,375004,6,0,L|225:189,1,44.6249986381531,10|0,1:2|1:2,1:2:0:0:
134,126,375180,2,0,L|130:78,1,44.6249986381531,6|0,1:2|1:2,1:2:0:0:
289,44,375357,1,2,1:2:0:0:
289,44,375445,1,2,1:2:0:0:
289,44,375533,2,0,L|293:-4,1,44.6249986381531,2|2,1:2|1:2,1:2:0:0:
436,228,375710,6,0,L|388:224,1,44.6249986381531,6|0,1:2|1:2,1:2:0:0:
259,122,375886,2,0,L|307:126,1,44.6249986381531,6|0,1:2|1:2,1:2:0:0:
476,56,376063,1,2,1:2:0:0:
476,56,376151,1,0,1:2:0:0:
476,56,376239,2,0,L|428:52,1,44.6249986381531,0|2,1:2|1:2,1:2:0:0:
293,0,376416,6,0,L|290:44,1,44.6249986381531,2|0,1:2|1:2,1:2:0:0:
417,186,376592,2,0,L|420:141,1,44.6249986381531,12|0,1:2|1:2,1:2:0:0:
210,56,376769,1,2,1:2:0:0:
209,64,376857,1,2,1:2:0:0:
208,72,376945,1,2,1:2:0:0:
207,80,377033,1,2,1:2:0:0:
206,88,377122,5,14,1:2:0:0:
250,66,377210,1,10,1:2:0:0:
293,73,377298,1,10,1:2:0:0:
324,97,377386,1,10,1:2:0:0:
340,128,377475,1,10,1:2:0:0:
340,159,377563,1,2,1:2:0:0:
331,184,377651,1,2,1:2:0:0:
317,201,377739,1,2,1:2:0:0:
303,207,377827,6,0,B|254:203|254:203|251:201|251:201|199:196,1,101.999996887207,6|0,1:2|0:0,0:0:0:0:
101,190,378533,1,2,0:2:0:0:
57,101,378886,1,2,0:2:0:0:
57,101,379063,1,2,0:2:0:0:
13,259,379239,6,0,B|40:251|53:228|53:228|124:236|124:236|127:238|127:238|196:246,1,178.499994552612,6|0,1:2|0:0,0:0:0:0:
214,326,379945,6,0,L|210:373,2,33.9999989624024,10|8|8,0:0|0:0|0:0,0:0:0:0:
285,271,380298,1,2,1:2:0:0:
285,271,380386,1,0,1:2:0:0:
285,271,380475,1,0,1:2:0:0:
285,271,380563,1,0,1:2:0:0:
285,271,380651,6,0,L|392:282,1,101.999996887207,6|2,0:0|0:2,0:0:0:0:
386,281,381357,2,0,L|391:323,2,33.9999989624024,2|2|2,0:2|0:2|0:2,0:2:0:0:
456,208,381710,2,0,L|451:166,2,33.9999989624024,2|2|2,0:2|0:2|0:2,0:2:0:0:
466,290,382063,5,6,1:2:0:0:
315,146,382239,1,2,1:2:0:0:
481,205,382416,2,0,L|455:207,1,25.4999992218018,8|0,0:0|0:0,0:0:0:0:
326,228,382592,5,8,0:2:0:0:
326,228,382680,1,8,0:2:0:0:
326,228,382769,2,0,L|294:231,3,25.4999992218018,8|10|10|10,0:0|0:2|0:2|0:2,0:0:0:0:
170,251,383122,5,0,1:2:0:0:
170,251,383210,1,0,1:2:0:0:
170,251,383298,2,0,L|142:254,2,16.9999994812012,2|2|2,1:2|1:2|1:2,1:2:0:0:
228,295,383475,6,0,B|224:246|224:246|222:243|222:243|217:191,1,101.999996887207,6|2,1:2|0:2,0:0:0:0:
217,193,384180,2,0,L|213:160,1,33.9999989624024,2|0,1:2|0:0,0:0:0:0:
240,59,384416,2,0,L|211:78,1,33.9999989624024,2|0,1:2|0:0,0:0:0:0:
106,104,384651,2,0,L|135:117,1,33.9999989624024,2|0,1:2|0:0,0:0:0:0:
298,237,384886,6,0,L|306:122,1,101.999996887207,6|0,1:2|0:0,0:0:0:0:
396,90,385416,1,6,1:2:0:0:
298,237,385592,5,6,1:2:0:0:
213,51,385769,1,0,1:2:0:0:
394,187,385945,1,12,0:2:0:0:
401,194,386298,6,0,L|396:261,1,50.9999984436036,14|2,0:2|1:2,0:0:0:0:
390,326,386651,1,2,1:2:0:0:
390,326,386827,1,2,1:2:0:0:
75,190,387004,6,0,P|102:199|130:195,1,56.6666666666667,6|0,0:2|0:0,0:0:0:0:
280,89,387239,2,0,P|259:108|249:135,1,56.6666666666667,6|0,0:2|0:0,0:0:0:0:
265,319,387475,2,0,P|259:292|242:270,1,56.6666666666667,6|0,0:2|0:0,0:0:0:0:
161,104,387710,6,0,L|136:52,2,56.6666666666667,6|0|0,1:2|1:2|1:2,0:0:0:0:
151,288,388063,2,0,L|118:334,2,56.6666666666667,6|0|0,1:2|1:2|1:2,0:0:0:0:
208,205,388416,5,10,0:2:0:0:
240,195,388533,1,10,0:2:0:0:
272,203,388651,1,10,0:2:0:0:
287,223,388769,5,2,1:2:0:0:
308,230,388886,1,2,1:2:0:0:
330,228,389004,1,2,1:2:0:0:
345,208,389122,6,0,B|362:132|294:155|315:75,1,141.666666666667,6|0,1:2|1:2,0:0:0:0:
438,149,389475,2,0,L|513:155,2,70.8333333333333,14|0|0,0:2|1:2|1:2,0:0:0:0:
324,230,389827,6,0,B|257:225|257:225|254:223|254:223|169:217,1,141.666666666667,2|0,1:2|1:2,0:0:0:0:
53,256,390180,1,10,1:2:0:0:
51,246,390298,2,0,B|43:212|43:212|59:173,1,70.8333333333333,2|0,1:2|1:2,0:0:0:0:
48,34,390533,6,0,P|87:79|163:76,1,141.666666666667,2|0,1:2|1:2,0:0:0:0:
290,15,390886,1,8,1:2:0:0:
289,29,391004,1,0,1:2:0:0:
288,43,391122,1,0,1:2:0:0:
287,57,391239,6,0,B|278:214,1,141.666666666667,2|0,1:2|1:2,0:0:0:0:
267,308,391592,2,0,P|240:285|205:278,1,70.8333333333333,10|0,1:2|1:2,0:0:0:0:
32,238,391827,1,2,1:2:0:0:
45,236,391945,6,0,P|102:217|173:170,1,141.666666666667,2|0,1:2|1:2,0:0:0:0:
79,67,392298,2,0,P|46:77|13:102,2,70.8333333333333,10|0|0,1:2|1:2|1:2,0:0:0:0:
212,40,392651,5,2,1:2:0:0:
254,45,392769,1,2,0:0:0:0:
296,49,392886,1,2,1:2:0:0:
313,71,393004,5,10,1:2:0:0:
341,74,393122,1,2,1:2:0:0:
369,75,393239,1,2,1:2:0:0:
408,58,393357,6,0,B|440:60|440:60|443:62|443:62|478:65,2,70.8333333333333,2|0|0,1:2|0:0|1:2,0:0:0:0:
274,12,393710,1,8,1:2:0:0:
261,37,393827,1,0,1:2:0:0:
261,65,393945,1,0,1:2:0:0:
271,91,394063,6,0,B|269:114|282:132|282:132|276:190|276:190|277:193|277:193|272:250,1,141.666666666667,2|0,1:2|1:2,0:0:0:0:
339,378,394416,1,12,1:2:0:0:
367,346,394533,1,2,1:2:0:0:
370,303,394651,1,2,1:2:0:0:
342,270,394769,6,0,B|236:261|236:261|233:259|233:259|193:256,1,141.666666666667,6|0,1:2|1:2,0:0:0:0:
73,316,395122,2,0,B|60:350|60:350|68:390,2,70.8333333333333,10|0|0,1:2|1:2|1:2,0:0:0:0:
193,242,395475,6,0,L|122:236,1,70.8333333333333,2|0,1:2|0:0,0:0:0:0:
14,142,395710,2,0,L|85:148,1,70.8333333333333,2|8,1:2|1:2,0:0:0:0:
210,78,395945,2,0,L|139:72,1,70.8333333333333,2|0,1:2|1:2,0:0:0:0:
0,3,396180,6,0,B|-17:79|51:56|30:136,1,141.666666666667,2|0,1:2|1:2,0:0:0:0:
53,251,396533,1,8,1:2:0:0:
62,240,396651,2,0,P|84:213|117:200,1,70.8333333333333,2|0,1:2|1:2,0:0:0:0:
278,285,396886,6,0,B|255:283|237:296|237:296|179:290|179:290|176:291|176:291|139:287,1,141.666666666667,6|0,1:2|1:2,0:0:0:0:
28,374,397239,1,14,1:2:0:0:
56,377,397357,1,2,1:2:0:0:
84,380,397475,1,2,1:2:0:0:
111,383,397592,6,0,L|116:311,1,70.8333333333333,2|0,1:2|0:0,0:0:0:0:
250,169,397827,2,0,L|185:200,1,70.8333333333333,2|8,1:2|1:2,0:0:0:0:
0,155,398063,2,0,L|59:195,1,70.8333333333333,2|0,1:2|1:2,0:0:0:0:
206,291,398298,6,0,L|278:296,1,70.8333333333333,2|0,1:2|0:0,0:0:0:0:
384,132,398533,2,0,L|343:191,1,70.8333333333333,2|8,1:2|1:2,0:0:0:0:
433,366,398769,2,0,L|401:301,1,70.8333333333333,2|8,1:2|1:2,0:0:0:0:
263,138,399004,6,0,L|257:209,1,70.8333333333333,6|0,1:2|0:0,0:0:0:0:
426,70,399239,2,0,L|432:-1,1,70.8333333333333,6|8,1:2|0:2,0:0:0:0:
352,217,399475,1,6,1:2:0:0:
351,231,399592,1,6,1:2:0:0:
350,245,399710,6,0,L|344:322,2,70.8333333333333,14|8|8,1:2|0:2|0:2,0:0:0:0:
471,154,400063,1,8,0:2:0:0:
495,188,400180,1,8,0:2:0:0:
492,230,400298,1,8,0:2:0:0:
462,256,400416,6,0,B|414:252|414:252|411:250|411:250|328:243,1,113.333333333333,4|0,1:2|1:2,0:0:0:0:
297,313,400769,2,0,P|269:318|238:308,2,56.6666666666667,2|0|0,0:0|1:2|1:2,0:0:0:0:
360,234,401122,6,0,B|364:177,1,56.6666666666667,10|0,0:2|1:2,0:0:0:0:
281,134,401357,2,0,B|276:190,1,56.6666666666667,2|0,0:0|1:2,0:0:0:0:
190,212,401592,2,0,B|194:155,1,56.6666666666667,2|0,0:0|0:0,0:0:0:0:
124,30,401827,6,0,P|74:5|21:21,2,113.333333333333,2|0|2,1:2|1:2|1:2,0:0:0:0:
99,173,402416,1,2,1:2:0:0:
90,177,402533,2,0,P|63:180|35:171,1,56.6666666666667,10|0,0:2|1:2,0:0:0:0:
69,98,402886,2,0,B|190:108,1,113.333333333333,2|0,1:2|0:0,0:0:0:0:
237,218,403239,6,0,L|242:162,1,56.6666666666667,2|0,1:2|0:0,0:0:0:0:
249,63,403475,2,0,L|294:95,1,56.6666666666667,2|0,1:2|0:0,0:0:0:0:
377,152,403710,2,0,L|326:175,1,56.6666666666667,2|0,1:2|1:2,0:0:0:0:
130,131,403945,6,0,L|180:107,1,56.6666666666667,10|0,0:2|1:2,0:0:0:0:
374,20,404180,2,0,L|369:76,1,56.6666666666667,2|0,0:0|1:2,0:0:0:0:
356,284,404416,2,0,L|310:251,1,56.6666666666667,2|0,0:0|0:0,0:0:0:0:
285,147,404651,6,0,B|338:150|338:150|341:149|341:149|397:153,2,113.333333333333,2|0|0,1:2|1:2|1:2,0:0:0:0:
114,179,405239,1,0,1:2:0:0:
108,171,405357,1,8,1:2:0:0:
104,161,405475,6,0,P|99:135|108:107,1,56.6666666666667,4|0,1:2|0:0,0:0:0:0:
207,113,405710,2,0,P|212:139|203:167,1,56.6666666666667,4|0,1:2|0:0,0:0:0:0:
155,239,405945,1,0,0:2:0:0:
162,247,406063,6,0,B|176:254|187:270|187:270|284:277,1,113.333333333333,0|0,1:2|1:2,0:0:0:0:
360,314,406416,2,0,B|370:287|370:287|364:259,2,56.6666666666667,2|0|0,0:0|1:2|1:2,0:0:0:0:
261,332,406769,6,0,L|266:270,1,56.6666666666667,10|0,0:2|1:2,0:0:0:0:
174,237,407004,2,0,L|179:299,1,56.6666666666667,2|0,0:2|1:2,0:0:0:0:
89,334,407239,2,0,L|94:272,1,56.6666666666667,2|0,0:2|0:0,0:0:0:0:
49,140,407475,6,0,L|166:150,1,113.333333333333,2|0,1:2|1:2,0:0:0:0:
249,185,407827,2,0,L|253:128,1,56.6666666666667,2|0,0:0|0:0,0:0:0:0:
305,32,408063,5,2,1:2:0:0:
310,42,408180,1,8,0:2:0:0:
315,51,408298,2,0,P|341:60|368:54,1,56.6666666666667,0|0,1:2|0:0,0:0:0:0:
200,41,408533,2,0,P|172:46|146:37,1,56.6666666666667,0|0,1:2|0:0,0:0:0:0:
247,195,408769,1,0,0:0:0:0:
248,183,408886,6,0,L|252:128,1,56.6666666666667,2|0,1:2|0:0,0:0:0:0:
373,202,409122,2,0,L|323:226,1,56.6666666666667,2|0,1:2|0:0,0:0:0:0:
330,89,409357,2,0,L|376:119,1,56.6666666666667,2|0,1:2|1:2,0:0:0:0:
274,291,409592,6,0,L|227:260,1,56.6666666666667,10|0,0:2|1:2,0:0:0:0:
455,136,409827,2,0,L|451:191,1,56.6666666666667,2|0,0:0|1:2,0:0:0:0:
235,51,410063,2,0,L|284:26,1,56.6666666666667,2|0,0:0|0:0,0:0:0:0:
383,287,410298,6,0,L|378:351,2,56.6666666666667,6|8|8,1:2|0:2|0:2,0:0:0:0:
451,192,410651,2,0,L|456:128,2,56.6666666666667,8|8|8,0:2|0:2|0:2,0:0:0:0:
313,234,411004,5,12,1:2:0:0:
279,231,411122,1,0,1:2:0:0:
245,228,411239,1,8,0:2:0:0:
229,245,411357,5,8,0:2:0:0:
206,248,411475,1,8,0:2:0:0:
183,250,411592,1,8,0:2:0:0:
152,234,411710,6,0,B|156:178|156:178|155:175|155:175|160:119,1,113.333333333333,4|0,1:2|1:2,0:0:0:0:
87,68,412063,2,0,L|82:9,2,56.6666666666667,2|0|0,0:2|1:2|1:2,0:0:0:0:
70,178,412416,6,0,L|126:173,1,56.6666666666667,10|0,0:2|1:2,0:0:0:0:
216,247,412651,2,0,L|159:251,1,56.6666666666667,2|0,0:0|1:2,0:0:0:0:
86,336,412886,2,0,L|142:331,1,56.6666666666667,2|0,0:0|0:0,0:0:0:0:
373,261,413122,6,0,B|398:314|398:314|379:366,2,113.333333333333,2|0|0,1:2|1:2|1:2,0:0:0:0:
226,290,413710,1,0,1:2:0:0:
223,299,413827,2,0,B|215:328|215:328|225:353,1,56.6666666666667,10|0,0:2|1:2,0:0:0:0:
302,322,414180,2,0,L|294:201,1,113.333333333333,2|0,1:2|0:0,0:0:0:0:
195,140,414533,6,0,L|253:136,1,56.6666666666667,2|0,1:2|0:0,0:0:0:0:
371,179,414769,2,0,L|338:130,1,56.6666666666667,2|0,1:2|0:0,0:0:0:0:
319,8,415004,2,0,L|293:60,1,56.6666666666667,2|0,1:2|1:2,0:0:0:0:
269,259,415239,6,0,L|294:206,1,56.6666666666667,10|0,0:2|1:2,0:0:0:0:
442,57,415475,2,0,L|384:61,1,56.6666666666667,2|0,0:0|1:2,0:0:0:0:
182,8,415710,2,0,L|214:56,1,56.6666666666667,2|0,0:0|0:0,0:0:0:0:
361,146,415945,6,0,L|473:136,2,113.333333333333,2|0|0,1:2|1:2|1:2,0:0:0:0:
332,315,416533,1,0,1:2:0:0:
328,304,416651,1,8,1:2:0:0:
325,294,416769,6,0,B|315:269|315:269|323:240,1,56.6666666666667,4|0,1:2|0:2,0:0:0:0:
422,232,417004,2,0,B|431:256|431:256|423:285,1,56.6666666666667,4|0,1:2|0:0,0:0:0:0:
398,382,417239,1,0,0:0:0:0:
385,384,417357,6,0,B|363:368|363:368|316:373|316:373|313:375|313:375|250:383,1,113.333333333333,0|0,1:2|1:2,0:0:0:0:
212,309,417710,2,0,L|153:314,2,56.6666666666667,2|0|0,0:0|1:2|1:2,0:0:0:0:
327,296,418063,6,0,L|322:238,1,56.6666666666667,10|0,0:2|1:2,0:0:0:0:
418,201,418298,2,0,L|413:257,1,56.6666666666667,2|0,0:0|1:2,0:0:0:0:
239,336,418533,2,0,L|234:279,1,56.6666666666667,2|0,0:0|0:0,0:0:0:0:
338,144,418769,6,0,L|225:152,1,113.333333333333,2|0,1:2|1:2,0:0:0:0:
135,195,419122,2,0,L|129:134,1,56.6666666666667,2|0,0:0|1:2,0:0:0:0:
179,31,419357,5,2,1:2:0:0:
186,21,419475,1,8,0:2:0:0:
192,10,419592,2,0,B|203:35|203:35|196:68,1,56.6666666666667,0|0,1:2|0:0,0:0:0:0:
47,76,419827,2,0,B|35:49|35:49|42:23,1,56.6666666666667,0|0,1:2|0:0,0:0:0:0:
127,128,420063,1,0,0:0:0:0:
129,138,420180,6,0,L|135:195,1,56.6666666666667,6|0,1:2|0:0,0:0:0:0:
233,282,420416,2,0,L|181:258,1,56.6666666666667,6|8,1:2|0:2,0:0:0:0:
58,300,420651,2,0,L|104:266,1,56.6666666666667,6|0,1:2|0:0,0:0:0:0:
259,152,420886,6,0,L|212:185,1,56.6666666666667,6|0,1:2|0:0,0:0:0:0:
156,384,421122,2,0,L|150:327,1,56.6666666666667,2|8,1:2|0:2,0:0:0:0:
7,181,421357,2,0,L|58:204,1,56.6666666666667,6|0,1:2|1:2,0:0:0:0:
262,300,421592,5,10,1:2:0:0:
281,312,421710,1,8,0:2:0:0:
308,315,421827,1,8,0:2:0:0:
339,302,421945,1,8,0:2:0:0:
360,268,422063,1,8,0:2:0:0:
356,223,422180,1,8,0:2:0:0:
314,192,422298,1,8,1:2:0:0:
307,146,422416,1,8,0:2:0:0:
330,114,422533,1,8,0:2:0:0:
361,102,422651,1,8,0:2:0:0:
389,106,422769,1,8,0:2:0:0:
408,117,422886,1,8,0:2:0:0:
421,133,423004,6,0,B|351:148|265:165,1,141.666666666667,4|0,1:2|1:2,0:0:0:0:
188,211,423357,2,0,P|173:181|178:146,2,70.8333333333333,10|0|0,1:2|1:2|1:2,0:0:0:0:
306,301,423710,6,0,P|294:231|282:161,1,141.666666666667,2|0,1:2|1:2,0:0:0:0:
335,69,424063,2,0,P|329:33|323:-5,2,70.8333333333333,10|0|0,1:2|1:2|1:2,0:0:0:0:
508,121,424416,6,0,P|438:110|385:164,1,141.666666666667,2|0,1:2|1:2,0:0:0:0:
446,242,424769,2,0,P|483:243|510:224,1,70.8333333333333,10|0,1:2|1:2,0:0:0:0:
314,61,425004,1,2,1:2:0:0:
312,75,425122,6,0,P|300:144|288:214,1,141.666666666667,2|0,1:2|1:2,0:0:0:0:
356,301,425475,2,0,P|350:335|344:370,2,70.8333333333333,10|0|0,1:2|1:2|1:2,0:0:0:0:
218,317,425827,6,0,P|155:327|59:343,1,141.666666666667,2|0,1:2|1:2,0:0:0:0:
10,383,426180,2,0,B|-8:354|-8:354|0:314,1,70.8333333333333,8|0,1:2|1:2,0:0:0:0:
168,134,426416,1,2,1:2:0:0:
167,148,426533,6,0,P|156:210|140:306,1,141.666666666667,2|0,1:2|1:2,0:0:0:0:
232,348,426886,2,0,P|238:311|246:262,1,70.8333333333333,10|0,1:2|1:2,0:0:0:0:
344,177,427122,1,2,1:2:0:0:
340,164,427239,6,0,P|328:94|316:24,1,141.666666666667,2|0,1:2|1:2,0:0:0:0:
184,98,427592,1,8,1:2:0:0:
206,114,427710,1,0,1:2:0:0:
233,118,427827,1,0,1:2:0:0:
260,110,427945,6,0,P|329:97|399:84,1,141.666666666667,0|0,1:2|1:2,0:0:0:0:
484,198,428298,1,12,1:2:0:0:
456,204,428416,1,0,1:2:0:0:
428,210,428533,1,0,1:2:0:0:
401,217,428651,6,0,P|333:229|248:245,1,141.666666666667,4|0,1:2|1:2,0:0:0:0:
156,261,429004,2,0,P|163:297|172:346,2,70.8333333333333,10|0|0,1:2|1:2|1:2,0:0:0:0:
31,193,429357,6,0,P|92:175|153:127,1,141.666666666667,2|0,1:2|1:2,0:0:0:0:
74,51,429710,2,0,P|40:63|13:85,2,70.8333333333333,10|0|0,1:2|1:2|1:2,0:0:0:0:
176,149,430063,6,0,P|243:169|297:214,1,141.666666666667,2|0,1:2|1:2,0:0:0:0:
218,286,430416,2,0,P|184:273|157:251,1,70.8333333333333,10|0,1:2|1:2,0:0:0:0:
379,161,430651,1,2,1:2:0:0:
370,169,430769,6,0,P|354:100|365:30,1,141.666666666667,2|0,1:2|1:2,0:0:0:0:
469,61,431122,2,0,P|474:95|468:130,1,70.8333333333333,10|0,1:2|1:2,0:0:0:0:
381,369,431357,1,0,1:2:0:0:
366,366,431475,6,0,P|297:353|220:339,1,141.666666666667,6|0,1:2|1:2,0:0:0:0:
99,277,431827,1,10,1:2:0:0:
113,275,431945,1,0,1:2:0:0:
127,273,432063,1,0,1:2:0:0:
142,270,432180,6,0,P|210:258|305:240,1,141.666666666667,6|0,1:2|1:2,0:0:0:0:
444,179,432533,1,10,1:2:0:0:
423,184,432651,1,0,1:2:0:0:
403,176,432769,1,0,1:2:0:0:
384,179,432886,6,0,P|316:167|221:150,1,141.666666666667,6|0,1:2|1:2,0:0:0:0:
45,89,433239,1,8,1:2:0:0:
70,101,433357,1,0,1:2:0:0:
94,86,433475,1,0,1:2:0:0:
116,97,433592,6,0,P|184:85|279:68,1,141.666666666667,4|0,1:2|1:2,0:0:0:0:
508,9,433945,1,8,1:2:0:0:
478,29,434063,1,0,1:2:0:0:
457,1,434180,1,0,1:2:0:0:
430,24,434298,6,0,P|362:12|267:-5,1,141.666666666667,4|0,1:2|1:2,0:0:0:0:
110,108,434651,2,0,P|75:114|40:120,2,70.8333333333333,10|0|0,1:2|1:2|1:2,0:0:0:0:
296,112,435004,6,0,P|311:143|308:178,1,70.8333333333333,2|0,1:2|0:0,0:0:0:0:
110,108,435239,2,0,P|129:78|161:64,1,70.8333333333333,2|8,1:2|1:2,0:0:0:0:
203,274,435475,2,0,P|168:271|139:251,1,70.8333333333333,2|0,1:2|1:2,0:0:0:0:
212,2,435710,6,0,P|200:70|183:165,1,141.666666666667,2|0,1:2|1:2,0:0:0:0:
103,215,436063,2,0,P|109:249|114:284,2,70.8333333333333,10|0|0,1:2|1:2|1:2,1:0:0:0:
52,85,436416,6,0,P|106:129|173:150,1,141.666666666667,2|0,1:2|1:2,0:0:0:0:
219,249,436769,2,0,P|243:225|291:208,1,70.8333333333333,10|0,1:2|1:2,0:0:0:0:
411,84,437004,1,0,1:2:0:0:
417,110,437122,6,0,P|429:179|441:249,1,141.666666666667,6|0,1:2|1:2,0:0:0:0:
267,372,437475,1,10,1:2:0:0:
264,351,437592,1,0,1:2:0:0:
259,330,437710,1,0,1:2:0:0:
255,310,437827,6,0,P|242:240|230:170,1,141.666666666667,6|0,1:2|1:2,0:0:0:0:
45,183,438180,1,10,1:2:0:0:
47,197,438298,1,0,1:2:0:0:
49,210,438416,1,0,1:2:0:0:
53,226,438533,6,0,P|65:295|77:365,1,141.666666666667,6|0,1:2|1:2,0:0:0:0:
184,345,438886,2,0,P|219:338|262:330,2,70.8333333333333,8|0|0,1:2|1:2|1:2,0:0:0:0:
50,298,439239,6,0,P|85:291|128:283,1,70.8333333333333,6|0,1:2|0:0,0:0:0:0:
232,176,439475,1,2,1:2:0:0:
227,190,439592,2,0,P|192:197|149:205,1,70.8333333333333,8|0,1:2|1:2,0:0:0:0:
8,123,439827,1,2,1:2:0:0:
1,135,439945,6,0,P|71:123|140:110,1,141.666666666667,6|0,1:2|1:2,0:0:0:0:
80,15,440298,2,0,P|73:49|66:84,1,70.8333333333333,8|0,1:2|1:2,0:0:0:0:
157,203,440533,1,2,1:2:0:0:
173,207,440651,6,0,P|244:222|334:241,1,141.666666666667,2|0,1:2|1:2,0:0:0:0:
417,224,441004,2,0,P|410:258|403:293,2,70.8333333333333,10|0|0,1:2|1:2|1:2,0:0:0:0:
484,88,441357,6,0,P|415:102|356:140,1,141.666666666667,2|0,1:2|1:2,0:0:0:0:
344,30,441710,2,0,P|378:22|408:4,2,70.8333333333333,10|0|0,1:2|1:2|1:2,0:0:0:0:
224,105,442063,6,0,B|148:121|175:48|85:65,1,141.666666666667,2|0,1:2|1:2,0:0:0:0:
126,220,442416,2,0,P|133:254|140:289,2,70.8333333333333,10|0|0,1:2|1:2|1:2,0:0:0:0:
20,160,442769,6,0,P|91:145|181:126,1,141.666666666667,2|0,1:2|1:2,0:0:0:0:
371,166,443122,1,8,1:2:0:0:
343,173,443239,1,0,1:2:0:0:
315,180,443357,1,0,1:2:0:0:
287,187,443475,6,0,P|294:153|301:118,2,70.8333333333333,12|0|0,1:2|1:2|1:2,0:0:0:0:
364,69,443827,2,0,P|357:34|350:0,2,70.8333333333333,12|0|0,1:2|1:2|1:2,0:0:0:0:
392,185,444180,5,14,1:2:0:0:
400,200,444269,1,2,0:0:0:0:
413,212,444357,1,2,1:2:0:0:
428,221,444445,1,2,0:0:0:0:
444,227,444533,1,10,0:2:0:0:
461,230,444622,1,2,0:0:0:0:
478,228,444710,1,10,0:2:0:0:
495,224,444798,1,10,0:2:0:0:
508,212,444886,5,10,0:2:0:0:
503,189,444975,1,2,0:2:0:0:
486,168,445063,1,2,1:2:0:0:
460,149,445151,1,2,0:0:0:0:
424,146,445239,1,10,0:2:0:0:
385,157,445327,1,10,0:2:0:0:
358,193,445416,1,10,0:2:0:0:
353,241,445504,1,2,0:0:0:0:
383,284,445592,6,0,L|433:289,1,44.6249986381531,6|0,1:2|1:2,1:2:0:0:
494,171,445769,2,0,L|444:166,1,44.6249986381531,6|0,1:2|1:2,1:2:0:0:
282,186,445945,1,10,1:2:0:0:
282,186,446033,1,8,1:2:0:0:
282,186,446122,2,0,L|332:191,1,44.6249986381531,6|2,1:2|1:2,1:2:0:0:
486,42,446298,6,0,L|481:92,1,44.6249986381531,6|0,1:2|1:2,1:2:0:0:
378,125,446475,2,0,L|373:80,1,44.6249986381531,6|0,1:2|1:2,1:2:0:0:
236,27,446651,1,10,1:2:0:0:
236,27,446739,1,8,1:2:0:0:
236,27,446827,2,0,L|240:71,1,44.6249986381531,6|2,1:2|1:2,1:2:0:0:
260,226,447004,6,0,L|215:231,1,44.6249986381531,2|0,1:2|1:2,1:2:0:0:
0,171,447180,2,0,L|45:166,1,44.6249986381531,6|0,1:2|1:2,1:2:0:0:
149,121,447357,1,10,1:2:0:0:
148,129,447445,1,2,1:2:0:0:
147,137,447533,1,2,1:2:0:0:
146,145,447622,1,2,1:2:0:0:
145,153,447710,5,14,1:2:0:0:
193,157,447798,1,10,1:2:0:0:
237,162,447886,1,10,1:2:0:0:
277,166,447975,1,10,1:2:0:0:
312,169,448063,1,10,1:2:0:0:
342,173,448151,1,10,1:2:0:0:
368,176,448239,1,10,1:2:0:0:
390,178,448327,1,10,1:2:0:0:
407,180,448416,5,6,1:2:0:0:
218,284,448592,1,6,1:2:0:0:
318,108,448769,1,2,0:0:0:0:
318,108,448857,1,2,0:0:0:0:
318,108,448945,2,0,L|313:153,1,44.6249986381531,4|2,0:0|0:0,0:0:0:0:
293,334,449122,5,6,1:2:0:0:
123,169,449298,1,6,1:2:0:0:
349,246,449475,1,2,0:2:0:0:
349,246,449563,1,2,0:2:0:0:
349,246,449651,1,2,0:2:0:0:
349,246,449739,1,2,0:2:0:0:
349,246,449827,2,0,L|304:241,1,44.6249986381531,10|8,0:2|0:2,0:0:0:0:
111,171,450004,5,4,1:2:0:0:
123,169,450092,2,0,L|168:164,1,44.6249986381531,6|10,0:0|0:2,0:0:0:0:
400,90,450269,1,4,1:2:0:0:
389,89,450357,2,0,L|344:84,1,44.6249986381531,6|0,0:0|1:2,0:0:0:0:
90,5,450533,5,14,1:2:0:0:
93,31,450622,1,10,0:2:0:0:
96,62,450710,1,10,0:2:0:0:
100,97,450798,1,10,0:2:0:0:
103,136,450886,1,10,0:2:0:0:
106,180,450975,1,10,0:2:0:0:
110,228,451063,1,10,0:2:0:0:
114,281,451151,1,10,0:2:0:0:
57,135,461033,6,0,L|60:98,1,26.5625,8|8,0:0|0:0,0:0:0:0:
64,146,461122,6,0,L|54:255,1,106.25,14|2,0:0|1:2,0:0:0:0:
249,325,461475,2,0,L|260:209,1,106.25,10|2,0:2|0:0,0:0:0:0:
267,144,461739,1,8,0:2:0:0:
268,133,461827,5,10,0:2:0:0:
178,14,462004,2,0,L|172:73,1,53.125,8|8,0:2|0:2,0:2:0:0:
169,181,462180,1,10,0:2:0:0:
169,181,462269,1,8,0:2:0:0:
169,181,462357,1,8,1:2:0:0:
349,337,462533,5,6,1:2:0:0:
383,336,462622,1,0,1:2:0:0:
411,318,462710,1,0,1:2:0:0:
430,292,462798,1,0,1:2:0:0:
438,261,462886,1,10,1:2:0:0:
428,230,462975,1,0,1:2:0:0:
405,208,463063,1,0,1:2:0:0:
376,196,463151,1,0,1:2:0:0:
345,195,463239,1,10,1:2:0:0:
314,184,463327,1,0,1:2:0:0:
293,159,463416,1,0,1:2:0:0:
283,128,463504,1,0,1:2:0:0:
290,96,463592,1,10,1:2:0:0:
308,70,463680,1,0,1:2:0:0:
337,54,463769,1,2,1:2:0:0:
369,52,463857,1,0,1:2:0:0:
399,64,463945,5,8,1:2:0:0:
410,94,464033,1,0,1:2:0:0:
409,126,464122,1,0,1:2:0:0:
393,154,464210,1,0,1:2:0:0:
365,170,464298,1,8,1:2:0:0:
333,177,464386,1,0,1:2:0:0:
302,166,464475,1,0,1:2:0:0:
278,142,464563,1,0,1:2:0:0:
267,113,464651,1,8,1:2:0:0:
271,79,464739,1,0,1:2:0:0:
289,56,464827,6,0,P|323:60|351:63,1,53.125,2|0,1:2|1:2,1:2:0:0:
470,158,465004,2,0,P|436:154|408:151,1,53.125,10|0,1:2|1:2,1:2:0:0:
245,217,465180,2,0,P|279:221|307:224,1,53.125,2|0,1:2|1:2,1:2:0:0:
502,285,465357,5,14,1:2:0:0:
482,310,465445,1,0,1:2:0:0:
452,321,465533,1,0,1:2:0:0:
419,319,465622,1,0,1:2:0:0:
391,303,465710,1,10,1:2:0:0:
374,276,465798,1,0,1:2:0:0:
361,246,465886,1,2,1:2:0:0:
337,224,465975,1,0,1:2:0:0:
309,208,466063,1,8,1:2:0:0:
277,203,466151,1,0,1:2:0:0:
246,212,466239,1,2,1:2:0:0:
218,228,466327,1,0,1:2:0:0:
197,253,466416,1,8,1:2:0:0:
188,284,466504,1,0,1:2:0:0:
190,315,466592,1,2,1:2:0:0:
199,345,466680,1,0,1:2:0:0:
219,369,466769,2,0,L|274:363,3,53.125,8|0|0|0,1:2|1:2|1:2|1:2,1:2:0:0:
360,380,467122,5,8,1:2:0:0:
360,380,467210,1,0,1:2:0:0:
360,380,467298,2,0,P|363:352|349:321,1,53.125,0|0,1:2|1:2,1:2:0:0:
415,264,467475,1,8,1:2:0:0:
415,264,467563,1,0,1:2:0:0:
415,264,467651,2,0,P|392:247|358:244,1,53.125,2|0,1:2|1:2,1:2:0:0:
337,160,467827,1,10,1:2:0:0:
337,160,467916,1,0,1:2:0:0:
337,160,468004,2,0,P|311:171|291:199,1,53.125,2|0,1:2|1:2,1:2:0:0:
239,277,468180,5,14,1:2:0:0:
207,273,468269,1,0,1:2:0:0:
175,269,468357,1,0,1:2:0:0:
143,265,468445,1,0,1:2:0:0:
111,261,468533,1,8,1:2:0:0:
79,257,468622,1,0,1:2:0:0:
47,251,468710,2,0,L|53:196,1,53.125,2|0,1:2|1:2,1:2:0:0:
127,69,468886,5,10,1:2:0:0:
130,91,468975,1,0,1:2:0:0:
132,113,469063,1,0,1:2:0:0:
135,135,469151,1,0,1:2:0:0:
137,157,469239,6,0,L|143:212,1,53.125,8|0,1:2|1:2,1:2:0:0:
230,244,469416,2,0,L|235:191,1,53.125,0|0,1:2|1:2,1:2:0:0:
315,119,469592,5,8,1:2:0:0:
313,108,469680,1,0,1:2:0:0:
312,97,469769,1,0,1:2:0:0:
311,86,469857,1,0,1:2:0:0:
309,75,469945,2,0,L|303:22,3,53.125,10|0|0|0,1:2|1:2|1:2|1:2,1:2:0:0:
402,49,470298,5,10,1:2:0:0:
401,60,470386,2,0,L|395:112,1,53.125,0|0,1:2|1:2,1:2:0:0:
326,228,470563,1,2,1:2:0:0:
325,217,470651,2,0,L|319:164,1,53.125,8|0,1:2|1:2,1:2:0:0:
485,100,470827,2,0,L|490:152,1,53.125,2|0,1:2|1:2,1:2:0:0:
435,307,471004,5,14,1:2:0:0:
405,336,471092,1,0,1:2:0:0:
363,345,471180,1,0,1:2:0:0:
320,339,471269,1,0,1:2:0:0:
287,311,471357,1,10,1:2:0:0:
267,273,471445,1,0,1:2:0:0:
268,230,471533,1,2,1:2:0:0:
286,191,471622,1,0,1:2:0:0:
319,164,471710,6,0,L|372:169,1,53.125,8|0,1:2|1:2,1:2:0:0:
388,249,471886,2,0,L|335:244,1,53.125,0|0,1:2|1:2,1:2:0:0:
201,257,472063,2,0,L|253:251,1,53.125,8|0,1:2|1:2,1:2:0:0:
295,332,472239,2,0,L|242:337,1,53.125,0|0,1:2|1:2,1:2:0:0:
136,118,472416,5,12,1:2:0:0:
198,101,472504,1,8,1:2:0:0:
252,128,472592,1,8,1:2:0:0:
271,181,472680,1,8,1:2:0:0:
254,231,472769,1,8,1:2:0:0:
214,258,472857,1,0,1:2:0:0:
171,260,472945,1,0,1:2:0:0:
135,244,473033,1,8,1:2:0:0:
112,211,473122,1,8,1:2:0:0:
78,201,473210,1,0,1:2:0:0:
49,209,473298,1,8,1:2:0:0:
30,228,473386,1,8,1:2:0:0:
22,248,473475,1,10,1:2:0:0:
22,265,473563,1,8,1:2:0:0:
25,278,473651,1,10,1:2:0:0:
29,285,473739,1,8,1:2:0:0:
31,288,473827,5,14,1:2:0:0:
61,298,473916,1,0,1:2:0:0:
92,294,474004,1,0,1:2:0:0:
120,279,474092,1,0,1:2:0:0:
139,253,474180,1,8,1:2:0:0:
145,221,474269,1,0,1:2:0:0:
137,190,474357,1,0,1:2:0:0:
115,166,474445,1,0,1:2:0:0:
84,156,474533,1,8,1:2:0:0:
51,159,474622,1,0,1:2:0:0:
23,175,474710,6,0,L|34:258,1,53.125,2|0,1:2|1:2,1:2:0:0:
115,331,474886,2,0,L|109:278,1,53.125,10|0,1:2|1:2,1:2:0:0:
170,160,475063,2,0,L|176:213,1,53.125,2|0,1:2|1:2,1:2:0:0:
317,354,475239,5,14,1:2:0:0:
342,372,475327,1,0,1:2:0:0:
372,382,475416,1,0,1:2:0:0:
405,384,475504,1,0,1:2:0:0:
434,371,475592,1,8,1:2:0:0:
460,351,475680,1,0,1:2:0:0:
477,323,475769,1,0,1:2:0:0:
481,291,475857,1,0,1:2:0:0:
478,260,475945,1,8,1:2:0:0:
460,234,476033,1,0,1:2:0:0:
437,211,476122,1,0,1:2:0:0:
409,197,476210,1,0,1:2:0:0:
378,194,476298,6,0,L|372:138,1,53.125,10|0,1:2|1:2,1:2:0:0:
250,37,476475,2,0,L|245:91,1,53.125,2|0,1:2|1:2,1:2:0:0:
269,308,476651,5,14,1:2:0:0:
272,286,476739,1,0,1:2:0:0:
275,264,476827,1,0,1:2:0:0:
278,242,476916,1,0,1:2:0:0:
281,220,477004,1,0,1:2:0:0:
283,198,477092,1,0,1:2:0:0:
286,177,477180,5,14,1:2:0:0:
243,172,477269,1,0,1:2:0:0:
200,167,477357,1,0,1:2:0:0:
157,162,477445,1,0,1:2:0:0:
114,159,477533,1,0,1:2:0:0:
71,154,477622,1,0,1:2:0:0:
28,151,477710,5,14,1:2:0:0:
31,182,477798,1,0,1:2:0:0:
34,213,477886,1,0,1:2:0:0:
38,244,477975,1,0,1:2:0:0:
42,275,478063,5,10,1:2:0:0:
40,296,478151,1,0,1:2:0:0:
37,317,478239,1,0,1:2:0:0:
35,338,478327,1,0,1:2:0:0:
32,359,478416,6,0,L|89:365,1,53.125,4|0,1:2|1:2,1:2:0:0:
191,373,478592,1,0,1:2:0:0:
194,352,478680,1,8,1:2:0:0:
196,330,478769,1,8,1:2:0:0:
199,309,478857,1,0,1:2:0:0:
202,288,478945,1,8,1:2:0:0:
205,267,479033,1,0,1:2:0:0:
207,245,479122,2,0,L|213:183,1,53.125,10|8,1:2|1:2,1:2:0:0:
125,130,479298,2,0,L|131:68,1,53.125,10|0,1:2|1:2,1:2:0:0:
308,17,479475,5,14,1:2:0:0:
310,38,479563,1,0,1:2:0:0:
312,59,479651,1,0,1:2:0:0:
313,80,479739,1,0,1:2:0:0:
316,100,479827,1,8,1:2:0:0:
317,121,479916,1,0,1:2:0:0:
319,142,480004,1,0,1:2:0:0:
321,163,480092,1,0,1:2:0:0:
323,184,480180,1,8,1:2:0:0:
325,205,480269,1,0,1:2:0:0:
327,226,480357,1,0,1:2:0:0:
329,247,480445,1,0,1:2:0:0:
331,268,480533,6,0,L|336:325,1,53.125,10|0,1:2|1:2,1:2:0:0:
435,362,480710,2,0,L|439:309,1,53.125,2|0,1:2|1:2,1:2:0:0:
453,175,480886,5,14,1:2:0:0:
431,178,480975,1,0,1:2:0:0:
410,181,481063,1,0,1:2:0:0:
389,183,481151,1,0,1:2:0:0:
368,186,481239,1,8,1:2:0:0:
346,188,481327,1,0,1:2:0:0:
324,191,481416,1,0,1:2:0:0:
303,194,481504,1,0,1:2:0:0:
282,197,481592,5,14,1:2:0:0:
302,172,481680,1,0,1:2:0:0:
333,163,481769,1,0,1:2:0:0:
364,165,481857,1,0,1:2:0:0:
392,178,481945,1,8,1:2:0:0:
410,203,482033,1,0,1:2:0:0:
417,234,482122,1,0,1:2:0:0:
410,265,482210,1,0,1:2:0:0:
389,289,482298,5,14,1:2:0:0:
346,286,482386,1,0,1:2:0:0:
310,262,482475,1,0,1:2:0:0:
293,223,482563,1,0,1:2:0:0:
299,181,482651,1,0,1:2:0:0:
285,140,482739,1,0,1:2:0:0:
257,107,482827,1,0,1:2:0:0:
217,90,482916,1,0,1:2:0:0:
174,93,483004,1,8,1:2:0:0:
137,114,483092,1,0,1:2:0:0:
114,149,483180,1,0,1:2:0:0:
109,191,483269,1,0,1:2:0:0:
121,231,483357,2,0,L|128:291,3,53.125,2|0|0|0,1:2|1:2|1:2|1:2,1:2:0:0:
87,343,483710,5,6,0:0:0:0:
104,354,483800,1,2,0:0:0:0:
124,359,483891,1,10,0:2:0:0:
145,357,483982,1,2,0:0:0:0:
164,347,484073,1,10,0:2:0:0:
184,322,484164,1,2,0:0:0:0:
212,307,484255,1,10,0:2:0:0:
243,304,484346,1,10,0:0:0:0:
272,315,484437,1,10,0:0:0:0:
302,344,484529,1,2,0:0:0:0:
341,360,484621,1,2,1:2:0:0:
383,354,484705,1,2,1:2:0:0:
417,328,484790,1,10,1:2:0:0:
431,288,484877,1,2,0:0:0:0:
422,246,484964,1,2,0:0:0:0:
393,214,485051,1,2,0:0:0:0:
355,201,485138,6,0,P|302:207|246:214,1,106.25,10|8,0:2|0:0,0:0:0:0:
93,330,485402,1,8,0:2:0:0:
104,329,485491,2,0,P|156:323|213:316,1,106.25,10|8,0:2|0:2,0:0:0:0:
291,361,485755,1,8,0:2:0:0:
293,349,485843,2,0,L|301:288,1,53.125,10|0,0:2|0:0,0:0:0:0:
172,246,486020,2,0,L|164:185,1,53.125,6|0,0:2|0:0,0:0:0:0:
331,61,486196,1,6,0:2:0:0:
487,223,486373,5,10,0:2:0:0:
487,223,486461,1,10,0:2:0:0:
487,223,486549,1,10,0:2:0:0:
469,235,486638,1,2,0:2:0:0:
448,240,486726,1,10,0:2:0:0:
427,236,486814,1,10,0:2:0:0:
408,226,486902,1,2,1:2:0:0:
386,201,486991,1,2,0:2:0:0:
362,180,487079,1,2,1:2:0:0:
330,175,487167,1,2,1:2:0:0:
299,183,487255,1,10,0:2:0:0:
268,212,487343,1,2,0:2:0:0:
226,223,487432,1,10,0:2:0:0:
184,215,487520,1,10,0:2:0:0:
150,189,487608,1,10,1:2:0:0:
130,151,487696,1,2,1:2:0:0:
129,108,487785,1,2,1:2:0:0:
146,69,487873,1,2,1:2:0:0:
181,45,487961,5,6,1:2:0:0:
328,211,488138,1,10,0:2:0:0:
328,211,488226,1,10,0:2:0:0:
328,211,488314,1,10,0:2:0:0:
95,143,488491,1,2,1:2:0:0:
301,87,488667,5,6,1:2:0:0:
205,223,488843,1,10,0:2:0:0:
205,223,488932,1,10,0:2:0:0:
205,223,489020,1,10,0:2:0:0:
155,18,489196,1,6,1:2:0:0:
293,178,489373,6,0,L|354:171,1,53.125,6|0,1:2|0:0,0:0:0:0:
119,195,489549,2,0,L|57:202,1,53.125,6|0,1:2|0:0,0:0:0:0:
200,114,489726,5,10,0:2:0:0:
202,135,489814,1,2,0:2:0:0:
204,156,489902,1,2,1:2:0:0:
207,177,489991,1,2,1:2:0:0:
209,198,490079,1,10,0:2:0:0:
211,219,490167,1,10,0:2:0:0:
214,240,490255,2,2,L|221:300,1,53.125,6|2,0:2|0:2,0:2:0:0:
336,356,490432,5,10,1:2:0:0:
334,345,490520,1,10,1:2:0:0:
333,334,490608,1,2,1:2:0:0:
332,323,490696,1,2,1:2:0:0:
330,312,490785,6,0,L|317:203,1,106.25,6|0,0:2|0:2,0:0:0:0:
428,57,491049,1,8,0:2:0:0:
430,68,491138,2,0,L|443:177,1,106.25,10|8,0:2|0:2,0:0:0:0:
469,261,491402,1,8,0:2:0:0:
458,260,491491,2,0,L|391:251,1,53.125,10|0,0:2|0:0,0:0:0:0:
333,120,491667,2,0,L|266:129,1,53.125,6|0,1:2|0:0,0:0:0:0:
92,219,491843,1,6,1:2:0:0:
284,333,492020,5,10,0:2:0:0:
284,333,492108,1,10,0:2:0:0:
284,333,492196,1,10,0:2:0:0:
298,348,492285,1,2,0:2:0:0:
317,355,492373,1,10,0:2:0:0:
337,359,492461,1,10,0:2:0:0:
358,358,492549,1,10,1:2:0:0:
387,344,492638,1,2,0:2:0:0:
406,318,492726,1,2,1:2:0:0:
413,286,492814,1,2,1:2:0:0:
406,255,492902,1,10,0:2:0:0:
375,224,492991,1,2,0:2:0:0:
333,215,493079,1,10,0:2:0:0:
304,183,493167,1,10,0:2:0:0:
296,141,493255,1,10,1:2:0:0:
307,100,493343,1,2,1:2:0:0:
340,72,493432,1,2,1:2:0:0:
382,66,493520,1,2,1:2:0:0:
421,80,493608,6,0,P|416:134|410:195,1,106.25,6|10,0:2|0:2,0:0:0:0:
401,272,493873,1,10,0:2:0:0:
400,284,493961,1,10,0:2:0:0:
214,272,494138,1,6,1:2:0:0:
321,101,494314,6,0,B|329:124|329:124|317:152,1,53.125,2|0,1:2|0:0,0:0:0:0:
132,138,494491,2,0,B|124:115|124:115|136:87,1,53.125,2|0,1:2|0:0,0:0:0:0:
236,0,494667,1,6,0:2:0:0:
221,278,494843,5,10,0:2:0:0:
221,278,494932,1,10,0:2:0:0:
221,278,495020,1,14,0:2:0:0:
205,292,495108,1,2,0:2:0:0:
185,299,495196,1,10,0:2:0:0:
163,300,495285,1,10,0:2:0:0:
142,297,495373,1,10,1:2:0:0:
115,279,495461,1,2,0:2:0:0:
96,253,495549,1,2,1:2:0:0:
92,221,495638,1,2,1:2:0:0:
102,191,495726,1,10,0:2:0:0:
134,163,495814,1,10,0:2:0:0:
175,156,495902,1,2,0:2:0:0:
214,171,495991,1,2,0:2:0:0:
256,167,496079,1,10,0:2:0:0:
288,140,496167,1,10,0:2:0:0:
303,100,496255,1,10,0:2:0:0:
297,58,496343,1,10,0:2:0:0:
267,26,496432,5,6,0:2:0:0:
182,224,496608,1,10,0:2:0:0:
182,224,496696,1,10,0:2:0:0:
182,224,496785,1,10,0:2:0:0:
368,123,496961,1,2,1:2:0:0:
134,67,497138,5,6,1:2:0:0:
319,231,497314,1,10,1:2:0:0:
319,231,497402,1,10,1:2:0:0:
319,231,497491,1,10,1:2:0:0:
362,0,497667,1,2,1:2:0:0:
186,195,497843,5,2,1:2:0:0:
175,194,497932,1,0,1:2:0:0:
164,192,498020,1,2,1:2:0:0:
153,191,498108,1,2,1:2:0:0:
142,189,498196,2,0,L|84:183,1,53.125,2|0,1:2|1:2,1:2:0:0:
50,270,498373,2,0,L|108:276,1,53.125,6|0,1:2|1:2,1:2:0:0:
227,158,498549,6,0,L|233:216,1,53.125,6|0,1:2|1:2,1:2:0:0:
321,242,498726,1,6,1:2:0:0:
321,242,498814,1,2,1:2:0:0:
321,242,498902,2,0,L|326:189,1,53.125,6|0,1:2|1:2,1:2:0:0:
413,150,499079,2,0,L|418:202,1,53.125,6|0,1:2|1:2,1:2:0:0:
310,336,499255,5,6,1:2:0:0:
228,122,499432,1,10,0:2:0:0:
228,122,499520,1,10,0:2:0:0:
228,122,499608,1,10,0:2:0:0:
426,253,499785,1,2,1:2:0:0:
168,278,499961,5,6,1:2:0:0:
168,278,500049,1,0,1:2:0:0:
168,278,500138,2,0,L|110:284,1,53.125,0|0,1:2|1:2,1:2:0:0:
342,261,500314,1,6,1:2:0:0:
342,261,500402,1,0,1:2:0:0:
342,261,500491,2,0,L|400:255,1,53.125,0|0,1:2|1:2,1:2:0:0:
234,116,500667,5,6,1:2:0:0:
271,381,500843,1,10,0:2:0:0:
271,381,500932,1,10,0:2:0:0:
271,381,501020,1,10,0:2:0:0:
354,158,501196,1,2,1:2:0:0:
136,258,501373,5,6,1:2:0:0:
136,258,501461,1,0,1:2:0:0:
136,258,501549,2,0,L|54:249,1,53.125,0|0,1:2|1:2,1:2:0:0:
380,281,501726,1,6,1:2:0:0:
380,281,501814,1,0,1:2:0:0:
380,281,501902,2,0,L|461:289,1,53.125,0|0,1:2|1:2,1:2:0:0:
217,146,502079,6,0,L|212:199,1,53.125,6|0,1:2|1:2,1:2:0:0:
294,384,502255,2,0,L|300:332,1,53.125,6|0,1:2|1:2,1:2:0:0:
323,96,502432,1,2,1:2:0:0:
325,106,502520,1,2,1:2:0:0:
326,116,502608,1,2,1:2:0:0:
328,126,502696,1,2,1:2:0:0:
329,136,502785,5,12,1:2:0:0:
302,169,502873,1,8,1:2:0:0:
263,187,502961,1,8,1:2:0:0:
220,181,503049,1,8,1:2:0:0:
188,152,503138,1,8,1:2:0:0:
173,112,503226,1,8,1:2:0:0:
182,70,503314,1,0,1:2:0:0:
212,40,503402,1,0,1:2:0:0:
253,29,503491,6,0,L|305:32,1,53.125,6|0,1:2|1:2,1:2:0:0:
474,146,503667,2,0,L|421:142,1,53.125,6|2,1:2|1:2,1:2:0:0:
183,121,503843,1,2,1:2:0:0:
193,120,503932,1,2,1:2:0:0:
203,119,504020,1,2,1:2:0:0:
213,118,504108,1,2,1:2:0:0:
223,116,504196,5,12,1:2:0:0:
251,147,504285,1,8,1:2:0:0:
259,188,504373,1,8,1:2:0:0:
246,228,504461,1,8,1:2:0:0:
213,255,504549,1,8,1:2:0:0:
170,261,504638,1,8,1:2:0:0:
130,246,504726,1,0,1:2:0:0:
102,213,504814,1,0,1:2:0:0:
99,170,504902,5,6,1:2:0:0:
333,244,505079,1,10,0:2:0:0:
333,244,505167,1,10,0:2:0:0:
333,244,505255,1,10,0:2:0:0:
69,298,505432,1,2,1:2:0:0:
314,98,505608,5,6,1:2:0:0:
220,347,505785,1,2,1:2:0:0:
220,347,505873,1,2,1:2:0:0:
220,347,505961,1,2,1:2:0:0:
134,66,506138,1,2,1:2:0:0:
411,278,506314,5,6,0:2:0:0:
77,185,506491,1,2,1:2:0:0:
452,132,506667,5,6,0:2:0:0:
164,262,506843,1,2,1:2:0:0:
352,3,507020,5,6,1:2:0:0:
352,3,507108,1,0,1:2:0:0:
352,3,507196,2,0,L|348:55,1,53.125,0|0,1:2|1:2,1:2:0:0:
288,292,507373,1,6,1:2:0:0:
288,292,507461,1,0,1:2:0:0:
288,292,507549,2,0,L|284:239,1,53.125,0|0,1:2|1:2,1:2:0:0:
93,68,507726,5,6,1:2:0:0:
134,74,507814,1,2,1:2:0:0:
176,79,507902,1,2,1:2:0:0:
218,84,507991,1,2,1:2:0:0:
259,90,508079,5,6,1:2:0:0:
256,121,508167,1,2,1:2:0:0:
254,152,508255,1,2,1:2:0:0:
252,183,508343,1,2,1:2:0:0:
249,215,508432,5,6,1:2:0:0:
227,213,508520,1,2,1:2:0:0:
205,211,508608,1,2,1:2:0:0:
183,208,508696,1,2,1:2:0:0:
161,205,508785,5,6,1:2:0:0:
162,194,508873,1,2,1:2:0:0:
163,183,508961,1,2,1:2:0:0:
164,172,509049,1,2,1:2:0:0:
166,161,509138,6,0,L|172:103,3,53.125,6|0|0|0,1:2|1:2|1:2|1:2,1:2:0:0:
85,68,509491,1,6,1:2:0:0:
85,68,509843,6,0,L|79:130,1,53.125,14|0,0:2|0:0,0:0:0:0:
166,161,510020,2,0,L|171:108,1,53.125,2|0,1:2|0:0,0:0:0:0:
257,68,510196,2,0,L|262:120,1,53.125,10|8,0:2|0:2,0:2:0:0:
355,138,510373,2,0,L|349:85,1,53.125,10|8,0:2|0:2,0:2:0:0:
455,0,510549,6,0,L|443:108,1,106.25,6|0,1:2|1:2,0:0:0:0:
323,248,510814,1,0,1:2:0:0:
321,236,510902,2,0,L|309:130,1,106.25,10|0,0:2|1:2,0:0:0:0:
275,42,511167,1,0,0:0:0:0:
287,44,511255,2,0,L|359:52,1,53.125,2|0,1:2|0:0,0:0:0:0:
464,192,511432,2,0,L|392:184,1,53.125,2|0,1:2|0:0,0:0:0:0:
174,162,511608,1,10,0:2:0:0:
448,52,511785,5,2,1:2:0:0:
448,52,511873,1,2,1:2:0:0:
448,52,511961,1,2,1:2:0:0:
465,78,512049,1,2,1:2:0:0:
470,109,512138,1,2,1:2:0:0:
462,139,512226,1,2,1:2:0:0:
438,160,512314,1,10,1:2:0:0:
397,173,512402,1,2,1:2:0:0:
355,162,512491,1,2,1:2:0:0:
329,128,512579,1,2,1:2:0:0:
291,90,512667,1,2,1:2:0:0:
239,75,512755,1,2,1:2:0:0:
188,89,512843,1,2,1:2:0:0:
147,124,512932,1,2,1:2:0:0:
129,174,513020,1,10,1:2:0:0:
134,226,513108,1,2,1:2:0:0:
163,270,513196,1,2,1:2:0:0:
211,293,513285,1,2,1:2:0:0:
263,294,513373,5,2,1:2:0:0:
349,76,513549,1,2,1:2:0:0:
349,76,513638,1,2,1:2:0:0:
349,76,513726,1,10,0:2:0:0:
173,201,513902,1,2,1:2:0:0:
413,165,514079,5,2,1:2:0:0:
246,45,514255,1,2,1:2:0:0:
246,45,514343,1,2,1:2:0:0:
246,45,514432,1,10,0:2:0:0:
334,251,514608,1,2,1:2:0:0:
334,251,514696,1,2,1:2:0:0:
334,251,514785,6,0,L|401:259,1,53.125,6|2,1:2|1:2,1:2:0:0:
240,241,514961,2,0,L|176:234,1,53.125,6|2,1:2|1:2,1:2:0:0:
306,147,515138,5,10,1:2:0:0:
337,141,515226,1,2,1:2:0:0:
367,149,515314,1,2,1:2:0:0:
391,169,515402,1,2,1:2:0:0:
405,197,515491,1,2,1:2:0:0:
403,228,515579,1,2,1:2:0:0:
386,257,515667,2,0,L|334:251,1,53.125,6|2,1:2|1:2,1:2:0:0:
155,320,515843,5,10,0:2:0:0:
176,323,515932,1,10,0:2:0:0:
197,325,516020,1,10,0:2:0:0:
218,327,516108,1,10,0:2:0:0:
239,328,516196,6,0,L|347:340,1,106.25,2|0,1:2|1:2,0:0:0:0:
511,199,516461,1,0,1:2:0:0:
500,200,516549,2,0,L|392:212,1,106.25,10|2,0:2|1:2,0:0:0:0:
312,165,516814,1,0,0:0:0:0:
311,176,516902,2,0,L|304:228,1,53.125,2|0,1:2|0:0,0:0:0:0:
428,374,517079,2,0,L|434:321,1,53.125,2|0,1:2|0:0,0:0:0:0:
456,85,517255,1,10,0:2:0:0:
295,311,517432,5,2,1:2:0:0:
295,311,517520,1,2,1:2:0:0:
295,311,517608,1,2,1:2:0:0:
274,335,517696,1,2,1:2:0:0:
243,346,517785,1,2,1:2:0:0:
211,343,517873,1,2,1:2:0:0:
184,325,517961,1,10,1:2:0:0:
163,287,518049,1,2,1:2:0:0:
168,244,518138,1,2,1:2:0:0:
194,211,518226,1,2,1:2:0:0:
234,201,518314,1,2,1:2:0:0:
271,164,518402,1,2,1:2:0:0:
284,112,518490,1,2,1:2:0:0:
268,61,518579,1,2,1:2:0:0:
226,27,518667,1,10,1:2:0:0:
173,21,518755,1,2,1:2:0:0:
123,40,518843,1,2,1:2:0:0:
96,86,518932,1,2,1:2:0:0:
96,138,519020,6,0,L|108:246,1,106.25,2|2,1:2|1:2,0:0:0:0:
240,378,519285,1,2,1:2:0:0:
242,367,519373,2,0,L|253:261,1,106.25,10|2,0:2|1:2,0:0:0:0:
282,173,519638,1,0,0:0:0:0:
271,175,519726,2,0,L|215:181,1,53.125,2|0,1:2|0:0,0:0:0:0:
91,329,519902,2,0,L|147:323,1,53.125,2|0,1:2|0:0,0:0:0:0:
383,304,520079,1,10,1:2:0:0:
404,302,520167,1,2,1:2:0:0:
425,299,520255,1,2,1:2:0:0:
446,296,520343,1,2,1:2:0:0:
467,294,520432,5,2,1:2:0:0:
457,324,520520,1,2,1:2:0:0:
431,343,520608,1,2,1:2:0:0:
399,349,520696,1,2,1:2:0:0:
362,338,520785,1,10,1:2:0:0:
334,305,520873,1,2,1:2:0:0:
330,262,520961,1,2,1:2:0:0:
351,225,521049,1,2,1:2:0:0:
390,207,521138,1,2,1:2:0:0:
440,190,521226,1,2,1:2:0:0:
465,143,521314,1,2,1:2:0:0:
458,90,521402,1,2,1:2:0:0:
416,55,521490,2,0,L|410:0,3,53.125,10|0|0|0,1:2|1:2|1:2|1:2,1:0:0:0:
341,111,521843,5,14,0:2:0:0:
511,27,522020,1,10,0:2:0:0:
511,27,522108,1,10,0:2:0:0:
511,27,522196,1,10,0:2:0:0:
298,0,522373,1,2,1:2:0:0:
504,148,522549,6,0,B|456:152|456:152|454:154|454:154|405:159,1,95.6250036478044,6|0,0:2|0:0,0:0:0:0:
401,169,522902,2,0,L|386:42,1,127.500004863739,0|0,0:0|1:2,0:0:0:0:
473,246,523255,5,10,0:2:0:0:
305,177,523432,1,10,0:2:0:0:
305,177,523520,1,10,0:2:0:0:
305,177,523608,1,10,0:2:0:0:
512,139,523785,1,2,1:2:0:0:
327,339,523961,5,14,0:2:0:0:
327,339,524138,1,2,1:2:0:0:
305,177,524314,1,10,1:2:0:0:
301,157,524402,1,8,1:2:0:0:
299,136,524491,1,8,1:2:0:0:
295,115,524579,1,8,1:2:0:0:
292,93,524667,5,6,1:2:0:0:
124,224,524843,1,10,0:2:0:0:
124,224,524932,1,10,0:2:0:0:
124,224,525020,1,10,0:2:0:0:
324,304,525196,1,0,1:2:0:0:
170,112,525373,5,6,1:2:0:0:
199,322,525549,1,10,0:2:0:0:
199,322,525638,1,10,0:2:0:0:
199,322,525726,1,10,0:2:0:0:
368,189,525902,1,2,1:2:0:0:
42,147,526079,5,6,1:2:0:0:
53,146,526167,1,2,1:2:0:0:
64,145,526255,1,2,1:2:0:0:
74,144,526343,1,2,1:2:0:0:
85,143,526432,5,2,1:2:0:0:
84,163,526520,1,2,1:2:0:0:
82,184,526608,1,2,1:2:0:0:
80,205,526696,1,2,1:2:0:0:
79,227,526785,5,14,1:2:0:0:
126,234,526873,1,10,1:2:0:0:
168,239,526961,1,10,1:2:0:0:
204,243,527049,1,10,1:2:0:0:
235,246,527138,1,10,1:2:0:0:
261,248,527226,1,10,1:2:0:0:
281,251,527314,1,10,1:2:0:0:
296,253,527402,1,10,1:2:0:0:
306,254,527491,6,0,L|312:199,1,53.125,14|0,1:2|1:2,1:2:0:0:
396,163,527667,1,2,1:2:0:0:
396,163,527755,1,2,1:2:0:0:
396,163,527843,2,0,L|401:215,1,53.125,10|0,1:2|1:2,1:2:0:0:
485,252,528020,2,0,L|490:199,1,53.125,2|0,1:2|1:2,1:2:0:0:
511,84,528196,5,10,1:2:0:0:
511,84,528285,1,0,1:2:0:0:
511,84,528373,1,2,1:2:0:0:
473,64,528461,1,2,1:2:0:0:
432,76,528549,1,10,1:2:0:0:
402,107,528638,1,2,1:2:0:0:
395,148,528726,1,2,1:2:0:0:
410,185,528814,1,2,1:2:0:0:
444,209,528902,5,10,1:2:0:0:
468,175,528991,1,2,1:2:0:0:
474,133,529079,1,2,1:2:0:0:
460,92,529167,1,2,1:2:0:0:
428,63,529255,1,10,1:2:0:0:
386,54,529343,1,2,1:2:0:0:
344,65,529432,1,2,1:2:0:0:
313,95,529520,1,2,1:2:0:0:
300,134,529608,1,10,1:2:0:0:
272,164,529696,1,2,1:2:0:0:
234,185,529785,1,2,1:2:0:0:
191,183,529873,1,2,1:2:0:0:
152,165,529961,1,10,1:2:0:0:
128,129,530049,1,2,1:2:0:0:
123,86,530138,1,2,1:2:0:0:
133,44,530226,1,2,1:2:0:0:
161,12,530314,6,0,L|214:17,3,53.125,14|0|0|0,1:2|1:2|1:2|1:2,1:2:0:0:
259,118,530667,1,8,1:2:0:0:
280,116,530755,1,2,1:2:0:0:
301,113,530843,1,2,1:2:0:0:
322,110,530932,1,2,1:2:0:0:
342,107,531019,2,0,L|395:102,3,53.125,10|0|0|0,1:2|1:2|1:2|1:2,1:2:0:0:
430,29,531373,1,10,1:2:0:0:
440,30,531461,1,2,1:2:0:0:
450,31,531549,1,2,1:2:0:0:
460,32,531638,1,2,1:2:0:0:
470,33,531725,5,14,1:2:0:0:
477,85,531814,1,0,1:2:0:0:
482,136,531902,1,0,1:2:0:0:
487,189,531991,1,0,1:2:0:0:
490,243,532079,5,14,1:2:0:0:
447,237,532167,1,0,1:2:0:0:
405,231,532255,1,0,1:2:0:0:
362,225,532343,1,0,1:2:0:0:
318,218,532432,5,14,1:2:0:0:
322,186,532520,1,0,1:2:0:0:
326,155,532608,1,0,1:2:0:0:
330,123,532696,1,0,1:2:0:0:
332,90,532785,5,14,1:2:0:0:
311,94,532873,1,0,1:2:0:0:
290,96,532961,1,0,1:2:0:0:
269,99,533049,1,0,1:2:0:0:
247,103,533138,6,0,L|242:156,1,53.125,14|0,1:2|1:2,1:2:0:0:
156,191,533314,1,2,1:2:0:0:
156,191,533402,1,2,1:2:0:0:
156,191,533491,2,0,L|151:138,1,53.125,10|0,1:2|1:2,1:2:0:0:
68,100,533667,2,0,L|63:153,1,53.125,2|0,1:2|1:2,1:2:0:0:
58,282,533843,5,10,1:2:0:0:
58,282,533932,1,0,1:2:0:0:
58,282,534020,1,2,1:2:0:0:
89,255,534108,1,2,1:2:0:0:
130,247,534196,1,10,1:2:0:0:
169,263,534285,1,2,1:2:0:0:
196,296,534373,1,2,1:2:0:0:
203,336,534461,1,2,1:2:0:0:
186,376,534549,5,10,1:2:0:0:
148,355,534638,1,2,1:2:0:0:
126,318,534726,1,2,1:2:0:0:
125,276,534814,1,2,1:2:0:0:
147,239,534902,1,10,1:2:0:0:
185,218,534991,1,2,1:2:0:0:
227,218,535079,1,2,1:2:0:0:
262,241,535167,1,2,1:2:0:0:
282,277,535255,1,10,1:2:0:0:
314,303,535343,1,2,1:2:0:0:
355,314,535432,1,2,1:2:0:0:
396,304,535520,1,2,1:2:0:0:
429,276,535608,1,10,1:2:0:0:
447,239,535696,1,2,1:2:0:0:
449,196,535785,1,2,1:2:0:0:
428,158,535873,1,2,1:2:0:0:
394,132,535961,6,0,L|389:79,3,53.125,14|0|0|0,1:2|1:2|1:2|1:2,1:2:0:0:
286,47,536314,1,10,1:2:0:0:
288,68,536402,1,2,1:2:0:0:
290,89,536491,1,2,1:2:0:0:
292,110,536579,1,2,1:2:0:0:
294,130,536667,2,0,L|299:183,3,53.125,10|0|0|0,1:2|1:2|1:2|1:2,1:2:0:0:
201,225,537020,1,10,1:2:0:0:
200,214,537108,1,2,1:2:0:0:
199,203,537196,1,2,1:2:0:0:
198,192,537285,1,2,1:2:0:0:
197,181,537373,5,14,1:2:0:0:
249,187,537461,1,0,1:2:0:0:
300,191,537549,1,0,1:2:0:0:
353,196,537638,1,0,1:2:0:0:
405,201,537726,5,14,1:2:0:0:
400,243,537814,1,0,1:2:0:0:
395,285,537902,1,0,1:2:0:0:
390,327,537991,1,0,1:2:0:0:
385,369,538079,5,14,1:2:0:0:
353,367,538167,1,0,1:2:0:0:
321,363,538255,1,0,1:2:0:0:
289,359,538343,1,0,1:2:0:0:
257,355,538432,5,14,1:2:0:0:
254,333,538520,1,0,1:2:0:0:
252,311,538608,1,2,1:2:0:0:
249,290,538696,1,2,1:2:0:0:
248,268,538785,5,6,1:2:0:0:
290,271,538873,1,0,1:2:0:0:
332,276,538961,1,8,1:2:0:0:
374,279,539049,1,0,1:2:0:0:
416,284,539138,6,0,L|421:220,1,53.125,2|0,1:2|1:2,1:2:0:0:
327,172,539314,2,0,L|332:108,1,53.125,10|0,1:2|1:2,1:2:0:0:
474,29,539491,5,2,1:2:0:0:
505,57,539579,1,0,1:2:0:0:
512,98,539667,1,8,1:2:0:0:
494,136,539755,1,0,1:2:0:0:
456,154,539843,6,0,P|429:158|399:148,1,53.125,2|0,1:2|1:2,1:2:0:0:
363,47,540020,2,0,P|337:40|311:44,1,53.125,10|0,1:2|1:2,1:2:0:0:
215,153,540196,5,2,1:2:0:0:
181,179,540285,1,0,1:2:0:0:
138,182,540373,1,8,1:2:0:0:
98,165,540461,1,0,1:2:0:0:
75,129,540549,6,0,L|80:65,1,53.125,2|0,1:2|1:2,1:2:0:0:
181,37,540726,2,0,L|185:89,1,53.125,10|0,1:2|1:2,1:2:0:0:
207,249,540902,5,2,1:2:0:0:
164,255,540991,1,0,1:2:0:0:
121,259,541079,1,8,1:2:0:0:
79,265,541167,1,0,1:2:0:0:
36,269,541255,6,0,P|31:297|41:326,1,53.125,2|0,1:2|1:2,1:2:0:0:
171,311,541432,2,0,P|174:284|166:259,1,53.125,10|0,1:2|1:2,1:2:0:0:
75,129,541608,5,6,1:2:0:0:
117,133,541696,1,0,1:2:0:0:
159,138,541785,1,8,1:2:0:0:
201,142,541873,1,0,1:2:0:0:
242,148,541961,6,0,L|294:152,1,53.125,2|0,1:2|1:2,1:2:0:0:
342,249,542138,2,0,L|394:253,1,53.125,10|0,1:2|1:2,1:2:0:0:
481,166,542314,6,0,L|486:223,1,53.125,2|0,1:2|1:2,1:2:0:0:
394,253,542491,2,0,L|398:200,1,53.125,10|0,1:2|1:2,1:2:0:0:
308,122,542667,2,0,L|313:179,1,53.125,2|0,1:2|1:2,1:2:0:0:
221,209,542844,2,0,L|225:156,1,53.125,10|0,1:2|1:2,1:2:0:0:
397,14,543020,5,6,1:2:0:0:
449,16,543108,1,2,1:2:0:0:
483,48,543196,1,10,1:2:0:0:
492,89,543285,1,2,1:2:0:0:
478,123,543373,1,2,1:2:0:0:
455,145,543461,1,2,1:2:0:0:
429,153,543549,1,10,1:2:0:0:
407,153,543638,1,2,1:2:0:0:
391,148,543726,1,2,1:2:0:0:
374,135,543814,1,2,1:2:0:0:
353,128,543902,1,10,1:2:0:0:
326,131,543991,1,10,1:2:0:0:
297,145,544079,1,10,1:2:0:0:
273,173,544167,1,10,1:2:0:0:
265,214,544255,1,10,1:2:0:0:
280,259,544343,1,10,1:2:0:0:
326,286,544432,5,6,1:2:0:0:
357,257,544520,1,0,1:2:0:0:
370,216,544608,1,8,1:2:0:0:
355,176,544696,1,0,1:2:0:0:
320,150,544785,6,0,L|314:93,1,53.125,2|0,1:2|1:2,1:2:0:0:
208,79,544961,2,0,L|213:131,1,53.125,10|0,1:2|1:2,1:2:0:0:
131,303,545138,5,2,1:2:0:0:
90,313,545226,1,0,1:2:0:0:
53,294,545314,1,8,1:2:0:0:
35,255,545402,1,0,1:2:0:0:
48,213,545491,6,0,P|73:206|103:210,1,53.125,2|0,1:2|1:2,1:2:0:0:
147,335,545667,2,0,P|173:338|198:331,1,53.125,10|0,1:2|1:2,1:2:0:0:
336,168,545843,5,6,1:2:0:0:
383,144,545932,1,0,1:2:0:0:
434,154,546020,1,8,1:2:0:0:
464,197,546108,1,0,1:2:0:0:
459,249,546196,6,0,L|406:254,1,53.125,2|0,1:2|1:2,1:2:0:0:
318,150,546373,2,0,L|265:155,1,53.125,10|0,1:2|1:2,1:2:0:0:
177,323,546549,5,2,1:2:0:0:
177,323,546638,1,0,1:2:0:0:
177,323,546726,2,0,L|184:264,1,53.125,8|0,1:2|1:2,1:2:0:0:
63,124,546902,1,2,1:2:0:0:
63,124,546991,1,0,1:2:0:0:
63,124,547079,2,0,L|56:183,1,53.125,8|0,1:2|1:2,1:2:0:0:
272,308,547255,5,6,1:2:0:0:
310,343,547343,1,2,1:2:0:0:
364,338,547432,1,10,1:2:0:0:
398,296,547520,1,2,1:2:0:0:
391,245,547608,5,2,1:2:0:0:
340,249,547696,1,2,1:2:0:0:
304,289,547785,1,10,1:2:0:0:
310,343,547873,1,2,1:2:0:0:
351,377,547961,5,2,1:2:0:0:
387,335,548049,1,2,1:2:0:0:
381,282,548138,1,10,1:2:0:0:
340,249,548226,1,2,1:2:0:0:
287,256,548314,5,2,1:2:0:0:
291,308,548402,1,2,1:2:0:0:
333,342,548491,1,10,1:2:0:0:
387,335,548579,1,2,1:2:0:0:
419,294,548667,5,12,1:2:0:0:
381,243,548755,1,8,0:2:0:0:
320,224,548843,1,8,0:2:0:0:
262,253,548932,1,8,0:2:0:0:
231,308,549020,1,8,0:2:0:0:
173,335,549108,1,8,0:2:0:0:
111,317,549196,1,8,0:2:0:0:
75,263,549285,1,8,0:2:0:0:
79,199,549373,6,0,P|147:195|133:269,1,159.375,6|0,1:2|0:0,0:0:0:0:
52,285,549726,6,0,P|44:209|33:113,1,159.375,6|0,1:2|0:0,0:0:0:0:
101,34,550079,5,6,1:2:0:0:
141,22,550167,1,0,1:2:0:0:
181,35,550255,1,8,1:2:0:0:
200,72,550343,1,0,1:2:0:0:
189,107,550432,6,0,L|135:113,1,53.125,2|0,1:2|1:2,1:2:0:0:
29,38,550608,2,0,L|81:32,1,53.125,10|0,1:2|1:2,1:2:0:0:
175,196,550785,5,2,1:2:0:0:
207,223,550873,1,0,1:2:0:0:
248,229,550961,1,8,1:2:0:0:
288,215,551049,1,0,1:2:0:0:
311,179,551138,6,0,L|305:127,1,53.125,2|0,1:2|1:2,1:2:0:0:
390,57,551314,2,0,L|384:5,1,53.125,10|0,1:2|1:2,1:2:0:0:
503,187,551491,5,2,1:2:0:0:
462,173,551579,1,0,1:2:0:0:
422,189,551667,1,8,1:2:0:0:
404,227,551755,1,0,1:2:0:0:
414,268,551843,6,0,P|442:273|471:263,1,53.125,2|0,1:2|1:2,1:2:0:0:
456,133,552020,2,0,P|429:130|404:138,1,53.125,10|0,1:2|1:2,1:2:0:0:
288,215,552196,5,2,1:2:0:0:
245,211,552285,1,0,1:2:0:0:
202,206,552373,1,8,1:2:0:0:
159,201,552461,1,0,1:2:0:0:
116,195,552549,6,0,L|121:143,1,53.125,2|0,1:2|1:2,1:2:0:0:
228,124,552726,2,0,L|223:176,1,53.125,10|0,1:2|1:2,1:2:0:0:
159,364,552902,5,2,1:2:0:0:
117,374,552991,1,0,1:2:0:0:
78,355,553079,1,8,1:2:0:0:
63,315,553167,1,0,1:2:0:0:
80,276,553255,6,0,L|132:281,1,53.125,2|0,1:2|1:2,1:2:0:0:
260,354,553432,2,0,L|208:349,1,53.125,10|0,1:2|1:2,1:2:0:0:
121,143,553608,6,0,L|116:195,1,53.125,2|0,1:2|1:2,1:2:0:0:
212,232,553785,2,0,L|207:180,1,53.125,10|0,1:2|1:2,1:2:0:0:
303,140,553961,2,0,L|298:192,1,53.125,2|0,1:2|1:2,1:2:0:0:
392,236,554138,2,0,L|387:184,1,53.125,10|0,1:2|1:2,1:2:0:0:
197,38,554314,5,6,1:2:0:0:
150,12,554402,1,2,1:2:0:0:
102,20,554491,1,10,1:2:0:0:
72,50,554579,1,2,1:2:0:0:
64,86,554667,1,2,1:2:0:0:
73,116,554755,1,2,1:2:0:0:
90,136,554843,1,10,1:2:0:0:
109,145,554932,1,2,1:2:0:0:
123,152,555020,1,2,1:2:0:0:
138,166,555108,1,2,1:2:0:0:
150,183,555196,1,10,1:2:0:0:
157,208,555285,1,10,1:2:0:0:
152,239,555373,1,10,1:2:0:0:
135,272,555461,1,10,1:2:0:0:
98,293,555549,1,10,1:2:0:0:
49,294,555638,1,10,1:2:0:0:
8,259,555726,5,6,1:2:0:0:
40,232,555814,1,0,1:2:0:0:
82,227,555902,1,8,1:2:0:0:
120,246,555991,1,0,1:2:0:0:
141,282,556079,6,0,L|193:287,1,53.125,2|0,1:2|1:2,1:2:0:0:
251,199,556255,2,0,L|303:204,1,53.125,10|0,1:2|1:2,1:2:0:0:
487,354,556432,5,2,1:2:0:0:
451,376,556520,1,0,1:2:0:0:
408,374,556608,1,8,1:2:0:0:
373,349,556696,1,0,1:2:0:0:
363,306,556785,6,0,P|358:281|367:255,1,53.125,2|0,1:2|1:2,1:2:0:0:
499,269,556961,2,0,P|504:294|495:320,1,53.125,10|0,1:2|1:2,1:2:0:0:
286,367,557138,5,2,1:2:0:0:
243,363,557226,1,0,1:2:0:0:
200,358,557314,1,8,1:2:0:0:
157,353,557402,1,0,1:2:0:0:
114,348,557491,6,0,L|119:296,1,53.125,2|0,1:2|1:2,1:2:0:0:
212,247,557667,2,0,L|217:195,1,53.125,10|0,1:2|1:2,1:2:0:0:
39,92,557843,5,2,1:2:0:0:
63,126,557932,1,0,1:2:0:0:
103,139,558020,1,8,1:2:0:0:
144,132,558108,1,8,1:2:0:0:
176,104,558196,6,0,L|228:99,1,53.125,2|0,1:2|1:2,1:2:0:0:
274,2,558373,2,0,L|326:7,1,53.125,10|0,1:2|1:2,1:2:0:0:
463,153,558549,5,6,1:2:0:0:
316,100,558726,1,8,0:2:0:0:
316,100,558814,1,8,0:2:0:0:
316,100,558902,1,8,0:2:0:0:
508,56,559079,1,2,1:2:0:0:
340,194,559255,5,14,0:2:0:0:
330,196,559343,1,8,0:2:0:0:
320,197,559432,1,8,0:2:0:0:
310,198,559520,1,8,0:2:0:0:
300,199,559608,1,8,0:2:0:0:
290,201,559696,1,8,0:2:0:0:
280,202,559785,1,8,0:2:0:0:
270,203,559873,1,8,0:2:0:0:
259,204,559961,6,0,L|253:151,1,53.125,6|0,1:2|1:2,1:2:0:0:
94,118,560138,1,6,1:2:0:0:
94,118,560226,1,2,1:2:0:0:
94,118,560314,2,0,L|88:170,1,53.125,2|0,1:2|1:2,1:2:0:0:
178,242,560491,2,0,L|172:189,1,53.125,2|0,1:2|1:2,1:2:0:0:
244,70,560667,5,14,1:2:0:0:
246,81,560755,1,8,1:2:0:0:
246,91,560844,1,8,1:2:0:0:
248,101,560932,1,8,1:2:0:0:
249,111,561020,1,8,1:2:0:0:
250,121,561108,1,8,1:2:0:0:
251,131,561197,1,8,1:2:0:0:
252,141,561285,1,8,1:2:0:0:
253,151,561373,6,0,L|258:203,1,53.125,6|0,1:2|1:2,1:2:0:0:
426,249,561549,1,6,1:2:0:0:
426,249,561638,1,2,1:2:0:0:
426,249,561726,2,0,L|421:197,1,53.125,2|0,1:2|1:2,1:2:0:0:
344,120,561902,2,0,L|338:173,1,53.125,2|0,1:2|1:2,1:2:0:0:
169,372,562079,6,0,L|221:367,1,53.125,6|0,1:2|1:2,1:2:0:0:
343,330,562255,1,4,1:2:0:0:
343,330,562343,1,0,1:2:0:0:
343,330,562432,2,0,L|291:325,1,53.125,2|0,1:2|1:2,1:2:0:0:
158,292,562608,2,0,L|210:287,1,53.125,2|0,1:2|1:2,1:2:0:0:
353,248,562785,6,8,L|301:243,1,53.125,14|8,0:2|0:2,0:2:0:0:
145,211,562961,1,8,0:2:0:0:
145,211,563049,1,8,0:2:0:0:
145,211,563138,2,0,L|197:206,1,53.125,2|0,1:2|0:0,0:0:0:0:
362,166,563314,2,0,L|310:161,1,53.125,2|0,1:2|1:2,1:2:0:0:
132,127,563491,6,0,L|184:122,1,53.125,14|8,0:2|0:2,0:0:0:0:
371,83,563667,1,8,0:2:0:0:
371,83,563755,1,8,0:2:0:0:
371,83,563843,2,0,L|319:78,1,53.125,2|0,1:2|0:0,0:0:0:0:
119,46,564020,2,0,L|171:41,1,53.125,2|0,1:2|0:0,0:0:0:0:
439,35,564196,5,14,0:0:0:0:
453,63,564285,1,8,0:0:0:0:
454,94,564373,1,8,0:0:0:0:
445,124,564461,1,8,0:0:0:0:
425,148,564549,1,8,0:0:0:0:
397,163,564638,1,8,0:0:0:0:
365,167,564726,1,8,0:0:0:0:
334,159,564814,1,8,0:0:0:0:
308,139,564902,5,14,0:0:0:0:
342,113,564991,1,8,0:0:0:0:
384,108,565079,1,8,0:0:0:0:
422,125,565167,1,8,0:0:0:0:
447,158,565255,1,8,0:0:0:0:
452,200,565343,1,8,0:0:0:0:
434,239,565432,1,8,0:0:0:0:
399,263,565520,1,8,0:0:0:0:
356,266,565608,5,14,0:0:0:0:
323,224,565696,1,8,0:0:0:0:
317,170,565785,1,8,0:0:0:0:
341,122,565873,1,8,0:0:0:0:
387,95,565961,1,8,0:0:0:0:
439,97,566049,1,8,0:0:0:0:
483,126,566138,1,8,0:0:0:0:
506,173,566226,1,8,0:0:0:0:
499,225,566314,5,2,1:2:0:0:
448,263,566402,1,2,1:2:0:0:
384,269,566491,1,2,1:2:0:0:
326,241,566579,1,2,1:2:0:0:
294,185,566667,1,2,1:2:0:0:
262,129,566755,1,2,1:2:0:0:
204,101,566843,1,2,1:2:0:0:
140,107,566932,1,2,1:2:0:0:
89,145,567020,6,0,L|100:254,1,106.25,6|0,0:0|0:0,0:0:0:0:
204,239,567285,1,0,0:0:0:0:
204,239,567373,2,0,L|193:133,1,106.25,2|0,1:2|0:0,0:0:0:0:
193,133,567638,1,0,0:0:0:0:
193,133,567726,1,2,1:2:0:0:
141,62,567902,1,2,0:2:0:0:
141,62,567991,1,0,0:0:0:0:
141,62,568079,1,2,1:2:0:0:
163,334,568255,6,0,L|268:323,1,106.25,6|0,0:2|1:2,0:0:0:0:
298,123,568608,1,0,0:0:0:0:
298,123,568696,1,0,0:0:0:0:
298,123,568785,2,0,L|192:133,1,106.25,2|0,1:2|0:0,0:0:0:0:
192,133,569049,1,0,0:0:0:0:
192,133,569138,1,2,1:2:0:0:
125,225,569314,1,2,0:2:0:0:
125,225,569402,1,0,0:0:0:0:
125,225,569491,1,0,1:2:0:0:
354,383,569667,6,0,L|364:277,1,106.25,6|0,0:2|1:2,0:0:0:0:
469,126,570020,1,0,0:0:0:0:
469,126,570108,1,0,0:0:0:0:
469,126,570196,2,0,L|459:232,1,106.25,2|0,1:2|0:0,0:0:0:0:
459,231,570461,1,0,0:0:0:0:
459,231,570549,1,2,1:2:0:0:
275,330,570726,1,2,0:2:0:0:
275,330,570814,1,0,0:0:0:0:
275,330,570902,1,0,1:2:0:0:
162,88,571079,5,6,0:0:0:0:
361,171,571255,1,2,1:2:0:0:
110,245,571432,5,0,1:2:0:0:
99,246,571520,1,0,1:2:0:0:
88,247,571608,1,8,0:2:0:0:
278,102,571785,1,0,1:2:0:0:
288,104,571873,1,0,1:2:0:0:
298,106,571961,5,10,0:2:0:0:
206,330,572138,1,8,0:2:0:0:
205,319,572226,1,8,0:2:0:0:
204,308,572314,1,8,0:2:0:0:
203,297,572402,1,8,0:2:0:0:
202,286,572491,6,0,L|192:180,1,106.25,6|0,0:2|1:2,0:0:0:0:
9,112,572843,1,0,0:0:0:0:
9,112,572932,1,0,0:0:0:0:
9,112,573020,2,0,L|-1:218,1,106.25,2|0,1:2|0:0,0:0:0:0:
0,217,573285,1,0,0:0:0:0:
0,217,573373,1,2,1:2:0:0:
121,98,573549,1,2,0:2:0:0:
121,98,573638,1,0,0:0:0:0:
121,98,573726,1,0,1:2:0:0:
297,229,573902,6,0,L|403:219,1,106.25,6|0,0:2|1:2,0:0:0:0:
465,27,574255,1,0,0:0:0:0:
465,27,574343,1,0,0:0:0:0:
465,27,574432,2,0,L|359:17,1,106.25,2|0,1:2|0:0,0:0:0:0:
359,17,574696,1,0,0:0:0:0:
359,17,574785,1,2,1:2:0:0:
232,132,574961,1,2,0:2:0:0:
232,132,575049,1,0,0:0:0:0:
232,132,575138,1,0,1:2:0:0:
484,279,575314,6,0,L|494:172,1,106.25,6|0,0:2|1:2,0:0:0:0:
322,94,575667,1,0,0:0:0:0:
322,94,575755,1,0,0:0:0:0:
322,94,575843,2,0,L|312:200,1,106.25,2|0,1:2|0:0,0:0:0:0:
312,199,576108,1,0,0:0:0:0:
312,199,576196,1,2,1:2:0:0:
400,362,576373,1,0,0:0:0:0:
400,362,576461,1,0,0:0:0:0:
400,362,576549,1,2,1:2:0:0:
472,104,576726,5,6,0:2:0:0:
283,223,576902,1,2,1:2:0:0:
504,305,577079,5,8,0:2:0:0:
504,305,577167,1,8,0:2:0:0:
504,305,577255,1,8,0:2:0:0:
461,305,577343,1,8,0:2:0:0:
422,308,577432,1,8,0:2:0:0:
389,312,577520,1,8,0:2:0:0:
358,313,577608,1,8,0:2:0:0:
331,314,577696,1,8,0:2:0:0:
305,316,577785,1,8,0:2:0:0:
285,317,577873,1,8,0:2:0:0:
267,319,577961,1,8,0:2:0:0:
254,320,578049,1,8,0:2:0:0:
244,321,578138,1,8,0:2:0:0:
237,321,578226,1,8,0:2:0:0:
231,322,578314,6,0,L|221:215,1,106.25,6|0,1:2|0:0,0:0:0:0:
115,225,578579,1,0,0:0:0:0:
115,225,578667,2,0,L|124:330,1,106.25,2|0,1:2|0:0,0:0:0:0:
124,330,578932,1,0,0:0:0:0:
124,330,579020,1,2,1:2:0:0:
163,150,579196,1,2,0:2:0:0:
163,150,579285,1,0,0:0:0:0:
163,150,579373,1,2,1:2:0:0:
436,268,579549,6,0,L|329:258,1,106.25,6|0,0:2|1:2,0:0:0:0:
283,59,579902,1,0,0:0:0:0:
283,59,579991,1,0,0:0:0:0:
283,59,580079,2,0,L|388:68,1,106.25,2|0,1:2|0:0,0:0:0:0:
388,68,580343,1,0,0:0:0:0:
388,68,580432,1,2,1:2:0:0:
478,167,580608,1,2,0:2:0:0:
478,167,580696,1,0,0:0:0:0:
478,167,580785,1,0,1:2:0:0:
256,314,580961,5,6,0:2:0:0:
104,155,581138,2,0,L|213:165,1,106.25,2|0,1:2|0:0,0:0:0:0:
313,126,581402,1,0,0:0:0:0:
313,126,581491,2,0,B|332:176|332:176|306:221,1,106.25,2|0,1:2|0:0,0:0:0:0:
306,221,581755,1,0,0:0:0:0:
306,221,581843,1,2,1:2:0:0:
147,359,582020,2,0,B|127:308|127:308|153:263,1,106.25,2|0,0:2|1:2,0:0:0:0:
252,44,582373,5,6,0:2:0:0:
399,230,582549,1,2,1:2:0:0:
157,161,582726,5,0,1:2:0:0:
146,160,582814,1,0,1:2:0:0:
135,159,582902,1,8,0:2:0:0:
357,68,583079,1,0,1:2:0:0:
368,67,583167,1,0,1:2:0:0:
379,66,583255,5,10,0:2:0:0:
289,305,583432,2,0,L|276:193,1,106.25,6|0,0:2|1:2,0:0:0:0:
456,0,583785,6,0,L|468:105,1,106.25,6|0,0:2|1:2,0:0:0:0:
495,259,584138,1,0,0:0:0:0:
495,259,584226,1,0,0:0:0:0:
495,259,584314,2,0,L|389:246,1,106.25,2|0,1:2|0:0,0:0:0:0:
389,246,584579,1,0,0:0:0:0:
389,246,584667,1,2,1:2:0:0:
326,120,584843,1,2,0:2:0:0:
326,120,584932,1,0,0:0:0:0:
326,120,585020,1,0,1:2:0:0:
185,316,585196,6,0,L|79:328,1,106.25,6|0,0:2|1:2,0:0:0:0:
0,141,585549,1,0,0:0:0:0:
0,141,585638,1,0,0:0:0:0:
0,141,585726,2,0,L|105:128,1,106.25,2|0,1:2|0:0,0:0:0:0:
105,129,585991,1,0,0:0:0:0:
105,129,586079,1,2,1:2:0:0:
223,231,586255,1,2,0:2:0:0:
223,231,586343,1,0,0:0:0:0:
223,231,586432,1,0,1:2:0:0:
285,5,586608,6,0,L|297:110,1,106.25,6|0,0:2|1:2,0:0:0:0:
437,196,586961,1,0,0:0:0:0:
437,196,587049,1,0,0:0:0:0:
437,196,587138,2,0,L|450:90,1,106.25,2|0,1:2|0:0,0:0:0:0:
449,90,587402,1,0,0:0:0:0:
449,90,587491,1,2,1:2:0:0:
391,10,587667,1,0,0:0:0:0:
391,10,587755,1,0,0:0:0:0:
391,10,587843,1,2,1:2:0:0:
431,239,588020,5,6,0:2:0:0:
512,36,588196,1,0,1:2:0:0:
335,213,588373,5,0,1:2:0:0:
335,213,588461,1,0,1:2:0:0:
335,213,588549,6,0,L|342:289,2,70.8333333333333,8|8|8,0:2|0:2|0:2,0:0:0:0:
273,119,588902,6,0,L|268:57,2,56.6666666666667,8|8|8,0:2|0:2|0:2,0:0:0:0:
213,185,589255,6,0,L|219:256,2,42.5000016212464,8|8|8,0:2|0:2|0:2,0:0:0:0:
111,96,589608,5,4,1:2:0:0:
177,56,589785,1,0,1:2:0:0:
148,128,589961,1,2,1:2:0:0:
130,52,590138,1,2,1:2:0:0:
188,103,590314,1,2,1:2:0:0:
111,96,590491,1,2,1:2:0:0:
177,56,590667,1,0,1:2:0:0:
148,128,590843,1,2,1:2:0:0:
130,52,591020,1,2,1:2:0:0:
188,103,591196,1,0,1:2:0:0:
111,96,591373,1,0,1:2:0:0:
177,56,591549,1,2,1:2:0:0:
148,128,591726,1,2,1:2:0:0:
130,52,591902,1,0,1:2:0:0:
188,103,592079,1,0,1:2:0:0:
111,96,592255,1,0,1:2:0:0:
435,87,592432,5,4,1:2:0:0:
316,102,592608,1,0,1:2:0:0:
420,161,592785,1,2,1:2:0:0:
370,52,592961,1,2,1:2:0:0:
345,172,593138,1,2,1:2:0:0:
435,87,593314,1,2,1:2:0:0:
316,102,593491,1,0,1:2:0:0:
420,161,593667,1,2,1:2:0:0:
370,52,593843,1,2,1:2:0:0:
345,172,594020,1,0,1:2:0:0:
435,87,594196,1,0,1:2:0:0:
316,102,594373,1,2,1:2:0:0:
458,188,594549,1,10,1:2:0:0:
366,5,594726,1,8,1:2:0:0:
334,214,594902,1,8,1:2:0:0:
484,80,595079,1,8,1:2:0:0:
237,112,595255,5,4,1:2:0:0:
237,112,595432,1,8,0:2:0:0:
138,67,595608,2,0,L|150:180,1,106.25,10|0,0:2|1:2,0:0:0:0:
160,250,595873,1,0,1:2:0:0:
162,261,595961,1,10,0:2:0:0:
228,4,596138,1,2,1:2:0:0:
228,4,596226,1,0,1:2:0:0:
228,4,596314,1,10,0:2:0:0:
3,139,596491,2,0,L|62:133,1,53.125,10|8,0:2|0:2,0:0:0:0:
329,193,596667,6,0,L|209:207,1,106.25,10|0,0:2|1:2,0:0:0:0:
151,214,596932,1,0,1:2:0:0:
138,216,597020,1,8,0:2:0:0:
259,56,597196,1,10,0:2:0:0:
259,56,597285,1,8,1:2:0:0:
259,56,597373,2,0,L|265:114,1,53.125,10|0,0:2|0:0,0:2:0:0:
349,153,597549,1,10,0:2:0:0:
350,143,597638,2,0,L|355:90,1,53.125,8|8,0:2|0:2,0:0:0:0:
441,44,597814,1,10,0:2:0:0:
442,54,597903,2,0,L|447:106,1,53.125,10|8,0:2|0:2,0:0:0:0:
487,231,598079,6,0,L|420:239,1,53.125,6|0,1:2|0:0,0:0:0:0:
227,262,598255,2,0,L|294:254,1,53.125,6|0,1:2|0:0,0:0:0:0:
495,333,598432,5,8,0:2:0:0:
484,332,598520,1,10,0:2:0:0:
473,330,598608,1,10,0:2:0:0:
462,329,598696,1,10,0:2:0:0:
451,327,598785,2,0,L|387:318,1,53.125,6|0,1:2|0:0,0:0:0:0:
266,168,598961,2,0,L|333:176,1,53.125,6|0,0:2|0:0,0:0:0:0:
509,228,599138,1,8,0:2:0:0:
498,230,599226,1,8,0:2:0:0:
487,231,599314,2,0,L|420:239,1,53.125,6|0,1:2|1:2,0:0:0:0:
194,269,599491,5,2,1:2:0:0:
173,272,599579,1,0,1:2:0:0:
151,274,599667,1,0,1:2:0:0:
130,277,599755,1,0,1:2:0:0:
109,280,599843,1,0,1:2:0:0:
87,283,599932,1,0,1:2:0:0:
65,285,600020,1,0,1:2:0:0:
44,288,600108,1,0,1:2:0:0:
22,290,600196,5,14,1:2:0:0:
33,248,600285,1,8,1:2:0:0:
66,221,600373,1,8,1:2:0:0:
108,216,600461,1,8,1:2:0:0:
147,232,600549,1,8,1:2:0:0:
169,268,600638,1,8,1:2:0:0:
165,310,600726,1,8,1:2:0:0:
139,344,600814,1,8,1:2:0:0:
98,360,600901,5,8,0:2:0:0:
35,322,600990,1,8,0:2:0:0:
7,257,601078,1,8,0:2:0:0:
19,187,601166,1,8,0:2:0:0:
67,134,601254,1,8,0:2:0:0:
134,112,601342,1,8,0:2:0:0:
203,127,601431,1,8,0:2:0:0:
251,178,601519,1,8,0:2:0:0:
261,247,601607,1,10,1:2:0:0:
315,293,601695,1,10,1:2:0:0:
385,305,601785,1,10,1:2:0:0:
453,286,601872,1,10,1:2:0:0:
495,230,601960,1,10,1:2:0:0:
510,161,602048,1,10,1:2:0:0:
479,95,602137,1,10,1:2:0:0:
417,59,602225,1,10,1:2:0:0:
256,192,602314,12,0,603549,0:0:0:0:
239,355,603726,5,12,1:2:0:0:
197,355,603814,1,0,1:2:0:0:
158,339,603902,1,0,1:2:0:0:
131,306,603990,1,0,1:2:0:0:
122,264,604078,1,10,1:2:0:0:
130,221,604167,1,0,1:2:0:0:
158,189,604255,1,0,1:2:0:0:
197,170,604343,1,0,1:2:0:0:
240,171,604431,1,10,1:2:0:0:
278,191,604520,1,0,1:2:0:0:
320,196,604608,1,0,1:2:0:0:
361,182,604696,1,0,1:2:0:0:
392,151,604784,1,10,1:2:0:0:
405,109,604873,1,0,1:2:0:0:
399,67,604961,1,2,1:2:0:0:
374,32,605049,1,0,1:2:0:0:
338,10,605138,5,8,1:2:0:0:
305,38,605227,1,0,1:2:0:0:
293,78,605315,1,0,1:2:0:0:
299,119,605403,1,0,1:2:0:0:
322,154,605490,1,8,1:2:0:0:
357,176,605580,1,0,1:2:0:0:
398,182,605668,1,0,1:2:0:0:
438,172,605755,1,0,1:2:0:0:
467,142,605843,1,8,1:2:0:0:
484,102,605932,1,0,1:2:0:0:
477,59,606021,6,0,L|415:66,1,53.125,2|0,1:2|1:2,1:2:0:0:
260,148,606196,2,0,L|322:155,1,53.125,10|0,1:2|1:2,1:2:0:0:
512,178,606373,2,0,L|450:171,1,53.125,2|0,1:2|1:2,1:2:0:0:
229,35,606549,5,14,1:2:0:0:
258,23,606638,1,0,1:2:0:0:
289,26,606726,1,0,1:2:0:0:
317,41,606814,1,0,1:2:0:0:
337,65,606902,1,10,1:2:0:0:
341,96,606991,1,0,1:2:0:0:
333,127,607079,1,2,1:2:0:0:
312,153,607167,1,0,1:2:0:0:
283,166,607255,1,8,1:2:0:0:
264,192,607343,1,0,1:2:0:0:
259,223,607432,1,2,1:2:0:0:
265,254,607520,1,0,1:2:0:0:
285,278,607608,1,8,1:2:0:0:
314,290,607696,1,0,1:2:0:0:
346,292,607785,1,2,1:2:0:0:
375,280,607873,1,0,1:2:0:0:
395,255,607961,2,0,L|389:203,3,53.125,8|0|0|0,1:2|1:2|1:2|1:2,1:2:0:0:
448,136,608314,5,8,1:2:0:0:
448,136,608402,1,0,1:2:0:0:
448,136,608491,2,0,P|426:120|398:115,1,53.125,0|0,1:2|1:2,1:2:0:0:
371,33,608667,1,12,1:2:0:0:
371,33,608755,1,0,1:2:0:0:
371,33,608844,2,0,P|346:43|328:65,1,53.125,0|0,1:2|1:2,1:2:0:0:
244,47,609020,1,12,1:2:0:0:
244,47,609108,1,0,1:2:0:0:
244,47,609197,2,0,P|241:73|250:100,1,53.125,0|0,1:2|1:2,1:2:0:0:
123,167,609373,5,12,1:2:0:0:
140,199,609461,1,0,1:2:0:0:
165,216,609549,1,0,1:2:0:0:
196,224,609638,1,0,1:2:0:0:
226,219,609726,1,10,1:2:0:0:
255,205,609814,1,0,1:2:0:0:
273,179,609902,1,0,1:2:0:0:
302,165,609991,1,0,1:2:0:0:
333,162,610079,1,10,1:2:0:0:
362,173,610167,1,0,1:2:0:0:
386,193,610255,1,0,1:2:0:0:
401,220,610343,1,0,1:2:0:0:
403,252,610432,1,10,1:2:0:0:
395,282,610520,1,0,1:2:0:0:
375,307,610608,2,0,L|323:313,1,53.125,2|0,1:2|1:2,1:2:0:0:
189,327,610785,5,8,1:2:0:0:
168,329,610873,1,0,1:2:0:0:
147,332,610961,1,0,1:2:0:0:
125,334,611049,1,0,1:2:0:0:
103,336,611138,6,0,L|97:284,3,53.125,10|0|0|0,1:2|1:2|1:2|1:2,1:2:0:0:
178,173,611491,2,0,L|135:204,3,53.125,10|0|0|0,1:2|1:2|1:2|1:2,1:2:0:0:
0,189,611843,2,0,L|48:209,3,53.125,10|0|0|0,1:2|1:2|1:2|1:2,1:2:0:0:
194,281,612196,5,14,1:2:0:0:
194,281,612284,1,0,1:2:0:0:
194,281,612373,2,0,L|260:274,1,53.125,0|0,1:2|1:2,1:2:0:0:
284,370,612549,5,10,1:2:0:0:
284,370,612637,1,0,1:2:0:0:
284,370,612726,2,0,L|218:363,1,53.125,2|0,1:2|1:2,1:2:0:0:
307,174,612902,5,8,1:2:0:0:
307,174,612990,1,0,1:2:0:0:
307,174,613078,2,0,L|372:181,1,53.125,2|0,1:2|1:2,1:2:0:0:
398,262,613255,5,8,1:2:0:0:
398,262,613343,1,0,1:2:0:0:
398,262,613432,2,0,L|332:268,1,53.125,2|0,1:2|1:2,1:2:0:0:
110,191,613608,5,14,1:2:0:0:
153,152,613696,1,8,1:2:0:0:
201,152,613785,1,8,1:2:0:0:
233,169,613873,1,8,1:2:0:0:
251,194,613961,1,8,1:2:0:0:
259,224,614049,1,0,1:2:0:0:
256,256,614138,1,0,1:2:0:0:
238,282,614226,1,8,1:2:0:0:
210,299,614314,5,8,1:2:0:0:
198,270,614402,1,0,1:2:0:0:
199,237,614491,1,8,1:2:0:0:
212,208,614579,1,8,1:2:0:0:
237,188,614667,1,12,1:2:0:0:
266,176,614755,1,8,1:2:0:0:
297,179,614843,1,8,1:2:0:0:
326,192,614932,1,8,1:2:0:0:
345,217,615020,5,12,1:2:0:0:
313,228,615108,1,0,1:2:0:0:
282,227,615196,1,0,1:2:0:0:
255,214,615285,1,0,1:2:0:0:
238,189,615373,1,10,1:2:0:0:
214,166,615461,1,0,1:2:0:0:
187,154,615549,1,0,1:2:0:0:
156,154,615637,1,0,1:2:0:0:
125,166,615726,1,10,1:2:0:0:
102,188,615814,1,0,1:2:0:0:
90,217,615902,1,0,1:2:0:0:
91,249,615991,1,0,1:2:0:0:
103,278,616079,1,10,1:2:0:0:
126,299,616167,1,0,1:2:0:0:
155,311,616255,1,2,1:2:0:0:
186,311,616343,1,0,1:2:0:0:
216,299,616432,5,8,1:2:0:0:
207,268,616520,1,0,1:2:0:0:
185,244,616608,1,0,1:2:0:0:
156,229,616696,1,0,1:2:0:0:
123,229,616785,1,8,1:2:0:0:
93,240,616873,1,0,1:2:0:0:
69,262,616961,1,0,1:2:0:0:
58,292,617049,1,0,1:2:0:0:
60,324,617138,1,8,1:2:0:0:
71,353,617226,1,0,1:2:0:0:
94,374,617314,6,0,L|147:368,1,53.125,2|0,1:2|1:2,1:2:0:0:
209,285,617490,2,0,L|276:292,1,53.125,10|0,1:2|1:2,1:2:0:0:
350,355,617667,2,0,L|403:349,1,53.125,2|0,1:2|1:2,1:2:0:0:
486,162,617843,5,14,1:2:0:0:
460,142,617932,1,0,1:2:0:0:
428,137,618020,1,0,1:2:0:0:
397,145,618108,1,0,1:2:0:0:
374,167,618196,1,8,1:2:0:0:
362,196,618285,1,0,1:2:0:0:
344,222,618373,1,2,1:2:0:0:
317,240,618461,1,0,1:2:0:0:
285,245,618549,1,8,1:2:0:0:
253,237,618638,1,0,1:2:0:0:
226,218,618726,1,2,1:2:0:0:
211,189,618814,1,0,1:2:0:0:
207,157,618902,1,8,1:2:0:0:
216,126,618991,1,0,1:2:0:0:
236,101,619079,1,2,1:2:0:0:
264,87,619167,1,0,1:2:0:0:
295,85,619255,2,0,L|301:33,3,53.125,8|0|0|0,1:2|1:2|1:2|1:2,1:2:0:0:
295,171,619608,5,8,1:2:0:0:
295,171,619696,1,0,1:2:0:0:
295,171,619785,2,0,P|320:165|342:150,1,53.125,0|0,1:2|1:2,1:2:0:0:
226,216,619961,1,8,1:2:0:0:
226,216,620049,1,0,1:2:0:0:
226,216,620138,2,0,P|243:235|267:246,1,53.125,2|0,1:2|1:2,1:2:0:0:
146,176,620314,1,10,1:2:0:0:
146,176,620402,1,0,1:2:0:0:
146,176,620491,2,0,P|138:197|140:227,1,53.125,2|0,1:2|1:2,1:2:0:0:
55,58,620667,5,14,1:2:0:0:
86,61,620755,1,0,1:2:0:0:
117,65,620843,1,0,1:2:0:0:
149,67,620932,1,0,1:2:0:0:
180,71,621020,1,8,1:2:0:0:
211,74,621108,1,0,1:2:0:0:
242,78,621196,2,0,L|294:84,1,53.125,2|0,1:2|1:2,1:2:0:0:
340,182,621373,5,10,1:2:0:0:
361,180,621461,1,0,1:2:0:0:
382,178,621549,1,0,1:2:0:0:
403,175,621638,1,0,1:2:0:0:
424,173,621726,6,0,L|476:167,1,53.125,8|0,1:2|1:2,1:2:0:0:
512,67,621902,2,0,L|460:61,1,53.125,0|0,1:2|1:2,1:2:0:0:
299,91,622079,1,12,1:2:0:0:
288,93,622167,1,0,1:2:0:0:
277,95,622255,1,0,1:2:0:0:
266,96,622343,1,0,1:2:0:0:
255,98,622432,2,0,L|203:104,3,53.125,10|0|0|0,1:2|1:2|1:2|1:2,1:2:0:0:
143,198,622785,5,10,1:2:0:0:
154,199,622873,2,0,L|206:205,1,53.125,0|0,1:2|1:2,1:2:0:0:
375,170,623049,1,2,1:2:0:0:
364,172,623137,2,0,L|312:178,1,53.125,8|0,1:2|1:2,1:2:0:0:
192,304,623314,2,0,L|244:298,1,53.125,2|0,1:2|1:2,1:2:0:0:
503,223,623491,5,14,1:2:0:0:
480,187,623579,1,0,1:2:0:0:
442,168,623667,1,0,1:2:0:0:
399,169,623755,1,0,1:2:0:0:
363,192,623843,1,0,1:2:0:0:
346,231,623932,1,0,1:2:0:0:
350,273,624020,5,14,1:2:0:0:
392,271,624108,1,0,1:2:0:0:
428,250,624196,1,0,1:2:0:0:
446,211,624285,1,0,1:2:0:0:
442,168,624373,1,0,1:2:0:0:
417,133,624461,1,0,1:2:0:0:
377,118,624549,5,14,1:2:0:0:
361,158,624638,1,0,1:2:0:0:
364,200,624726,1,0,1:2:0:0:
389,233,624814,1,0,1:2:0:0:
428,250,624902,5,14,1:2:0:0:
438,231,624991,1,8,1:2:0:0:
440,209,625079,1,8,1:2:0:0:
433,188,625167,1,8,1:2:0:0:
420,170,625255,1,8,1:2:0:0:
401,158,625343,1,8,1:2:0:0:
379,154,625432,1,8,1:2:0:0:
358,158,625520,1,8,1:2:0:0:
339,168,625608,1,8,1:2:0:0:
304,193,625696,1,8,1:2:0:0:
262,204,625785,1,8,1:2:0:0:
220,195,625873,1,8,1:2:0:0:
186,168,625961,1,8,1:2:0:0:
167,118,626049,1,8,1:2:0:0:
176,65,626138,1,8,1:2:0:0:
210,24,626226,1,8,1:2:0:0:
261,12,626314,5,12,1:2:0:0:
295,34,626402,1,0,1:2:0:0:
316,71,626491,1,0,1:2:0:0:
317,114,626579,1,0,1:2:0:0:
299,152,626667,1,10,1:2:0:0:
267,180,626755,1,0,1:2:0:0:
226,192,626843,1,0,1:2:0:0:
182,184,626932,1,0,1:2:0:0:
148,157,627020,1,10,1:2:0:0:
106,154,627108,1,0,1:2:0:0:
66,168,627196,1,0,1:2:0:0:
36,199,627285,1,0,1:2:0:0:
23,240,627373,2,0,L|29:292,3,53.125,10|0|2|0,1:2|1:2|1:2|1:2,1:2:0:0:
115,362,627726,5,12,1:2:0:0:
152,381,627814,1,0,1:2:0:0:
194,381,627902,1,0,1:2:0:0:
232,362,627991,1,0,1:2:0:0:
258,329,628079,1,8,1:2:0:0:
271,288,628167,1,0,1:2:0:0:
262,246,628255,1,0,1:2:0:0:
237,211,628343,1,0,1:2:0:0:
198,191,628432,1,8,1:2:0:0:
155,191,628520,1,0,1:2:0:0:
117,211,628608,6,0,L|123:263,1,53.125,2|0,1:2|1:2,1:2:0:0:
240,374,628785,2,0,L|234:322,1,53.125,10|0,1:2|1:2,1:2:0:0:
312,150,628961,2,0,L|318:202,1,53.125,2|0,1:2|1:2,1:2:0:0:
436,382,629138,5,14,1:2:0:0:
464,368,629226,1,0,1:2:0:0:
480,340,629314,1,0,1:2:0:0:
483,308,629402,1,0,1:2:0:0:
472,277,629491,1,10,1:2:0:0:
448,255,629579,1,0,1:2:0:0:
417,247,629667,1,2,1:2:0:0:
385,252,629755,1,0,1:2:0:0:
360,272,629843,1,8,1:2:0:0:
328,278,629932,1,0,1:2:0:0:
297,270,630020,1,2,1:2:0:0:
271,251,630108,1,0,1:2:0:0:
257,222,630196,1,8,1:2:0:0:
260,189,630285,1,0,1:2:0:0:
275,161,630373,1,2,1:2:0:0:
300,142,630461,1,0,1:2:0:0:
331,138,630549,2,0,L|383:144,3,53.125,8|0|0|0,1:2|1:2|1:2|1:2,1:2:0:0:
448,212,630902,5,8,1:2:0:0:
448,212,630991,1,0,1:2:0:0:
448,212,631079,2,0,P|427:227|400:232,1,53.125,0|0,1:2|1:2,1:2:0:0:
372,315,631255,1,12,1:2:0:0:
372,315,631344,1,0,1:2:0:0:
372,315,631432,2,0,P|348:305|330:284,1,53.125,0|0,1:2|1:2,1:2:0:0:
247,300,631608,1,12,1:2:0:0:
247,300,631697,1,0,1:2:0:0:
247,300,631785,2,0,P|243:275|252:248,1,53.125,0|0,1:2|1:2,1:2:0:0:
169,145,631961,5,12,1:2:0:0:
197,131,632049,1,0,1:2:0:0:
229,128,632138,1,0,1:2:0:0:
258,140,632226,1,0,1:2:0:0:
279,163,632314,1,10,1:2:0:0:
296,189,632402,1,0,1:2:0:0:
322,206,632491,1,0,1:2:0:0:
353,212,632579,1,0,1:2:0:0:
384,206,632667,1,10,1:2:0:0:
410,188,632755,1,0,1:2:0:0:
429,162,632843,1,0,1:2:0:0:
433,130,632932,1,0,1:2:0:0:
424,99,633020,1,10,1:2:0:0:
406,72,633108,1,0,1:2:0:0:
377,58,633196,2,0,L|325:64,1,53.125,2|0,1:2|1:2,1:2:0:0:
280,161,633373,5,8,1:2:0:0:
258,159,633461,1,0,1:2:0:0:
236,157,633549,1,0,1:2:0:0:
214,154,633638,1,0,1:2:0:0:
192,151,633726,6,0,L|140:145,3,53.125,10|0|0|0,1:2|1:2|1:2|1:2,1:2:0:0:
44,50,634079,2,0,L|64:98,3,53.125,10|0|0|0,1:2|1:2|1:2|1:2,1:2:0:0:
31,229,634432,2,0,L|62:186,3,53.125,10|0|0|0,1:2|1:2|1:2|1:2,1:2:0:0:
148,8,634785,5,14,1:2:0:0:
148,8,634873,1,0,1:2:0:0:
148,8,634962,2,0,L|141:74,1,53.125,0|0,1:2|1:2,1:2:0:0:
237,98,635138,5,10,1:2:0:0:
237,98,635226,1,0,1:2:0:0:
236,97,635315,2,0,L|231:45,1,53.125,2|0,1:2|1:2,1:2:0:0:
41,121,635491,5,8,1:2:0:0:
41,121,635579,1,0,1:2:0:0:
41,121,635667,2,0,L|48:186,1,53.125,2|0,1:2|1:2,1:2:0:0:
129,212,635844,5,8,1:2:0:0:
129,212,635932,1,0,1:2:0:0:
128,211,636020,2,0,L|133:159,1,53.125,2|0,1:2|1:2,1:2:0:0:
322,64,636196,5,12,1:2:0:0:
372,34,636285,1,8,1:2:0:0:
425,47,636373,1,8,1:2:0:0:
452,91,636461,1,8,1:2:0:0:
442,137,636549,1,8,1:2:0:0:
409,168,636638,1,0,1:2:0:0:
367,170,636726,1,0,1:2:0:0:
333,153,636814,1,8,1:2:0:0:
300,160,636902,1,8,1:2:0:0:
276,181,636991,1,0,1:2:0:0:
267,206,637079,1,8,1:2:0:0:
271,230,637167,1,8,1:2:0:0:
281,247,637255,1,12,1:2:0:0:
293,259,637343,1,8,1:2:0:0:
305,265,637432,1,8,1:2:0:0:
315,267,637520,1,8,1:2:0:0:
322,268,637608,5,12,1:2:0:0:
335,239,637696,1,0,1:2:0:0:
332,206,637785,1,0,1:2:0:0:
315,178,637873,1,0,1:2:0:0:
287,162,637961,1,10,1:2:0:0:
255,160,638049,1,0,1:2:0:0:
224,170,638138,1,0,1:2:0:0:
202,193,638226,1,0,1:2:0:0:
171,202,638314,1,10,1:2:0:0:
139,199,638402,1,0,1:2:0:0:
109,186,638491,1,0,1:2:0:0:
87,162,638579,1,0,1:2:0:0:
78,131,638667,1,10,1:2:0:0:
81,99,638755,1,0,1:2:0:0:
97,71,638843,1,2,1:2:0:0:
122,51,638932,1,0,1:2:0:0:
153,45,639020,5,8,1:2:0:0:
175,67,639108,1,0,1:2:0:0:
186,96,639196,1,0,1:2:0:0:
187,128,639285,1,0,1:2:0:0:
175,157,639373,1,8,1:2:0:0:
153,180,639461,1,0,1:2:0:0:
123,192,639549,1,0,1:2:0:0:
90,191,639638,1,0,1:2:0:0:
61,177,639726,1,8,1:2:0:0:
40,152,639814,1,0,1:2:0:0:
31,121,639902,6,0,L|37:69,1,53.125,2|0,1:2|1:2,1:2:0:0:
160,21,640079,2,0,L|166:73,1,53.125,10|0,1:2|1:2,1:2:0:0:
147,267,640255,2,0,L|141:215,1,53.125,2|0,1:2|1:2,1:2:0:0:
304,19,640432,5,14,1:2:0:0:
333,6,640520,1,0,1:2:0:0:
364,4,640608,1,0,1:2:0:0:
393,14,640696,1,0,1:2:0:0:
416,35,640785,1,10,1:2:0:0:
429,63,640873,1,0,1:2:0:0:
430,94,640961,1,2,1:2:0:0:
422,124,641049,1,0,1:2:0:0:
399,146,641138,1,8,1:2:0:0:
371,161,641226,1,0,1:2:0:0:
339,162,641314,1,2,1:2:0:0:
309,151,641402,1,0,1:2:0:0:
284,130,641491,1,8,1:2:0:0:
253,120,641579,1,0,1:2:0:0:
221,123,641667,1,0,1:2:0:0:
193,139,641755,1,0,1:2:0:0:
175,165,641843,2,0,L|181:217,3,53.125,10|0|0|0,1:2|1:2|1:2|1:2,1:2:0:0:
169,302,642196,5,10,1:2:0:0:
169,302,642285,1,0,1:2:0:0:
169,302,642373,2,0,P|143:296|122:280,1,53.125,0|0,1:2|1:2,1:2:0:0:
241,354,642549,1,14,1:2:0:0:
241,354,642638,1,0,1:2:0:0:
241,354,642726,2,0,P|223:373|199:384,1,53.125,0|0,1:2|1:2,1:2:0:0:
317,320,642902,1,14,1:2:0:0:
317,320,642991,1,0,1:2:0:0:
317,320,643079,2,0,P|325:345|322:371,1,53.125,0|0,1:2|1:2,1:2:0:0:
181,217,643255,5,14,1:2:0:0:
212,222,643343,1,0,1:2:0:0:
243,225,643432,1,0,1:2:0:0:
274,229,643520,1,0,1:2:0:0:
305,231,643608,1,8,1:2:0:0:
336,235,643696,1,0,1:2:0:0:
367,239,643785,2,0,L|419:245,1,53.125,2|0,1:2|1:2,1:2:0:0:
471,123,643961,5,10,1:2:0:0:
450,126,644049,1,0,1:2:0:0:
428,128,644138,1,0,1:2:0:0:
406,130,644226,1,0,1:2:0:0:
384,132,644314,2,0,L|332:138,1,53.125,8|0,1:2|1:2,1:2:0:0:
274,229,644491,2,0,L|222:223,1,53.125,0|0,1:2|1:2,1:2:0:0:
102,166,644667,5,8,1:2:0:0:
103,155,644755,1,0,1:2:0:0:
105,144,644843,1,0,1:2:0:0:
107,133,644932,1,0,1:2:0:0:
108,122,645020,2,0,L|114:70,3,53.125,10|0|0|0,1:2|1:2|1:2|1:2,1:2:0:0:
210,22,645373,5,10,1:2:0:0:
212,32,645461,2,0,L|218:84,1,53.125,0|0,1:2|1:2,1:2:0:0:
204,258,645638,1,2,1:2:0:0:
202,248,645726,2,0,L|196:196,1,53.125,8|0,1:2|1:2,1:2:0:0:
322,72,645902,2,0,L|316:124,1,53.125,2|0,1:2|1:2,1:2:0:0:
211,328,646079,5,14,1:2:0:0:
168,322,646167,1,2,1:2:0:0:
136,294,646255,1,2,1:2:0:0:
122,253,646343,1,2,1:2:0:0:
132,211,646432,1,2,1:2:0:0:
160,179,646520,1,2,1:2:0:0:
201,169,646608,5,14,1:2:0:0:
212,209,646696,1,2,1:2:0:0:
205,251,646785,1,2,1:2:0:0:
177,283,646873,1,2,1:2:0:0:
136,294,646961,1,2,1:2:0:0:
94,284,647049,1,2,1:2:0:0:
64,253,647138,5,14,1:2:0:0:
93,222,647226,1,2,1:2:0:0:
133,211,647314,1,2,1:2:0:0:
174,220,647402,1,2,1:2:0:0:
205,251,647491,5,14,1:2:0:0:
178,309,647579,1,10,1:2:0:0:
122,333,647667,1,10,1:2:0:0:
69,313,647755,1,10,1:2:0:0:
42,268,647844,1,10,1:2:0:0:
47,220,647932,1,2,1:2:0:0:
73,186,648020,1,2,1:2:0:0:
109,169,648108,1,10,1:2:0:0:
149,172,648196,1,10,1:2:0:0:
178,153,648285,1,2,1:2:0:0:
191,125,648373,1,10,1:2:0:0:
188,99,648461,1,10,1:2:0:0:
178,80,648549,1,10,1:2:0:0:
165,69,648638,1,10,1:2:0:0:
153,63,648726,1,10,1:2:0:0:
145,61,648814,1,10,1:2:0:0:
142,61,648902,5,14,1:2:0:0:
127,89,648991,1,0,1:2:0:0:
127,120,649079,1,0,1:2:0:0:
137,150,649167,1,0,1:2:0:0:
160,171,649255,1,8,1:2:0:0:
188,185,649343,1,0,1:2:0:0:
220,186,649432,1,0,1:2:0:0:
250,176,649520,1,0,1:2:0:0:
272,153,649608,1,8,1:2:0:0:
284,123,649696,1,0,1:2:0:0:
285,90,649785,6,0,L|279:38,1,53.125,2|0,1:2|1:2,1:2:0:0:
174,17,649961,2,0,L|180:69,1,53.125,10|0,1:2|1:2,1:2:0:0:
99,187,650138,2,0,L|93:135,1,53.125,2|0,1:2|1:2,1:2:0:0:
292,28,650314,5,14,1:2:0:0:
321,16,650402,1,0,1:2:0:0:
353,18,650491,1,0,1:2:0:0:
383,28,650579,1,0,1:2:0:0:
408,46,650667,1,8,1:2:0:0:
424,73,650755,1,0,1:2:0:0:
432,103,650843,1,0,1:2:0:0:
432,135,650932,1,0,1:2:0:0:
420,164,651020,1,8,1:2:0:0:
398,188,651108,1,0,1:2:0:0:
370,204,651196,1,0,1:2:0:0:
338,207,651285,1,0,1:2:0:0:
306,201,651373,6,0,L|254:195,1,53.125,10|0,1:2|1:2,1:2:0:0:
212,96,651549,2,0,L|264:90,1,53.125,2|0,1:2|1:2,1:2:0:0:
488,141,651726,5,14,1:2:0:0:
466,138,651814,1,0,1:2:0:0:
444,135,651902,1,0,1:2:0:0:
422,133,651991,1,0,1:2:0:0:
400,130,652079,1,0,1:2:0:0:
378,127,652167,1,0,1:2:0:0:
356,124,652255,5,14,1:2:0:0:
360,166,652343,1,0,1:2:0:0:
363,208,652432,1,0,1:2:0:0:
366,250,652520,1,0,1:2:0:0:
370,292,652608,1,0,1:2:0:0:
374,334,652696,1,0,1:2:0:0:
377,376,652785,5,14,1:2:0:0:
345,373,652873,1,0,1:2:0:0:
313,368,652961,1,0,1:2:0:0:
281,363,653049,1,0,1:2:0:0:
249,358,653138,5,10,1:2:0:0:
228,360,653226,1,0,1:2:0:0:
207,362,653314,1,0,1:2:0:0:
186,365,653402,1,0,1:2:0:0:
164,368,653491,2,0,L|69:379,1,53.125,4|0,1:2|1:2,1:2:0:0:
10,256,653667,5,0,1:2:0:0:
24,241,653755,1,8,1:2:0:0:
42,230,653843,1,8,1:2:0:0:
62,225,653932,1,0,1:2:0:0:
83,226,654020,1,8,1:2:0:0:
102,233,654108,1,0,1:2:0:0:
119,244,654196,2,0,B|180:237,1,53.125,10|8,1:2|1:2,1:2:0:0:
248,314,654373,2,0,B|309:307,1,53.125,10|0,1:2|1:2,1:2:0:0:
484,202,654549,5,14,1:2:0:0:
462,199,654638,1,0,1:2:0:0:
440,196,654726,1,0,1:2:0:0:
418,194,654814,1,0,1:2:0:0:
396,191,654902,1,8,1:2:0:0:
374,188,654991,1,0,1:2:0:0:
352,185,655079,1,0,1:2:0:0:
330,182,655167,1,0,1:2:0:0:
308,180,655255,1,8,1:2:0:0:
286,177,655343,1,0,1:2:0:0:
264,175,655432,1,0,1:2:0:0:
242,172,655520,1,0,1:2:0:0:
221,168,655608,6,0,B|228:106,1,53.125,10|0,1:2|1:2,1:2:0:0:
324,73,655785,2,0,B|330:125,1,53.125,2|0,1:2|1:2,1:2:0:0:
302,298,655961,5,14,1:2:0:0:
281,301,656049,1,0,1:2:0:0:
259,303,656138,1,0,1:2:0:0:
237,305,656226,1,0,1:2:0:0:
216,308,656314,1,8,1:2:0:0:
194,310,656402,1,0,1:2:0:0:
172,312,656491,1,0,1:2:0:0:
150,314,656579,1,0,1:2:0:0:
128,316,656667,5,10,1:2:0:0:
145,289,656755,1,0,1:2:0:0:
171,271,656843,1,0,1:2:0:0:
202,264,656932,1,0,1:2:0:0:
233,268,657020,1,8,1:2:0:0:
259,286,657108,1,0,1:2:0:0:
277,311,657196,1,0,1:2:0:0:
285,342,657285,1,0,1:2:0:0:
277,372,657373,5,14,1:2:0:0:
235,361,657461,1,0,1:2:0:0:
203,332,657549,1,0,1:2:0:0:
187,292,657638,1,0,1:2:0:0:
190,249,657726,1,12,1:2:0:0:
212,212,657814,1,0,1:2:0:0:
246,187,657902,1,0,1:2:0:0:
288,182,657991,1,0,1:2:0:0:
327,196,658079,1,12,1:2:0:0:
369,198,658167,1,0,1:2:0:0:
407,180,658255,1,0,1:2:0:0:
433,146,658343,1,0,1:2:0:0:
442,104,658432,1,12,1:2:0:0:
431,63,658520,1,0,1:2:0:0:
403,30,658608,1,0,1:2:0:0:
364,11,658696,1,0,1:2:0:0:
321,14,658785,6,0,L|335:136,1,106.25,4|0,1:2|1:2,0:0:0:0:
333,119,659138,1,8,0:2:0:0:
185,65,659314,2,0,B|237:71,1,53.125,8|8,0:2|0:2,0:2:0:0:
411,141,659491,5,8,1:2:0:0:
389,177,659579,1,8,1:2:0:0:
351,197,659667,1,8,1:2:0:0:
308,195,659755,1,8,1:2:0:0:
272,171,659843,1,10,1:2:0:0:
236,147,659932,1,8,1:2:0:0:
193,145,660020,1,8,1:2:0:0:
155,165,660108,1,8,1:2:0:0:
133,201,660196,6,0,L|267:217,1,127.5,6|10,1:2|0:0,0:0:0:0:
345,230,661432,1,2,0:0:0:0:
190,341,661608,2,0,L|187:299,1,42.5,6|0,0:0|0:0,0:0:0:0:
168,108,662314,5,10,0:0:0:0:
345,230,662490,1,8,0:0:0:0:
78,299,662667,1,2,1:2:0:0:
78,299,662845,1,0,1:2:0:0:
317,107,663024,5,6,0:2:0:0:
180,206,663387,5,0,1:2:0:0:
207,41,663751,5,0,1:2:0:0:
345,230,664110,5,0,1:2:0:0:
144,117,664470,5,0,1:2:0:0:
385,48,664833,5,0,1:2:0:0:
81,192,665205,5,0,1:2:0:0:
455,246,665579,5,0,1:2:0:0:
194,375,665967,6,0,L|179:204,1,170,6|2,1:2|1:2,0:0:0:0:
179,205,666513,1,2,1:2:0:0:
305,300,666712,6,0,B|403:318|361:232|457:246,1,170,10|2,0:2|1:2,0:0:0:0:
454,245,667328,1,10,0:2:0:0:
392,384,667533,1,2,1:2:0:0:
392,384,667714,6,0,L|382:282,1,85,10|2,0:2|1:2,0:0:0:0:
297,179,668106,1,2,1:2:0:0:
297,179,668300,6,0,L|307:281,1,85,10|2,0:2|1:2,0:0:0:0:
236,313,668703,1,10,0:2:0:0:
141,188,668906,1,10,0:2:0:0:
59,247,669123,6,0,B|102:242|102:242|104:239|104:239|235:227,2,170,6|0|0,1:2|0:0|1:2,0:0:0:0:
152,104,670207,2,0,P|217:78|214:156,1,170,14|0,0:2|1:2,0:0:0:0:
141,188,670749,1,8,0:2:0:0:
71,139,670930,2,0,L|62:51,1,85,0|0,1:2|1:2,0:0:0:0:
0,1,671291,2,0,B|65:8|65:8|95:34|95:34|159:41,1,170,10|0,0:2|1:2,0:0:0:0:
307,124,672014,6,0,B|243:131|243:131|213:157|213:157|139:165,2,170,14|0|2,1:2|0:0|1:2,0:0:0:0:
462,55,673098,2,0,L|446:225,1,170,14|0,0:2|1:2,0:0:0:0:
439,309,673641,1,8,0:2:0:0:
354,302,673821,2,0,L|266:293,1,85,0|0,1:2|1:2,0:0:0:0:
196,338,674183,2,0,L|187:250,1,85,10|0,0:2|0:0,0:0:0:0:
109,218,674544,1,2,1:2:0:0:
40,267,674725,1,0,1:2:0:0:
20,139,674906,6,0,B|115:116|80:199|175:174,1,170,6|0,1:2|0:0,0:0:0:0:
275,34,675629,2,0,P|194:28|150:96,1,170,2|12,1:2|0:2,0:0:0:0:
210,254,676351,2,0,L|298:245,1,85,2|8,1:2|0:2,0:0:0:0:
379,234,676713,1,0,1:2:0:0:
426,304,676894,1,2,1:2:0:0:
463,227,677074,6,0,P|471:185|450:141,1,85,10|0,0:0|0:0,0:0:0:0:
371,154,677436,2,0,P|363:196|384:240,1,85,10|0,0:0|0:0,0:0:0:0:
487,65,677797,6,0,L|312:82,1,170,6|0,1:2|0:0,0:0:0:0:
283,159,678339,1,0,1:2:0:0:
233,89,678520,2,0,L|224:-1,1,85,10|0,0:2|0:0,0:0:0:0:
139,15,678882,2,0,L|147:99,1,85,6|0,0:0|0:0,0:0:0:0:
156,184,679243,5,0,1:2:0:0:
78,149,679424,1,8,0:2:0:0:
87,233,679604,2,0,L|97:324,1,85,0|0,1:2|1:2,0:0:0:0:
169,362,679966,2,0,L|179:266,1,85,8|0,0:2|0:0,0:0:0:0:
254,242,680327,1,0,1:2:0:0:
322,291,680508,1,0,1:2:0:0:
455,212,680689,6,0,B|391:205|391:205|361:179|361:179|287:171,2,170,14|0|2,1:2|0:0|1:2,0:0:0:0:
289,252,681773,2,0,L|274:79,1,170,14|0,0:2|1:2,0:0:0:0:
341,30,682315,1,8,0:2:0:0:
399,91,682496,2,0,L|499:99,1,85,0|0,1:2|1:2,0:0:0:0:
436,221,682857,6,0,B|341:244|376:161|281:186,1,170,10|0,0:2|0:0,0:0:0:0:
132,272,683580,2,0,B|215:279|215:279|217:282|217:282|299:288,1,170,6|0,1:2|0:0,0:0:0:0:
467,259,684303,2,0,P|478:303|460:343,1,85,2|0,1:2|0:0,0:0:0:0:
341,367,684665,2,0,P|317:287|351:211,1,170,14|0,0:2|1:0,0:0:0:0:
414,154,685207,1,8,0:2:0:0:
333,125,685388,1,0,1:2:0:0:
398,71,685568,1,0,1:2:0:0:
351,211,685749,6,0,L|263:201,1,85,10|0,0:2|0:0,0:0:0:0:
217,271,686110,2,0,L|301:280,1,85,2|0,1:2|1:2,0:0:0:0:
433,294,686472,6,0,B|415:116,1,170,6|0,1:2|0:0,0:0:0:0:
283,18,687195,2,0,B|265:187,1,170,2|12,1:2|0:2,0:0:0:0:
105,245,687918,2,0,L|97:160,1,85,2|8,1:2|0:2,0:0:0:0:
88,75,688279,1,0,1:2:0:0:
166,108,688460,1,2,1:2:0:0:
233,56,688641,6,0,L|318:48,1,85,8|0,0:2|0:0,0:0:0:0:
330,132,689002,2,0,L|245:140,1,85,2|0,1:2|0:0,0:0:0:0:
114,148,689363,6,0,P|191:141|212:237,1,170,6|0,1:2|0:0,0:0:0:0:
181,292,689906,1,0,1:2:0:0:
237,354,690086,2,0,L|335:345,1,85,10|0,0:2|0:0,0:0:0:0:
359,269,690448,1,10,0:2:0:0:
406,339,690629,1,2,0:2:0:0:
444,263,690809,6,0,L|435:164,1,85,2|8,1:2|0:2,0:0:0:0:
365,129,691171,2,0,L|357:213,1,85,2|0,0:0|1:2,0:0:0:0:
287,262,691532,2,0,L|279:177,1,85,10|0,0:2|0:0,0:0:0:0:
211,125,691894,2,0,L|203:209,1,85,2|0,1:2|1:2,0:0:0:0:
31,330,692255,6,0,B|126:353|91:270|186:295,2,170,6|0|0,1:2|0:0|1:2,0:0:0:0:
114,181,693339,2,0,P|184:175|152:248,1,170,14|0,0:2|1:0,0:0:0:0:
79,261,693882,1,8,0:2:0:0:
28,192,694062,2,0,P|14:154|23:111,1,85,0|0,1:2|1:2,0:0:0:0:
94,65,694424,2,0,P|129:144|100:228,1,170,10|0,0:2|1:2,0:0:0:0:
204,356,695147,6,0,B|278:349|278:349|280:346|280:346|381:337,2,170,6|0|2,1:2|0:0|1:2,0:0:0:0:
308,221,696231,2,0,B|331:316|248:281|273:376,1,170,14|0,0:2|1:0,0:0:0:0:
355,354,696773,1,8,0:2:0:0:
434,383,696954,2,0,L|424:290,1,85,0|0,1:2|1:2,0:0:0:0:
473,228,697315,2,0,L|388:218,1,85,10|0,0:2|1:2,0:0:0:0:
303,209,697677,1,10,0:2:0:0:
354,141,697857,1,8,0:2:0:0:
338,291,698038,6,0,B|245:280|245:280|244:278|244:278|156:268,1,170,6|0,1:2|0:0,0:0:0:0:
110,110,698761,2,0,P|189:119|219:202,1,170,2|12,1:2|0:2,0:0:0:0:
126,337,699484,2,0,L|41:346,1,85,0|8,1:2|0:2,0:0:0:0:
77,268,699845,1,0,1:2:0:0:
29,197,700026,1,2,1:2:0:0:
58,117,700207,2,0,L|48:32,1,85,8|0,0:2|1:0,0:0:0:0:
126,67,700568,1,2,1:2:0:0:
196,19,700749,1,0,1:2:0:0:
211,149,700930,6,0,B|276:156|276:156|306:182|306:182|370:189,1,170,6|0,1:2|0:0,0:0:0:0:
405,266,701472,1,0,1:2:0:0:
450,196,701653,2,0,B|469:158|469:158|455:115,1,85,8|0,0:2|0:0,0:0:0:0:
376,110,702014,2,0,B|357:148|357:148|371:191,1,85,4|0,0:2|0:0,0:0:0:0:
405,266,702376,5,0,1:2:0:0:
359,337,702556,1,8,0:2:0:0:
321,260,702737,2,0,L|216:250,1,85,0|0,1:2|1:2,0:0:0:0:
151,241,703098,2,0,L|159:325,1,85,8|0,0:2|0:0,0:0:0:0:
79,294,703460,1,8,0:2:0:0:
72,209,703641,1,8,0:2:0:0:
236,276,703821,6,0,B|331:299|296:215|391:241,2,170,6|0|2,1:2|0:0|1:2,0:0:0:0:
399,325,704906,2,0,L|415:155,1,170,14|0,0:2|1:2,0:0:0:0:
424,71,705448,1,8,0:2:0:0:
348,109,705629,2,0,L|250:119,1,85,2|0,1:2|1:2,0:0:0:0:
194,166,705990,2,0,L|185:81,1,85,8|0,0:2|0:0,0:0:0:0:
113,35,706351,2,0,L|104:120,1,85,2|0,1:2|0:0,0:0:0:0:
18,243,706713,6,0,P|87:210|157:261,1,170,6|0,1:2|0:0,0:0:0:0:
314,325,707436,2,0,L|323:240,1,85,2|0,1:2|0:0,0:0:0:0:
238,229,707797,2,0,L|229:314,1,85,14|0,0:2|0:0,0:0:0:0:
394,294,708159,5,0,1:2:0:0:
322,240,708339,1,8,0:2:0:0:
400,206,708520,1,0,1:2:0:0:
314,325,708701,1,2,1:2:0:0:
241,272,708882,6,0,L|149:262,1,85,10|0,0:2|1:2,0:0:0:0:
72,251,709243,1,8,0:2:0:0:
125,184,709424,1,8,0:2:0:0:
189,346,709604,5,6,1:2:0:0:
42,173,709966,1,0,0:2:0:0:
322,240,710327,1,0,1:2:0:0:
100,381,710689,2,0,L|108:293,1,85,4|0,0:2|0:0,0:0:0:0:
77,175,711050,6,0,L|172:186,1,85,0|8,1:2|0:0,0:0:0:0:
286,156,711412,2,0,L|275:251,1,85,0|0,1:2|1:2,0:0:0:0:
305,363,711773,2,0,L|210:352,1,85,8|0,0:2|1:2,0:0:0:0:
100,381,712135,2,0,L|108:293,1,85,6|2,0:2|0:0,0:0:0:0:
126,105,712496,5,10,1:2:0:0:
276,240,712677,1,0,0:0:0:0:
48,171,712857,1,8,1:2:0:0:
258,114,713038,1,0,0:0:0:0:
107,296,713219,1,10,1:2:0:0:
30,67,713400,1,0,0:0:0:0:
247,231,713580,1,10,1:2:0:0:
0,159,713761,1,0,0:0:0:0:
266,29,713942,6,0,L|256:123,1,85,8|0,1:2|0:0,0:0:0:0:
247,231,714303,1,8,1:2:0:0:
366,79,714484,1,8,0:0:0:0:
147,160,714665,1,10,1:2:0:0:
366,241,714845,1,8,0:0:0:0:
158,60,715026,1,8,1:2:0:0:
236,326,715207,1,8,0:0:0:0:
489,130,715388,6,0,B|425:137|425:137|395:163|395:163|321:171,2,170,6|0|0,1:2|0:0|1:2,0:0:0:0:
305,257,716472,2,0,L|286:86,1,170,14|0,0:2|1:2,0:0:0:0:
277,0,717014,1,8,0:2:0:0:
183,143,717195,2,0,P|148:159|98:149,1,85,0|0,1:2|1:2,0:0:0:0:
286,88,717556,6,0,L|296:182,1,85,10|0,0:2|0:0,0:0:0:0:
160,282,717918,2,0,L|151:197,1,85,2|0,1:2|0:0,0:0:0:0:
0,49,718279,6,0,P|65:0|139:34,2,170,6|0|0,1:2|0:0|1:2,0:0:0:0:
47,217,719363,2,0,B|89:212|89:212|92:214|92:214|137:210,1,85,14|0,0:2|0:0,0:0:0:0:
232,126,719725,5,2,1:2:0:0:
139,34,719906,1,8,0:2:0:0:
236,203,720086,2,0,P|277:194|305:159,1,85,0|0,1:2|1:2,0:0:0:0:
256,0,720448,5,10,0:2:0:0:
136,121,720629,1,0,1:2:0:0:
343,68,720809,1,8,0:2:0:0:
118,5,720990,1,8,0:2:0:0:
286,202,721171,6,0,B|381:225|346:141|441:167,2,170,6|0|0,1:2|0:0|1:2,0:0:0:0:
107,328,722255,2,0,B|114:252|114:252|116:251|116:251|126:146,1,170,14|0,0:2|1:0,0:0:0:0:
136,70,722797,1,8,0:2:0:0:
203,215,722978,2,0,L|194:315,1,85,0|0,1:2|1:2,0:0:0:0:
282,366,723339,6,0,L|373:374,1,85,10|0,0:2|0:0,0:0:0:0:
104,234,723701,2,0,L|19:226,1,85,2|0,1:2|0:0,0:0:0:0:
233,122,724062,6,0,P|301:104|294:178,1,170,6|0,1:2|0:0,0:0:0:0:
203,215,724604,1,0,1:2:0:0:
142,142,724785,2,0,P|130:103|146:61,1,85,8|0,0:2|0:0,0:0:0:0:
294,179,725147,2,0,P|306:218|290:260,1,85,6|0,0:2|0:0,0:0:0:0:
192,338,725508,5,2,1:2:0:0:
28,218,725689,2,0,L|112:225,1,85,8|0,0:2|0:0,0:0:0:0:
317,167,726050,1,0,1:2:0:0:
174,355,726231,5,8,0:2:0:0:
160,371,726592,1,0,1:2:0:0:
78,126,726773,1,0,1:2:0:0:
295,296,726954,6,0,B|359:303|359:303|389:329|389:329|463:337,2,170,6|0|0,1:2|0:0|1:2,0:0:0:0:
447,143,728038,2,0,P|516:120|483:196,1,170,12|0,0:2|1:2,0:0:0:0:
425,237,728580,1,0,0:2:0:0:
320,99,728761,6,0,L|331:3,1,85,2|0,1:2|1:2,0:0:0:0:
262,173,729123,2,0,L|173:211,1,85,10|0,0:2|0:0,0:0:0:0:
356,186,729484,2,0,L|433:243,1,85,2|0,1:2|0:0,0:0:0:0:
235,370,729845,6,0,B|258:278|168:307|195:216,2,170,6|0|0,1:2|0:0|1:2,0:0:0:0:
95,156,730930,2,0,P|120:119|163:108,1,85,14|0,0:2|0:0,0:0:0:0:
274,238,731291,5,2,1:2:0:0:
75,309,731472,1,8,0:2:0:0:
274,238,731653,2,0,P|318:241|349:272,1,85,0|0,1:2|1:2,0:0:0:0:
247,378,732014,5,12,0:2:0:0:
171,189,732195,1,0,1:2:0:0:
384,284,732376,1,0,1:2:0:0:
163,344,732556,1,0,1:2:0:0:
343,215,732737,6,0,P|410:208|463:287,2,170,6|0|0,1:2|0:0|1:2,0:0:0:0:
141,284,733821,2,0,L|130:188,1,85,14|0,0:2|0:0,0:0:0:0:
119,114,734183,5,2,1:2:0:0:
226,342,734363,2,0,L|237:243,1,85,8|0,0:2|1:2,0:0:0:0:
249,170,734725,1,2,1:2:0:0:
339,314,734906,2,0,L|330:229,1,85,8|0,0:2|0:0,0:0:0:0:
0,193,735267,2,0,B|51:198|51:198|53:200|53:200|143:208,1,127.5,2|0,1:2|0:0,0:0:0:0:
132,199,735629,5,6,1:2:0:0:
250,43,735809,2,0,P|216:68|199:106,1,85,8|0,0:2|0:0,0:0:0:0:
183,276,736171,1,2,1:2:0:0:
280,281,736351,2,0,P|274:236|243:200,1,85,8|0,0:2|1:2,0:0:0:0:
51,186,736713,2,0,P|91:203|138:195,1,85,12|0,0:2|0:0,0:0:0:0:
390,139,737074,6,0,L|305:130,1,85,6|0,1:2|0:0,0:0:0:0:
80,11,737436,2,0,L|181:0,1,85,8|0,0:2|0:0,0:0:0:0:
353,58,737797,5,8,0:2:0:0:
160,177,737978,1,0,1:2:0:0:
395,148,738159,1,0,1:2:0:0:
262,28,738339,1,0,1:2:0:0:
315,252,738520,6,0,B|445:238|445:238|458:219|477:211,2,170,6|0|0,1:2|0:0|1:2,0:0:0:0:
296,35,739604,2,0,P|378:25|421:116,1,170,14|0,0:2|1:2,0:0:0:0:
350,200,740147,1,8,0:2:0:0:
166,145,740327,2,0,L|263:135,1,85,0|0,1:2|1:2,0:0:0:0:
376,217,740689,6,0,P|393:257|383:299,1,85,10|0,0:2|0:0,0:0:0:0:
183,365,741050,2,0,P|166:325|176:283,1,85,2|0,1:2|0:0,0:0:0:0:
306,71,741412,6,0,B|299:135|299:135|273:165|273:165|265:239,2,170,14|0|0,1:2|0:0|1:2,0:0:0:0:
134,183,742496,2,0,L|49:175,1,85,14|0,0:2|0:0,0:0:0:0:
220,88,742857,5,2,1:2:0:0:
279,247,743038,1,8,0:2:0:0:
49,175,743219,1,0,1:2:0:0:
309,95,743400,1,0,1:2:0:0:
126,267,743580,6,0,L|133:182,1,85,6|0,0:2|0:0,0:0:0:0:
68,3,743942,2,0,L|60:87,1,85,2|0,1:2|0:0,0:0:0:0:
228,238,744303,6,0,B|292:231|292:231|322:204|322:204|396:197,2,170,6|0|2,1:2|0:0|1:2,0:0:0:0:
445,302,745388,2,0,B|438:243|438:243|440:241|440:241|426:120,1,170,14|0,0:2|1:2,0:0:0:0:
308,11,745930,1,8,0:2:0:0:
508,79,746110,1,0,1:2:0:0:
254,145,746291,1,0,1:2:0:0:
416,8,746472,6,0,L|423:92,1,85,10|0,0:2|0:0,0:0:0:0:
358,272,746833,2,0,L|350:187,1,85,2|0,1:2|0:0,0:0:0:0:
256,15,747195,5,6,1:2:0:0:
189,124,747376,2,0,L|104:116,1,85,8|0,0:2|1:2,0:0:0:0:
256,15,747737,1,0,1:2:0:0:
335,167,747918,2,0,L|419:159,1,85,8|0,0:2|1:2,0:0:0:0:
140,222,748279,2,0,L|55:214,1,85,6|0,0:0|0:0,0:0:0:0:
256,364,748641,6,0,B|249:305|249:305|251:303|251:303|238:195,1,170,6|8,1:2|0:2,0:0:0:0:
238,195,749363,1,8,0:2:0:0:
363,279,749544,1,0,1:2:0:0:
132,228,749725,1,0,1:2:0:0:
356,155,749906,1,0,1:2:0:0:
198,355,750086,6,0,B|106:378|135:288|44:315,2,170,6|0|0,1:2|0:0|1:2,0:0:0:0:
145,141,751171,2,0,P|71:120|94:198,1,170,12|0,0:2|1:2,0:0:0:0:
176,270,751713,1,8,0:2:0:0:
366,175,751894,6,0,L|281:183,1,85,2|0,1:2|1:2,0:0:0:0:
91,277,752255,2,0,L|176:269,1,85,14|0,0:2|0:0,0:0:0:0:
346,349,752616,2,0,L|261:357,1,85,2|0,1:2|0:0,0:0:0:0:
201,181,752978,6,0,P|228:119|323:113,2,170,6|0|0,1:2|0:0|1:2,0:0:0:0:
314,310,754062,2,0,P|356:306|382:275,1,85,14|0,0:2|0:0,0:0:0:0:
418,87,754424,5,2,1:2:0:0:
299,210,754604,1,0,0:2:0:0:
506,160,754785,1,0,1:2:0:0:
295,56,754966,1,0,1:2:0:0:
382,274,755147,5,8,0:2:0:0:
505,8,755508,1,0,1:2:0:0:
158,172,755869,6,0,B|174:165|187:146|187:146|317:132,2,170,6|0|0,1:2|0:0|1:2,0:0:0:0:
28,236,756773,1,2,0:2:0:0:
100,102,756954,2,0,L|113:234,1,127.5,14|0,0:2|0:0,0:0:0:0:
118,235,757315,6,0,L|22:243,1,85,2|8,1:2|0:2,0:0:0:0:
202,148,757677,1,0,1:2:0:0:
168,335,757857,2,0,L|83:327,1,85,2|8,1:2|0:2,0:0:0:0:
208,142,758219,1,2,0:0:0:0:
351,240,758400,2,0,L|214:253,1,127.5,2|0,1:2|0:0,0:0:0:0:
220,259,758761,5,8,1:2:0:0:
445,130,759123,5,0,1:2:0:0:
299,347,759484,5,0,1:2:0:0:
175,80,759845,5,8,1:2:0:0:
473,235,760207,5,8,1:2:0:0:
136,272,760568,5,8,1:2:0:0:
288,157,760749,1,8,0:2:0:0:
213,359,760930,1,8,1:2:0:0:
80,193,761110,1,8,0:2:0:0:
319,277,761291,1,8,1:2:0:0:
50,339,761472,1,8,0:2:0:0:
273,171,761653,6,0,B|365:148|336:238|427:211,1,170,6|0,1:2|0:0,0:0:0:0:
371,52,762376,1,0,1:2:0:0:
182,236,762737,6,0,B|241:229|241:229|243:231|243:231|364:217,1,170,14|0,0:2|1:0,0:0:0:0:
435,207,763279,1,8,0:2:0:0:
301,311,763460,2,0,L|249:317,2,42.5,2|2|2,1:2|0:2|1:2,0:0:0:0:
374,53,763821,6,0,L|384:140,1,85,10|0,0:2|0:0,0:0:0:0:
475,359,764183,2,0,L|484:274,1,85,2|0,1:2|0:0,0:0:0:0:
297,148,764544,6,0,B|233:155|233:155|203:182|203:182|129:189,1,170,6|0,1:2|0:0,0:0:0:0:
283,270,765267,1,0,1:2:0:0:
49,69,765629,6,0,L|59:156,1,85,14|0,0:2|0:0,0:0:0:0:
70,240,765990,1,2,1:2:0:0:
158,19,766171,2,0,L|148:106,1,85,8|0,0:2|1:2,0:0:0:0:
138,188,766532,1,0,1:2:0:0:
335,59,766713,2,0,L|248:69,1,85,10|2,0:2|0:2,0:0:0:0:
245,74,766984,1,2,0:2:0:0:
239,80,767074,1,2,1:2:0:0:
305,155,767255,1,0,1:2:0:0:
460,0,767436,6,0,B|453:59|453:59|455:61|455:61|441:182,1,170,6|0,1:2|0:0,0:0:0:0:
420,334,768159,1,0,1:2:0:0:
308,55,768520,6,0,P|337:29|343:118,1,170,14|0,0:2|1:2,0:0:0:0:
296,143,769062,1,8,0:2:0:0:
235,2,769243,1,0,1:2:0:0:
431,89,769424,1,0,1:2:0:0:
215,175,769604,6,0,B|203:135|203:135|222:92,1,85,10|0,0:2|0:0,0:0:0:0:
438,119,769966,2,0,B|450:159|450:159|431:202,1,85,2|0,1:2|0:0,0:0:0:0:
310,320,770327,6,0,B|329:139,1,170,6|0,1:2|0:0,0:0:0:0:
338,66,770869,1,0,1:2:0:0:
420,236,771050,2,0,L|543:248,1,85,8|0,0:2|0:0,0:0:0:0:
221,217,771412,2,0,L|98:205,1,85,6|0,0:2|0:0,0:0:0:0:
416,116,771773,5,2,1:2:0:0:
310,320,771954,1,8,0:2:0:0:
301,336,772315,1,0,1:2:0:0:
256,64,772496,5,8,0:2:0:0:
413,252,772677,1,2,0:2:0:0:
413,252,772767,1,2,0:2:0:0:
413,252,772857,1,8,0:2:0:0:
190,178,773038,1,8,0:2:0:0:
469,71,773219,6,0,B|492:163|402:134|429:225,1,170,6|0,1:2|0:0,0:0:0:0:
357,64,773942,1,0,1:2:0:0:
481,282,774303,6,0,B|300:262,1,170,12|0,0:2|1:2,0:0:0:0:
227,254,774845,1,8,0:2:0:0:
291,96,775026,6,0,L|281:188,1,85,2|0,1:2|1:2,0:0:0:0:
149,288,775388,2,0,L|233:250,1,85,10|0,0:2|0:0,0:0:0:0:
387,314,775749,2,0,L|312:259,1,85,2|0,1:2|0:0,0:0:0:0:
42,130,776110,6,0,B|134:107|105:197|196:170,1,170,6|0,1:2|0:0,0:0:0:0:
122,20,776833,1,0,1:2:0:0:
237,239,777195,6,0,B|254:71,1,127.5,14|0,0:2|0:0,0:0:0:0:
257,108,777556,1,2,1:2:0:0:
350,194,777737,1,0,0:2:0:0:
162,128,777918,1,0,1:2:0:0:
354,92,778098,1,0,1:2:0:0:
237,321,778279,6,0,L|245:236,1,85,8|0,0:2|0:0,0:0:0:0:
257,108,778641,1,0,1:2:0:0:
343,295,778821,1,0,1:2:0:0:
93,193,779002,6,0,B|157:200|157:200|187:227|187:227|261:234,1,170,6|0,1:2|0:0,0:0:0:0:
347,252,779544,1,2,0:2:0:0:
347,252,779635,1,2,0:2:0:0:
347,252,779725,1,2,1:2:0:0:
224,132,779906,1,0,0:0:0:0:
310,342,780086,2,0,L|394:335,1,85,14|0,0:2|0:0,0:0:0:0:
480,328,780448,5,2,1:2:0:0:
262,245,780629,2,0,L|346:251,1,85,10|0,0:2|0:0,0:0:0:0:
432,260,780990,1,2,1:2:0:0:
319,81,781171,6,0,B|298:117|298:117|311:167,1,85,14|0,0:0|0:0,0:0:0:0:
501,176,781532,2,0,B|522:140|522:140|509:90,1,85,10|0,0:2|0:0,0:0:0:0:
427,0,781894,5,6,1:2:0:0:
402,254,782074,1,8,0:2:0:0:
399,273,782436,1,2,1:2:0:0:
313,73,782616,5,10,0:2:0:0:
501,176,782797,1,0,1:2:0:0:
256,252,782978,2,0,L|262:167,1,85,14|0,0:2|0:0,0:0:0:0:
387,132,783339,6,0,P|397:177|379:216,1,85,4|0,1:2|0:0,0:0:0:0:
129,194,783701,2,0,P|119:149|137:110,1,85,8|0,0:2|0:0,0:0:0:0:
276,19,784062,5,8,0:0:0:0:
382,211,784243,1,0,1:2:0:0:
148,120,784424,1,0,1:2:0:0:
369,47,784604,1,8,1:2:0:0:
226,264,784785,6,0,B|96:250|96:250|83:231|66:224,1,170,6|0,1:2|0:0,0:0:0:0:
130,380,785508,1,0,1:2:0:0:
224,175,785869,6,0,P|167:133|163:210,1,170,14|0,0:2|1:2,0:0:0:0:
226,264,786412,1,8,0:2:0:0:
69,247,786592,2,2,L|21:242,2,42.5,2|2|2,1:2|0:2|1:2,0:2:0:0:
299,314,786954,6,0,L|306:229,1,85,14|0,0:2|0:0,0:0:0:0:
207,63,787316,2,0,L|199:147,1,85,2|0,1:2|0:0,0:0:0:0:
33,293,787677,6,0,B|125:316|96:226|187:253,1,170,6|0,1:2|0:0,0:0:0:0:
72,123,788400,1,0,1:2:0:0:
168,329,788761,2,0,L|252:337,1,85,14|0,0:2|0:0,0:0:0:0:
270,167,789123,5,2,1:2:0:0:
77,257,789303,1,8,0:2:0:0:
328,384,789484,2,0,B|349:348|349:348|336:298,1,85,0|0,1:2|1:2,0:0:0:0:
177,162,789845,5,10,0:2:0:0:
252,337,790026,1,2,0:2:0:0:
252,337,790116,1,2,0:2:0:0:
252,337,790207,1,2,1:2:0:0:
351,121,790388,1,0,0:0:0:0:
111,281,790568,6,0,B|175:274|175:274|205:247|205:247|279:240,1,170,6|0,1:2|0:0,0:0:0:0:
437,222,791291,1,0,1:2:0:0:
311,342,791653,6,0,B|304:283|304:283|306:281|306:281|292:160,1,170,14|0,0:2|1:2,0:0:0:0:
284,87,792195,1,8,0:2:0:0:
437,222,792376,1,0,1:2:0:0:
198,144,792556,1,0,1:2:0:0:
434,115,792737,6,0,B|455:151|455:151|442:201,1,85,10|0,0:2|0:0,0:0:0:0:
208,221,793098,2,0,B|187:185|187:185|197:143,1,85,2|0,1:2|0:0,0:0:0:0:
305,5,793460,5,6,1:2:0:0:
332,256,793641,2,0,L|320:148,1,85,8|0,0:2|0:0,0:0:0:0:
313,88,794002,1,0,1:2:0:0:
228,307,794183,2,0,L|240:199,1,85,8|0,0:2|0:0,0:0:0:0:
166,80,794544,2,0,L|156:164,1,85,6|0,0:2|0:0,0:0:0:0:
323,359,794906,6,0,B|330:300|330:300|328:298|328:298|342:177,1,170,2|8,1:2|0:2,0:0:0:0:
340,190,795629,1,8,0:2:0:0:
437,295,795809,1,2,1:2:0:0:
437,295,795900,1,2,0:2:0:0:
437,295,795990,1,2,1:2:0:0:
237,222,796171,1,0,1:2:0:0:
512,133,796351,6,0,B|420:110|449:200|358:173,1,170,6|0,1:2|0:0,0:0:0:0:
277,135,796894,1,0,0:0:0:0:
412,35,797074,1,0,1:2:0:0:
434,206,797255,1,0,0:0:0:0:
305,37,797436,1,12,0:2:0:0:
479,112,797616,1,0,0:0:0:0:
331,230,797797,6,0,L|223:242,1,85,0|8,1:2|0:2,0:2:0:0:
108,140,798159,2,0,L|158:208,1,85,2|0,1:2|1:2,0:0:0:0:
141,377,798520,2,0,L|184:277,1,85,10|0,0:2|0:0,0:0:0:0:
331,230,798882,2,0,L|223:242,1,85,2|0,1:2|0:0,0:0:0:0:
35,106,799243,6,0,B|99:97|99:97|134:116|134:116|205:107,1,170,6|0,1:2|0:0,0:0:0:0:
63,0,799966,1,0,1:2:0:0:
37,216,800327,2,0,P|84:210|130:142,1,127.5,14|0,0:2|0:0,0:0:0:0:
124,143,800689,5,2,1:2:0:0:
17,80,800869,1,8,0:2:0:0:
124,307,801050,2,0,P|151:275|191:264,1,85,0|0,1:2|1:2,0:0:0:0:
410,181,801412,6,0,B|318:204|347:114|256:141,1,170,10|2,0:2|1:2,0:0:0:0:
251,146,801863,1,2,0:2:0:0:
245,151,801954,1,2,0:2:0:0:
312,354,802135,6,0,B|319:295|319:295|317:293|317:293|331:172,1,170,6|0,1:2|0:0,0:0:0:0:
347,102,802677,1,2,1:2:0:0:
347,102,802767,1,2,0:2:0:0:
347,102,802857,1,8,0:2:0:0:
467,153,803038,1,0,0:0:0:0:
242,220,803219,2,0,P|231:178|250:136,1,85,14|0,0:2|0:0,0:0:0:0:
475,68,803580,6,0,L|464:175,1,85,2|8,1:2|0:2,0:0:0:0:
458,241,803942,1,0,0:0:0:0:
370,15,804123,2,0,L|381:122,1,85,2|8,1:2|0:2,0:0:0:0:
395,191,804484,1,2,0:2:0:0:
395,191,804574,1,2,0:2:0:0:
395,191,804665,2,0,B|332:198|332:198|330:196|330:196|257:204,1,127.5,2|0,0:0|0:0,0:0:0:0:
265,210,805026,5,0,1:2:0:0:
61,56,805388,5,0,1:2:0:0:
339,149,805749,5,0,1:2:0:0:
51,238,806110,5,8,1:2:0:0:
284,1,806472,5,8,1:2:0:0:
188,328,806833,5,8,1:2:0:0:
125,150,807014,1,8,0:0:0:0:
303,274,807195,1,8,1:2:0:0:
72,235,807376,1,8,0:0:0:0:
275,114,807556,1,8,1:2:0:0:
182,352,807737,1,8,0:0:0:0:
6,141,807918,6,0,B|65:134|65:134|67:136|67:136|188:122,1,170,6|0,1:2|0:0,0:0:0:0:
72,0,808641,1,0,1:2:0:0:
93,225,809002,6,0,B|109:231|122:250|122:250|252:264,1,170,14|0,0:2|1:2,0:0:0:0:
342,277,809544,1,8,0:2:0:0:
183,343,809725,2,2,L|122:338,2,42.5,2|2|2,1:2|0:2|1:2,0:2:0:0:
318,114,810086,6,0,L|309:198,1,85,10|0,0:2|0:0,0:0:0:0:
437,373,810448,2,0,L|428:288,1,85,2|0,1:2|0:0,0:0:0:0:
497,144,810809,6,0,L|324:163,1,170,6|0,1:2|0:0,0:0:0:0:
404,13,811532,1,0,1:2:0:0:
247,212,811894,6,0,L|238:127,1,85,14|0,0:2|0:0,0:0:0:0:
229,42,812255,1,2,1:2:0:0:
170,259,812436,2,0,L|161:174,1,85,8|0,0:2|1:2,0:0:0:0:
152,91,812797,1,0,1:2:0:0:
0,218,812978,2,2,L|84:226,1,85,10|2,0:2|0:2,0:2:0:0:
88,234,813249,1,2,0:2:0:0:
93,241,813339,1,8,0:2:0:0:
51,123,813520,1,8,0:2:0:0:
71,337,813701,6,0,B|135:330|135:330|165:303|165:303|239:296,1,170,6|0,1:2|0:0,0:0:0:0:
381,363,814424,1,0,1:2:0:0:
204,211,814785,6,0,P|136:191|158:264,1,170,14|0,0:2|1:2,0:0:0:0:
229,296,815327,1,8,0:2:0:0:
299,143,815508,1,0,1:2:0:0:
102,241,815689,1,0,1:2:0:0:
317,327,815869,6,0,L|309:240,1,85,10|0,0:2|0:0,0:0:0:0:
188,67,816231,2,0,L|195:151,1,85,2|0,1:2|0:0,0:0:0:0:
59,324,816592,6,0,B|151:347|122:257|213:284,1,170,6|0,1:2|0:0,0:0:0:0:
297,322,817135,1,0,1:2:0:0:
466,134,817315,2,0,P|481:170|473:219,1,85,8|0,0:2|0:0,0:0:0:0:
290,233,817677,2,0,P|275:197|283:148,1,85,14|0,0:2|0:0,0:0:0:0:
466,134,818038,5,2,1:2:0:0:
395,345,818219,2,0,L|388:261,1,85,8|0,0:2|0:0,0:0:0:0:
374,93,818580,1,0,1:2:0:0:
480,300,818761,5,12,0:2:0:0:
272,211,818942,1,2,0:2:0:0:
272,211,819032,1,2,0:2:0:0:
272,211,819123,1,2,1:2:0:0:
508,120,819303,1,0,1:2:0:0:
336,338,819484,6,0,B|272:331|272:331|242:304|242:304|168:297,1,170,6|0,1:2|0:0,0:0:0:0:
87,290,820026,1,0,0:0:0:0:
222,184,820207,1,0,1:2:0:0:
65,116,820388,1,0,0:0:0:0:
195,281,820568,1,12,0:2:0:0:
171,93,820749,1,0,0:0:0:0:
22,211,820930,6,0,L|118:200,1,85,2|8,1:2|0:2,0:0:0:0:
239,310,821291,2,0,L|181:232,1,85,2|0,1:2|1:2,0:0:0:0:
217,73,821653,2,0,L|178:161,1,85,10|0,0:2|0:0,0:0:0:0:
22,211,822014,2,0,L|118:200,1,85,2|0,1:2|0:0,0:0:0:0:
300,31,822376,6,0,L|127:50,1,170,6|0,1:2|0:0,0:0:0:0:
0,59,823098,1,0,1:2:0:0:
222,0,823460,2,0,L|211:84,1,85,14|0,0:2|0:0,0:0:0:0:
200,173,823821,5,2,1:2:0:0:
314,52,824002,2,0,L|324:136,1,85,10|0,0:2|1:2,0:0:0:0:
333,224,824363,1,0,1:2:0:0:
423,0,824544,2,0,L|412:84,1,85,10|0,0:2|0:0,0:0:0:0:
402,173,824906,1,0,1:2:0:0:
211,84,825086,1,0,0:0:0:0:
486,183,825267,6,0,B|394:160|423:250|332:223,1,170,6|0,1:2|0:0,0:0:0:0:
268,173,825809,1,2,1:2:0:0:
268,173,825900,1,2,0:2:0:0:
268,173,825990,1,8,0:2:0:0:
412,84,826171,1,0,0:0:0:0:
367,333,826351,2,0,L|356:248,1,85,6|0,0:2|0:0,0:0:0:0:
347,164,826713,5,2,1:2:0:0:
260,384,826894,2,0,L|270:299,1,85,10|0,0:2|0:2,0:0:0:0:
280,214,827255,1,2,1:2:0:0:
174,332,827436,2,0,L|163:247,1,85,10|0,0:2|0:0,0:0:0:0:
290,129,827797,2,0,L|279:213,1,85,2|0,0:2|1:2,0:0:0:0:
83,308,828159,5,6,1:2:0:0:
124,79,828339,1,8,0:2:0:0:
128,61,828701,1,2,1:2:0:0:
279,213,828882,5,10,0:2:0:0:
42,113,829062,1,0,0:0:0:0:
310,32,829243,2,0,B|325:71|325:71|303:120,1,85,12|0,0:2|0:0,0:0:0:0:
201,238,829604,5,0,1:2:0:0:
222,61,829785,2,0,L|211:145,1,85,10|0,0:2|0:0,0:0:0:0:
133,181,830147,1,0,1:2:0:0:
305,9,830327,2,0,L|315:93,1,85,6|0,0:0|0:0,0:0:0:0:
326,181,830689,1,0,1:2:0:0:
140,98,830869,1,0,1:2:0:0:
423,34,831050,5,6,1:2:0:0:
256,192,831141,12,0,842616,0:2:0:0:
