osu file format v14

[General]
AudioFilename: audio.mp3
AudioLeadIn: 0
PreviewTime: 32972
Countdown: 0
SampleSet: Soft
StackLeniency: 0.5
Mode: 0
LetterboxInBreaks: 0
WidescreenStoryboard: 1

[Editor]
DistanceSpacing: 1.6
BeatDivisor: 4
GridSize: 32
TimelineZoom: 1.8

[Metadata]
Title:Walking In Style
TitleUnicode:Walking In Style
Artist:G4lvatron
ArtistUnicode:G4lvatron
Creator:FinnaDie
Version:Lustre
Source:
Tags:electronic classical instrumental piano chills galvatron lustre luster geometry dash gd gmd newgrounds
BeatmapID:3367978
BeatmapSetID:1650085

[Difficulty]
HPDrainRate:5.2
CircleSize:4.8
OverallDifficulty:8.8
ApproachRate:9.5
SliderMultiplier:1.8
SliderTickRate:1

[Events]
//Background and Video events
0,0,"peakpx.jpg",0,0
//Break Periods
//Storyboard Layer 0 (Background)
//Storyboard Layer 1 (Fail)
//Storyboard Layer 2 (Pass)
//Storyboard Layer 3 (Foreground)
//Storyboard Layer 4 (Overlay)
//Storyboard Sound Samples

[TimingPoints]
19,375,4,2,1,35,1,0
19,-125,4,2,1,35,0,0
112,-125,4,2,1,5,0,0
206,-125,4,2,1,35,0,0
1612,-125,4,2,1,5,0,0
1706,-125,4,2,1,35,0,0
9019,-83.3333333333333,4,2,1,55,0,1
21019,-100,4,2,1,50,0,0
33019,-83.3333333333333,4,2,1,55,0,1
45019,-250,4,2,1,20,0,0
46519,-200,4,2,1,25,0,0
48019,-166.666666666667,4,2,1,30,0,0
49519,-142.857142857143,4,2,1,35,0,0
51019,-125,4,2,1,40,0,0
52519,-111.111111111111,4,2,1,45,0,0
54019,-100,4,2,1,50,0,0
55519,-90.9090909090909,4,2,1,55,0,0
57019,-83.3333333333333,4,2,1,55,0,1
71925,-83.3333333333333,4,2,1,55,0,0
72019,-83.3333333333333,4,2,1,55,0,1
72112,-125,4,2,1,35,0,0
73519,-125,4,2,1,55,0,1
73612,-125,4,2,1,35,0,0
75019,-125,4,2,1,55,0,1
75112,-125,4,2,1,35,0,0

[Colours]
Combo1 : 255,255,111
Combo2 : 98,98,255
Combo3 : 255,169,83
Combo4 : 176,98,255

[HitObjects]
306,352,19,6,0,L|341:356,1,36,2|0,1:2|0:0,0:0:0:0:
407,314,206,1,2,0:0:0:0:
481,347,581,1,10,0:0:0:0:
481,347,769,2,0,P|445:343|415:324,1,72,2|0,1:2|0:0,0:0:0:0:
346,185,1144,2,0,P|360:216|358:252,1,72,2|0,0:0|0:0,0:0:0:0:
341,356,1519,6,0,L|306:352,1,36,2|0,1:2|0:0,0:0:0:0:
247,299,1706,1,2,0:0:0:0:
173,334,2081,1,10,0:0:0:0:
173,334,2269,2,0,P|208:330|238:311,1,72,2|0,1:2|0:0,0:0:0:0:
277,137,2644,2,0,P|262:168|264:204,1,72,2|0,0:0|0:0,0:0:0:0:
346,281,3019,1,2,1:2:0:0:
471,198,3206,5,10,0:0:0:0:
464,176,3300,1,2,0:0:0:0:
442,171,3394,1,2,0:0:0:0:
427,187,3487,1,2,0:0:0:0:
434,208,3581,1,10,0:0:0:0:
455,212,3675,1,2,0:0:0:0:
448,192,3769,1,2,1:2:0:0:
277,137,3956,5,10,0:0:0:0:
283,115,4050,1,2,0:0:0:0:
305,110,4144,1,2,0:0:0:0:
320,126,4237,1,2,0:0:0:0:
313,147,4331,1,10,0:0:0:0:
292,151,4425,1,2,0:0:0:0:
293,129,4519,1,2,1:2:0:0:
499,39,4706,5,10,0:0:0:0:
492,17,4800,1,2,0:0:0:0:
470,12,4894,1,2,0:0:0:0:
454,27,4987,1,2,0:0:0:0:
461,49,5081,1,10,0:0:0:0:
483,53,5175,1,2,0:0:0:0:
472,27,5269,5,2,1:2:0:0:
441,9,5362,1,2,0:0:0:0:
405,19,5456,1,10,0:0:0:0:
386,49,5550,1,2,0:0:0:0:
393,84,5644,5,2,0:0:0:0:
367,36,5737,1,2,0:0:0:0:
317,13,5831,1,10,0:0:0:0:
264,26,5925,1,2,0:0:0:0:
59,306,6206,5,10,0:0:0:0:
65,284,6300,1,2,0:0:0:0:
87,279,6394,1,2,0:0:0:0:
102,295,6487,1,2,0:0:0:0:
95,316,6581,1,10,0:0:0:0:
74,320,6675,1,2,0:0:0:0:
81,300,6769,1,2,1:2:0:0:
272,234,6956,5,10,0:0:0:0:
265,212,7050,1,2,0:0:0:0:
243,207,7144,1,2,0:0:0:0:
228,223,7237,1,2,0:0:0:0:
235,244,7331,1,10,0:0:0:0:
256,248,7425,1,2,0:0:0:0:
249,228,7519,1,2,1:2:0:0:
83,59,7706,5,10,0:0:0:0:
89,37,7800,1,2,0:0:0:0:
111,32,7894,1,2,0:0:0:0:
126,48,7987,1,2,0:0:0:0:
119,69,8081,1,10,0:0:0:0:
98,73,8175,1,2,0:0:0:0:
67,97,8269,5,2,1:2:0:0:
56,139,8362,1,2,0:0:0:0:
78,179,8456,1,10,0:0:0:0:
126,193,8550,1,2,0:0:0:0:
172,170,8644,5,6,0:0:0:0:
105,158,8737,1,2,0:0:0:0:
51,200,8831,1,10,0:0:0:0:
47,268,8925,1,2,0:0:0:0:
95,316,9019,6,0,B|110:295|142:293|142:293|191:315,1,107.999996704102,6|10,1:2|0:0,0:0:0:0:
206,322,9300,1,2,0:0:0:0:
220,329,9394,1,2,0:0:0:0:
354,247,9581,1,10,0:0:0:0:
338,250,9675,1,2,0:0:0:0:
323,253,9769,6,0,L|270:263,1,53.9999983520508,2|0,1:2|0:0,0:0:0:0:
302,338,9956,2,0,B|315:361|315:361|319:334,1,53.9999983520508,2|0,0:0|0:0,0:0:0:0:
410,198,10144,2,0,B|434:188|434:188|421:211,1,53.9999983520508,2|0,1:2|0:0,0:0:0:0:
220,329,10331,1,2,0:0:0:0:
188,254,10425,1,2,0:0:0:0:
237,188,10519,6,0,B|246:135|246:135|272:181,1,107.999996704102,2|10,1:2|0:0,0:0:0:0:
124,136,10800,1,2,0:0:0:0:
124,136,10894,2,0,B|150:88|150:88|159:141,1,107.999996704102,2|10,0:0|0:0,0:0:0:0:
260,56,11175,1,2,0:0:0:0:
260,56,11269,2,0,B|234:8|234:8|225:61,1,107.999996704102,2|0,1:2|0:0,0:0:0:0:
16,218,11644,6,0,B|55:201|55:201|93:206|99:242,1,107.999996704102,6|2,0:0|0:0,0:0:0:0:
104,257,11925,1,2,0:0:0:0:
108,272,12019,1,6,1:2:0:0:
304,253,12206,5,10,0:0:0:0:
319,250,12300,1,2,0:0:0:0:
333,248,12394,2,0,L|323:301,1,53.9999983520508,2|0,0:0|0:0,0:0:0:0:
254,359,12581,2,0,L|244:306,1,53.9999983520508,10|0,0:0|0:0,0:0:0:0:
230,296,12769,2,0,L|240:349,1,53.9999983520508,2|0,1:2|0:0,0:0:0:0:
334,312,12956,2,0,L|344:259,1,53.9999983520508,2|0,0:0|0:0,0:0:0:0:
354,271,13144,2,0,L|344:324,1,53.9999983520508,2|0,1:2|0:0,0:0:0:0:
267,368,13331,2,0,L|257:315,1,53.9999983520508,2|0,0:0|0:0,0:0:0:0:
149,218,13519,5,2,1:2:0:0:
172,296,13706,1,10,0:0:0:0:
150,301,13800,1,2,0:0:0:0:
128,299,13894,1,2,0:0:0:0:
125,309,13987,5,2,0:0:0:0:
112,344,14081,1,10,0:0:0:0:
84,317,14175,1,2,0:0:0:0:
91,309,14269,1,2,1:2:0:0:
77,262,14362,1,2,0:0:0:0:
29,252,14456,1,2,0:0:0:0:
22,260,14550,5,2,0:0:0:0:
66,192,14644,1,2,1:2:0:0:
37,116,14737,1,2,0:0:0:0:
26,112,14831,1,2,0:0:0:0:
74,119,14925,1,2,0:0:0:0:
116,95,15019,6,0,B|155:78|155:78|193:83|199:119,1,107.999996704102,6|10,1:2|0:0,0:0:0:0:
198,135,15300,1,2,0:0:0:0:
195,151,15394,1,2,0:0:0:0:
59,41,15581,1,10,0:0:0:0:
213,12,15769,6,0,L|266:22,1,53.9999983520508,2|0,1:2|0:0,0:0:0:0:
399,140,15956,2,0,B|401:151|395:165|395:165|393:153|377:143,1,53.9999983520508,2|0,0:0|0:0,0:0:0:0:
276,108,16144,2,0,B|285:100|299:98|299:98|290:106|290:124,1,53.9999983520508,2|0,1:2|0:0,0:0:0:0:
313,231,16331,2,0,B|301:226|293:215|293:215|304:219|320:210,1,53.9999983520508,2|0,0:0|0:0,0:0:0:0:
475,95,16519,6,0,P|438:56|385:55,1,107.999996704102,2|10,1:2|0:0,0:0:0:0:
223,173,16800,1,2,0:0:0:0:
223,173,16894,2,0,B|203:195|204:222|204:222|197:196|172:181,1,107.999996704102,2|10,0:0|0:0,0:0:0:0:
374,285,17175,1,2,0:0:0:0:
374,285,17269,2,0,B|394:263|393:236|393:236|400:262|426:278,1,107.999996704102,2|0,1:2|0:0,0:0:0:0:
120,258,17644,6,0,B|141:273|143:305|143:305|121:354,1,107.999996704102,6|2,0:0|0:0,0:0:0:0:
114,369,17925,1,2,0:0:0:0:
107,383,18019,1,6,1:2:0:0:
327,214,18206,5,10,0:0:0:0:
342,213,18300,1,2,0:0:0:0:
358,212,18394,2,0,L|348:159,1,53.9999983520508,2|0,0:0|0:0,0:0:0:0:
279,101,18581,2,0,L|269:154,1,53.9999983520508,10|0,0:0|0:0,0:0:0:0:
255,164,18769,2,0,L|265:111,1,53.9999983520508,2|0,1:2|0:0,0:0:0:0:
359,148,18956,2,0,L|369:201,1,53.9999983520508,2|0,0:0|0:0,0:0:0:0:
432,290,19144,2,0,L|442:237,1,53.9999983520508,2|0,1:2|0:0,0:0:0:0:
390,277,19331,2,0,L|400:330,1,53.9999983520508,2|0,0:0|0:0,0:0:0:0:
434,368,19519,6,0,B|419:347|387:345|387:345|338:367,1,107.999996704102,2|10,1:2|0:0,0:0:0:0:
324,375,19800,1,2,0:0:0:0:
310,383,19894,1,2,0:0:0:0:
133,295,20081,1,10,0:0:0:0:
199,341,20269,2,0,B|224:356|231:382|231:382|230:355|249:333,1,107.999996704102,2|0,1:2|0:0,0:0:0:0:
91,228,20644,2,0,B|66:243|59:269|59:269|60:242|40:219,1,107.999996704102,6|0,0:0|0:0,0:0:0:0:
26,211,20925,1,2,0:0:0:0:
9,212,21019,5,6,1:2:0:0:
52,298,21206,1,10,0:0:0:0:
167,318,21394,1,2,0:0:0:0:
239,226,21581,1,10,0:0:0:0:
239,226,21675,1,2,0:0:0:0:
94,60,21862,1,2,0:0:0:0:
94,60,21956,1,10,0:0:0:0:
166,143,22144,1,2,0:0:0:0:
190,149,22237,1,2,0:0:0:0:
214,138,22331,1,10,0:0:0:0:
371,38,22519,5,6,1:2:0:0:
309,114,22706,1,10,0:0:0:0:
362,238,22894,1,2,0:0:0:0:
471,225,23081,1,10,0:0:0:0:
471,225,23175,1,2,0:0:0:0:
305,330,23362,1,2,0:0:0:0:
305,330,23456,1,10,0:0:0:0:
222,239,23644,1,2,0:0:0:0:
198,228,23737,1,2,0:0:0:0:
174,234,23831,1,10,0:0:0:0:
79,367,24019,5,6,1:2:0:0:
190,311,24206,1,10,0:0:0:0:
205,148,24394,1,2,0:0:0:0:
90,64,24581,1,10,0:0:0:0:
60,74,24675,1,2,0:0:0:0:
60,106,24769,1,2,0:0:0:0:
90,115,24862,1,2,0:0:0:0:
108,90,24956,5,10,0:0:0:0:
276,9,25144,1,2,0:0:0:0:
306,18,25237,1,2,0:0:0:0:
306,50,25331,1,10,0:0:0:0:
276,60,25425,1,2,0:0:0:0:
258,34,25519,5,6,1:2:0:0:
164,12,25706,1,10,0:0:0:0:
108,90,25894,1,2,0:0:0:0:
239,183,26081,1,10,0:0:0:0:
269,173,26175,1,2,0:0:0:0:
269,141,26269,1,2,0:0:0:0:
239,132,26362,1,2,0:0:0:0:
221,157,26456,5,10,0:0:0:0:
63,241,26644,1,2,0:0:0:0:
33,232,26737,1,2,0:0:0:0:
33,200,26831,1,10,0:0:0:0:
63,190,26925,1,2,0:0:0:0:
81,216,27019,5,6,1:2:0:0:
175,276,27206,1,10,0:0:0:0:
328,228,27394,1,2,0:0:0:0:
385,52,27581,1,10,0:0:0:0:
385,52,27675,1,2,0:0:0:0:
221,157,27862,1,2,0:0:0:0:
221,157,27956,1,10,0:0:0:0:
303,104,28144,1,2,0:0:0:0:
123,44,28331,1,10,0:0:0:0:
33,200,28519,5,6,1:2:0:0:
120,146,28706,1,10,0:0:0:0:
253,185,28894,1,2,0:0:0:0:
311,361,29081,1,10,0:0:0:0:
311,361,29175,1,2,0:0:0:0:
161,256,29362,1,2,0:0:0:0:
161,256,29456,1,10,0:0:0:0:
253,283,29644,1,2,0:0:0:0:
106,336,29831,1,10,0:0:0:0:
26,200,30019,5,6,1:2:0:0:
120,146,30206,1,10,0:0:0:0:
253,185,30394,1,2,0:0:0:0:
376,106,30581,1,10,0:0:0:0:
482,273,30769,1,2,0:0:0:0:
349,199,30956,1,10,0:0:0:0:
253,283,31144,1,2,0:0:0:0:
100,227,31331,1,10,0:0:0:0:
1,384,31519,5,6,1:2:0:0:
160,304,31706,1,10,0:0:0:0:
202,179,31894,1,2,0:0:0:0:
129,104,32081,1,10,0:0:0:0:
129,104,32175,1,2,0:0:0:0:
30,145,32362,1,2,0:0:0:0:
30,145,32456,1,10,0:0:0:0:
116,10,32644,1,2,0:0:0:0:
140,4,32737,1,2,0:0:0:0:
164,15,32831,1,10,0:0:0:0:
238,90,33019,6,0,B|277:73|277:73|315:78|321:114,1,107.999996704102,6|10,1:2|0:0,0:0:0:0:
325,129,33300,1,2,0:0:0:0:
330,144,33394,1,2,0:0:0:0:
382,271,33581,1,10,0:0:0:0:
385,255,33675,1,2,0:0:0:0:
388,240,33769,6,0,L|398:187,1,53.9999983520508,2|0,1:2|0:0,0:0:0:0:
470,122,33956,2,0,B|472:133|466:147|466:147|464:135|448:125,1,53.9999983520508,2|0,0:0|0:0,0:0:0:0:
297,236,34144,2,0,B|291:227|288:211|288:211|296:220|314:222,1,53.9999983520508,2|0,1:2|0:0,0:0:0:0:
452,315,34331,1,2,0:0:0:0:
375,341,34425,1,2,0:0:0:0:
298,315,34519,6,0,B|261:313|246:295|246:295|249:324|263:341,1,107.999996704102,2|10,1:2|0:0,0:0:0:0:
128,301,34800,1,2,0:0:0:0:
128,301,34894,2,0,B|139:282|166:269|166:269|154:289|165:325,1,107.999996704102,2|10,0:0|0:0,0:0:0:0:
81,371,35175,1,2,0:0:0:0:
81,371,35269,2,0,B|51:348|49:324|49:324|35:350|37:372,1,107.999996704102,2|0,1:2|0:0,0:0:0:0:
212,195,35644,6,0,B|197:174|165:172|165:172|116:194,1,107.999996704102,6|2,0:0|0:0,0:0:0:0:
101,201,35925,1,2,0:0:0:0:
87,208,36019,1,6,1:2:0:0:
220,68,36206,5,10,0:0:0:0:
223,83,36300,1,2,0:0:0:0:
225,97,36394,2,0,L|172:87,1,53.9999983520508,2|0,0:0|0:0,0:0:0:0:
63,43,36581,2,0,L|116:33,1,53.9999983520508,10|0,0:0|0:0,0:0:0:0:
126,19,36769,2,0,L|73:29,1,53.9999983520508,2|0,1:2|0:0,0:0:0:0:
161,98,36956,2,0,L|214:108,1,53.9999983520508,2|0,0:0|0:0,0:0:0:0:
322,152,37144,2,0,L|269:162,1,53.9999983520508,2|0,1:2|0:0,0:0:0:0:
262,177,37331,2,0,L|315:167,1,53.9999983520508,2|0,0:0|0:0,0:0:0:0:
414,75,37519,6,0,B|394:97|395:124|395:124|388:98|363:83,1,107.999996704102,2|10,1:2|0:0,0:0:0:0:
278,38,37894,1,2,0:0:0:0:
161,181,38081,2,0,B|165:208|165:208|178:185,1,53.9999983520508,10|0,0:0|0:0,0:0:0:0:
101,24,38269,2,0,B|75:13|75:13|89:36,1,53.9999983520508,2|0,1:2|0:0,0:0:0:0:
186,81,38456,1,2,0:0:0:0:
186,81,38550,1,2,0:0:0:0:
94,124,38737,1,2,0:0:0:0:
94,124,38831,1,2,0:0:0:0:
50,294,39019,6,0,L|103:284,1,53.9999983520508,6|0,1:2|0:0,0:0:0:0:
199,355,39206,1,10,0:0:0:0:
184,358,39300,1,2,0:0:0:0:
170,360,39394,2,0,L|180:307,1,53.9999983520508,2|0,0:0|0:0,0:0:0:0:
166,208,39581,2,0,B|155:206|141:212|141:212|153:214|163:230,1,53.9999983520508,10|0,0:0|0:0,0:0:0:0:
293,343,39769,5,2,1:2:0:0:
335,273,39862,1,2,0:0:0:0:
259,243,39956,2,0,B|250:259|254:271|254:271|242:261|238:251,1,53.9999983520508,2|0,0:0|0:0,0:0:0:0:
368,378,40144,2,0,B|377:362|373:350|373:350|385:360|389:370,1,53.9999983520508,2|0,1:2|0:0,0:0:0:0:
461,219,40331,1,2,0:0:0:0:
445,216,40425,1,2,0:0:0:0:
430,213,40519,6,0,L|377:203,1,53.9999983520508,2|0,1:2|0:0,0:0:0:0:
468,114,40706,2,0,L|417:131,1,53.9999983520508,10|0,0:0|0:0,0:0:0:0:
453,8,40894,2,0,L|417:48,1,53.9999983520508,2|0,0:0|0:0,0:0:0:0:
345,90,41081,1,10,0:0:0:0:
330,94,41175,2,0,L|279:111,1,53.9999983520508,2|0,0:0|1:2,0:0:0:0:
296,188,41362,1,2,0:0:0:0:
280,184,41456,2,0,L|227:174,1,53.9999983520508,2|0,0:0|0:0,0:0:0:0:
54,105,41644,6,0,B|93:88|93:88|131:93|137:129,1,107.999996704102,6|2,0:0|0:0,0:0:0:0:
141,144,41925,1,2,0:0:0:0:
146,159,42019,1,6,1:2:0:0:
26,31,42206,5,10,0:0:0:0:
71,185,42394,2,0,L|61:238,1,53.9999983520508,2|0,0:0|0:0,0:0:0:0:
47,247,42581,2,0,L|57:194,1,53.9999983520508,10|0,0:0|0:0,0:0:0:0:
137,129,42769,1,2,1:2:0:0:
140,145,42862,1,2,0:0:0:0:
143,160,42956,2,0,L|153:213,1,53.9999983520508,2|0,0:0|0:0,0:0:0:0:
213,303,43144,2,0,L|223:250,1,53.9999983520508,2|0,1:2|0:0,0:0:0:0:
171,290,43331,2,0,L|181:343,1,53.9999983520508,2|0,0:0|0:0,0:0:0:0:
215,381,43519,5,2,1:2:0:0:
285,339,43706,1,10,0:0:0:0:
305,330,43800,1,2,0:0:0:0:
326,333,43894,1,2,0:0:0:0:
335,345,43987,5,2,0:0:0:0:
370,357,44081,1,10,0:0:0:0:
402,336,44175,1,2,0:0:0:0:
415,345,44269,1,2,1:2:0:0:
395,300,44362,1,2,0:0:0:0:
425,261,44456,1,2,0:0:0:0:
441,262,44550,5,2,0:0:0:0:
494,200,44644,1,2,1:2:0:0:
450,132,44737,1,2,0:0:0:0:
433,131,44831,1,2,0:0:0:0:
469,122,44925,1,2,0:0:0:0:
479,85,45019,6,0,L|474:49,1,36,6|0,1:2|0:0,0:0:0:0:
411,17,45394,2,0,L|406:52,1,36,2|0,0:0|0:0,0:0:0:0:
343,85,45769,2,0,L|338:49,1,36,2|0,0:0|0:0,0:0:0:0:
275,17,46144,2,0,L|270:52,1,36,2|10,0:0|0:0,0:0:0:0:
268,68,46425,1,2,0:0:0:0:
266,84,46519,1,6,1:2:0:0:
256,164,46706,1,0,0:0:0:0:
186,70,46894,6,0,L|191:114,1,45,2|0,0:0|0:0,0:0:0:0:
106,180,47269,2,0,L|111:135,1,45,2|10,0:0|0:0,0:0:0:0:
112,119,47550,1,2,0:0:0:0:
114,103,47644,1,2,0:0:0:0:
123,22,47831,1,0,0:0:0:0:
25,166,48019,6,0,L|31:219,1,53.9999983520508,6|0,1:2|0:0,0:0:0:0:
99,301,48394,2,0,L|105:247,1,53.9999983520508,2|10,0:0|0:0,0:0:0:0:
108,232,48675,1,2,0:0:0:0:
110,216,48769,1,2,0:0:0:0:
119,135,48956,1,0,0:0:0:0:
189,236,49144,2,0,L|182:182,1,53.9999983520508,2|0,0:0|0:0,0:0:0:0:
276,110,49519,6,0,L|268:172,1,62.9999980773926,6|10,1:2|0:0,0:0:0:0:
266,188,49800,1,2,0:0:0:0:
264,204,49894,1,2,0:0:0:0:
253,284,50081,1,0,0:0:0:0:
345,208,50269,2,0,L|353:270,1,62.9999980773926,2|0,0:0|0:0,0:0:0:0:
440,384,50644,2,0,L|448:322,1,62.9999980773926,2|0,0:0|0:0,0:0:0:0:
415,158,51019,5,6,1:2:0:0:
337,123,51206,1,2,0:0:0:0:
267,172,51394,2,0,L|258:243,1,72,2|10,0:0|0:0,0:0:0:0:
20,77,51769,1,2,1:2:0:0:
98,42,51956,1,2,0:0:0:0:
168,91,52144,2,0,L|176:162,1,72,2|10,0:0|0:0,0:0:0:0:
178,179,52425,1,2,0:0:0:0:
180,195,52519,1,6,1:2:0:0:
192,281,52706,1,2,0:0:0:0:
463,326,52894,6,0,L|472:245,1,80.9999975280763,2|10,0:0|0:0,0:0:0:0:
256,102,53269,2,0,L|265:181,1,80.9999975280763,2|10,1:2|0:0,0:0:0:0:
268,199,53550,1,2,0:0:0:0:
270,215,53644,1,2,0:0:0:0:
366,270,53831,1,2,0:0:0:0:
204,367,54019,5,6,1:2:0:0:
44,302,54206,1,10,0:0:0:0:
143,287,54394,1,2,0:0:0:0:
180,195,54581,1,10,0:0:0:0:
178,179,54675,1,2,0:0:0:0:
176,163,54769,1,6,1:2:0:0:
53,41,54956,1,10,0:0:0:0:
163,78,55144,1,2,0:0:0:0:
301,2,55331,1,10,0:0:0:0:
462,158,55519,5,6,1:2:0:0:
323,93,55706,1,10,0:0:0:0:
234,163,55894,1,6,1:2:0:0:
83,129,56081,1,10,0:0:0:0:
0,293,56269,1,6,1:2:0:0:
146,204,56456,1,10,0:0:0:0:
241,291,56644,1,6,1:2:0:0:
406,237,56831,1,10,0:0:0:0:
512,359,57019,6,0,B|463:381|463:381|431:379|416:358,1,107.999996704102,6|10,1:2|0:0,0:0:0:0:
409,343,57300,1,2,0:0:0:0:
404,328,57394,1,2,0:0:0:0:
305,215,57581,1,10,0:0:0:0:
320,212,57675,1,2,0:0:0:0:
334,210,57769,6,0,L|324:263,1,53.9999983520508,2|0,1:2|0:0,0:0:0:0:
287,382,57956,2,0,L|277:329,1,53.9999983520508,2|0,0:0|0:0,0:0:0:0:
202,267,58144,2,0,B|179:280|179:280|206:284,1,53.9999983520508,2|0,1:2|0:0,0:0:0:0:
411,187,58331,1,2,0:0:0:0:
352,131,58425,1,2,0:0:0:0:
274,154,58519,6,0,B|254:176|255:203|255:203|248:177|223:162,1,107.999996704102,2|10,1:2|0:0,0:0:0:0:
74,135,58800,1,2,0:0:0:0:
74,135,58894,2,0,B|99:120|106:94|106:94|105:121|125:143,1,107.999996704102,2|10,0:0|0:0,0:0:0:0:
247,67,59175,1,2,0:0:0:0:
247,67,59269,2,0,B|222:52|215:26|215:26|216:53|196:75,1,107.999996704102,2|0,1:2|0:0,0:0:0:0:
10,244,59644,6,0,B|49:227|49:227|87:232|93:268,1,107.999996704102,6|2,0:0|0:0,0:0:0:0:
97,283,59925,1,2,0:0:0:0:
102,298,60019,1,6,1:2:0:0:
251,274,60206,5,10,0:0:0:0:
266,271,60300,1,2,0:0:0:0:
280,269,60394,2,0,L|270:322,1,53.9999983520508,2|0,0:0|0:0,0:0:0:0:
202,382,60581,2,0,L|192:329,1,53.9999983520508,10|0,0:0|0:0,0:0:0:0:
178,319,60769,2,0,L|188:372,1,53.9999983520508,2|0,1:2|0:0,0:0:0:0:
282,332,60956,2,0,L|292:279,1,53.9999983520508,2|0,0:0|0:0,0:0:0:0:
352,187,61144,2,0,L|362:240,1,53.9999983520508,2|0,1:2|0:0,0:0:0:0:
377,247,61331,2,0,L|367:194,1,53.9999983520508,2|0,0:0|0:0,0:0:0:0:
237,100,61519,6,0,B|252:121|284:123|284:123|333:101,1,107.999996704102,2|10,1:2|0:0,0:0:0:0:
480,35,61894,2,0,B|454:37|436:64|436:64|431:117,1,107.999996704102,2|10,0:0|0:0,0:0:0:0:
440,295,62269,2,0,B|450:271|436:242|436:242|392:211,1,107.999996704102,2|2,1:2|0:0,0:0:0:0:
379,201,62550,1,2,0:0:0:0:
366,193,62644,1,6,0:0:0:0:
508,176,62831,1,2,0:0:0:0:
339,348,63019,6,0,L|349:295,1,53.9999983520508,6|0,1:2|0:0,0:0:0:0:
241,181,63206,1,10,0:0:0:0:
244,197,63300,1,2,0:0:0:0:
247,212,63394,2,0,L|257:265,1,53.9999983520508,2|0,0:0|0:0,0:0:0:0:
186,334,63581,6,0,B|190:352|183:362|183:362|197:357|204:348,1,53.9999983520508,10|0,0:0|0:0,0:0:0:0:
137,259,63769,2,0,B|150:246|162:247|162:247|151:238|139:238,1,53.9999983520508,2|0,1:2|0:0,0:0:0:0:
78,351,63956,2,0,B|73:338|75:325|75:325|80:336|97:341,1,53.9999983520508,2|0,0:0|0:0,0:0:0:0:
257,265,64144,6,0,B|280:252|280:252|253:248,1,53.9999983520508,2|0,1:2|0:0,0:0:0:0:
54,205,64331,2,0,B|31:192|31:192|58:188,1,53.9999983520508,2|0,0:0|0:0,0:0:0:0:
236,151,64519,1,6,1:2:0:0:
260,62,64706,5,10,0:0:0:0:
213,50,64800,1,2,0:0:0:0:
176,81,64894,1,2,0:0:0:0:
176,97,64987,1,2,0:0:0:0:
142,158,65081,1,10,0:0:0:0:
74,176,65175,1,2,0:0:0:0:
20,131,65269,1,6,1:2:0:0:
236,151,65456,5,10,0:0:0:0:
272,182,65550,1,2,0:0:0:0:
319,170,65644,1,2,1:2:0:0:
326,156,65737,1,2,0:0:0:0:
384,116,65831,1,10,0:0:0:0:
453,130,65925,1,2,0:0:0:0:
481,194,66019,1,6,1:2:0:0:
392,324,66206,5,10,0:0:0:0:
385,310,66300,1,2,0:0:0:0:
322,276,66394,1,2,0:0:0:0:
315,290,66487,1,2,0:0:0:0:
287,354,66581,1,10,0:0:0:0:
218,368,66675,1,2,0:0:0:0:
160,328,66769,1,6,1:2:0:0:
69,206,66956,5,10,0:0:0:0:
76,220,67050,1,2,0:0:0:0:
139,254,67144,1,2,1:2:0:0:
146,240,67237,1,2,0:0:0:0:
174,176,67331,1,10,0:0:0:0:
243,162,67425,1,2,0:0:0:0:
301,202,67519,1,6,1:2:0:0:
437,320,67706,5,10,0:0:0:0:
482,256,67800,1,2,0:0:0:0:
450,188,67894,1,2,0:0:0:0:
431,165,67987,1,2,0:0:0:0:
436,101,68081,1,10,0:0:0:0:
495,75,68175,1,2,0:0:0:0:
510,82,68269,5,6,1:2:0:0:
472,103,68362,1,2,0:0:0:0:
432,86,68456,1,10,0:0:0:0:
425,72,68550,1,2,0:0:0:0:
374,23,68644,1,6,1:2:0:0:
299,32,68737,1,2,0:0:0:0:
261,103,68831,1,10,0:0:0:0:
304,177,68925,1,2,0:0:0:0:
347,103,69019,1,6,1:2:0:0:
162,55,69206,5,10,0:0:0:0:
148,62,69300,1,2,0:0:0:0:
114,125,69394,1,2,0:0:0:0:
128,132,69487,1,2,0:0:0:0:
192,160,69581,1,10,0:0:0:0:
206,229,69675,1,2,0:0:0:0:
166,287,69769,1,6,1:2:0:0:
44,378,69956,5,10,0:0:0:0:
58,371,70050,1,2,0:0:0:0:
92,308,70144,1,2,1:2:0:0:
78,301,70237,1,2,0:0:0:0:
14,273,70331,1,10,0:0:0:0:
0,204,70425,1,2,0:0:0:0:
40,146,70519,1,6,1:2:0:0:
129,30,70706,5,10,0:0:0:0:
160,66,70800,1,2,0:0:0:0:
148,113,70894,1,2,0:0:0:0:
134,120,70987,1,2,0:0:0:0:
192,160,71081,1,10,0:0:0:0:
261,146,71175,1,2,0:0:0:0:
289,82,71269,1,6,1:2:0:0:
488,146,71456,5,10,0:0:0:0:
443,159,71550,1,2,0:0:0:0:
406,127,71644,1,2,1:2:0:0:
405,112,71737,1,2,0:0:0:0:
344,146,71831,1,10,0:0:0:0:
326,214,71925,1,2,0:0:0:0:
276,164,72019,5,6,1:2:0:0:
376,264,72206,1,10,0:0:0:0:
388,260,72300,1,2,0:0:0:0:
396,269,72394,2,0,P|395:286|384:301,1,36,2|2,0:0|0:0,0:0:0:0:
459,371,72581,2,0,P|449:356|448:339,1,36,10|2,0:0|0:0,0:0:0:0:
497,281,72769,1,2,1:2:0:0:
339,362,72956,5,10,0:0:0:0:
314,346,73050,1,2,0:0:0:0:
302,319,73144,1,2,1:2:0:0:
310,291,73237,1,2,0:0:0:0:
282,299,73331,2,0,P|264:298|249:287,1,36,10|2,0:0|0:0,0:0:0:0:
131,159,73519,5,6,1:2:0:0:
101,266,73706,1,10,0:0:0:0:
90,259,73800,1,2,0:0:0:0:
91,247,73894,2,0,P|104:236|123:235,1,36,2|2,0:0|0:0,0:0:0:0:
222,216,74081,2,0,P|207:205|190:203,1,36,10|2,0:0|0:0,0:0:0:0:
117,107,74269,6,0,L|123:142,1,36,2|2,1:2|0:0,0:0:0:0:
197,51,74456,2,0,L|191:87,1,36,10|2,0:0|0:0,0:0:0:0:
22,18,74644,5,2,1:2:0:0:
23,25,74706,1,2,0:0:0:0:
25,35,74769,1,2,0:0:0:0:
50,60,74831,5,10,0:0:0:0:
49,68,74894,1,2,0:0:0:0:
47,78,74956,1,2,0:0:0:0:
19,115,75019,5,6,1:2:0:0:
