osu file format v14

[General]
AudioFilename: audio.mp3
AudioLeadIn: 0
PreviewTime: 96299
Countdown: 1
SampleSet: Soft
StackLeniency: 0.7
Mode: 0
LetterboxInBreaks: 0
WidescreenStoryboard: 0

[Editor]
Bookmarks: 28799,34049,64299,96299,118549
DistanceSpacing: 0.8
BeatDivisor: 4
GridSize: 4
TimelineZoom: 1

[Metadata]
Title:Rapflicks
TitleUnicode:Rapflicks
Artist:G2, Paloalto & Huckleberry P
ArtistUnicode:G2, Paloalto & Huckleberry P
Creator:Dereban
Version:M$LK
Source:
Tags:
BeatmapID:1467734
BeatmapSetID:693698

[Difficulty]
HPDrainRate:6
CircleSize:3.7
OverallDifficulty:9
ApproachRate:9.9
SliderMultiplier:2.3
SliderTickRate:1

[Events]
//Background and Video events
0,0,"2017-11-13_15-03-25.jpg",0,0
//Break Periods
//Storyboard Layer 0 (Background)
//Storyboard Layer 1 (Fail)
//Storyboard Layer 2 (Pass)
//Storyboard Layer 3 (Foreground)
//Storyboard Sound Samples

[TimingPoints]
16299,500,4,2,0,100,1,0
16299,-100,4,2,0,100,0,0
21299,-66.6666666666667,4,2,0,100,0,0
27799,-100,4,2,0,100,0,0
28549,-66.6666666666667,4,2,0,100,0,0
31799,-50,4,2,0,100,0,0
32174,-66.6666666666667,4,2,0,100,0,0
36049,-66.6666666666667,4,2,0,100,0,0
48799,-100,4,2,0,100,0,0
64299,-66.6666666666667,4,2,0,100,0,0
82049,-133.333333333333,4,2,0,100,0,0
96299,-66.6666666666667,4,2,0,100,0,0
103799,-100,4,2,0,100,0,0
105299,-66.6666666666667,4,2,0,100,0,0
144299,-50,4,2,0,100,0,0
144799,-57.1428571428571,4,2,0,100,0,0
145799,-133.333333333333,4,2,0,100,0,0
146299,-57.1428571428571,4,2,0,100,0,0
149799,-80,4,2,0,100,0,0
152299,-57.1428571428571,4,2,0,100,0,0
152799,-57.1428571428571,4,2,0,100,0,0
160799,-200,4,2,0,100,0,0
175799,-100,4,2,0,100,0,0
176299,-66.6666666666667,4,2,0,100,0,0
186299,-133.333333333333,4,2,0,100,0,0
186799,-66.6666666666667,4,2,0,100,0,0
190299,-133.333333333333,4,2,0,100,0,0
190799,-66.6666666666667,4,2,0,100,0,0

[HitObjects]
68,160,16299,6,0,P|140:152|200:184,1,115
224,240,16674,1,0,0:0:0:0:
96,76,16799,2,0,P|92:40|104:0,1,57.5
260,84,17049,2,0,P|264:120|252:160,1,57.5
68,160,17299,6,0,P|60:88|92:28,1,115
152,16,17674,1,0,0:0:0:0:
152,204,17799,6,0,L|136:304,1,57.5
240,340,18049,2,0,L|224:240,1,57.5
60,248,18299,5,0,0:0:0:0:
92,328,18424,1,0,0:0:0:0:
236,204,18549,5,0,0:0:0:0:
197,127,18674,1,0,0:0:0:0:
332,28,18799,5,0,0:0:0:0:
312,108,18924,1,0,0:0:0:0:
352,180,19049,1,0,0:0:0:0:
432,192,19174,1,0,0:0:0:0:
468,28,19299,6,0,P|416:60|404:124,1,115
484,108,19674,5,0,0:0:0:0:
304,112,19799,2,0,L|260:124,3,28.75
320,108,20049,2,0,L|424:100,1,57.5
128,220,20299,5,0,0:0:0:0:
113,171,20383,1,0,0:0:0:0:
122,123,20466,1,0,0:0:0:0:
152,88,20549,2,0,P|174:72|214:72,1,57.5
272,180,20799,6,0,P|246:188|206:177,1,57.5
400,104,21049,2,0,L|392:184,1,57.5
328,344,21299,6,0,P|360:276|488:276,1,172.5
424,340,21674,1,0,0:0:0:0:
308,240,21799,6,0,P|260:228|216:240,1,86.2500032901765
48,284,22049,2,0,P|96:272|140:284,1,86.2500032901765
228,124,22299,5,0,0:0:0:0:
216,216,22424,1,0,0:0:0:0:
92,64,22549,5,0,0:0:0:0:
104,156,22674,1,0,0:0:0:0:
320,68,22799,5,0,0:0:0:0:
252,16,22924,1,0,0:0:0:0:
164,16,23049,1,0,0:0:0:0:
92,64,23174,1,0,0:0:0:0:
364,148,23299,6,0,P|408:80|376:-4,1,172.500006580353
280,144,23674,1,0,0:0:0:0:
424,208,23799,6,0,P|464:248|472:304,1,86.2500032901765
300,376,24049,2,0,P|300:319|333:274,1,86.2500032901765
508,352,24299,5,0,0:0:0:0:
476,328,24383,1,0,0:0:0:0:
428,328,24466,1,0,0:0:0:0:
384,356,24549,2,0,P|328:360|268:328,1,86.2500032901765
160,204,24799,2,0,P|202:240|222:305,1,86.2500032901765
104,312,25049,1,0,0:0:0:0:
104,312,25174,1,0,0:0:0:0:
76,168,25299,6,0,P|144:112|240:164,1,172.500006580353
48,244,25674,1,0,0:0:0:0:
88,48,25799,6,0,P|140:32|188:40,1,86.2500032901765
328,136,26049,2,0,P|276:152|228:144,1,86.2500032901765
452,48,26299,5,0,0:0:0:0:
492,140,26424,1,0,0:0:0:0:
276,212,26549,5,0,0:0:0:0:
236,120,26674,1,0,0:0:0:0:
464,268,26799,5,0,0:0:0:0:
384,224,26924,1,0,0:0:0:0:
180,272,27049,5,0,0:0:0:0:
260,316,27174,1,0,0:0:0:0:
136,168,27299,6,0,P|76:208|72:296,1,86.2500032901765
148,376,27549,2,0,L|156:276,1,86.2500032901765
160,76,27799,6,0,L|156:36,3,28.75
236,92,28049,2,0,L|240:52,3,28.75
324,96,28299,1,0,0:0:0:0:
360,120,28383,1,0,0:0:0:0:
408,132,28466,1,0,0:0:0:0:
452,120,28549,2,0,P|492:180|488:248,1,86.2500032901765
372,344,28799,2,0,P|386:273|437:228,1,86.2500032901765
464,376,29049,1,0,0:0:0:0:
464,376,29174,1,0,0:0:0:0:
192,344,29299,6,0,P|280:308|388:352,1,172.500006580353
132,284,29674,1,0,0:0:0:0:
364,320,29799,2,0,P|384:288|392:220,1,86.2500032901765
240,152,30049,2,0,P|248:188|290:242,1,86.2500032901765
392,64,30299,5,0,0:0:0:0:
312,40,30424,1,0,0:0:0:0:
364,180,30549,2,0,L|468:160,1,86.2500032901765
240,72,30799,2,0,P|164:124|192:216,1,172.500006580353
240,248,31174,1,0,0:0:0:0:
96,64,31299,6,0,P|128:156|88:260,1,172.500006580353
36,264,31674,1,0,0:0:0:0:
240,248,31799,6,0,P|320:312|216:352,1,230
172,312,32174,1,0,0:0:0:0:
372,148,32299,5,0,0:0:0:0:
432,304,32424,1,0,0:0:0:0:
372,148,32549,1,0,0:0:0:0:
432,304,32674,1,0,0:0:0:0:
272,172,32799,5,0,0:0:0:0:
224,40,32924,1,0,0:0:0:0:
312,48,33049,1,0,0:0:0:0:
432,220,33174,5,0,0:0:0:0:
344,228,33299,1,0,0:0:0:0:
120,296,33424,5,0,0:0:0:0:
144,212,33549,1,0,0:0:0:0:
128,124,33674,1,0,0:0:0:0:
208,280,33799,5,0,0:0:0:0:
292,304,33924,1,0,0:0:0:0:
284,132,34049,5,0,0:0:0:0:
200,156,34174,1,0,0:0:0:0:
396,296,34299,5,0,0:0:0:0:
396,296,34424,1,0,0:0:0:0:
364,148,34549,1,0,0:0:0:0:
364,148,34674,1,0,0:0:0:0:
132,248,34799,5,0,0:0:0:0:
148,336,34924,1,0,0:0:0:0:
200,156,35049,5,0,0:0:0:0:
184,68,35174,1,0,0:0:0:0:
60,192,35299,5,0,0:0:0:0:
256,224,35424,1,0,0:0:0:0:
60,192,35549,1,0,0:0:0:0:
256,224,35674,1,0,0:0:0:0:
116,128,35799,5,0,0:0:0:0:
172,252,35924,1,0,0:0:0:0:
40,116,36049,2,0,P|56:76|132:56,1,86.2500032901765
224,64,36299,5,0,0:0:0:0:
208,108,36383,1,0,0:0:0:0:
172,140,36466,1,0,0:0:0:0:
128,152,36549,6,0,P|76:212|80:264,1,86.2500032901765
192,348,36799,2,0,P|186:268|146:234,1,86.2500032901765
68,376,37049,1,0,0:0:0:0:
68,376,37174,1,0,0:0:0:0:
280,256,37299,5,0,0:0:0:0:
364,236,37424,1,0,0:0:0:0:
452,360,37549,5,0,0:0:0:0:
368,340,37674,1,0,0:0:0:0:
304,176,37799,6,0,L|312:80,1,86.2500032901765
440,128,38049,2,0,L|448:224,1,86.2500032901765
128,176,38299,5,0,0:0:0:0:
112,80,38424,1,0,0:0:0:0:
340,44,38549,5,0,0:0:0:0:
356,140,38674,1,0,0:0:0:0:
184,276,38799,6,0,P|256:212|352:272,1,172.500006580353
368,296,39174,1,0,0:0:0:0:
392,180,39299,2,0,P|432:220|420:300,1,86.2500032901765
272,380,39549,2,0,P|271:323|337:275,1,86.2500032901765
408,372,39799,5,0,0:0:0:0:
192,316,39924,1,0,0:0:0:0:
408,372,40049,1,0,0:0:0:0:
192,316,40174,1,0,0:0:0:0:
436,272,40299,5,0,0:0:0:0:
436,272,40424,1,0,0:0:0:0:
272,292,40549,1,0,0:0:0:0:
272,292,40674,1,0,0:0:0:0:
372,204,40799,5,0,0:0:0:0:
372,204,40924,1,0,0:0:0:0:
208,224,41049,1,0,0:0:0:0:
208,224,41174,1,0,0:0:0:0:
436,128,41299,5,0,0:0:0:0:
288,156,41424,1,0,0:0:0:0:
496,72,41549,2,0,P|516:120|500:176,1,86.2500032901765
204,96,41799,5,0,0:0:0:0:
356,96,41924,1,0,0:0:0:0:
204,96,42049,1,0,0:0:0:0:
356,96,42174,1,0,0:0:0:0:
128,48,42299,6,0,P|120:108|148:164,1,86.2500032901765
384,184,42549,1,0,0:0:0:0:
96,40,42674,2,0,P|88:100|116:156,1,86.2500032901765
292,64,42924,2,0,P|300:124|272:180,1,86.2500032901765
184,228,43174,1,0,0:0:0:0:
84,28,43299,6,0,P|56:76|102:155,1,86.2500032901765
308,180,43549,2,0,L|316:76,1,86.2500032901765
124,220,43799,2,0,L|132:324,1,86.2500032901765
296,220,44049,1,0,0:0:0:0:
152,144,44174,1,0,0:0:0:0:
300,360,44299,5,0,0:0:0:0:
345,342,44382,1,0,0:0:0:0:
381,308,44465,1,0,0:0:0:0:
400,272,44549,2,0,P|440:260|500:276,1,86.2500032901765
448,344,44799,1,0,0:0:0:0:
476,160,44924,5,0,0:0:0:0:
376,176,45049,1,0,0:0:0:0:
236,72,45174,5,0,0:0:0:0:
320,104,45299,1,0,0:0:0:0:
248,160,45424,1,0,0:0:0:0:
376,280,45549,5,0,0:0:0:0:
292,248,45674,1,0,0:0:0:0:
172,276,45799,6,0,P|160:228|168:172,1,86.2500032901765
308,124,46049,2,0,P|282:166|237:200,1,86.2500032901765
64,16,46299,5,0,0:0:0:0:
129,70,46424,1,0,0:0:0:0:
136,158,46549,1,0,0:0:0:0:
82,223,46674,1,0,0:0:0:0:
0,356,46799,5,0,0:0:0:0:
84,348,46924,1,0,0:0:0:0:
168,340,47049,1,0,0:0:0:0:
252,332,47174,1,0,0:0:0:0:
334,247,47299,5,0,0:0:0:0:
250,239,47424,1,0,0:0:0:0:
166,231,47549,1,0,0:0:0:0:
82,223,47674,1,0,0:0:0:0:
12,152,47799,5,0,0:0:0:0:
204,124,47924,1,0,0:0:0:0:
16,160,48049,2,0,P|36:104|-4:44,1,86.2500032901765
208,24,48299,5,0,0:0:0:0:
248,52,48382,1,0,0:0:0:0:
296,52,48465,1,0,0:0:0:0:
340,36,48549,6,0,P|392:40|432:100,1,86.2500032901765
388,280,48799,1,0,0:0:0:0:
388,280,48924,2,0,P|364:216|420:144,1,115
264,296,49299,2,0,L|196:304,1,57.5
120,208,49549,2,0,L|188:216,1,57.5
36,284,49799,5,0,0:0:0:0:
36,284,49924,2,0,L|20:136,1,115
128,36,50299,6,0,P|64:40|48:36,1,57.5
248,96,50549,2,0,P|312:92|328:96,1,57.5
464,164,50799,5,0,0:0:0:0:
388,200,50924,1,0,0:0:0:0:
368,280,51049,1,0,0:0:0:0:
416,352,51174,1,0,0:0:0:0:
492,328,51299,6,0,P|496:264|492:248,1,57.5
200,164,51549,2,0,P|196:228|200:244,1,57.5
248,72,51799,1,0,0:0:0:0:
248,72,51924,2,0,P|168:64|112:120,1,115
128,312,52299,5,0,0:0:0:0:
168,304,52382,1,0,0:0:0:0:
208,320,52465,1,0,0:0:0:0:
232,356,52549,6,0,P|264:376|324:376,1,57.5
408,288,52799,2,0,P|371:296|328:338,1,57.5
480,360,53049,1,0,0:0:0:0:
464,208,53174,1,0,0:0:0:0:
240,196,53299,6,0,P|180:204|144:192,1,57.5
332,96,53549,2,0,P|392:104|428:92,1,57.5
140,120,53799,2,0,P|92:176|108:256,1,115
168,264,54174,1,0,0:0:0:0:
180,48,54299,5,0,0:0:0:0:
180,48,54549,5,0,0:0:0:0:
56,72,54674,1,0,0:0:0:0:
244,112,54799,1,0,0:0:0:0:
0,16,54924,2,0,P|-24:80|24:144,1,115
312,152,55299,6,0,P|324:112|304:64,1,57.5
168,152,55549,2,0,P|156:192|176:240,1,57.5
380,296,55799,5,0,0:0:0:0:
400,212,55924,1,0,0:0:0:0:
208,272,56049,2,0,L|220:344,1,57.5
420,124,56299,5,0,0:0:0:0:
368,116,56382,1,0,0:0:0:0:
328,84,56465,1,0,0:0:0:0:
308,36,56549,6,0,P|288:24|224:36,1,57.5
136,148,56799,2,0,P|158:142|195:88,1,57.5
16,104,57049,2,0,P|4:123|16:188,1,57.5
216,264,57299,2,0,P|227:283|216:348,1,57.5
100,210,57549,2,0,P|105:187|159:150,1,57.5
140,340,57799,6,0,L|52:328,1,57.5
212,184,58049,2,0,L|300:172,1,57.5
416,216,58299,6,0,P|376:152|404:88,1,115
432,44,58674,1,0,0:0:0:0:
480,268,58799,6,0,P|456:288|392:288,1,57.5
276,244,59049,2,0,P|307:246|352:292,1,57.5
248,344,59299,5,0,0:0:0:0:
192,276,59424,1,0,0:0:0:0:
204,192,59549,1,0,0:0:0:0:
284,156,59674,1,0,0:0:0:0:
368,164,59799,5,0,0:0:0:0:
212,104,59924,1,0,0:0:0:0:
336,84,60049,1,0,0:0:0:0:
272,240,60174,1,0,0:0:0:0:
136,140,60299,5,0,0:0:0:0:
126,104,60382,1,0,0:0:0:0:
133,69,60465,1,0,0:0:0:0:
155,40,60549,2,0,P|180:0|176:-32,1,57.5
24,80,60799,5,0,0:0:0:0:
240,100,60924,1,0,0:0:0:0:
24,80,61049,2,0,P|44:144|32:184,1,57.5
88,272,61299,2,0,P|119:212|155:192,1,57.5
256,308,61549,5,0,0:0:0:0:
120,352,61674,1,0,0:0:0:0:
328,360,61799,2,0,P|344:304|340:284,1,57.5
272,148,62049,2,0,P|300:198|317:210,1,57.5
420,112,62299,2,0,L|424:28,1,57.5
336,28,62486,5,0,0:0:0:0:
176,120,62611,1,0,0:0:0:0:
336,116,62736,1,0,0:0:0:0:
152,40,62861,1,0,0:0:0:0:
284,188,62986,6,0,P|296:224|288:256,1,57.5
128,324,63236,2,0,P|88:256|96:208,1,115
264,296,63799,6,0,P|300:308|320:324,1,57.5
248,188,64049,2,0,P|212:200|192:216,1,57.5
280,96,64299,2,0,P|304:28|200:0,1,172.500006580353
196,120,64674,5,0,0:0:0:0:
368,100,64799,1,0,0:0:0:0:
448,140,64924,1,0,0:0:0:0:
376,184,65049,2,0,P|368:224|384:272,1,86.2500032901765
432,48,65299,6,0,P|372:20|316:36,1,86.2500032901765
312,232,65549,2,0,P|372:260|428:244,1,86.2500032901765
208,84,65799,6,0,L|196:176,1,86.2500032901765
88,296,66049,2,0,L|76:204,1,86.2500032901765
144,32,66299,2,0,P|216:0|288:104,1,172.500006580353
284,144,66674,2,0,P|368:92|360:0,1,172.500006580353
196,108,67049,6,0,P|192:176|208:208,1,86.2500032901765
364,208,67299,2,0,P|318:157|284:145,1,86.2500032901765
204,316,67549,2,0,P|272:320|304:304,1,86.2500032901765
392,184,67799,2,0,P|346:133|312:121,1,86.2500032901765
192,344,68049,2,0,P|260:348|292:332,1,86.2500032901765
112,180,68299,5,0,0:0:0:0:
80,148,68382,1,0,0:0:0:0:
72,104,68465,1,0,0:0:0:0:
84,64,68549,6,0,P|92:28|68:-24,1,86.2500032901765
48,240,68799,2,0,P|108:264|160:256,1,86.2500032901765
264,160,69049,2,0,P|220:172|188:216,1,86.2500032901765
264,52,69299,6,0,P|360:72|376:156,1,172.500006580353
336,288,69674,5,0,0:0:0:0:
336,288,69799,2,0,P|324:240|352:176,1,86.2500032901765
512,336,70049,2,0,P|464:348|400:320,1,86.2500032901765
252,192,70299,6,0,P|273:147|336:116,1,86.2500032901765
484,156,70549,2,0,P|437:172|371:149,1,86.2500032901765
176,144,70799,2,0,P|184:252|272:280,1,172.500006580353
312,80,71174,5,0,0:0:0:0:
312,80,71299,2,0,P|248:64|192:76,1,86.2500032901765
56,152,71549,2,0,P|120:136|176:148,1,86.2500032901765
332,200,71799,2,0,P|268:184|212:196,1,86.2500032901765
76,272,72049,2,0,P|140:256|196:268,1,86.2500032901765
332,368,72299,5,0,0:0:0:0:
328,320,72382,1,0,0:0:0:0:
352,280,72465,1,0,0:0:0:0:
392,260,72549,6,0,P|416:220|396:152,1,86.2500032901765
272,56,72799,2,0,P|283:101|345:135,1,86.2500032901765
504,100,73049,2,0,L|392:84,1,86.2500032901765
212,0,73299,2,0,P|188:40|208:108,1,86.2500032901765
352,140,73549,2,0,L|240:124,1,86.2500032901765
72,100,73799,6,0,P|24:192|104:252,1,172.500006580353
144,240,74174,1,0,0:0:0:0:
312,216,74299,6,0,P|348:264|352:320,1,86.2500032901765
152,156,74549,2,0,P|160:96|197:54,1,86.2500032901765
408,224,74799,6,0,P|352:232|304:224,1,86.2500032901765
36,232,75049,2,0,P|92:224|140:232,1,86.2500032901765
308,336,75299,6,0,P|296:296|248:244,1,86.2500032901765
112,324,75549,2,0,P|148:343|216:344,1,86.2500032901765
232,108,75799,6,0,P|212:144|212:212,1,86.2500032901765
376,100,76049,2,0,P|364:60|316:12,1,86.2500032901765
344,192,76299,5,0,0:0:0:0:
344,240,76382,1,0,0:0:0:0:
372,280,76465,1,0,0:0:0:0:
408,312,76549,2,0,P|436:348|432:396,1,86.2500032901765
208,316,76799,6,0,P|256:308|328:324,1,86.2500032901765
116,224,77049,2,0,P|68:216|-4:232,1,86.2500032901765
216,156,77299,2,0,P|272:68|144:88,1,258.75000987053
356,120,77799,6,0,P|356:56|328:4,1,86.2500032901765
296,216,78049,2,0,P|296:280|324:332,1,86.2500032901765
468,192,78299,6,0,L|364:204,1,86.2500032901765
128,128,78549,2,0,L|232:140,1,86.2500032901765
104,296,78799,6,0,P|36:284|-4:300,1,86.2500032901765
192,240,79049,2,0,P|260:228|300:244,1,86.2500032901765
428,168,79299,6,0,P|380:256|436:340,1,172.500006580353
476,252,79674,1,0,0:0:0:0:
384,160,79799,2,0,P|336:248|392:332,1,172.500006580353
504,252,80174,1,0,0:0:0:0:
296,100,80299,6,0,P|360:124|460:76,1,172.500006580353
136,60,82049,6,0,L|132:132,1,43.1250016450883
152,188,82299,1,0,0:0:0:0:
300,124,82549,5,0,0:0:0:0:
300,124,82674,2,0,P|244:116|192:132,1,86.2500032901765
256,208,83049,1,0,0:0:0:0:
296,36,83299,5,0,0:0:0:0:
440,92,83549,1,0,0:0:0:0:
284,36,83799,1,0,0:0:0:0:
448,104,84049,1,0,0:0:0:0:
272,40,84299,2,0,P|212:36|176:48,1,86.2500032901765
112,96,84799,5,0,0:0:0:0:
36,64,85299,1,0,0:0:0:0:
48,144,85799,5,0,0:0:0:0:
68,264,86049,1,0,0:0:0:0:
152,208,86299,5,0,0:0:0:0:
132,328,86549,1,0,0:0:0:0:
232,248,86799,5,0,0:0:0:0:
199,130,87049,1,0,0:0:0:0:
299,145,87299,5,0,0:0:0:0:
229,45,87549,1,0,0:0:0:0:
316,56,87799,5,0,0:0:0:0:
144,64,88049,1,0,0:0:0:0:
384,12,88299,2,0,P|400:68|308:136,1,172.500006580353
304,56,89049,1,0,0:0:0:0:
468,44,89299,5,0,0:0:0:0:
404,188,89549,1,0,0:0:0:0:
304,56,89799,2,0,P|268:32|212:32,1,86.2500032901765
192,184,90299,5,0,0:0:0:0:
164,76,90549,1,0,0:0:0:0:
44,80,90799,5,0,0:0:0:0:
72,188,91049,1,0,0:0:0:0:
76,308,91299,5,0,0:0:0:0:
236,292,91549,1,0,0:0:0:0:
64,312,91799,1,0,0:0:0:0:
224,296,92049,1,0,0:0:0:0:
16,368,92299,2,0,P|-8:320|4:268,1,86.2500032901765
60,204,92799,5,0,0:0:0:0:
148,184,93299,1,0,0:0:0:0:
88,124,93799,2,0,P|87:83|112:29,1,86.2500032901765
300,124,94299,2,0,P|271:152|216:173,1,86.2500032901765
284,0,94799,2,0,P|324:0|378:24,1,86.2500032901765
440,72,95299,5,0,0:0:0:0:
416,184,95549,1,0,0:0:0:0:
428,324,95799,6,0,P|384:316|376:316,1,43.1250016450883
280,264,96049,2,0,P|236:272|228:272,1,43.1250016450883
84,332,96299,5,0,0:0:0:0:
100,292,96382,1,0,0:0:0:0:
96,248,96465,1,0,0:0:0:0:
76,208,96549,6,0,P|52:168|72:112,1,86.2500032901765
168,48,96799,5,0,0:0:0:0:
152,152,96924,1,0,0:0:0:0:
312,140,97049,5,0,0:0:0:0:
328,36,97174,1,0,0:0:0:0:
236,208,97299,6,0,P|312:248|400:184,1,172.500006580353
472,116,97674,2,0,P|424:100|380:100,1,86.2500032901765
156,176,97924,6,0,P|156:228|184:276,1,86.2500032901765
240,312,98174,1,0,0:0:0:0:
168,92,98299,6,0,L|68:80,1,86.2500032901765
28,20,98549,1,0,0:0:0:0:
304,120,98674,6,0,L|404:108,1,86.2500032901765
220,184,98924,2,0,L|120:172,1,86.2500032901765
72,216,99174,1,0,0:0:0:0:
304,204,99299,1,0,0:0:0:0:
56,216,99424,2,0,P|48:136|144:80,1,172.500006580353
128,272,99799,6,0,L|120:324,3,43.1250016450883
208,316,100049,2,0,L|216:368,3,43.1250016450883
296,340,100299,5,0,0:0:0:0:
332,312,100382,1,0,0:0:0:0:
376,308,100465,1,0,0:0:0:0:
412,336,100549,2,0,P|460:356|524:316,1,86.2500032901765
440,180,100799,5,0,0:0:0:0:
300,220,100924,1,0,0:0:0:0:
508,232,101049,2,0,P|524:176|508:132,1,86.2500032901765
300,80,101299,6,0,P|328:130|370:150,1,86.2500032901765
456,92,101549,1,0,0:0:0:0:
456,92,101674,1,0,0:0:0:0:
240,20,101799,6,0,L|144:28,1,86.2500032901765
24,120,102049,2,0,L|120:128,1,86.2500032901765
188,328,102299,5,0,0:0:0:0:
244,264,102424,1,0,0:0:0:0:
240,176,102549,1,0,0:0:0:0:
192,104,102674,1,0,0:0:0:0:
188,328,102799,5,0,0:0:0:0:
272,340,102924,1,0,0:0:0:0:
356,356,103049,1,0,0:0:0:0:
440,372,103174,1,0,0:0:0:0:
116,368,103299,5,0,0:0:0:0:
116,368,103424,2,0,P|108:324|132:264,1,86.2500032901765
172,220,103674,1,0,0:0:0:0:
388,224,103799,6,0,P|280:240|320:152,1,230
452,120,104799,6,0,L|368:112,1,57.5
280,36,105049,2,0,L|364:28,1,57.5
308,148,105236,5,0,0:0:0:0:
296,164,105299,2,0,P|200:168|148:96,1,115.000004386902
128,48,105632,1,0,0:0:0:0:
12,204,105799,6,0,P|108:188|196:232,1,115.000004386902
104,304,106132,1,0,0:0:0:0:
48,124,106299,1,0,0:0:0:0:
104,304,106465,1,0,0:0:0:0:
48,124,106632,1,0,0:0:0:0:
64,380,106799,6,0,P|116:388|180:336,1,115.000004386902
216,132,107132,1,0,0:0:0:0:
216,132,107299,2,0,P|240:268|400:208,1,345.000013160706
300,184,108049,5,0,0:0:0:0:
140,188,108299,1,0,0:0:0:0:
124,232,108382,1,0,0:0:0:0:
128,276,108465,1,0,0:0:0:0:
156,312,108549,6,0,P|192:324|220:320,1,57.500002193451
300,184,108799,1,0,0:0:0:0:
84,120,108965,1,0,0:0:0:0:
300,184,109132,1,0,0:0:0:0:
12,148,109299,2,0,P|20:76|88:44,1,115.000004386902
76,204,109632,1,0,0:0:0:0:
264,104,109799,6,0,L|280:-40,1,115.000004386902
184,156,110132,1,0,0:0:0:0:
272,304,110299,6,0,L|256:160,1,115.000004386902
352,356,110632,1,0,0:0:0:0:
184,320,110799,6,0,P|100:308|24:344,1,115.000004386902
12,376,111132,1,0,0:0:0:0:
248,252,111299,6,0,P|332:264|408:228,1,115.000004386902
432,304,111632,1,0,0:0:0:0:
176,208,111799,6,0,P|116:176|20:236,1,115.000004386902
104,268,112132,1,0,0:0:0:0:
320,96,112299,6,0,P|268:104|224:96,1,86.2500032901765
108,44,112549,2,0,P|56:36|12:44,1,86.2500032901765
372,184,112799,6,0,P|428:108|348:8,1,172.500006580353
136,200,113299,2,0,P|216:152|320:224,1,172.500006580353
224,252,113674,1,0,0:0:0:0:
52,228,113799,6,0,P|48:184|60:128,1,86.2500032901765
304,212,114049,2,0,P|308:256|296:312,1,86.2500032901765
72,32,114299,2,0,P|152:80|256:8,1,172.500006580353
448,80,114674,2,0,P|368:128|264:56,1,172.500006580353
424,4,115049,6,0,P|468:0|504:20,1,86.2500032901765
448,260,115299,6,0,P|416:160|448:88,1,172.500006580353
376,304,115674,1,0,0:0:0:0:
252,232,115799,6,0,L|304:224,3,43.1250016450883
184,256,116049,2,0,L|236:264,3,43.1250016450883
112,296,116299,5,0,0:0:0:0:
88,252,116382,1,0,0:0:0:0:
92,200,116465,1,0,0:0:0:0:
116,152,116549,2,0,P|140:100|128:48,1,86.2500032901765
80,12,116799,5,0,0:0:0:0:
212,132,116924,2,0,P|264:144|324:124,1,86.2500032901765
452,20,117299,6,0,P|440:124|540:148,1,172.500006580353
512,76,117674,1,0,0:0:0:0:
480,252,117799,6,0,P|416:260|372:248,1,86.2500032901765
296,180,118049,2,0,P|360:172|404:184,1,86.2500032901765
244,328,118299,6,0,P|224:236|284:168,1,172.500006580353
472,172,118674,1,0,0:0:0:0:
472,172,118799,2,0,P|433:255|340:256,1,172.500006580353
92,84,119299,6,0,P|160:68|272:104,1,172.500006580353
296,160,119674,2,0,P|224:144|120:172,1,172.500006580353
80,236,120049,1,0,0:0:0:0:
368,228,120299,5,0,0:0:0:0:
396,192,120382,1,0,0:0:0:0:
400,148,120465,1,0,0:0:0:0:
380,104,120549,2,0,P|372:48|396:-4,1,86.2500032901765
488,112,120799,6,0,P|428:120|400:116,1,86.2500032901765
192,32,121049,2,0,P|252:24|280:28,1,86.2500032901765
88,168,121299,6,0,P|60:80|128:20,1,172.500006580353
184,176,121674,2,0,P|141:258|51:252,1,172.500006580353
144,96,122049,1,0,0:0:0:0:
264,144,122174,1,0,0:0:0:0:
48,252,122299,6,0,P|144:252|236:320,1,172.500006580353
284,236,122674,2,0,P|336:248|384:240,1,86.2500032901765
472,160,123049,2,0,P|452:248|472:352,2,172.500006580353
360,120,123799,6,0,L|352:60,3,43.1250016450883
284,152,124049,2,0,L|276:92,3,43.1250016450883
208,184,124299,5,0,0:0:0:0:
160,200,124382,1,0,0:0:0:0:
108,200,124465,1,0,0:0:0:0:
60,184,124549,2,0,P|12:164|-20:168,1,86.2500032901765
48,380,124799,6,0,L|60:276,1,86.2500032901765
144,280,125049,2,0,L|132:384,1,86.2500032901765
256,348,125299,6,0,P|244:236|296:192,1,172.500006580353
484,192,125674,2,0,P|413:279|345:274,1,172.500006580353
484,192,126049,2,0,L|496:92,1,86.2500032901765
276,48,126299,6,0,P|332:76|416:72,1,86.2500032901765
436,36,126549,1,0,0:0:0:0:
208,112,126674,6,0,P|152:84|68:88,1,86.2500032901765
48,124,126924,1,0,0:0:0:0:
236,220,127049,6,0,P|280:160|276:72,1,86.2500032901765
132,328,127299,6,0,P|220:304|320:360,1,172.500006580353
488,256,127674,2,0,P|400:280|300:224,1,172.500006580353
280,52,128049,6,0,P|332:40|396:68,1,86.2500032901765
464,160,128298,5,0,0:0:0:0:
424,140,128382,1,0,0:0:0:0:
380,136,128465,1,0,0:0:0:0:
336,152,128549,2,0,P|292:176|228:172,1,86.2500032901765
68,24,128799,2,0,P|152:36|204:128,1,172.500006580353
144,260,129174,5,0,0:0:0:0:
104,168,129298,1,0,0:0:0:0:
232,288,129424,6,0,P|184:340|72:320,1,172.500006580353
48,56,129798,2,0,P|118:53|180:132,1,172.500006580353
232,188,130174,5,0,0:0:0:0:
56,240,130298,1,0,0:0:0:0:
252,100,130424,6,0,P|328:88|432:120,1,172.500006580353
500,160,130799,2,0,P|424:148|320:180,1,172.500006580353
360,268,131174,5,0,0:0:0:0:
468,264,131299,1,0,0:0:0:0:
288,240,131424,6,0,P|292:312|412:332,1,172.500006580353
402,116,131799,2,0,P|322:72|230:128,1,172.500006580353
208,180,132174,1,0,0:0:0:0:
208,32,132299,5,0,0:0:0:0:
252,16,132382,1,0,0:0:0:0:
296,24,132465,1,0,0:0:0:0:
336,52,132549,2,0,P|380:72|420:64,1,86.2500032901765
148,104,132799,6,0,P|112:192|168:276,1,172.500006580353
308,204,133174,2,0,P|264:180|200:187,1,86.2500032901765
256,304,133424,2,0,P|352:320|408:232,1,172.500006580353
412,168,133799,2,0,P|496:232|472:352,1,172.500006580353
336,124,134174,6,0,P|344:88|336:36,1,86.2500032901765
108,72,134424,2,0,P|212:104|284:56,1,172.500006580353
344,4,134799,1,0,0:0:0:0:
376,12,134924,2,0,P|272:44|200:-4,1,172.500006580353
212,0,135299,1,0,0:0:0:0:
440,124,135424,6,0,P|388:112|320:140,1,86.2500032901765
204,196,135674,2,0,P|308:184|352:92,1,172.500006580353
144,132,136049,1,0,0:0:0:0:
144,132,136174,1,0,0:0:0:0:
104,312,136299,5,0,0:0:0:0:
148,296,136382,1,0,0:0:0:0:
192,300,136465,1,0,0:0:0:0:
228,332,136549,2,0,P|280:356|336:352,1,86.2500032901765
424,240,136799,6,0,P|440:340|344:384,1,172.500006580353
348,208,137174,2,0,P|380:168|464:176,1,86.2500032901765
496,48,137424,6,0,P|412:76|320:40,1,172.500006580353
136,132,137799,2,0,P|220:104|312:140,1,172.500006580353
248,276,138299,5,0,0:0:0:0:
352,320,138424,2,0,P|240:296|172:328,1,172.500006580353
40,224,138799,2,0,P|100:264|88:344,1,86.2500032901765
228,164,139049,2,0,P|175:213|201:290,1,86.2500032901765
312,196,139299,1,0,0:0:0:0:
312,196,139424,6,0,P|304:108|184:92,1,172.500006580353
80,32,139799,2,0,P|142:94|77:196,1,172.500006580353
296,36,140299,5,0,0:0:0:0:
340,24,140382,1,0,0:0:0:0:
384,28,140465,1,0,0:0:0:0:
428,44,140549,2,0,P|484:64|552:52,1,86.2500032901765
384,184,140799,6,0,P|336:196|248:164,1,86.2500032901765
452,128,141049,2,0,P|464:220|416:264,1,129.375004935265
376,292,141299,2,0,P|476:276|520:352,1,172.500006580353
340,372,141674,2,0,P|248:356|176:400,1,172.500006580353
96,344,142049,2,0,P|104:292|80:244,1,86.2500032901765
0,112,142299,6,0,P|100:88|208:136,1,172.500006580353
440,176,142674,2,0,P|340:152|232:200,1,172.500006580353
304,260,143049,1,0,0:0:0:0:
52,8,143299,6,0,P|124:48|212:-32,1,172.500006580353
452,68,143799,6,0,P|378:106|306:66,1,172.500006580353
168,152,144299,6,0,P|136:280|240:216,1,230
240,96,144674,1,0,0:0:0:0:
312,324,144799,2,0,P|380:336|448:312,1,100.625000959635
424,128,145049,2,0,P|356:116|288:140,1,100.625000959635
484,212,145299,6,0,P|528:108|448:28,1,201.25000191927
232,64,145674,5,0,0:0:0:0:
232,64,145799,2,0,L|304:60,1,43.1250016450883
264,176,146049,2,0,L|192:172,1,43.1250016450883
52,84,146299,6,0,P|100:184|44:264,1,201.25000191927
184,220,146674,2,0,P|252:260|352:172,1,201.25000191927
272,72,147049,2,0,P|252:120|276:208,1,100.625000959635
464,288,147299,6,0,P|480:196|432:124,1,100.625000959635
288,356,147549,2,0,P|272:264|320:192,1,100.625000959635
480,288,147799,2,0,P|496:196|448:124,1,100.625000959635
272,372,148049,2,0,P|256:280|304:208,1,100.625000959635
428,124,148299,5,0,0:0:0:0:
392,164,148382,1,0,0:0:0:0:
340,172,148465,1,0,0:0:0:0:
288,152,148549,2,0,P|228:136|172:156,1,100.625000959635
120,316,148799,6,0,P|136:260|120:200,1,100.625000959635
28,144,149049,2,0,P|12:200|28:260,1,100.625000959635
180,24,149299,6,0,P|92:-8|16:72,1,201.25000191927
248,88,149674,1,0,0:0:0:0:
248,88,149799,2,0,L|352:80,1,71.875
424,180,150049,2,0,L|328:172,1,71.875
248,272,150299,6,0,P|256:212|236:164,1,71.875
120,252,150549,2,0,P|112:312|132:360,1,71.875
388,260,150799,6,0,P|304:236|244:260,1,143.75
240,344,151174,1,0,0:0:0:0:
332,184,151299,6,0,L|336:96,1,71.875
192,68,151549,2,0,L|196:156,1,71.875
352,176,151799,6,0,L|356:88,1,71.875
168,84,152049,2,0,L|172:172,1,71.875
432,228,152299,5,0,0:0:0:0:
448,176,152382,1,0,0:0:0:0:
436,124,152465,1,0,0:0:0:0:
400,84,152549,2,0,P|393:45|412:-16,1,100.625000959635
484,308,152799,6,0,P|400:312|344:272,1,100.625000959635
171,231,153049,2,0,P|255:228|307:183,1,100.625000959635
508,324,153299,2,0,P|424:328|368:288,1,100.625000959635
156,208,153549,2,0,P|240:204|292:159,1,100.625000959635
112,312,153799,6,0,P|40:232|112:112,1,201.25000191927
236,104,154174,1,0,0:0:0:0:
236,104,154299,2,0,L|116:88,1,100.625000959635
40,220,154549,2,0,L|160:204,1,100.625000959635
328,140,154799,6,0,P|296:252|376:320,1,201.25000191927
432,312,155174,1,0,0:0:0:0:
392,76,155299,6,0,P|308:52|240:84,1,100.625000959635
120,188,155549,2,0,P|204:164|272:196,1,100.625000959635
420,108,155799,6,0,P|336:84|268:116,1,100.625000959635
92,152,156049,2,0,P|176:128|244:160,1,100.625000959635
372,264,156299,5,0,0:0:0:0:
324,284,156382,1,0,0:0:0:0:
272,284,156465,1,0,0:0:0:0:
224,260,156549,2,0,P|156:248|120:264,1,100.625000959635
24,324,156799,6,0,P|48:272|12:180,1,100.625000959635
216,152,157049,2,0,P|196:205|244:292,1,100.625000959635
288,212,157299,6,0,P|292:96|184:64,1,201.25000191927
48,96,157674,1,0,0:0:0:0:
48,96,157799,2,0,L|164:88,1,100.625000959635
272,208,158049,2,0,L|156:200,1,100.625000959635
288,120,158299,6,0,P|360:192|296:296,1,201.25000191927
232,52,158674,1,0,0:0:0:0:
232,52,158799,2,0,P|284:32|352:60,1,100.625000959635
480,184,159049,2,0,P|428:204|360:176,1,100.625000959635
376,0,159299,6,0,P|416:100|368:196,1,201.25000191927
292,208,159674,1,0,0:0:0:0:
416,12,159799,6,0,P|428:118|357:199,1,201.25000191927
280,192,160174,1,0,0:0:0:0:
48,112,160299,6,0,P|144:80|244:192,1,201.25000191927
132,180,160799,2,0,P|120:224|128:268,1,86.25
272,340,161299,2,0,P|284:296|276:252,1,86.25
204,276,161799,1,0,0:0:0:0:
432,232,162049,5,0,0:0:0:0:
404,220,162174,1,0,0:0:0:0:
376,208,162299,2,0,L|328:184,1,28.75
364,332,162549,5,0,0:0:0:0:
364,332,162674,2,0,L|416:316,1,28.75
420,108,162924,1,0,0:0:0:0:
420,108,163049,2,0,L|372:84,1,28.75
156,156,163299,6,0,P|208:152|228:136,1,57.5
116,56,163799,2,0,P|64:60|44:76,1,57.5
44,224,164299,6,0,L|48:144,1,57.5
96,296,164799,6,0,P|144:304|192:292,1,86.25
264,256,165299,2,0,P|312:248|360:260,1,86.25
432,332,165799,1,0,0:0:0:0:
440,216,166049,1,0,0:0:0:0:
368,148,166299,1,0,0:0:0:0:
360,264,166549,1,0,0:0:0:0:
412,76,166799,6,0,P|364:63|333:70,1,57.5
208,124,167299,2,0,P|255:136|286:129,1,57.5
148,40,167799,2,0,P|100:27|69:34,1,57.5
44,192,168299,6,0,P|52:140|32:88,1,86.25
8,268,168799,5,0,0:0:0:0:
136,240,169049,1,0,0:0:0:0:
88,328,169299,1,0,0:0:0:0:
56,192,169549,1,0,0:0:0:0:
176,316,169799,6,0,P|224:304|280:320,1,86.25
336,352,170299,1,0,0:0:0:0:
448,336,170549,1,0,0:0:0:0:
484,192,170799,1,0,0:0:0:0:
372,208,171049,1,0,0:0:0:0:
296,48,171299,6,0,L|364:60,1,57.5
424,108,171799,2,0,L|492:96,1,57.5
256,136,172299,2,0,P|188:144|136:120,1,115
132,96,173299,1,0,0:0:0:0:
76,200,173799,6,0,L|88:268,1,57.5
176,336,174299,2,0,L|188:268,1,57.5
280,208,174799,2,0,L|289:264,1,57.5
444,208,175299,6,0,P|424:160|400:144,1,57.5
220,108,175799,6,0,P|292:124|400:64,1,172.5
276,20,176299,5,0,0:0:0:0:
232,4,176382,1,0,0:0:0:0:
188,4,176465,1,0,0:0:0:0:
144,20,176549,2,0,P|92:40|44:36,1,86.2500032901765
16,192,176799,6,0,L|132:176,1,86.2500032901765
200,316,177049,2,0,L|84:300,1,86.2500032901765
300,176,177299,6,0,P|356:284|240:368,1,258.75000987053
408,152,177799,2,0,P|464:152|504:176,1,86.2500032901765
268,268,178049,2,0,P|212:268|172:244,1,86.2500032901765
320,60,178299,6,0,L|300:176,1,86.2500032901765
160,256,178549,2,0,L|145:171,1,86.2500032901765
392,12,178799,6,0,P|404:72|376:124,1,86.2500032901765
120,152,179049,2,0,P|153:101|210:84,1,86.2500032901765
296,328,179299,6,0,P|236:340|184:312,1,86.2500032901765
264,168,179549,2,0,P|323:156|376:183,1,86.2500032901765
328,336,179799,6,0,P|268:348|216:320,1,86.2500032901765
240,144,180049,2,0,P|299:132|352:159,1,86.2500032901765
128,328,180299,5,0,0:0:0:0:
140,284,180382,1,0,0:0:0:0:
136,240,180465,1,0,0:0:0:0:
112,200,180549,2,0,P|88:168|96:104,1,86.2500032901765
228,48,180799,6,0,L|136:32,1,86.2500032901765
0,120,181049,2,0,L|92:104,1,86.2500032901765
392,80,181299,2,0,P|292:56|220:200,1,258.75000987053
288,312,181799,6,0,P|304:256|292:204,1,86.2500032901765
424,168,182049,2,0,P|408:224|420:276,1,86.2500032901765
184,300,182299,6,0,P|240:288|324:316,1,86.2500032901765
468,348,182549,2,0,P|412:360|328:332,1,86.2500032901765
136,372,182799,2,0,P|104:280|180:216,1,172.500006580353
244,240,183174,1,0,0:0:0:0:
0,220,183299,2,0,P|96:240|188:208,1,172.500006580353
216,156,183674,1,0,0:0:0:0:
64,28,183799,6,0,P|48:76|72:136,1,86.2500032901765
292,176,184049,2,0,P|292:128|232:80,1,86.2500032901765
92,328,184299,5,0,0:0:0:0:
132,308,184382,1,0,0:0:0:0:
176,308,184465,1,0,0:0:0:0:
216,332,184549,2,0,P|272:348|320:336,1,86.2500032901765
412,232,184799,6,0,L|404:328,1,86.2500032901765
300,244,185049,2,0,L|292:148,1,86.2500032901765
488,88,185299,2,0,P|408:124|344:36,1,172.500006580353
424,36,185674,1,0,0:0:0:0:
196,112,185799,6,0,L|296:104,1,86.2500032901765
284,244,186049,2,0,L|184:236,1,86.2500032901765
28,176,186299,6,0,L|96:168,1,43.1250016450883
120,268,186549,2,0,L|52:260,1,43.1250016450883
20,80,186799,6,0,P|116:56|188:108,1,172.500006580353
148,180,187174,1,0,0:0:0:0:
444,152,187299,6,0,P|348:128|276:180,1,172.500006580353
316,252,187674,1,0,0:0:0:0:
448,132,187799,6,0,P|456:84|452:36,1,86.2500032901765
240,144,188049,2,0,P|232:192|236:240,1,86.2500032901765
368,40,188299,5,0,0:0:0:0:
324,56,188382,1,0,0:0:0:0:
280,52,188465,1,0,0:0:0:0:
240,28,188549,2,0,P|196:12|136:20,1,86.2500032901765
12,132,188799,6,0,L|132:120,1,86.2500032901765
224,244,189049,2,0,L|104:232,1,86.2500032901765
20,328,189299,6,0,P|112:372|216:260,1,258.75000987053
20,236,189799,6,0,L|128:224,1,86.2500032901765
232,168,190049,2,0,L|340:156,1,86.2500032901765
448,216,190299,6,0,L|440:272,1,43.1250016450883
348,304,190549,2,0,L|340:248,1,43.1250016450883
328,24,190799,2,0,P|372:96|304:180,1,172.500006580353
288,100,191174,1,0,0:0:0:0:
460,24,191299,2,0,L|448:216,1,172.500006580353
440,296,191674,1,0,0:0:0:0:
164,264,191799,6,0,L|144:156,1,86.2500032901765
204,104,192049,2,0,L|208:56,2,43.1250016450883
