osu file format v14

[General]
AudioFilename: audio.mp3
AudioLeadIn: 0
PreviewTime: 88182
Countdown: 0
SampleSet: Normal
StackLeniency: 0.2
Mode: 0
LetterboxInBreaks: 0
WidescreenStoryboard: 1

[Editor]
Bookmarks: 43651,107805
DistanceSpacing: 1
BeatDivisor: 4
GridSize: 4
TimelineZoom: 1.5

[Metadata]
Title:CROOKED
TitleUnicode:삐딱하게
Artist:G-DRAGON
ArtistUnicode:G-DRAGON
Creator:WORSTPOLACKEU
Version:Advanced
Source:
Tags:Kpop k-pop Coup d'Etat Natsu Firetruck Big Bang
BeatmapID:1358555
BeatmapSetID:607613

[Difficulty]
HPDrainRate:4.2
CircleSize:3
OverallDifficulty:4
ApproachRate:5
SliderMultiplier:1.4
SliderTickRate:1

[Events]
//Background and Video events
0,0,"gdrag.jpg",0,0
//Break Periods
2,74395,87764
//Storyboard Layer 0 (Background)
//Storyboard Layer 1 (Fail)
//Storyboard Layer 2 (Pass)
//Storyboard Layer 3 (Foreground)
//Storyboard Sound Samples

[TimingPoints]
349,461.538461538462,4,1,1,70,1,0
15118,-83.3333333333333,4,1,1,70,0,1
22502,-83.3333333333333,4,1,2,70,0,1
22849,-83.3333333333333,4,1,1,5,0,1
22964,-83.3333333333333,4,1,2,80,0,1
23425,-83.3333333333333,4,1,1,70,0,1
24349,-83.3333333333333,4,1,2,70,0,1
24695,-83.3333333333333,4,1,1,5,0,1
24810,-83.3333333333333,4,1,2,80,0,1
25272,-83.3333333333333,4,1,1,70,0,1
28041,-83.3333333333333,4,1,1,80,0,0
29887,-83.3333333333333,4,1,1,70,0,1
37272,-83.3333333333333,4,1,2,70,0,1
37618,-83.3333333333333,4,1,1,5,0,1
37733,-83.3333333333333,4,1,2,80,0,1
38195,-83.3333333333333,4,1,1,70,0,1
39118,-83.3333333333333,4,1,2,70,0,1
39464,-83.3333333333333,4,1,1,5,0,1
39579,-83.3333333333333,4,1,2,80,0,1
40041,-83.3333333333333,4,1,1,70,0,1
42810,-83.3333333333333,4,1,1,70,0,0
44541,-83.3333333333333,4,1,1,5,0,0
44656,-83.3333333333333,4,1,1,70,0,0
47887,-83.3333333333333,4,1,2,70,0,0
48349,-83.3333333333333,4,1,1,70,0,0
51579,-83.3333333333333,4,1,2,70,0,0
52041,-83.3333333333333,4,1,1,70,0,0
53425,-83.3333333333333,4,1,3,70,0,0
53656,-83.3333333333333,4,1,1,70,0,0
55272,-83.3333333333333,4,1,2,70,0,0
55733,-83.3333333333333,4,1,1,70,0,0
57118,-83.3333333333333,4,1,2,70,0,0
57464,-83.3333333333333,4,1,1,5,0,0
57579,-83.3333333333333,4,1,2,70,0,0
58964,-83.3333333333333,4,1,5,70,0,0
59425,-83.3333333333333,4,1,1,70,0,0
60810,-83.3333333333333,4,1,2,85,0,0
61272,-83.3333333333333,4,1,1,70,0,0
62656,-83.3333333333333,4,1,2,70,0,0
63118,-83.3333333333333,4,1,1,70,0,0
66349,-83.3333333333333,4,1,5,70,0,0
66579,-83.3333333333333,4,1,3,70,0,0
67041,-83.3333333333333,4,1,1,70,0,0
70272,-83.3333333333333,4,1,3,70,0,0
70502,-83.3333333333333,4,1,1,70,0,0
72349,-83.3333333333333,4,1,2,70,0,0
73502,-83.3333333333333,4,1,1,70,0,0
74079,-83.3333333333333,4,1,1,5,0,0
74195,-83.3333333333333,4,1,2,70,0,0
88964,-83.3333333333333,4,1,1,70,0,1
96349,-83.3333333333333,4,1,2,70,0,1
96695,-83.3333333333333,4,1,1,5,0,1
96810,-83.3333333333333,4,1,2,90,0,1
97272,-83.3333333333333,4,1,1,90,0,1
98195,-83.3333333333333,4,1,2,70,0,1
98541,-83.3333333333333,4,1,1,5,0,1
98656,-83.3333333333333,4,1,2,70,0,1
99118,-83.3333333333333,4,1,1,70,0,1
101887,-83.3333333333333,4,1,1,70,0,0
103733,-83.3333333333333,4,1,1,70,0,1
111118,-83.3333333333333,4,1,2,70,0,1
111579,-83.3333333333333,4,1,2,80,0,1
111810,-83.3333333333333,4,1,1,70,0,1
112964,-83.3333333333333,4,1,2,70,0,1
113310,-83.3333333333333,4,1,1,5,0,1
113425,-83.3333333333333,4,1,2,80,0,1
113656,-83.3333333333333,4,1,1,70,0,1
116656,-83.3333333333333,4,1,1,70,0,0
118041,-83.3333333333333,4,1,1,70,0,1
118387,-83.3333333333333,4,1,1,5,0,1
118502,-83.3333333333333,4,1,1,70,0,1
131425,-83.3333333333333,4,1,1,70,0,0
133272,-83.3333333333333,4,1,1,70,0,1
140656,-83.3333333333333,4,1,4,60,0,1
142502,-83.3333333333333,4,1,4,70,0,1
144349,-83.3333333333333,4,1,4,80,0,1
144810,-83.3333333333333,4,1,5,95,0,1
146195,-83.3333333333333,4,1,1,70,0,0
147925,-83.3333333333333,4,1,1,5,0,0
148041,-83.3333333333333,4,1,1,70,0,0

[Colours]
Combo1 : 242,238,183
Combo2 : 192,192,192
Combo3 : 96,175,240
Combo4 : 247,111,131

[HitObjects]
17,116,15118,6,0,P|82:78|190:102,1,167.999994873047,4|8,0:0|0:0,0:0:0:0:
220,160,15810,1,0,0:0:0:0:
300,136,16041,2,0,L|392:120,1,83.9999974365235,0|0,0:0|0:0,0:0:0:0:
404,40,16502,2,0,L|512:64,1,83.9999974365235,8|0,0:0|0:0,0:0:0:0:
492,144,16964,6,0,B|508:266|508:266|488:324,1,167.999994873047,2|8,0:0|0:0,0:0:0:0:
420,348,17656,1,0,0:0:0:0:
348,308,17887,2,0,L|264:324,1,83.9999974365235,2|0,0:0|0:0,0:0:0:0:
188,360,18348,2,0,L|96:340,1,83.9999974365235,8|0,0:0|0:0,0:0:0:0:
48,284,18810,6,0,B|32:242|32:242|49:119,1,167.999994873047,0|8,0:0|0:0,0:0:0:0:
132,108,19502,1,0,0:0:0:0:
168,184,19733,2,0,L|280:192,1,83.9999974365235,2|0,0:0|0:0,0:0:0:0:
332,216,20195,2,0,L|340:104,1,83.9999974365235,8|0,0:0|0:0,0:0:0:0:
420,160,20656,2,0,L|408:356,1,167.999994873047,2|8,0:0|0:0,0:0:0:0:
244,340,21579,6,0,L|144:352,1,83.9999974365235,2|0,0:0|0:0,0:0:0:0:
80,324,22041,2,0,P|108:280|168:268,1,83.9999974365235,8|0,0:0|0:0,0:0:0:0:
96,192,22502,2,0,P|160:184|220:248,1,125.999996154785,6|0,0:0|0:0,0:0:0:0:
220,260,22964,6,0,B|280:244|280:244|320:252,1,83.9999974365235,10|0,0:0|0:0,0:0:0:0:
348,316,23425,6,0,L|448:328,1,83.9999974365235,2|0,0:0|0:0,0:0:0:0:
512,300,23887,2,0,P|484:256|424:244,1,83.9999974365235,8|0,0:0|0:0,0:0:0:0:
496,168,24348,2,0,P|432:160|372:224,1,125.999996154785,2|0,0:0|0:0,0:0:0:0:
352,224,24810,6,0,B|330:228|330:228|270:212,1,83.9999974365235,10|0,0:0|0:0,0:0:0:0:
224,140,25272,6,0,P|184:120|128:124,1,83.9999974365235,2|0,0:0|0:0,0:0:0:0:
84,176,25733,2,0,P|64:136|68:80,1,83.9999974365235,8|0,0:0|0:0,0:0:0:0:
145,119,26195,6,0,L|157:27,1,83.9999974365235,2|0,0:0|0:0,0:0:0:0:
228,80,26656,2,0,L|263:-5,1,83.9999974365235,8|0,0:0|0:0,0:0:0:0:
320,60,27118,2,0,L|336:172,1,83.9999974365235,2|0,0:0|0:0,0:0:0:0:
340,228,27579,1,8,0:0:0:0:
204,328,28041,5,10,0:3:0:0:
144,260,28272,1,0,0:0:0:0:
120,344,28502,5,10,0:3:0:0:
60,276,28733,1,0,0:0:0:0:
88,196,28964,5,10,0:3:0:0:
172,180,29195,1,0,0:0:0:0:
228,244,29425,2,0,B|308:224|308:224|364:232,1,125.999996154785,10|8,0:3|0:0,0:0:0:0:
380,268,29887,6,0,P|396:228|368:184,1,83.9999974365235,4|0,0:2|0:0,0:0:0:0:
332,124,30349,2,0,P|368:108|428:124,1,83.9999974365235,10|0,0:0|0:0,0:0:0:0:
468,176,30810,1,0,0:0:0:0:
496,96,31041,1,0,0:0:0:0:
440,32,31272,2,0,L|336:12,1,83.9999974365235,10|0,0:0|0:0,0:0:0:0:
284,56,31733,6,0,B|176:76|176:76|96:60,1,167.999994873047,0|8,0:0|0:0,0:0:0:0:
40,40,32425,1,0,0:0:0:0:
20,120,32656,2,0,L|36:208,1,83.9999974365235,2|0,0:0|0:0,0:0:0:0:
14,284,33118,2,0,P|62:284|110:236,1,83.9999974365235,8|0,0:0|0:0,0:0:0:0:
128,188,33579,6,0,B|188:176|188:176|320:192,1,167.999994873047,2|8,0:0|0:0,0:0:0:0:
355,247,34272,1,0,0:0:0:0:
436,224,34502,2,0,L|460:132,1,83.9999974365235,2|0,0:0|0:0,0:0:0:0:
496,68,34964,2,0,P|456:57|394:91,1,83.9999974365235,8|0,0:0|0:0,0:0:0:0:
368,140,35425,6,0,B|321:108|335:40|335:40|303:60|259:56,1,167.999994873047,2|8,0:0|0:0,0:0:0:0:
180,192,36349,6,0,L|80:180,1,83.9999974365235,2|0,0:0|0:0,0:0:0:0:
16,208,36811,2,0,P|44:252|104:264,1,83.9999974365235,8|0,0:0|0:0,0:0:0:0:
32,340,37272,2,0,P|96:348|156:284,1,125.999996154785,2|0,0:0|0:0,0:0:0:0:
156,272,37734,6,0,B|216:288|216:288|256:280,1,83.9999974365235,10|0,0:0|0:0,0:0:0:0:
284,216,38195,6,0,L|384:204,1,83.9999974365235,2|0,0:0|0:0,0:0:0:0:
448,232,38657,2,0,P|420:276|360:288,1,83.9999974365235,8|0,0:0|0:0,0:0:0:0:
432,364,39118,2,0,P|368:372|308:308,1,125.999996154785,2|0,0:0|0:0,0:0:0:0:
288,308,39580,6,0,B|266:304|266:304|206:320,1,83.9999974365235,10|0,0:0|0:0,0:0:0:0:
144,376,40041,6,0,P|124:344|132:280,1,83.9999974365235,2|0,0:0|0:0,0:0:0:0:
184,240,40502,2,0,L|176:144,1,83.9999974365235,8|0,0:0|0:0,0:0:0:0:
120,92,40964,6,0,P|160:68|224:88,1,83.9999974365235,2|0,0:0|0:0,0:0:0:0:
256,12,41425,2,0,P|280:52|260:116,1,83.9999974365235,8|0,0:0|0:0,0:0:0:0:
336,148,41887,2,0,P|296:172|232:152,1,83.9999974365235,2|0,0:0|0:0,0:0:0:0:
177,156,42349,1,8,0:0:0:0:
72,285,42810,5,8,0:0:0:0:
156,297,43041,1,8,0:3:0:0:
124,221,43272,5,8,0:0:0:0:
208,233,43503,1,8,0:3:0:0:
176,157,43733,5,8,0:0:0:0:
260,169,43964,1,8,0:3:0:0:
228,92,44195,5,8,0:2:0:0:
408,80,44656,6,0,B|396:139|396:139|411:245,1,167.999994873047,2|8,0:0|0:0,0:0:0:0:
439,325,45349,2,0,P|399:329|343:289,1,83.9999974365235,2|0,0:0|0:0,0:0:0:0:
200,352,46041,2,0,P|188:311|190:270,1,83.9999974365235,8|0,0:0|0:0,0:0:0:0:
240,200,46502,6,0,P|200:184|103:263,1,167.999994873047,2|8,0:0|0:0,0:0:0:0:
21,240,47195,1,0,0:0:0:0:
16,155,47425,2,0,L|32:59,1,83.9999974365235,2|0,0:0|0:0,0:0:0:0:
108,41,47887,1,10,0:0:0:0:
224,168,48349,6,0,P|261:136|268:80,1,83.9999974365235,2|0,0:0|0:0,0:0:0:0:
240,28,48810,1,8,0:0:0:0:
324,40,49041,2,0,L|412:48,2,83.9999974365235,2|0|0,0:0|0:0|0:0,0:0:0:0:
240,28,49733,1,8,0:0:0:0:
176,84,49964,1,0,0:0:0:0:
92,72,50195,6,0,P|61:100|51:140,1,83.9999974365235,2|0,0:0|0:0,0:0:0:0:
16,216,50656,2,0,P|48:248|99:255,1,83.9999974365235,8|0,0:0|0:0,0:0:0:0:
88,340,51118,2,0,P|131:328|163:287,1,83.9999974365235,2|0,0:0|0:0,0:0:0:0:
196,224,51579,1,10,0:0:0:0:
292,356,52041,6,0,B|411:363|411:363|484:335,1,167.999994873047,2|0,0:0|0:0,0:0:0:0:
492,268,52733,1,2,0:0:0:0:
476,184,52964,2,0,L|464:88,1,83.9999974365235,0|0,0:0|0:0,0:0:0:0:
507,27,53425,1,10,0:2:0:0:
357,100,53887,6,0,B|249:124|249:124|181:96,1,167.999994873047,2|8,0:0|0:0,0:0:0:0:
213,20,54579,1,0,0:0:0:0:
133,48,54810,2,0,P|113:88|125:140,1,83.9999974365235,2|0,0:0|0:0,0:0:0:0:
177,184,55272,1,12,0:3:0:0:
20,236,55733,6,0,P|0:284|16:340,1,83.9999974365235,2|0,0:0|0:0,0:0:0:0:
78,353,56195,1,8,0:0:0:0:
155,318,56425,2,0,B|260:291|260:291|324:309,1,167.999994873047,2|0,0:0|0:0,0:0:0:0:
370,372,57118,1,6,0:3:0:0:
427,216,57579,6,0,L|339:206,1,83.9999974365235,2|0,0:0|0:0,0:0:0:0:
376,128,58041,2,0,L|292:118,1,83.9999974365235,2|0,0:0|0:0,0:0:0:0:
224,167,58502,2,0,P|208:128|214:87,1,83.9999974365235,2|0,0:0|0:3,0:0:0:0:
245,8,58964,1,6,3:0:0:0:
100,93,59425,6,0,B|120:122|120:122|109:189,1,83.9999974365235,2|0,0:0|0:0,0:0:0:0:
97,255,59887,1,8,0:0:0:0:
85,338,60118,2,0,P|42:319|16:280,2,83.9999974365235,2|0|0,0:0|0:0|0:0,0:0:0:0:
168,349,60810,2,0,B|218:344|218:344|289:358|289:358|351:348,1,167.999994873047,4|0,0:2|0:2,0:2:0:0:
392,291,61502,5,0,0:0:0:0:
419,211,61733,2,0,P|378:206|340:222,1,83.9999974365235,8|0,0:0|0:0,0:0:0:0:
268,264,62195,2,0,P|254:224|265:184,1,83.9999974365235,2|0,0:0|0:0,0:0:0:0:
311,114,62656,1,12,0:3:0:0:
180,175,63118,6,0,L|91:160,1,83.9999974365235,2|0,0:0|0:0,0:0:0:0:
54,88,63579,1,8,0:0:0:0:
12,160,63810,2,0,B|21:227|71:240|71:240|95:271|93:315,1,167.999994873047,2|0,0:0|0:0,0:0:0:0:
165,339,64502,6,0,L|261:323,1,83.9999974365235,8|0,0:0|0:0,0:0:0:0:
332,329,64964,2,0,L|431:332,1,83.9999974365235,2|0,0:0|0:0,0:0:0:0:
488,373,65425,2,0,P|502:328|477:276,1,83.9999974365235,8|0,0:0|0:0,0:0:0:0:
419,249,65887,2,0,L|425:154,1,83.9999974365235,2|0,0:0|0:0,0:0:0:0:
502,197,66349,1,6,0:3:0:0:
493,113,66579,6,0,L|489:63,3,27.9999991455078,8|8|8|4,0:3|0:3|0:3|0:3,0:0:0:0:
326,60,67272,6,0,L|210:52,1,83.9999974365235,8|2,0:0|0:0,0:0:0:0:
164,84,67733,2,0,P|158:43|174:5,2,83.9999974365235,0|0|8,0:0|0:0|0:0,0:0:0:0:
222,145,68425,1,0,0:0:0:0:
280,205,68656,6,0,P|280:257|232:305,1,83.9999974365235,2|0,0:0|0:0,0:0:0:0:
197,231,69118,2,0,L|105:223,1,83.9999974365235,8|0,0:0|0:0,0:0:0:0:
49,169,69579,2,0,P|43:269|108:309,1,167.999994873047,2|8,0:0|0:0,0:0:0:0:
155,359,70272,1,8,0:2:0:0:
230,323,70502,6,0,L|338:315,1,83.9999974365235,2|0,0:0|0:0,0:0:0:0:
382,365,70964,1,8,0:0:0:0:
453,321,71195,2,0,B|469:209|469:209|437:125,1,167.999994873047,2|0,0:0|0:0,0:0:0:0:
468,75,71887,2,0,P|426:73|391:95,1,83.9999974365235,8|0,0:0|0:0,0:0:0:0:
356,171,72349,5,2,0:0:0:0:
332,251,72579,1,0,0:0:0:0:
273,191,72810,5,2,0:0:0:0:
249,271,73040,1,0,0:0:0:0:
190,209,73272,5,2,0:0:0:0:
169,290,73502,1,0,0:2:0:0:
110,230,73733,5,0,0:0:0:0:
224,352,74195,1,0,0:0:0:0:
52,80,88964,6,0,B|40:204|40:204|60:264,1,167.999994873047,6|8,0:0|0:0,0:0:0:0:
124,292,89656,1,0,0:0:0:0:
208,284,89887,2,0,L|304:272,1,83.9999974365235,2|0,0:0|0:0,0:0:0:0:
352,336,90349,2,0,P|374:301|376:260,1,83.9999974365235,8|0,0:0|0:0,0:0:0:0:
324,192,90810,6,0,B|312:68|312:68|332:8,1,167.999994873047,2|8,0:0|0:0,0:0:0:0:
408,40,91502,1,0,0:0:0:0:
472,96,91733,2,0,L|480:188,1,83.9999974365235,2|0,0:0|0:0,0:0:0:0:
467,263,92195,2,0,P|425:246|399:199,1,83.9999974365235,8|0,0:0|0:0,0:0:0:0:
348,152,92656,6,0,B|297:140|297:140|185:172,1,167.999994873047,2|8,0:0|0:0,0:0:0:0:
108,204,93349,1,0,0:0:0:0:
66,131,93579,2,0,P|30:173|28:220,1,83.9999974365235,2|0,0:0|0:0,0:0:0:0:
64,276,94041,2,0,P|104:288|156:272,1,83.9999974365235,8|0,0:0|0:0,0:0:0:0:
148,364,94502,2,0,P|224:304|200:216,1,167.999994873047,2|8,0:0|0:0,0:0:0:0:
304,96,95425,6,0,L|404:84,1,83.9999974365235,2|0,0:0|0:0,0:0:0:0:
468,112,95887,2,0,P|440:156|380:168,1,83.9999974365235,8|0,0:0|0:0,0:0:0:0:
452,244,96348,2,0,P|388:252|328:188,1,125.999996154785,6|0,0:0|0:0,0:0:0:0:
308,192,96810,6,0,B|248:176|248:176|226:180,1,83.9999974365235,10|0,0:0|0:0,0:0:0:0:
168,120,97272,6,0,L|68:108,1,83.9999974365235,2|0,0:0|0:0,0:0:0:0:
4,136,97734,2,0,P|32:180|92:192,1,83.9999974365235,8|0,0:0|0:0,0:0:0:0:
20,268,98195,2,0,P|84:276|144:212,1,125.999996154785,2|0,0:0|0:0,0:0:0:0:
160,212,98657,6,0,B|176:272|176:272|171:293,1,83.9999974365235,10|0,0:0|0:0,0:0:0:0:
132,368,99118,6,0,P|167:380|224:360,1,83.9999974365235,2|0,0:0|0:0,0:0:0:0:
280,320,99579,2,0,L|376:312,1,83.9999974365235,8|0,0:0|0:0,0:0:0:0:
428,368,100041,6,0,P|448:320|428:260,1,83.9999974365235,2|0,0:0|0:0,0:0:0:0:
464,206,100502,2,0,P|422:205|387:228,1,83.9999974365235,8|0,0:0|0:0,0:0:0:0:
300,224,100964,2,0,P|309:184|340:156,1,83.9999974365235,2|0,0:0|0:0,0:0:0:0:
416,116,101425,1,8,0:0:0:0:
276,24,101887,5,10,0:3:0:0:
252,104,102118,1,0,0:0:0:0:
192,44,102349,5,10,0:3:0:0:
140,108,102580,1,0,0:0:0:0:
92,40,102810,5,10,0:3:0:0:
12,64,103041,1,0,0:0:0:0:
60,132,103272,2,0,B|72:208|72:208|52:260,1,125.999996154785,10|8,0:3|0:0,0:0:0:0:
16,268,103733,6,0,P|81:306|189:282,1,167.999994873047,4|8,0:2|0:0,0:0:0:0:
219,224,104425,1,0,0:0:0:0:
299,248,104656,2,0,L|391:264,1,83.9999974365235,2|0,0:0|0:0,0:0:0:0:
403,344,105118,2,0,L|511:320,1,83.9999974365235,8|0,0:0|0:0,0:0:0:0:
489,241,105579,6,0,B|506:117|506:117|486:59,1,167.999994873047,2|8,0:0|0:0,0:0:0:0:
419,36,106271,1,0,0:0:0:0:
347,76,106502,2,0,L|263:60,1,83.9999974365235,2|0,0:0|0:0,0:0:0:0:
187,24,106964,2,0,L|95:44,1,83.9999974365235,8|0,0:0|0:0,0:0:0:0:
31,0,107425,6,0,B|15:42|15:42|32:165,1,167.999994873047,2|8,0:0|0:0,0:0:0:0:
87,228,108117,1,0,0:0:0:0:
167,200,108348,2,0,L|279:192,1,83.9999974365235,2|0,0:0|0:0,0:0:0:0:
331,168,108810,2,0,L|339:280,1,83.9999974365235,8|0,0:0|0:0,0:0:0:0:
419,224,109271,2,0,L|407:28,1,167.999994873047,2|8,0:0|0:0,0:0:0:0:
243,44,110194,6,0,L|143:32,1,83.9999974365235,2|0,0:0|0:0,0:0:0:0:
79,60,110656,2,0,P|107:104|167:116,1,83.9999974365235,8|0,0:0|0:0,0:0:0:0:
95,192,111117,2,0,P|159:200|219:136,1,125.999996154785,6|0,0:0|0:0,0:0:0:0:
219,124,111579,6,0,B|279:140|279:140|319:132,1,83.9999974365235,10|0,0:0|0:0,0:0:0:0:
347,68,112041,6,0,L|447:56,1,83.9999974365235,2|0,0:0|0:0,0:0:0:0:
511,84,112502,2,0,P|483:128|423:140,1,83.9999974365235,8|0,0:0|0:0,0:0:0:0:
495,216,112963,2,0,P|431:224|371:160,1,125.999996154785,2|0,0:0|0:0,0:0:0:0:
351,160,113425,6,0,B|329:156|329:156|269:172,1,83.9999974365235,10|0,0:0|0:0,0:0:0:0:
223,244,113887,6,0,P|183:264|127:260,1,83.9999974365235,2|0,0:0|0:0,0:0:0:0:
60,276,114348,2,0,P|61:229|91:194,1,83.9999974365235,8|0,0:0|0:0,0:0:0:0:
164,180,114810,6,0,L|152:88,1,83.9999974365235,2|0,0:0|0:0,0:0:0:0:
105,26,115272,2,0,P|145:10|193:22,1,83.9999974365235,8|0,0:0|0:0,0:0:0:0:
235,84,115733,2,0,P|275:100|323:88,1,83.9999974365235,2|0,0:0|0:0,0:0:0:0:
378,38,116195,1,8,0:0:0:0:
460,183,116656,5,8,0:0:0:0:
482,264,116887,1,8,0:3:0:0:
399,248,117118,5,8,0:0:0:0:
377,329,117349,1,8,0:3:0:0:
317,269,117579,5,8,0:0:0:0:
244,310,117810,1,8,0:3:0:0:
230,227,118041,2,0,P|182:252|165:331,1,125.999996154785,8|0,0:2|0:0,0:0:0:0:
170,358,118502,6,0,L|69:344,1,83.9999974365235,6|0,0:0|0:0,0:0:0:0:
37,277,118964,2,0,B|28:222|28:222|41:176,1,83.9999974365235,8|0,0:0|0:0,0:0:0:0:
120,199,119425,2,0,P|109:149|74:120,1,83.9999974365235,2|0,0:0|0:0,0:0:0:0:
2,116,119887,1,8,0:0:0:0:
56,52,120118,6,0,P|102:44|137:62,1,83.9999974365235,0|2,0:0|0:0,0:0:0:0:
190,122,120579,2,0,L|285:112,1,83.9999974365235,0|8,0:0|0:0,0:0:0:0:
329,176,121041,2,0,P|352:150|355:94,1,83.9999974365235,0|2,0:0|0:0,0:0:0:0:
306,35,121502,2,0,P|355:15|403:35,1,83.9999974365235,0|8,0:0|0:0,0:0:0:0:
437,86,121964,1,0,0:0:0:0:
466,164,122195,6,0,L|454:253,1,83.9999974365235,2|0,0:0|0:0,0:0:0:0:
502,316,122656,2,0,P|451:332|400:307,1,83.9999974365235,8|0,0:0|0:0,0:0:0:0:
373,256,123118,2,0,B|316:248|316:248|262:257,1,83.9999974365235,2|0,0:0|0:0,0:0:0:0:
250,326,123579,1,8,0:0:0:0:
205,254,123810,6,0,P|215:206|261:170,1,83.9999974365235,0|2,0:0|0:0,0:0:0:0:
308,134,124272,2,0,P|276:103|208:102,1,83.9999974365235,0|8,0:0|0:0,0:0:0:0:
164,135,124733,2,0,L|74:146,1,83.9999974365235,0|2,0:0|0:0,0:0:0:0:
39,71,125195,2,0,P|2:114|-3:149,1,83.9999974365235,0|8,0:0|0:0,0:0:0:0:
32,215,125656,1,0,0:0:0:0:
106,254,125887,6,0,P|149:230|202:237,1,83.9999974365235,6|0,0:0|0:0,0:0:0:0:
167,313,126349,1,8,0:0:0:0:
245,341,126579,2,0,B|358:355|358:355|448:336,1,167.999994873047,0|0,0:3|0:0,0:0:0:0:
465,279,127272,2,0,P|423:258|374:267,1,83.9999974365235,8|0,0:0|0:0,0:0:0:0:
343,189,127733,6,0,L|361:103,1,83.9999974365235,2|0,0:0|0:0,0:0:0:0:
437,73,128195,1,8,0:0:0:0:
369,23,128425,2,0,B|316:11|316:11|203:25,1,167.999994873047,0|0,0:0|0:0,0:0:0:0:
237,102,129118,2,0,P|189:109|131:68,1,83.9999974365235,8|0,0:0|0:0,0:0:0:0:
92,41,129579,6,0,P|72:88|82:133,1,83.9999974365235,2|0,0:0|0:0,0:0:0:0:
133,181,130041,2,0,L|116:273,1,83.9999974365235,8|0,0:0|0:0,0:0:0:0:
42,301,130502,2,0,P|71:336|121:348,1,83.9999974365235,2|0,0:0|0:0,0:0:0:0:
184,316,130964,2,0,L|278:307,1,83.9999974365235,8|0,0:0|0:0,0:0:0:0:
346,336,131425,5,10,0:3:0:0:
427,315,131656,1,0,0:0:0:0:
367,255,131887,5,10,0:3:0:0:
426,196,132118,1,0,0:0:0:0:
344,175,132349,5,10,0:3:0:0:
345,90,132580,1,0,0:3:0:0:
269,127,132810,5,10,0:3:0:0:
269,127,133041,1,8,0:3:0:0:
269,127,133272,6,0,L|174:113,1,83.9999974365235,4|0,0:2|0:0,0:0:0:0:
143,41,133733,2,0,P|106:80|103:124,1,83.9999974365235,8|0,0:0|0:0,0:0:0:0:
16,112,134195,2,0,P|31:163|67:188,1,83.9999974365235,2|0,0:0|0:0,0:0:0:0:
137,183,134656,1,8,0:0:0:0:
185,114,134887,6,0,L|269:127,1,83.9999974365235,0|2,0:0|0:0,0:0:0:0:
311,54,135349,2,0,P|341:81|348:157,1,83.9999974365235,0|8,0:0|0:0,0:0:0:0:
438,121,135810,2,0,P|429:160|367:204,1,83.9999974365235,0|2,0:0|0:0,0:0:0:0:
334,244,136272,2,0,P|372:274|422:275,1,83.9999974365235,0|8,0:0|0:0,0:0:0:0:
480,240,136733,1,0,0:0:0:0:
480,324,136964,6,0,B|474:344|442:365|442:365|377:377|306:343,1,167.999994873047,2|8,0:0|0:0,0:0:0:0:
268,300,137656,1,0,0:0:0:0:
189,329,137887,2,0,L|104:335,1,83.9999974365235,2|0,0:0|0:0,0:0:0:0:
22,316,138349,1,8,0:0:0:0:
28,232,138579,6,0,P|64:186|90:177,1,83.9999974365235,0|2,0:0|0:0,0:0:0:0:
170,195,139041,2,0,P|166:141|124:106,1,83.9999974365235,0|8,0:0|0:0,0:0:0:0:
68,93,139502,2,0,P|104:44|158:41,1,83.9999974365235,0|2,0:0|0:0,0:0:0:0:
205,57,139964,2,0,L|305:68,1,83.9999974365235,0|8,0:0|0:0,0:0:0:0:
364,29,140425,1,0,0:0:0:0:
430,80,140656,6,0,L|441:185,1,83.9999974365235,6|0,0:2|0:0,0:0:0:0:
505,215,141118,2,0,P|468:245|418:242,1,83.9999974365235,8|0,0:2|0:0,0:0:0:0:
418,329,141579,2,0,P|373:311|351:267,1,83.9999974365235,2|0,0:2|0:0,0:0:0:0:
296,220,142041,2,0,B|258:205|258:205|218:226,1,83.9999974365235,8|0,0:2|0:0,0:0:0:0:
157,282,142502,6,0,P|133:316|94:329,1,83.9999974365235,6|0,0:2|0:0,0:0:0:0:
36,267,142964,2,0,L|29:179,1,83.9999974365235,8|0,0:2|0:0,0:0:0:0:
61,105,143425,1,2,0:2:0:0:
126,52,143656,2,0,P|89:25|31:25,2,83.9999974365235,0|8|0,0:0|0:2|0:0,0:0:0:0:
184,113,144349,6,0,L|270:103,1,83.9999974365235,6|0,0:2|0:0,0:0:0:0:
333,51,144810,2,0,B|362:92|345:139|345:139|358:176|404:190|404:190|363:227|354:257|354:257|392:278|409:338|409:338,1,335.999989746094,2|0,0:0|0:0,0:0:0:0:
234,336,146195,5,8,0:0:0:0:
152,315,146425,1,8,0:3:0:0:
152,230,146656,5,8,0:0:0:0:
234,209,146886,1,8,0:3:0:0:
234,124,147118,5,8,0:0:0:0:
152,103,147348,1,8,0:3:0:0:
210,42,147579,6,0,P|298:68|318:137,1,167.999994873047,10|2,0:0|0:2,0:0:0:0:
