osu file format v14

[General]
AudioFilename: snowdome.mp3
AudioLeadIn: 0
PreviewTime: 189786
Countdown: 0
SampleSet: Soft
StackLeniency: 0.7
Mode: 0
LetterboxInBreaks: 0
WidescreenStoryboard: 0

[Editor]
DistanceSpacing: 1.4
BeatDivisor: 8
GridSize: 4
TimelineZoom: 2

[Metadata]
Title:Snowdome
TitleUnicode:スノードーム
Artist:Fuyuki Eve, Noel (cv.Ookubo Rumi, Hara Sayuri)
ArtistUnicode:冬樹イヴ・ノエル(cv.大久保瑠美・原紗友里)
Creator:_kotachi_
Version:Falling
Source:グリモア〜私立グリモワール魔法学園〜
Tags:リバースレコードプロジェクト grimoire reverse record project grimore ~private grimoir magic academy~
BeatmapID:1559058
BeatmapSetID:738741

[Difficulty]
HPDrainRate:5
CircleSize:4.1
OverallDifficulty:8.5
ApproachRate:8.8
SliderMultiplier:2
SliderTickRate:1

[Events]
//Background and Video events
0,0,"kami.jpg",0,0
//Break Periods
2,133010,134056
2,259043,270250
//Storyboard Layer 0 (Background)
//Storyboard Layer 1 (Fail)
//Storyboard Layer 2 (Pass)
//Storyboard Layer 3 (Foreground)
//Storyboard Sound Samples

[TimingPoints]
810,750,4,2,2,20,1,0
810,-133.333333333333,4,2,2,20,0,0
12810,-133.333333333333,4,2,2,30,0,0
44685,-133.333333333333,4,2,1,30,0,0
45810,-100,4,2,1,50,0,0
61560,-100,4,2,1,40,0,0
62310,-100,4,2,1,50,0,0
63060,-100,4,2,1,60,0,0
63810,-100,4,2,1,70,0,0
64935,-100,4,2,0,70,0,0
65028,-100,4,2,1,70,0,0
66810,-133.333333333333,4,2,2,30,0,0
67185,-100,4,2,2,40,0,0
67560,-100,4,2,2,50,0,0
67935,-100,4,2,2,60,0,0
68685,-100,4,2,1,60,0,0
68872,-100,4,2,1,40,0,0
69060,-100,4,2,1,60,0,0
69435,-83.3333333333333,4,2,1,60,0,0
69810,-66.6666666666667,4,2,1,70,0,1
72341,-66.6666666666667,4,2,1,5,0,1
72435,-66.6666666666667,4,2,1,70,0,1
73091,-66.6666666666667,4,2,1,5,0,1
73185,-66.6666666666667,4,2,1,70,0,1
74966,-66.6666666666667,4,2,1,5,0,1
75060,-66.6666666666667,4,2,1,70,0,1
77966,-66.6666666666667,4,2,1,5,0,1
78060,-66.6666666666667,4,2,1,70,0,1
83966,-66.6666666666667,4,2,1,5,0,1
84060,-66.6666666666667,4,2,1,70,0,1
86966,-66.6666666666667,4,2,1,5,0,1
87060,-66.6666666666667,4,2,1,70,0,1
87810,-58.8235294117647,4,2,1,70,0,1
90341,-58.8235294117647,4,2,1,5,0,1
90435,-58.8235294117647,4,2,1,70,0,1
91091,-58.8235294117647,4,2,1,5,0,1
91185,-58.8235294117647,4,2,1,70,0,1
93810,-66.6666666666667,4,2,1,70,0,1
96341,-66.6666666666667,4,2,1,5,0,1
96435,-66.6666666666667,4,2,1,70,0,1
98966,-66.6666666666667,4,2,1,5,0,1
99060,-66.6666666666667,4,2,1,70,0,1
100466,-66.6666666666667,4,2,1,5,0,1
100560,-66.6666666666667,4,2,1,70,0,1
102247,-100,4,2,1,70,0,1
102810,-66.6666666666667,4,2,1,70,0,1
110966,-66.6666666666667,4,2,1,5,0,1
111060,-66.6666666666667,4,2,1,70,0,1
117247,-66.6666666666667,4,2,0,70,0,1
117435,-66.6666666666667,4,2,1,70,0,1
119966,-66.6666666666667,4,2,1,5,0,1
120060,-66.6666666666667,4,2,1,70,0,1
125966,-66.6666666666667,4,2,1,5,0,1
126060,-66.6666666666667,4,2,1,70,0,1
129810,-66.6666666666667,4,2,1,70,0,0
132810,-66.6666666666667,4,2,1,5,0,0
134122,-66.6666666666667,4,2,1,50,0,0
135810,-71.4285714285714,4,2,1,50,0,0
158685,-71.4285714285714,4,2,0,50,0,0
159060,-71.4285714285714,4,2,1,50,0,0
166560,-133.333333333333,4,2,1,50,0,0
168810,-66.6666666666667,4,2,1,60,0,0
183810,-66.6666666666667,4,2,1,40,0,0
184560,-66.6666666666667,4,2,1,50,0,0
185310,-66.6666666666667,4,2,1,60,0,0
186060,-66.6666666666667,4,2,1,70,0,0
186810,-66.6666666666667,4,2,1,60,0,0
189810,-133.333333333333,4,2,2,30,0,0
190185,-100,4,2,2,40,0,0
190560,-100,4,2,2,50,0,0
190935,-100,4,2,2,60,0,0
191685,-100,4,2,1,60,0,0
191872,-66.6666666666667,4,2,1,40,0,0
192060,-66.6666666666667,4,2,1,60,0,0
192810,-62.5,4,2,3,70,0,1
195341,-62.5,4,2,3,5,0,1
195435,-62.5,4,2,3,70,0,1
196091,-62.5,4,2,3,5,0,1
196185,-62.5,4,2,3,70,0,1
197966,-62.5,4,2,3,5,0,1
198060,-62.5,4,2,3,70,0,1
201341,-62.5,4,2,3,5,0,1
201435,-62.5,4,2,3,70,0,1
206966,-62.5,4,2,3,5,0,1
207060,-62.5,4,2,3,70,0,1
209591,-62.5,4,2,3,5,0,1
209685,-62.5,4,2,3,70,0,1
210810,-55.5555555555556,4,2,3,70,0,1
213341,-55.5555555555556,4,2,3,5,0,1
213435,-55.5555555555556,4,2,3,70,0,1
214091,-55.5555555555556,4,2,3,5,0,1
214185,-55.5555555555556,4,2,3,70,0,1
216435,-55.5555555555556,4,2,3,50,0,1
216622,-55.5555555555556,4,2,3,60,0,1
216810,-62.5,4,2,3,70,0,1
219341,-62.5,4,2,3,5,0,1
219435,-62.5,4,2,3,70,0,1
223466,-62.5,4,2,3,5,0,1
223560,-62.5,4,2,3,70,0,1
225247,-90.9090909090909,4,2,3,70,0,1
225810,-62.5,4,2,3,70,0,1
233966,-62.5,4,2,3,5,0,1
234060,-62.5,4,2,3,70,0,1
242966,-62.5,4,2,3,5,0,1
243060,-62.5,4,2,3,70,0,1
248966,-62.5,4,2,3,5,0,1
249060,-62.5,4,2,3,70,0,1
252810,-62.5,4,2,1,70,0,0
255716,-62.5,4,2,1,5,0,0
255838,681.818181818182,4,2,1,5,1,0
255838,-62.5,4,2,1,5,0,0
256519,681.818181818182,4,2,1,5,1,0
257200,821.917808219178,4,2,1,5,1,0
257300,-125,4,2,1,5,0,0
258843,731.707317073171,4,2,1,40,1,0
260306,1016.94915254237,4,2,1,70,1,0
260814,1052.63157894737,4,2,1,70,1,0
261340,937.5,4,2,1,70,1,0
261808,779.220779220779,4,2,1,70,1,0
262587,1016.94915254237,4,2,1,70,1,0
263095,845.070422535211,4,2,1,70,1,0
264785,845.070422535211,4,2,1,70,1,0
265207,769.230769230769,4,2,1,70,1,0
265591,714.285714285714,4,2,1,70,1,0
267019,769.230769230769,4,2,1,70,1,0
268557,722.89156626506,4,2,1,70,1,0
269279,800,4,2,1,70,1,0
270879,-125,4,2,2,40,0,0
271279,697.674418604651,4,2,2,40,1,0
272325,967.741935483871,4,2,2,40,1,0
273776,869.565217391304,4,2,2,40,1,0
273776,-125,4,2,2,40,0,0
274210,1111.11111111111,4,2,2,40,1,0
275321,750,4,2,2,40,1,0
275321,-125,4,2,2,40,0,0
275883,-125,4,2,2,5,0,0
276071,-125,4,2,2,40,0,0
276633,-125,4,2,2,5,0,0
276821,-125,4,2,2,40,0,0
277902,769.230769230769,4,2,2,40,1,0
278093,-125,4,2,2,5,0,0
279054,759.493670886076,4,2,2,5,1,0
279813,750,4,2,1,50,1,0
279813,-66.6666666666667,4,2,1,50,0,0
281688,-66.6666666666667,4,2,1,40,0,0
282063,-66.6666666666667,4,2,1,50,0,0
282438,-66.6666666666667,4,2,1,60,0,0
282813,-66.6666666666667,4,2,3,70,0,0
283563,-58.8235294117647,4,2,3,80,0,1
285344,-58.8235294117647,4,2,3,5,0,1
285438,-58.8235294117647,4,2,3,80,0,1
293313,-58.8235294117647,4,2,3,80,0,1
294813,-58.8235294117647,4,2,3,80,0,1
296500,-58.8235294117647,4,2,3,80,0,1
297813,-58.8235294117647,4,2,3,80,0,1
300813,-52.6315789473684,4,2,3,80,0,1
306813,-58.8235294117647,4,2,3,80,0,1
308969,-58.8235294117647,4,2,3,5,0,1
309063,-58.8235294117647,4,2,3,80,0,1
315250,-83.3333333333333,4,2,3,80,0,1
315813,-58.8235294117647,4,2,3,80,0,1
317500,-58.8235294117647,4,2,3,50,0,1
317688,-58.8235294117647,4,2,3,80,0,1
329688,-58.8235294117647,4,2,3,50,0,1
330063,-58.8235294117647,4,2,3,60,0,1
330438,-58.8235294117647,4,2,3,70,0,1
330813,-58.8235294117647,4,2,3,80,0,1
332969,-58.8235294117647,4,2,3,5,0,1
333063,-58.8235294117647,4,2,3,80,0,1
342813,-100,4,2,2,70,0,0
344552,857.142857142857,4,2,2,50,1,0
345837,833.333333333333,4,2,1,20,1,0
346253,638.297872340426,4,2,1,20,1,0
346572,491.803278688525,4,2,1,20,1,0
346817,437.956204379562,4,2,1,20,1,0
346817,-133.333333333333,4,2,1,20,0,0
347911,833.333333333333,4,2,2,20,1,0
348744,869.565217391304,4,2,2,20,1,0
349178,833.333333333333,4,2,2,20,1,0
349594,952.380952380952,4,2,2,20,1,0
350070,833.333333333333,4,2,2,20,1,0
350486,909.090909090909,4,2,2,20,1,0
350940,869.565217391304,4,2,2,20,1,0
351374,983.606557377049,4,2,2,50,1,0
351496,-100,4,2,2,5,0,0
351865,722.89156626506,4,2,2,5,1,0
352226,821.917808219178,4,2,2,5,1,0
352636,882.352941176471,4,2,2,5,1,0
353077,909.090909090909,4,2,2,5,1,0
353531,857.142857142857,4,2,2,5,1,0
353959,638.297872340426,4,2,2,5,1,0
354278,468.75,4,2,2,5,1,0
354512,545.454545454546,4,2,2,5,1,0
355057,582.52427184466,4,2,2,5,1,0
356513,571.428571428571,3,2,2,5,1,0

[Colours]
Combo1 : 255,255,0
Combo2 : 255,207,185
Combo3 : 255,147,201
Combo4 : 192,192,192

[HitObjects]
256,68,810,5,4,0:0:0:0:
256,92,1560,1,2,0:0:0:0:
256,116,2310,1,2,0:0:0:0:
256,140,3060,2,0,L|348:132,1,75.0000028610231,2|0,0:0|0:0,0:0:0:0:
232,224,3810,6,0,L|140:216,1,75.0000028610231,2|0,0:0|0:0,0:0:0:0:
56,176,4560,1,2,0:0:0:0:
52,200,5310,1,2,0:0:0:0:
48,224,6060,1,2,0:0:0:0:
204,312,6810,5,4,0:0:0:0:
228,313,7560,1,2,0:0:0:0:
252,316,8310,1,2,0:0:0:0:
276,318,9060,2,0,L|368:326,1,75.0000028610231,2|0,0:0|0:0,0:0:0:0:
288,187,9810,6,0,L|196:195,1,75.0000028610231,2|0,0:0|0:0,0:0:0:0:
72,272,10560,1,2,0:0:0:0:
64,250,11310,1,2,0:0:0:0:
56,228,12060,1,2,0:0:0:0:
232,188,12810,5,4,0:0:0:0:
232,188,13560,2,0,P|255:114|236:44,1,150.000005722046
24,40,15060,1,0,0:0:0:0:
24,40,15435,1,0,0:0:0:0:
92,120,15810,2,0,L|90:217,1,75.0000028610231,2|0,0:0|0:0,0:0:0:0:
90,325,16560,5,0,0:0:0:0:
216,312,16935,1,0,0:0:0:0:
75,244,17310,1,0,0:0:0:0:
193,198,17685,1,0,0:0:0:0:
38,169,18060,1,0,0:0:0:0:
140,94,18435,1,0,0:0:0:0:
275,140,18810,6,0,L|349:133,1,75.0000028610231,4|0,0:0|0:0,0:0:0:0:
449,56,19560,2,0,P|476:120|453:200,1,150.000005722046
456,195,21060,1,0,0:0:0:0:
268,164,21810,5,0,0:0:0:0:
188,312,22560,2,0,P|185:237|177:162,2,150.000005722046
50,127,24810,5,4,0:0:0:0:
50,127,25560,2,0,B|133:141|111:83|189:88,1,150.000005722046
372,176,27060,1,0,0:0:0:0:
372,176,27435,1,0,0:0:0:0:
364,86,27810,2,0,L|290:65,1,75.0000028610231,2|0,0:0|0:0,0:0:0:0:
199,174,28560,5,0,0:0:0:0:
225,297,28935,1,0,0:0:0:0:
277,150,29310,1,0,0:0:0:0:
336,263,29685,1,0,0:0:0:0:
348,106,30060,1,0,0:0:0:0:
433,199,30435,1,0,0:0:0:0:
378,25,30810,6,0,P|340:22|304:30,1,75.0000028610231,4|0,0:0|0:0,0:0:0:0:
180,160,31560,2,0,P|209:87|182:15,1,150.000005722046
187,21,33060,1,0,0:0:0:0:
26,159,33810,6,0,L|100:161,1,75.0000028610231,2|0,0:0|0:0,0:0:0:0:
190,270,34560,2,0,B|173:230|189:197|189:197|206:162|185:115,2,150.000005722046
190,270,36810,5,4,0:0:0:0:
163,154,37185,1,0,0:0:0:0:
354,170,37560,1,0,0:0:0:0:
308,280,37935,1,0,0:0:0:0:
265,93,38310,1,4,0:0:0:0:
265,93,39810,5,4,0:0:0:0:
163,154,40185,1,0,0:0:0:0:
308,280,40560,1,0,0:0:0:0:
354,170,40935,1,0,0:0:0:0:
190,270,41310,1,4,0:0:0:0:
190,270,42060,5,0,0:0:0:0:
265,93,42435,1,0,0:0:0:0:
308,280,42810,1,4,0:0:0:0:
308,280,43560,6,0,B|376:279|404:333|404:333|391:270|445:225,1,225.000008583069,0|2,0:0|0:0,0:0:0:0:
435,233,45060,1,2,0:3:0:0:
257,104,45810,6,0,L|142:112,1,100,4|0,1:0|0:0,0:0:0:0:
51,97,46372,1,0,0:0:0:0:
51,97,46560,2,0,P|56:122|55:147,1,50,0|0,1:0|0:0,0:0:0:0:
132,260,46935,2,0,P|131:235|135:210,1,50
270,239,47310,6,0,P|319:235|369:234,1,100,0|0,1:0|0:0,0:0:0:0:
472,134,47872,1,0,0:0:0:0:
472,134,48060,2,0,P|465:158|464:183,1,50,0|0,1:0|0:0,0:0:0:0:
371,96,48435,2,0,P|349:108|331:125,1,50
326,7,48810,6,0,P|276:2|226:12,1,100,0|0,1:0|0:0,0:0:0:0:
170,95,49372,1,0,0:0:0:0:
170,95,49560,2,0,P|167:73|158:44,1,50,0|0,1:0|0:0,0:0:0:0:
30,31,49935,1,0,0:0:0:0:
5,158,50122,1,0,0:0:0:0:
136,186,50310,5,0,1:0:0:0:
136,186,50497,2,0,P|160:183|185:177,1,50
292,92,50872,1,0,0:0:0:0:
286,225,51060,1,8,0:0:0:0:
286,225,51247,2,0,P|343:225|411:215,1,100
376,344,51810,6,0,P|319:344|251:354,1,100,0|0,1:0|0:0,0:0:0:0:
157,292,52372,1,0,0:0:0:0:
157,292,52560,2,0,L|153:228,1,50,0|0,1:0|0:0,0:0:0:0:
268,157,52935,2,0,L|264:221,1,50
158,123,53310,5,0,1:0:0:0:
158,123,53497,2,0,P|95:131|29:136,1,100
140,27,54060,1,0,1:0:0:0:
115,211,54247,1,0,0:0:0:0:
22,27,54435,1,0,0:0:0:0:
158,123,54622,1,0,0:0:0:0:
254,18,54810,6,0,P|306:13|367:24,1,100,0|0,1:0|0:0,0:0:0:0:
431,242,55560,1,0,1:0:0:0:
213,209,55935,1,0,0:0:0:0:
405,119,56310,5,0,1:0:0:0:
369,340,56685,1,2,0:3:0:0:
213,209,57060,1,8,0:0:0:0:
431,242,57435,1,2,0:0:0:0:
218,332,57810,6,0,P|174:317|113:318,1,100,4|0,1:0|0:0,0:0:0:0:
16,347,58372,1,0,0:0:0:0:
16,347,58560,2,0,L|11:288,1,50,0|0,1:0|0:0,0:0:0:0:
68,169,58935,2,0,L|63:119,1,50
161,212,59310,2,0,P|231:210|283:182,1,100,0|0,1:0|0:0,0:0:0:0:
197,109,59872,5,0,0:0:0:0:
197,109,60060,1,0,1:0:0:0:
282,187,60247,1,0,0:0:0:0:
239,15,60435,1,0,0:0:0:0:
161,212,60622,1,0,0:0:0:0:
309,92,60810,6,0,L|379:86,1,50,2|0,1:3|0:0,0:0:0:0:
480,213,61185,2,0,L|410:207,1,50
258,198,61560,2,0,L|261:261,1,50,2|0,1:3|0:0,0:0:0:0:
397,370,61935,2,0,L|394:307,1,50
253,336,62310,2,0,P|202:337|144:353,1,100,2|0,1:3|0:0,0:0:0:0:
38,213,62872,1,0,0:0:0:0:
38,213,63060,2,0,P|89:214|147:230,1,100,10|0,3:0|0:0,0:0:0:0:
253,336,63622,1,0,3:0:0:0:
253,336,63810,6,0,L|317:330,1,50,0|8,1:0|0:0,0:0:0:0:
386,215,64185,1,0,0:0:0:0:
255,206,64372,1,4,3:0:0:0:
390,313,64560,5,4,1:2:0:0:
382,122,64747,1,0,3:0:0:0:
151,235,64935,5,8,0:3:0:0:
312,296,65122,1,4,0:3:0:0:
264,181,65310,1,0,1:0:0:0:
200,344,65497,6,0,P|139:333|87:333,1,100,4|0,1:2|0:0,0:0:0:0:
44,243,66060,2,0,L|47:178,1,50,2|0,0:3|0:0,0:0:0:0:
113,116,66435,2,0,L|110:66,1,50
268,200,66810,6,0,L|308:205,1,37.5000014305115
217,123,67185,5,2,0:0:0:0:
374,139,67372,1,0,0:0:0:0:
195,56,67560,5,2,0:0:0:0:
399,133,67747,1,0,0:0:0:0:
237,249,67935,5,2,0:0:0:0:
300,6,68122,2,0,P|292:51|297:113,1,100,2|0,0:0|0:0,0:0:0:0:
432,272,68685,1,2,0:3:0:0:
418,84,68872,5,8,0:0:0:0:
418,84,68966,1,8,0:0:0:0:
418,84,69060,5,8,0:0:0:0:
211,171,69247,1,8,0:0:0:0:
421,241,69435,5,4,0:3:0:0:
301,127,69622,1,0,0:0:0:0:
268,334,69810,6,0,B|237:353|199:333|199:333|158:316|123:334,1,150.000005722046,4|2,1:0|0:0,0:0:0:0:
313,204,70372,1,0,0:0:0:0:
134,156,70560,2,0,P|124:199|135:247,1,75.0000028610231,8|0,0:0|0:0,0:0:0:0:
246,73,70935,2,0,P|249:35|240:0,1,75.0000028610231,2|0,0:0|3:0,0:0:0:0:
163,43,71216,5,0,3:0:0:0:
163,43,71310,2,0,L|80:44,1,75.0000028610231,0|0,1:0|3:0,0:0:0:0:
33,245,71685,1,2,1:3:0:0:
226,211,71872,1,0,0:0:0:0:
12,117,72060,6,0,L|23:258,1,112.500004291535,8|0,0:0|0:0,0:0:0:0:
33,245,72435,2,0,L|39:323,1,75.0000028610231,2|0,0:0|3:0,0:0:0:0:
226,211,72810,6,0,P|282:200|340:199,1,112.500004291535,0|0,1:0|0:0,0:0:0:0:
360,202,73185,1,2,0:0:0:0:
480,324,73372,1,0,0:0:0:0:
315,370,73560,2,0,P|319:331|321:280,1,75.0000028610231,8|0,0:0|0:0,0:0:0:0:
487,141,73935,2,0,P|482:179|481:231,1,75.0000028610231,2|0,0:0|0:0,0:0:0:0:
260,129,74310,5,0,1:0:0:0:
410,31,74497,1,0,0:0:0:0:
188,27,74685,2,0,P|134:29|61:40,1,112.500004291535,2|0,1:3|0:0,0:0:0:0:
51,42,75060,2,0,P|47:84|55:122,1,75.0000028610231,8|0,0:0|0:0,0:0:0:0:
180,272,75435,1,2,0:0:0:0:
264,96,75622,1,0,3:0:0:0:
88,208,75810,6,0,P|71:240|68:287,1,75.0000028610231,0|0,1:0|0:0,0:0:0:0:
224,121,76185,2,0,P|218:85|193:45,1,75.0000028610231,2|0,0:0|0:0,0:0:0:0:
167,277,76560,2,0,P|192:303|235:320,1,75.0000028610231,8|0,0:0|0:0,0:0:0:0:
123,114,76935,2,0,P|87:107|41:119,1,75.0000028610231,2|0,0:0|0:0,0:0:0:0:
254,219,77310,6,0,P|286:203|316:166,1,75.0000028610231,0|0,1:0|0:0,0:0:0:0:
136,14,77685,2,0,P|139:68|152:139,1,112.500004291535,2|0,1:3|0:0,0:0:0:0:
150,151,78060,2,0,P|126:181|112:222,1,75.0000028610231,8|0,0:0|0:0,0:0:0:0:
276,308,78435,1,2,0:0:0:0:
236,134,78622,1,0,3:0:0:0:
424,228,78810,6,0,P|424:172|441:74,1,150.000005722046,0|2,1:0|0:0,0:0:0:0:
473,304,79372,1,0,0:0:0:0:
316,216,79560,2,0,P|279:217|242:226,1,75.0000028610231,8|0,0:0|0:0,0:0:0:0:
299,354,79935,1,2,0:0:0:0:
348,123,80122,1,0,3:0:0:0:
165,237,80310,5,0,1:0:0:0:
377,292,80497,1,0,3:0:0:0:
139,251,80685,2,0,P|139:211|134:162,1,75.0000028610231,2|0,1:3|0:0,0:0:0:0:
42,40,81060,1,8,0:0:0:0:
37,265,81247,1,0,0:0:0:0:
265,150,81435,1,2,0:0:0:0:
60,131,81622,1,0,3:0:0:0:
160,351,81810,6,0,B|180:301|180:301|145:190,1,150.000005722046,4|2,1:0|0:0,0:0:0:0:
41,39,82372,1,0,0:0:0:0:
203,73,82560,2,0,P|240:73|289:65,1,75.0000028610231,8|0,0:0|0:0,0:0:0:0:
190,215,82935,2,0,P|152:209|115:209,1,75.0000028610231,2|0,0:0|3:0,0:0:0:0:
18,176,83216,5,0,3:0:0:0:
18,176,83310,2,0,P|27:217|25:250,1,75.0000028610231,0|0,1:0|0:0,0:0:0:0:
235,314,83685,2,0,P|180:297|109:303,1,112.500004291535,2|0,1:3|0:0,0:0:0:0:
108,308,84060,2,0,P|96:349|97:383,1,75.0000028610231,8|0,0:0|0:0,0:0:0:0:
279,236,84435,2,0,P|278:198|267:163,1,75.0000028610231,2|0,0:0|3:0,0:0:0:0:
123,62,84810,6,0,B|72:47|13:73|13:73|48:106,1,150.000005722046,0|2,1:0|0:0,0:0:0:0:
240,32,85372,1,0,0:0:0:0:
173,148,85560,2,0,P|161:193|165:226,1,75.0000028610231,8|0,0:0|0:0,0:0:0:0:
299,322,85935,1,2,0:0:0:0:
267,163,86122,1,0,0:0:0:0:
459,225,86310,6,0,L|379:223,1,75.0000028610231,0|0,1:0|3:0,0:0:0:0:
240,32,86685,2,0,P|292:45|357:31,1,112.500004291535,2|0,1:3|0:0,0:0:0:0:
377,22,87060,2,0,L|365:109,1,75.0000028610231,8|0,0:0|0:0,0:0:0:0:
171,245,87435,2,0,L|161:171,1,75.0000028610231,2|0,0:0|3:0,0:0:0:0:
362,244,87810,6,0,P|380:282|384:325,1,85.0000016212464,4|0,1:2|0:0,0:0:0:0:
200,86,88185,2,0,P|208:45|230:9,1,85.0000016212464,2|0,0:0|0:0,0:0:0:0:
239,308,88560,2,0,P|207:337|169:354,1,85.0000016212464,8|0,0:0|0:0,0:0:0:0:
338,105,88935,2,0,P|380:101|422:111,1,85.0000016212464,2|0,0:0|3:0,0:0:0:0:
138,212,89310,6,0,P|101:191|74:159,2,85.0000016212464,0|0|2,1:0|0:0|1:3,0:0:0:0:
338,105,89872,1,0,0:0:0:0:
314,232,90060,2,0,P|313:296|344:355,1,127.50000243187,8|0,0:0|0:0,0:0:0:0:
359,365,90435,2,0,P|404:340|443:337,1,85.0000016212464,2|0,0:0|3:0,0:0:0:0:
331,132,90810,6,0,P|270:154|198:148,1,127.50000243187,0|0,1:0|0:0,0:0:0:0:
174,145,91185,2,0,P|202:188|208:226,1,85.0000016212464,2|0,0:0|1:0,0:0:0:0:
94,318,91560,5,12,0:0:0:0:
60,127,91747,1,0,0:0:0:0:
226,324,91935,5,2,0:3:0:0:
249,59,92122,1,0,0:0:0:0:
337,261,92310,5,2,1:3:0:0:
118,213,92497,1,8,0:0:0:0:
331,132,92685,5,2,1:3:0:0:
192,311,92872,1,0,3:0:0:0:
194,332,92966,1,0,3:0:0:0:
197,353,93060,5,10,0:3:0:0:
436,276,93247,1,8,0:0:0:0:
208,150,93435,5,6,0:3:0:0:
356,350,93622,1,0,3:0:0:0:
320,103,93810,6,0,P|333:158|331:257,1,150.000005722046,4|2,1:0|0:0,0:0:0:0:
208,150,94372,1,0,0:0:0:0:
276,23,94560,2,0,P|320:15|358:20,1,75.0000028610231,8|0,0:0|0:0,0:0:0:0:
208,150,94935,2,0,P|170:152|134:144,1,75.0000028610231,2|0,0:0|3:0,0:0:0:0:
49,103,95216,5,0,3:0:0:0:
49,103,95310,2,0,P|41:139|43:176,1,75.0000028610231,0|0,1:0|0:0,0:0:0:0:
204,267,95685,1,2,1:3:0:0:
177,49,95872,1,0,0:0:0:0:
74,271,96060,2,0,P|127:284|185:273,1,112.500004291535,8|0,0:0|0:0,0:0:0:0:
204,267,96435,2,0,P|197:309|208:352,1,75.0000028610231,2|0,0:0|3:0,0:0:0:0:
333,203,96810,6,0,B|360:148|326:93|326:93|294:117,1,150.000005722046,0|2,1:0|0:0,0:0:0:0:
204,267,97372,1,0,0:0:0:0:
171,129,97560,2,0,P|140:122|93:123,1,75.0000028610231,8|0,0:0|0:0,0:0:0:0:
0,278,97935,2,0,P|37:278|74:271,1,75.0000028610231,2|0,0:0|0:0,0:0:0:0:
252,189,98310,5,0,1:0:0:0:
27,176,98497,1,0,0:0:0:0:
241,24,98685,2,0,L|120:36,1,112.500004291535,2|0,1:3|0:0,0:0:0:0:
104,40,99060,1,8,0:0:0:0:
74,270,99247,1,0,0:0:0:0:
296,184,99435,1,2,0:0:0:0:
139,125,99622,1,0,3:0:0:0:
395,18,99810,6,0,L|320:21,1,75.0000028610231,0|0,1:0|0:0,0:0:0:0:
139,125,100185,2,0,L|214:128,1,75.0000028610231,2|0,0:0|0:0,0:0:0:0:
366,184,100560,2,0,P|349:217|321:242,1,75.0000028610231,8|0,0:0|0:0,0:0:0:0:
246,43,100935,1,2,0:0:0:0:
287,166,101122,1,0,0:0:0:0:
167,6,101310,6,0,B|82:-1|110:57|18:43,1,150.000005722046,0|2,1:0|0:0,0:0:0:0:
287,166,101872,2,0,P|297:117|293:67,1,75.0000028610231,0|8,1:0|0:0,0:0:0:0:
125,276,102247,6,0,P|112:233|108:161,1,100,4|0,1:2|0:0,0:0:0:0:
282,173,102810,6,0,P|336:167|368:167,1,75.0000028610231,4|0,1:1|0:0,0:0:0:0:
505,357,103185,2,0,P|467:355|430:350,1,75.0000028610231,2|0,0:0|0:0,0:0:0:0:
482,188,103560,1,8,0:0:0:0:
356,296,103747,1,0,0:0:0:0:
309,61,103935,2,0,P|346:56|383:54,1,75.0000028610231,2|0,0:0|1:0,0:0:0:0:
225,226,104310,5,0,1:0:0:0:
185,79,104497,1,8,0:0:0:0:
125,276,104685,1,2,1:2:0:0:
334,171,104872,1,0,3:0:0:0:
334,171,104966,1,0,3:0:0:0:
334,171,105060,5,8,0:0:0:0:
80,152,105247,1,8,0:0:0:0:
284,11,105435,2,0,L|279:92,1,75.0000028610231,2|0,1:2|3:0,0:0:0:0:
149,284,105810,6,0,P|218:253|293:278,1,150.000005722046,4|2,1:0|0:0,0:0:0:0:
322,375,106372,1,0,0:0:0:0:
385,157,106560,2,0,P|380:223|393:317,1,150.000005722046,8|2,0:0|0:0,0:0:0:0:
474,258,107122,1,0,0:0:0:0:
298,276,107310,5,0,1:0:0:0:
304,110,107497,1,0,0:0:0:0:
390,305,107685,1,2,1:3:0:0:
211,255,107872,1,0,0:0:0:0:
404,133,108060,2,0,B|432:80|419:25|419:25|370:43,1,150.000005722046,8|2,0:0|0:0,0:0:0:0:
257,183,108622,1,0,3:0:0:0:
187,29,108810,6,0,P|154:21|109:24,1,75.0000028610231,0|0,1:0|0:0,0:0:0:0:
99,164,109185,2,0,P|122:139|142:98,1,75.0000028610231,2|0,0:0|0:0,0:0:0:0:
24,259,109560,2,0,P|98:266|152:333,1,150.000005722046,8|2,0:0|0:0,0:0:0:0:
54,356,110122,1,0,0:0:0:0:
187,225,110310,5,0,1:0:0:0:
11,169,110497,1,0,0:0:0:0:
169,111,110685,2,0,P|228:118|286:105,1,112.500004291535,2|0,1:3|0:0,0:0:0:0:
303,96,111060,2,0,P|357:85|400:90,1,75.0000028610231,8|0,0:0|0:0,0:0:0:0:
364,312,111435,1,2,0:0:0:0:
187,225,111622,1,0,3:0:0:0:
375,198,111810,5,4,1:2:0:0:
204,324,111997,1,0,0:0:0:0:
171,133,112185,2,0,P|229:144|278:234,1,150.000005722046,2|8,0:0|0:0,0:0:0:0:
115,295,112747,1,0,0:0:0:0:
187,225,112935,1,2,0:0:0:0:
22,290,113122,5,0,3:0:0:0:
22,290,113216,1,0,3:0:0:0:
22,290,113310,1,0,1:0:0:0:
204,324,113497,1,8,0:0:0:0:
80,160,113685,1,2,0:3:0:0:
138,384,113872,1,0,1:0:0:0:
276,261,114060,5,8,0:0:0:0:
115,295,114247,1,0,0:0:0:0:
300,256,114435,1,2,0:0:0:0:
92,301,114622,1,0,3:0:0:0:
185,110,114810,6,0,P|264:84|335:84,1,150.000005722046,4|2,1:2|0:0,0:0:0:0:
366,323,115372,1,0,0:0:0:0:
258,174,115560,1,10,0:3:0:0:
438,159,115747,1,0,0:0:0:0:
275,280,115935,2,0,L|189:283,1,75.0000028610231,2|0,0:0|3:0,0:0:0:0:
181,283,116216,1,0,3:0:0:0:
165,284,116310,5,0,1:0:0:0:
95,97,116497,1,8,0:0:0:0:
297,104,116685,1,4,0:3:0:0:
297,104,116778,1,4,0:3:0:0:
297,104,116872,1,4,0:3:0:0:
58,210,117060,5,8,0:0:0:0:
120,4,117247,1,8,0:3:0:0:
293,200,117435,5,4,0:3:0:0:
81,99,117622,1,0,1:0:0:0:
289,11,117810,6,0,P|353:6|440:34,1,150.000005722046,4|2,1:0|0:0,0:0:0:0:
487,125,118372,1,0,0:0:0:0:
256,96,118560,2,0,P|192:91|105:119,1,150.000005722046,12|2,0:0|0:0,0:0:0:0:
58,210,119122,1,0,0:0:0:0:
203,290,119310,6,0,P|208:244|203:212,1,75.0000028610231,0|0,1:2|0:0,0:0:0:0:
56,65,119685,2,0,L|168:68,1,112.500004291535,2|0,1:3|0:0,0:0:0:0:
190,68,120060,2,0,L|293:66,1,75.0000028610231,8|0,0:0|0:0,0:0:0:0:
418,125,120435,1,2,0:0:0:0:
266,155,120622,1,0,3:0:0:0:
379,257,120810,6,0,P|373:294|359:328,1,75.0000028610231,0|0,1:0|0:0,0:0:0:0:
284,137,121185,2,0,P|269:102|264:65,1,75.0000028610231,2|0,0:0|0:0,0:0:0:0:
289,269,121560,2,0,P|256:283|192:284,1,75.0000028610231,8|0,0:0|0:0,0:0:0:0:
360,86,121935,2,0,P|397:90|431:104,1,75.0000028610231,2|0,0:0|3:0,0:0:0:0:
431,104,122216,1,0,3:0:0:0:
431,104,122310,5,0,1:0:0:0:
250,172,122497,1,8,0:0:0:0:
331,0,122685,1,2,0:0:0:0:
371,179,122872,1,0,1:0:0:0:
231,20,123060,1,8,0:0:0:0:
140,180,123247,2,0,P|128:96|94:22,1,150.000005722046,4|0,1:2|1:0,0:0:0:0:
16,260,123810,6,0,B|72:252|72:252|112:288|168:276,1,150.000005722046,4|2,1:0|0:0,0:0:0:0:
242,235,124372,1,0,0:0:0:0:
176,20,124560,2,0,B|188:68|151:100|151:100|152:136|172:166,1,150.000005722046,12|2,0:0|0:0,0:0:0:0:
242,235,125122,1,0,0:0:0:0:
293,92,125310,6,0,P|298:46|293:14,1,75.0000028610231,0|0,1:2|0:0,0:0:0:0:
242,235,125685,2,0,P|296:235|365:217,1,112.500004291535,2|0,1:3|0:0,0:0:0:0:
373,206,126060,2,0,L|385:296,1,75.0000028610231,8|0,0:0|0:0,0:0:0:0:
415,83,126435,1,2,0:0:0:0:
201,113,126622,1,0,3:0:0:0:
310,313,126810,5,4,1:2:0:0:
322,29,127185,1,4,0:3:0:0:
118,254,127560,5,8,0:0:0:0:
403,205,127935,1,0,1:0:0:0:
204,10,128310,5,4,1:0:0:0:
204,332,128685,1,0,0:0:0:0:
14,71,129060,5,2,0:3:0:0:
320,171,129435,1,0,0:0:0:0:
14,270,129810,5,4,1:0:0:0:
256,192,129903,12,0,132810,0:0:0:0:
256,196,134685,5,2,0:0:0:0:
256,196,134872,1,0,3:0:0:0:
332,100,135060,5,8,0:0:0:0:
297,303,135247,1,8,0:0:0:0:
138,172,135435,1,2,0:3:0:0:
138,172,135810,6,0,P|128:100|160:32,1,139.999995727539,4|2,1:0|0:0,0:0:0:0:
252,20,136372,1,0,0:0:0:0:
252,20,136560,2,0,P|316:28|408:16,1,139.999995727539,8|2,0:0|0:0,0:0:0:0:
448,100,137122,1,0,3:0:0:0:
432,191,137310,6,0,P|406:213|382:252,1,69.9999978637696,2|0,0:0|3:0,0:0:0:0:
310,180,137685,2,0,P|275:177|230:187,1,69.9999978637696,2|0,1:3|0:0,0:0:0:0:
206,91,138060,2,0,P|152:40|88:40,1,139.999995727539,8|2,0:0|0:0,0:0:0:0:
120,131,138622,1,0,3:0:0:0:
155,222,138810,6,0,P|168:301|160:366,1,139.999995727539,0|2,1:0|0:0,0:0:0:0:
231,172,139560,2,0,P|251:206|282:235,1,69.9999978637696,8|0,0:0|0:0,0:0:0:0:
328,308,139935,2,0,P|352:282|369:252,1,69.9999978637696,2|0,0:0|3:0,0:0:0:0:
412,155,140310,6,0,P|377:151|343:157,1,69.9999978637696,2|0,0:0|3:0,0:0:0:0:
272,88,140685,2,0,P|228:93|186:84,1,69.9999978637696,2|0,1:3|0:0,0:0:0:0:
114,46,141060,2,0,P|105:110|153:174,1,139.999995727539,8|2,0:0|0:0,0:0:0:0:
202,89,141622,1,0,3:0:0:0:
248,175,141810,6,0,L|252:316,1,139.999995727539,0|2,1:0|0:0,0:0:0:0:
345,342,142372,1,0,0:0:0:0:
345,342,142560,2,0,P|405:333|448:249,1,139.999995727539,8|2,0:0|0:0,0:0:0:0:
404,182,143122,1,0,3:0:0:0:
408,83,143310,6,0,L|397:7,1,69.9999978637696,2|0,0:0|3:0,0:0:0:0:
300,29,143685,2,0,L|312:102,1,69.9999978637696,2|0,1:3|0:0,0:0:0:0:
323,195,144060,2,0,B|270:204|270:204|242:192|242:192|168:200,1,139.999995727539,8|2,0:0|0:0,0:0:0:0:
112,261,144622,1,0,0:0:0:0:
108,136,144810,5,0,1:0:0:0:
80,252,144997,1,0,3:0:0:0:
80,116,145185,2,0,L|164:105,1,69.9999978637696,2|0,0:0|0:0,0:0:0:0:
247,79,145560,2,0,L|331:68,1,69.9999978637696,8|0,0:0|0:0,0:0:0:0:
405,27,145935,2,0,P|415:64|408:104,1,69.9999978637696,2|0,0:0|3:0,0:0:0:0:
405,109,146216,1,0,3:0:0:0:
400,122,146310,6,0,P|389:159|396:199,1,69.9999978637696,0|0,0:0|3:0,0:0:0:0:
460,260,146685,2,0,P|431:280|397:287,1,69.9999978637696,2|0,1:3|0:0,0:0:0:0:
312,238,147060,2,0,B|321:331|321:331|280:368,1,139.999995727539,8|2,0:0|0:0,0:0:0:0:
223,286,147622,1,0,3:0:0:0:
118,312,147810,6,0,P|125:242|115:162,1,139.999995727539,0|2,1:0|0:0,0:0:0:0:
218,201,148372,1,0,0:0:0:0:
218,201,148560,2,0,B|307:212|307:212|349:173,1,139.999995727539,8|2,0:0|0:0,0:0:0:0:
400,97,149122,1,0,3:0:0:0:
319,40,149310,6,0,P|303:76|303:117,1,69.9999978637696,2|0,0:0|3:0,0:0:0:0:
204,120,149685,2,0,P|217:156|246:185,1,69.9999978637696,2|0,1:3|0:0,0:0:0:0:
327,219,150060,2,0,P|270:212|208:270,1,139.999995727539,8|2,0:0|0:0,0:0:0:0:
297,308,150622,1,0,0:0:0:0:
202,281,150810,6,0,B|129:260|142:321|46:283,1,139.999995727539,0|2,1:0|0:0,0:0:0:0:
56,93,151560,2,0,P|73:123|97:148,1,69.9999978637696,8|0,0:0|0:0,0:0:0:0:
172,224,151935,2,0,P|196:198|213:168,1,69.9999978637696,2|0,0:0|3:0,0:0:0:0:
180,80,152310,6,0,P|214:73|249:77,1,69.9999978637696,2|0,0:0|3:0,0:0:0:0:
333,127,152685,2,0,P|367:130|402:125,1,69.9999978637696,2|0,1:3|0:0,0:0:0:0:
491,84,153060,2,0,P|500:148|452:212,1,139.999995727539,8|2,0:0|0:0,0:0:0:0:
384,280,153622,1,0,3:0:0:0:
282,261,153810,6,0,P|216:254|143:281,1,139.999995727539,0|2,1:0|0:0,0:0:0:0:
62,326,154372,1,0,0:0:0:0:
62,326,154560,2,0,B|46:278|46:278|60:243|60:243|43:180,1,139.999995727539,8|2,0:0|0:0,0:0:0:0:
25,97,155122,1,0,3:0:0:0:
119,124,155310,6,0,P|150:121|197:118,1,69.9999978637696,2|0,0:0|3:0,0:0:0:0:
219,211,155685,2,0,P|253:213|288:216,1,69.9999978637696,2|0,1:3|0:0,0:0:0:0:
369,161,156060,2,0,P|381:231|442:248,1,139.999995727539,8|2,0:0|0:0,0:0:0:0:
459,165,156622,1,0,3:0:0:0:
459,165,156810,6,0,P|450:125|424:92,1,69.9999978637696,0|0,1:0|0:0,0:0:0:0:
362,30,157185,2,0,P|343:59|336:93,1,69.9999978637696,2|0,0:0|0:0,0:0:0:0:
355,190,157560,2,0,L|281:194,1,69.9999978637696,10|0,0:3|0:0,0:0:0:0:
169,99,157935,2,0,L|243:103,1,69.9999978637696,2|8,0:3|0:0,0:0:0:0:
238,102,158216,1,8,0:0:0:0:
238,102,158310,5,8,1:2:0:0:
166,284,158685,1,8,0:3:0:0:
48,128,159060,2,0,P|65:202|68:271,1,139.999995727539,4|0,0:3|0:0,0:0:0:0:
293,308,159810,5,4,1:0:0:0:
157,120,160185,1,0,0:0:0:0:
378,192,160560,1,2,0:0:0:0:
157,264,160935,1,0,1:0:0:0:
294,76,161310,1,0,1:0:0:0:
294,76,162060,5,4,3:0:0:0:
294,76,162810,1,4,1:0:0:0:
157,264,163185,1,0,0:0:0:0:
378,192,163560,1,2,0:0:0:0:
157,120,163935,1,0,1:0:0:0:
293,308,164310,1,0,1:0:0:0:
293,308,165060,5,2,0:0:0:0:
294,76,165435,1,0,1:0:0:0:
157,263,165810,1,4,1:2:0:0:
157,264,166560,2,0,B|145:204|200:177|200:177|204:147|204:147|246:162|291:142,1,225.000008583069,4|0,1:0|1:0,0:0:0:0:
290,142,168060,1,4,1:3:0:0:
462,303,168810,6,0,P|387:303|293:314,1,150.000005722046,4|2,1:0|0:0,0:0:0:0:
211,342,169372,1,0,0:0:0:0:
115,298,169560,2,0,P|123:260|124:223,1,75.0000028610231,0|0,1:0|0:0,0:0:0:0:
52,147,169935,2,0,P|85:129|120:118,1,75.0000028610231,2|0,0:0|0:0,0:0:0:0:
212,170,170310,5,0,1:0:0:0:
212,170,170497,2,0,P|254:175|309:159,1,75.0000028610231,0|2,0:0|0:0,0:0:0:0:
352,87,170872,1,0,0:0:0:0:
248,70,171060,1,0,1:0:0:0:
390,184,171247,5,0,0:0:0:0:
405,13,171435,1,2,0:0:0:0:
248,70,171622,1,0,0:0:0:0:
463,109,171810,6,0,P|470:203|463:267,1,150.000005722046,0|2,1:0|0:0,0:0:0:0:
363,289,172372,1,0,0:0:0:0:
272,235,172560,2,0,P|234:231|181:236,1,75.0000028610231,0|0,1:0|0:0,0:0:0:0:
101,276,172935,2,0,P|63:278|26:274,1,75.0000028610231,2|0,0:0|0:0,0:0:0:0:
65,176,173310,5,0,1:0:0:0:
41,74,173497,2,0,L|126:71,1,75.0000028610231,0|2,0:0|0:3,0:0:0:0:
186,145,173872,1,0,0:0:0:0:
294,59,174060,1,8,0:0:0:0:
299,243,174247,2,0,L|287:167,1,75.0000028610231,0|2,0:0|0:0,0:0:0:0:
308,37,174622,1,0,0:0:0:0:
434,80,174810,6,0,B|424:132|424:132|449:172|449:172|435:238,1,150.000005722046,0|2,1:0|0:0,0:0:0:0:
373,304,175372,1,0,0:0:0:0:
302,217,175560,2,0,P|265:213|208:219,1,75.0000028610231,0|0,1:0|0:0,0:0:0:0:
133,264,175935,2,0,P|96:266|59:262,1,75.0000028610231,2|0,0:0|0:0,0:0:0:0:
93,144,176310,5,0,1:0:0:0:
93,144,176497,2,0,P|71:113|56:79,1,75.0000028610231,0|2,0:0|0:0,0:0:0:0:
210,151,176872,1,0,0:0:0:0:
210,151,177060,1,0,1:0:0:0:
210,61,177247,1,0,0:0:0:0:
348,106,177435,1,2,0:0:0:0:
296,179,177622,1,0,0:0:0:0:
295,26,177810,5,0,1:0:0:0:
279,261,178185,2,0,L|191:241,1,75.0000028610231,2|0,0:0|0:0,0:0:0:0:
151,168,178560,5,2,1:3:0:0:
389,187,178935,2,0,L|296:167,1,75.0000028610231
249,117,179310,5,2,1:3:0:0:
400,353,179685,1,2,0:3:0:0:
377,256,179872,1,0,0:0:0:0:
303,326,180060,2,0,P|265:324|223:330,1,75.0000028610231,10|0,0:3|0:0,0:0:0:0:
66,290,180435,2,0,P|104:292|146:286,1,75.0000028610231,2|0,0:3|0:0,0:0:0:0:
193,157,180810,6,0,P|136:109|62:114,1,150.000005722046,4|0,1:0|3:0,0:0:0:0:
100,210,181372,1,0,3:0:0:0:
279,147,181560,2,0,P|274:187|253:220,1,75.0000028610231,0|0,1:0|0:0,0:0:0:0:
220,68,181935,2,0,P|229:29|251:0,1,75.0000028610231,0|0,3:0|3:0,0:0:0:0:
391,73,182310,6,0,P|353:69|316:70,1,75.0000028610231,0|0,1:0|0:0,0:0:0:0:
167,131,182685,1,0,3:0:0:0:
286,144,182872,1,0,3:0:0:0:
136,57,183060,2,0,P|99:86|87:116,1,75.0000028610231,0|0,1:0|0:0,0:0:0:0:
158,228,183435,1,0,3:0:0:0:
160,237,183528,1,0,3:0:0:0:
161,246,183622,1,0,3:0:0:0:
162,255,183716,1,0,3:0:0:0:
163,263,183810,6,0,B|220:257|220:257|258:270|258:270|325:261,1,150.000005722046,0|0,1:0|3:0,0:0:0:0:
373,155,184372,1,0,3:0:0:0:
256,114,184560,2,0,P|218:111|176:121,1,75.0000028610231,0|0,1:0|0:0,0:0:0:0:
36,177,184935,2,0,P|74:180|116:170,1,75.0000028610231,0|0,3:0|3:0,0:0:0:0:
65,62,185310,5,0,1:0:0:0:
76,301,185685,2,0,L|148:257,1,75.0000028610231,0|0,3:0|3:0,0:0:0:0:
256,168,186060,5,8,0:0:0:0:
36,177,186435,2,0,L|111:173,1,75.0000028610231,8|0,0:0|3:0,0:0:0:0:
269,283,186810,5,8,0:0:0:0:
63,260,186997,1,4,0:3:0:0:
231,173,187185,1,0,1:0:0:0:
159,377,187372,2,0,P|149:312|164:226,1,150.000005722046,4|0,1:2|1:0,0:0:0:0:
373,332,187935,1,8,0:0:0:0:
356,134,188122,6,0,B|277:112|288:170|209:149,1,150.000005722046,4|0,1:0|1:0,0:0:0:0:
88,11,188685,1,10,0:3:0:0:
238,73,188872,1,0,0:0:0:0:
57,191,189060,5,8,0:0:0:0:
304,144,189247,1,8,0:0:0:0:
199,331,189435,2,0,P|160:340|105:334,1,75.0000028610231,2|0,3:0|0:0,0:0:0:0:
160,202,189810,6,0,L|165:247,1,37.5000014305115
186,118,190185,5,2,0:0:0:0:
267,255,190372,1,0,0:0:0:0:
190,89,190560,5,2,0:0:0:0:
358,222,190747,1,0,0:0:0:0:
279,28,190935,5,2,0:0:0:0:
177,239,191122,2,0,P|236:244|280:280,1,100,2|0,0:0|0:0,0:0:0:0:
47,298,191685,1,2,0:3:0:0:
136,84,191872,1,8,0:0:0:0:
134,102,191966,1,8,0:0:0:0:
133,121,192060,5,8,0:0:0:0:
199,339,192247,1,8,0:0:0:0:
341,148,192435,5,4,0:3:0:0:
286,314,192622,1,0,0:0:0:0:
210,55,192810,6,0,B|152:48|152:48|113:64|113:64|52:58,1,160,4|2,1:0|0:0,0:0:0:0:
167,149,193372,1,0,0:0:0:0:
281,4,193560,2,0,P|296:51|286:99,1,80,8|0,0:0|0:0,0:0:0:0:
155,225,193935,2,0,P|152:185|166:148,1,80,2|0,0:0|3:0,0:0:0:0:
249,202,194216,5,0,3:0:0:0:
249,202,194310,2,0,L|336:197,1,80,0|0,1:0|0:0,0:0:0:0:
198,366,194685,1,2,1:2:0:0:
155,225,194872,1,0,0:0:0:0:
373,257,195060,2,0,P|366:197|382:136,1,120,8|0,0:0|0:0,0:0:0:0:
392,116,195435,2,0,L|306:119,1,80,2|0,0:0|3:0,0:0:0:0:
108,202,195810,6,0,B|156:200|156:200|176:188|176:188|240:188,1,120,0|0,1:0|0:0,0:0:0:0:
248,188,196185,1,2,0:0:0:0:
158,322,196372,1,0,0:0:0:0:
122,123,196560,2,0,P|123:84|120:35,1,80,8|0,0:0|0:0,0:0:0:0:
285,270,196935,2,0,P|283:313|283:349,1,80,2|0,0:0|3:0,0:0:0:0:
108,202,197310,5,0,1:0:0:0:
329,116,197497,1,8,0:0:0:0:
200,249,197685,2,0,P|210:179|208:123,1,120,2|0,1:2|0:0,0:0:0:0:
202,109,198060,2,0,L|120:90,1,80,8|0,0:0|0:0,0:0:0:0:
408,132,198435,1,2,0:0:0:0:
280,248,198622,1,0,0:0:0:0:
300,16,198810,6,0,P|312:68|308:112,1,80,0|0,1:0|0:0,0:0:0:0:
168,248,199185,2,0,P|156:196|160:152,1,80,2|0,0:0|0:0,0:0:0:0:
408,112,199560,2,0,P|379:157|345:185,1,80,8|0,0:0|0:0,0:0:0:0:
60,152,199935,2,0,P|88:106|122:78,1,80,2|0,0:0|3:0,0:0:0:0:
188,336,200310,6,0,B|136:348|92:308|92:308|20:336,1,160,0|2,1:0|1:2,0:0:0:0:
158,211,200872,1,0,0:0:0:0:
302,310,201060,2,0,B|326:266|326:266|312:184,1,120,8|0,0:0|0:0,0:0:0:0:
309,174,201435,2,0,L|293:88,1,80,2|0,0:0|3:0,0:0:0:0:
443,308,201810,6,0,B|351:290|378:348|273:330,1,160,0|2,1:0|0:0,0:0:0:0:
144,248,202372,1,0,0:0:0:0:
253,116,202560,2,0,P|267:167|266:213,1,80,8|0,0:0|0:0,0:0:0:0:
89,115,202935,2,0,P|91:75|103:37,1,80,2|0,0:0|3:0,0:0:0:0:
301,37,203310,5,0,1:0:0:0:
173,173,203497,1,0,3:0:0:0:
399,145,203685,2,0,P|437:137|480:142,1,80,2|0,1:2|0:0,0:0:0:0:
203,300,204060,1,8,0:0:0:0:
253,116,204247,1,0,0:0:0:0:
440,311,204435,1,2,0:0:0:0:
394,119,204622,1,0,3:0:0:0:
203,300,204810,6,0,B|154:309|118:273|118:273|103:309|73:321,1,160,4|2,1:0|0:0,0:0:0:0:
34,171,205372,1,0,0:0:0:0:
238,216,205560,2,0,L|247:136,1,80,8|0,0:0|0:0,0:0:0:0:
109,4,205935,2,0,L|116:85,1,80,2|0,0:0|3:0,0:0:0:0:
118,178,206216,5,0,3:0:0:0:
118,178,206310,2,0,L|126:257,1,80,0|0,1:0|3:0,0:0:0:0:
337,128,206685,2,0,P|311:74|254:44,1,120,2|0,1:2|0:0,0:0:0:0:
233,44,207060,2,0,P|195:62|139:64,1,80,8|0,0:0|0:0,0:0:0:0:
52,230,207435,2,0,P|89:250|129:257,1,80,2|0,0:0|3:0,0:0:0:0:
310,149,207810,6,0,B|355:193|355:193|326:304,1,160,0|2,1:0|0:0,0:0:0:0:
188,188,208372,1,0,0:0:0:0:
299,57,208560,2,0,P|340:62|375:85,1,80,8|0,0:0|0:0,0:0:0:0:
188,188,208935,1,2,0:0:0:0:
131,12,209122,1,0,3:0:0:0:
48,176,209310,6,0,P|109:161|173:181,1,120,0|0,1:0|0:0,0:0:0:0:
188,188,209685,2,0,L|202:97,1,80,2|0,1:2|0:0,0:0:0:0:
0,310,210060,2,0,P|45:319|97:319,1,80,8|0,0:0|0:0,0:0:0:0:
310,276,210435,2,0,P|265:267|213:267,1,80,2|0,0:0|3:0,0:0:0:0:
56,132,210810,6,0,P|69:176|93:217,1,89.9999972534181,4|0,1:2|0:0,0:0:0:0:
301,336,211185,2,0,P|323:296|335:250,1,89.9999972534181,2|0,0:0|0:0,0:0:0:0:
210,47,211560,2,0,P|188:87|176:133,1,89.9999972534181,8|0,0:0|0:0,0:0:0:0:
455,251,211935,2,0,P|442:207|418:166,1,89.9999972534181,2|0,0:0|3:0,0:0:0:0:
161,265,212310,6,0,B|264:302|243:222|346:258,1,179.999994506836,0|2,1:0|1:2,0:0:0:0:
450,349,212872,1,0,0:0:0:0:
348,137,213060,2,0,P|281:141|210:199,1,134.999995880127,8|0,0:0|0:0,0:0:0:0:
208,196,213435,2,0,L|205:89,1,89.9999972534181,2|0,0:0|3:0,0:0:0:0:
441,71,213810,6,0,L|439:210,1,134.999995880127,4|0,1:2|3:0,0:0:0:0:
439,235,214185,2,0,P|392:232|334:244,1,89.9999972534181,2|0,0:0|1:0,0:0:0:0:
224,337,214560,5,8,0:0:0:0:
115,147,214747,1,0,0:0:0:0:
347,124,214935,5,4,1:2:0:0:
172,244,215122,1,0,0:0:0:0:
234,49,215310,5,2,1:2:0:0:
349,238,215497,1,8,0:0:0:0:
347,6,215685,5,6,1:2:0:0:
146,229,215872,1,0,3:0:0:0:
148,250,215966,1,0,3:0:0:0:
151,271,216060,5,10,0:0:0:0:
347,6,216247,1,0,1:0:0:0:
98,90,216435,5,8,0:2:0:0:
349,238,216622,1,8,0:0:0:0:
220,64,216810,6,0,P|219:143|225:223,1,160,4|2,1:0|0:0,0:0:0:0:
403,163,217372,1,0,0:0:0:0:
257,320,217560,2,0,P|219:322|177:313,1,80,8|0,0:0|0:0,0:0:0:0:
101,149,217935,2,0,P|143:142|180:145,1,80,2|0,0:0|3:0,0:0:0:0:
263,98,218216,5,0,3:0:0:0:
263,98,218310,2,0,P|271:134|266:181,1,80,0|0,1:0|0:0,0:0:0:0:
178,313,218685,1,2,1:2:0:0:
43,219,218872,1,0,0:0:0:0:
295,255,219060,2,0,P|352:244|426:255,1,120,8|0,0:0|0:0,0:0:0:0:
438,261,219435,2,0,L|427:160,1,80,2|0,0:0|3:0,0:0:0:0:
325,51,219810,6,0,B|273:43|232:79|232:79|175:59,1,160,0|2,1:0|0:0,0:0:0:0:
256,216,220372,1,0,0:0:0:0:
104,133,220560,2,0,P|90:170|86:209,1,80,8|0,0:0|0:0,0:0:0:0:
216,361,220935,2,0,P|220:323|218:276,1,80,2|0,0:0|3:0,0:0:0:0:
175,59,221310,5,0,1:0:0:0:
274,176,221497,1,0,3:0:0:0:
360,2,221685,2,0,L|363:93,1,80,2|0,1:2|0:0,0:0:0:0:
242,269,222060,1,8,0:0:0:0:
464,234,222247,1,0,0:0:0:0:
288,344,222435,1,2,0:0:0:0:
357,163,222622,1,0,3:0:0:0:
199,351,222810,6,0,L|114:352,1,80,4|0,1:2|0:0,0:0:0:0:
41,138,223185,2,0,P|122:141|165:167,1,120,2|0,0:0|0:0,0:0:0:0:
175,177,223560,2,0,P|216:185|262:173,1,80,8|0,0:0|0:0,0:0:0:0:
357,59,223935,1,2,0:0:0:0:
333,246,224122,1,0,3:0:0:0:
181,82,224310,6,0,B|122:86|122:86|86:112|86:112|20:117,1,160,0|2,1:0|0:0,0:0:0:0:
175,177,224872,1,0,1:0:0:0:
252,29,225060,1,8,0:0:0:0:
78,218,225247,6,0,P|81:273|96:326,1,110.000003356934,4|0,1:2|0:0,0:0:0:0:
279,207,225810,6,0,P|333:201|371:201,1,80,4|0,1:1|0:0,0:0:0:0:
143,126,226185,2,0,P|105:124|58:117,1,80,2|0,0:0|0:0,0:0:0:0:
280,25,226560,1,8,0:0:0:0:
216,164,226747,1,0,0:0:0:0:
363,107,226935,2,0,P|400:102|444:106,1,80,2|0,0:0|1:0,0:0:0:0:
293,313,227310,5,0,1:0:0:0:
183,102,227497,1,8,0:0:0:0:
161,303,227685,1,2,1:2:0:0:
339,136,227872,1,0,3:0:0:0:
339,136,227966,1,0,3:0:0:0:
339,136,228060,5,8,0:0:0:0:
102,197,228247,1,8,0:0:0:0:
402,253,228435,2,0,P|363:245|322:239,1,80,2|0,1:2|3:0,0:0:0:0:
87,286,228810,6,0,B|175:273|154:341|245:315,1,160,4|2,1:0|0:0,0:0:0:0:
402,228,229372,1,0,0:0:0:0:
363,362,229560,2,0,P|361:283|395:212,1,160,8|2,0:0|0:0,0:0:0:0:
478,313,230122,1,0,3:0:0:0:
265,245,230310,6,0,P|267:214|250:160,1,80,0|0,1:0|0:0,0:0:0:0:
156,46,230685,2,0,P|143:83|145:123,1,80,2|0,1:2|0:0,0:0:0:0:
245,317,231060,2,0,B|177:341|124:309|124:309|151:273,1,160,8|2,0:0|0:0,0:0:0:0:
254,167,231622,1,0,0:0:0:0:
61,139,231810,6,0,P|79:174|108:201,1,80,0|0,1:0|0:0,0:0:0:0:
184,33,232185,2,0,P|144:31|106:42,1,80,2|0,0:0|0:0,0:0:0:0:
210,228,232560,2,0,P|241:183|342:157,1,160,8|2,0:0|0:0,0:0:0:0:
316,271,233122,1,0,3:0:0:0:
316,271,233216,1,0,3:0:0:0:
316,271,233310,5,0,1:0:0:0:
137,300,233497,1,0,0:0:0:0:
338,156,233685,2,0,P|342:98|349:34,1,120,2|0,1:2|0:0,0:0:0:0:
351,11,234060,2,0,P|310:13|265:31,1,80,8|0,0:0|0:0,0:0:0:0:
180,208,234435,1,2,0:0:0:0:
104,20,234622,1,0,3:0:0:0:
338,157,234810,5,4,1:0:0:0:
75,138,234997,1,0,0:0:0:0:
255,93,235185,2,0,P|259:172|261:253,1,160,2|8,0:0|0:0,0:0:0:0:
115,295,235747,1,0,0:0:0:0:
278,347,235935,1,2,0:0:0:0:
172,122,236122,5,0,3:0:0:0:
172,122,236216,1,0,3:0:0:0:
172,122,236310,1,0,1:0:0:0:
189,279,236497,1,8,0:0:0:0:
379,244,236685,1,2,0:2:0:0:
180,202,236872,1,0,1:0:0:0:
376,329,237060,5,8,0:0:0:0:
385,157,237247,1,0,0:0:0:0:
371,352,237435,1,2,0:0:0:0:
465,202,237622,1,0,3:0:0:0:
278,347,237810,6,0,P|199:373|116:362,1,160,4|2,1:2|0:0,0:0:0:0:
143,151,238372,1,0,0:0:0:0:
315,266,238560,1,10,0:2:0:0:
310,74,238747,1,0,0:0:0:0:
84,252,238935,2,0,L|178:257,1,80,2|0,0:0|3:0,0:0:0:0:
183,255,239216,1,0,3:0:0:0:
199,256,239310,5,0,1:0:0:0:
310,74,239497,1,8,0:0:0:0:
399,328,239685,1,4,3:0:0:0:
399,328,239778,1,4,0:3:0:0:
399,328,239872,1,4,0:3:0:0:
192,101,240060,5,8,0:0:0:0:
411,226,240247,1,8,0:3:0:0:
404,20,240435,5,4,0:3:0:0:
315,265,240622,1,0,1:0:0:0:
208,23,240810,6,0,P|122:44|59:98,1,160,4|2,1:0|0:0,0:0:0:0:
43,183,241372,1,0,0:0:0:0:
292,190,241560,2,0,P|220:156|141:155,1,160,12|2,0:0|0:0,0:0:0:0:
39,208,242122,1,0,0:0:0:0:
235,251,242310,6,0,L|232:330,1,80,0|0,1:0|0:0,0:0:0:0:
268,96,242685,2,0,P|321:60|401:61,1,120,2|0,1:2|0:0,0:0:0:0:
399,63,243060,2,0,L|509:67,1,80,8|0,0:0|0:0,0:0:0:0:
287,173,243435,1,2,0:0:0:0:
453,214,243622,1,0,0:0:0:0:
341,320,243810,6,0,P|342:279|357:237,1,80,0|0,1:0|0:0,0:0:0:0:
478,65,244185,2,0,P|490:102|491:142,1,80,2|0,0:0|0:0,0:0:0:0:
199,150,244560,2,0,L|278:139,1,80,8|0,0:0|0:0,0:0:0:0:
511,288,244935,1,2,1:2:0:0:
491,290,245028,1,0,3:0:0:0:
471,293,245122,1,0,3:0:0:0:
451,296,245216,1,0,3:0:0:0:
431,298,245310,5,8,0:3:0:0:
199,150,245497,1,4,0:3:0:0:
354,224,245685,1,0,1:0:0:0:
221,295,245872,1,0,1:0:0:0:
306,128,246060,1,8,0:0:0:0:
109,275,246247,2,0,P|104:200|77:101,1,160,4|0,1:2|0:0,0:0:0:0:
184,32,246810,6,0,B|245:38|245:38|275:14|275:14|370:22,1,160,4|2,1:0|0:0,0:0:0:0:
278,193,247372,1,0,0:0:0:0:
440,2,247560,2,0,B|450:46|422:83|422:83|436:110|436:110|421:157,1,160,12|2,0:0|0:0,0:0:0:0:
270,65,248122,1,0,3:2:0:0:
376,233,248310,6,0,P|380:270|368:319,1,80,0|0,1:2|0:0,0:0:0:0:
70,158,248685,2,0,P|124:170|194:161,1,120,2|0,1:2|0:2,0:2:0:0:
208,156,249060,2,0,P|253:146|304:158,1,80,8|0,0:0|0:0,0:0:0:0:
371,311,249435,1,2,0:0:0:0:
423,152,249622,1,0,3:0:0:0:
202,313,249810,5,4,1:2:0:0:
190,29,250185,1,4,0:3:0:0:
394,254,250560,5,8,0:0:0:0:
109,205,250935,1,0,1:0:0:0:
308,10,251310,5,4,1:0:0:0:
308,332,251685,1,0,0:0:0:0:
498,71,252060,2,0,L|408:100,1,80,8|4,0:3|0:3,0:0:0:0:
192,171,252435,2,0,L|280:201,1,80,0|0,1:0|0:0,0:0:0:0:
498,270,252810,5,4,1:0:0:0:
256,192,252903,12,0,255716,0:0:0:0:
256,192,255838,12,4,258843,0:1:0:0:
406,177,270879,5,4,0:0:0:0:
406,177,272325,1,0,0:0:0:0:
106,207,273776,5,4,0:0:0:0:
106,207,275321,2,0,P|118:269|96:338,1,120
206,275,276071,2,0,P|192:217|204:158,1,120
307,214,276821,6,0,B|384:200|424:268|424:268|420:216|460:189,1,230,4|0,0:0|0:0,0:0:0:0:
256,192,278093,12,0,279433,0:0:0:0:
176,232,279813,5,4,1:3:0:0:
309,191,280000,1,0,1:0:0:0:
112,152,280188,5,8,0:2:0:0:
72,326,280375,1,2,1:3:0:0:
221,129,280563,5,0,0:0:0:0:
279,342,280750,1,0,1:0:0:0:
8,168,280938,5,4,1:2:0:0:
309,191,281125,1,0,0:0:0:0:
133,95,281313,5,0,1:0:0:0:
133,95,281500,1,0,0:0:0:0:
309,191,281688,1,8,0:0:0:0:
126,278,281875,5,8,0:0:0:0:
309,45,282063,1,8,0:0:0:0:
298,341,282250,1,8,0:0:0:0:
133,95,282438,1,8,0:0:0:0:
411,197,282625,1,8,0:0:0:0:
126,279,282813,6,0,P|114:211|33:162,1,150.000005722046,4|2,1:0|0:0,0:0:0:0:
29,261,283375,1,0,0:0:0:0:
228,185,283563,6,0,B|321:171|296:235|390:221,1,170.000003242493,12|2,0:0|0:0,0:0:0:0:
375,56,284125,1,0,3:0:0:0:
375,56,284219,1,0,3:0:0:0:
375,56,284313,6,0,P|363:100|363:140,2,85.0000016212464,2|0|2,1:2|3:0|1:2,0:0:0:0:
464,244,284875,1,0,0:0:0:0:
284,348,285063,2,0,P|290:284|302:219,1,127.50000243187,10|0,0:0|0:0,0:0:0:0:
308,201,285438,2,0,P|346:218|388:220,1,85.0000016212464,2|0,0:0|3:0,0:0:0:0:
364,59,285813,6,0,B|268:41|297:116|187:83,1,170.000003242493,2|2,1:2|0:0,0:0:0:0:
343,204,286375,1,0,0:0:0:0:
134,181,286563,2,0,P|128:136|113:77,1,85.0000016212464,10|0,0:0|0:0,0:0:0:0:
343,204,286938,2,0,P|333:245|328:287,1,85.0000016212464,2|0,0:0|3:0,0:0:0:0:
448,121,287313,5,2,1:2:0:0:
236,194,287500,1,0,3:0:0:0:
435,357,287688,2,0,P|430:314|419:273,1,85.0000016212464,2|0,1:2|0:0,0:0:0:0:
159,299,288063,2,0,P|200:306|243:308,1,85.0000016212464,10|0,0:0|0:0,0:2:0:0:
298,82,288438,1,2,0:0:0:0:
487,219,288625,1,0,3:0:0:0:
219,211,288813,6,0,P|176:209|136:196,1,85.0000016212464,4|0,1:0|0:0,0:0:0:0:
399,82,289188,2,0,P|439:68|481:67,1,85.0000016212464,2|0,0:0|0:0,0:0:0:0:
195,103,289563,2,0,P|166:71|147:34,1,85.0000016212464,10|0,0:0|0:0,0:0:0:0:
462,183,289938,2,0,P|490:214|509:251,1,85.0000016212464,2|0,0:0|3:0,0:0:0:0:
274,304,290313,5,2,1:2:0:0:
294,98,290500,1,0,3:0:0:0:
386,277,290688,2,0,P|382:319|367:366,1,85.0000016212464,2|0,1:2|0:0,0:0:0:0:
137,197,291063,2,0,B|151:137|151:137|133:98|133:98|148:27,1,170.000003242493,10|2,0:0|0:0,0:0:0:0:
255,241,291625,1,0,3:0:0:0:
327,66,291813,6,0,P|268:72|229:85,1,85.0000016212464,2|0,1:2|0:0,0:0:0:0:
386,277,292188,2,0,P|427:287|469:290,1,85.0000016212464,2|0,1:2|0:0,0:0:0:0:
414,49,292563,1,10,0:0:0:0:
255,241,292750,1,4,0:3:0:0:
439,176,292938,1,2,0:0:0:0:
189,139,293125,1,0,1:0:0:0:
272,353,293313,5,2,1:2:0:0:
299,148,293500,1,8,0:0:0:0:
87,181,293688,1,8,0:3:0:0:
255,241,293875,1,4,0:3:0:0:
146,33,294063,5,12,0:0:0:0:
145,303,294250,1,0,0:0:0:0:
54,74,294439,5,8,0:0:0:0:
144,334,294624,1,8,0:0:0:0:
216,116,294813,6,0,B|275:120|275:120|316:95|316:95|390:100,1,170.000003242493,4|2,1:0|0:0,0:0:0:0:
228,222,295375,1,0,0:0:0:0:
138,44,295563,2,0,P|173:20|215:14,1,85.0000016212464,10|0,0:0|0:0,0:0:0:0:
228,222,295938,2,0,L|227:320,1,85.0000016212464,2|0,0:0|3:0,0:0:0:0:
117,146,296313,5,2,1:2:0:0:
326,196,296500,1,0,3:0:0:0:
77,239,296688,2,0,P|36:211|19:175,1,85.0000016212464,2|0,1:2|0:0,0:0:0:0:
214,13,297063,2,0,P|216:59|208:111,1,85.0000016212464,10|0,0:0|0:0,0:0:0:0:
328,280,297438,2,0,P|322:237|325:195,1,85.0000016212464,2|0,0:0|3:0,0:0:0:0:
299,0,297813,6,0,P|215:-11|132:4,1,170.000003242493,2|2,1:2|0:0,0:0:0:0:
81,202,298375,1,0,0:0:0:0:
259,102,298563,2,0,L|168:105,1,85.0000016212464,10|0,0:0|0:0,0:0:0:0:
131,301,298938,1,2,0:0:0:0:
326,234,299125,1,0,3:0:0:0:
73,117,299313,6,0,L|82:215,1,85.0000016212464,2|0,1:2|3:0,0:0:0:0:
348,145,299688,2,0,L|355:60,1,85.0000016212464,2|0,1:2|0:0,0:0:0:0:
256,294,300063,2,0,P|298:318|348:323,1,85.0000016212464,10|0,0:0|0:0,0:0:0:0:
223,105,300438,1,2,0:0:0:0:
131,301,300625,1,0,1:0:0:0:
364,308,300813,6,0,P|418:296|465:264,1,94.9999974632264,4|0,1:2|0:0,0:0:0:0:
147,75,301188,2,0,P|93:87|46:119,1,94.9999974632264,2|0,0:0|0:0,0:0:0:0:
367,172,301563,2,0,P|397:124|407:69,1,94.9999974632264,12|0,0:0|0:0,0:0:0:0:
145,212,301938,2,0,P|114:259|104:314,1,94.9999974632264,2|0,0:0|3:0,0:0:0:0:
255,184,302313,6,0,B|283:140|255:94|255:94|227:44|255:-1,1,189.999994926453,2|2,1:2|0:0,0:0:0:0:
179,136,302875,1,0,1:0:0:0:
340,256,303063,1,10,0:0:0:0:
104,296,303250,1,0,1:0:0:0:
295,173,303438,2,0,P|338:162|397:180,1,94.9999974632264,10|0,0:0|0:0,0:0:0:0:
195,338,303813,5,2,1:2:0:0:
159,100,304000,1,8,0:0:0:0:
104,296,304188,1,2,0:0:0:0:
340,256,304375,1,0,1:0:0:0:
83,186,304563,5,10,0:0:0:0:
195,338,304750,2,0,P|191:303|191:279,1,47.4999987316132,0|0,1:0|1:0,0:0:0:0:
326,80,304938,5,12,0:0:0:0:
293,345,305125,1,8,0:0:0:0:
159,100,305313,5,2,1:2:0:0:
410,154,305500,1,0,1:0:0:0:
192,212,305688,5,12,0:0:0:0:
429,45,305875,1,0,3:0:0:0:
83,186,306063,5,8,0:3:0:0:
388,258,306250,1,4,0:3:0:0:
147,316,306438,5,0,1:0:0:0:
275,185,306625,1,0,1:0:0:0:
354,348,306813,6,0,B|382:297|354:231|354:231|332:265|301:272,1,170.000003242493,4|2,1:0|0:0,0:0:0:0:
117,297,307375,1,0,0:0:0:0:
266,101,307563,2,0,P|275:149|274:197,1,85.0000016212464,10|0,0:0|0:0,0:0:0:0:
192,348,307938,1,2,0:0:0:0:
71,146,308125,1,0,3:0:0:0:
350,134,308313,6,0,L|457:126,1,85.0000016212464,2|0,1:2|3:0,0:0:0:0:
187,265,308688,2,0,P|131:233|57:237,1,127.50000243187,2|0,1:2|0:0,0:0:0:0:
45,242,309063,2,0,L|58:152,1,85.0000016212464,10|0,0:0|0:0,0:0:0:0:
253,16,309438,2,0,L|265:100,1,85.0000016212464,2|0,0:0|3:0,0:0:0:0:
379,265,309813,6,0,P|346:218|231:198,1,170.000003242493,2|2,1:2|0:0,0:0:0:0:
384,365,310375,1,0,0:0:0:0:
456,194,310563,2,0,P|461:147|463:84,1,85.0000016212464,10|0,0:0|0:0,0:0:0:0:
275,299,310938,2,0,P|275:343|280:383,1,85.0000016212464,2|0,0:0|3:0,0:0:0:0:
306,111,311313,5,2,1:2:0:0:
122,167,311500,1,0,3:0:0:0:
333,104,311688,1,2,1:2:0:0:
195,281,311875,5,0,0:0:0:0:
202,52,312063,1,10,0:0:0:0:
329,239,312250,1,0,0:0:0:0:
105,172,312438,1,2,1:2:0:0:
354,98,312625,1,0,3:0:0:0:
193,304,312813,6,0,P|138:265|35:257,1,170.000003242493,4|2,1:0|0:0,0:0:0:0:
133,366,313375,1,0,0:0:0:0:
228,130,313563,2,0,P|201:176|203:233,1,85.0000016212464,10|0,0:0|0:0,0:0:0:0:
347,358,313938,2,0,P|340:316|316:281,1,85.0000016212464,2|0,0:0|3:0,0:0:0:0:
193,304,314313,5,2,1:2:0:0:
371,202,314500,1,8,0:0:0:0:
151,101,314688,1,10,0:0:0:0:
337,318,314875,2,0,P|381:319|441:315,1,85.0000016212464,4|0,1:0|0:0,0:0:0:0:
197,206,315250,6,0,P|138:206|73:209,1,119.999996337891,4|0,1:2|1:0,0:0:0:0:
371,201,315813,6,0,P|370:117|431:64,1,170.000003242493,4|2,1:0|0:0,0:0:0:0:
460,158,316375,1,0,1:0:0:0:
277,207,316563,2,0,P|269:166|274:124,1,85.0000016212464,10|0,0:0|0:0,0:0:0:0:
457,255,316938,2,0,P|461:297|454:339,1,85.0000016212464,2|0,0:0|3:0,0:0:0:0:
189,278,317313,5,2,1:2:0:0:
371,201,317500,1,8,0:0:0:0:
371,201,317594,1,8,0:0:0:0:
371,201,317688,1,10,0:0:0:0:
357,373,317875,1,0,1:0:0:0:
242,122,318063,5,8,0:3:0:0:
431,288,318250,1,8,0:3:0:0:
400,37,318438,5,4,0:3:0:0:
283,247,318625,1,0,1:0:0:0:
144,67,318813,6,0,P|92:71|4:157,1,170.000003242493,4|2,1:0|0:0,0:0:0:0:
125,193,319375,1,0,0:0:0:0:
216,1,319563,2,0,B|262:36|262:36|248:151,1,170.000003242493,12|2,0:0|0:0,0:0:0:0:
213,278,320125,1,0,3:0:0:0:
114,97,320313,6,0,P|112:66|131:2,1,85.0000016212464,2|8,1:2|0:0,0:0:0:0:
333,93,320688,2,0,P|346:130|338:197,1,85.0000016212464,2|0,1:2|0:0,0:0:0:0:
213,278,321063,2,0,B|151:288|151:288|118:273|118:273|33:291,1,170.000003242493,8|2,0:0|0:0,0:0:0:0:
114,97,321625,1,0,3:0:0:0:
260,192,321813,6,0,P|278:227|315:258,1,85.0000016212464,2|0,1:2|0:0,0:0:0:0:
290,58,322188,2,0,P|250:56|198:69,1,85.0000016212464,2|0,0:0|0:0,0:0:0:0:
427,166,322563,2,0,P|410:90|423:-10,1,170.000003242493,8|2,0:0|0:0,0:0:0:0:
512,96,323125,1,0,3:0:0:0:
331,215,323313,5,2,1:2:0:0:
325,32,323500,1,8,0:0:0:0:
420,268,323688,2,0,P|416:325|407:371,1,85.0000016212464,2|0,1:2|0:0,0:0:0:0:
202,215,324063,2,0,P|288:234|336:296,1,170.000003242493,12|2,0:0|0:0,0:0:0:0:
222,333,324625,1,0,3:0:0:0:
176,120,324813,5,4,1:0:0:0:
389,167,325000,1,0,0:0:0:0:
173,219,325188,2,0,P|130:222|77:233,1,85.0000016212464,2|0,0:0|1:0,0:0:0:0:
336,296,325563,1,12,0:0:0:0:
238,53,325750,1,0,1:0:0:0:
61,314,325938,2,0,P|107:318|161:327,1,85.0000016212464,4|0,1:0|0:0,0:0:0:0:
160,333,326219,1,0,0:0:0:0:
172,341,326313,5,2,1:2:0:0:
284,146,326500,1,8,0:0:0:0:
88,229,326688,1,2,1:2:0:0:
268,347,326875,1,0,1:0:0:0:
134,113,327063,1,10,0:0:0:0:
29,327,327250,1,4,0:3:0:0:
283,243,327438,2,0,P|328:233|368:234,1,85.0000016212464,0|0,1:0|0:0,0:0:0:0:
89,274,327813,6,0,L|82:181,1,85.0000016212464,4|0,1:0|0:0,0:0:0:0:
253,69,328188,1,2,0:0:0:0:
186,263,328375,1,0,1:0:0:0:
145,82,328563,5,10,0:0:0:0:
297,244,328750,1,0,0:0:0:0:
123,82,328938,1,2,1:2:0:0:
363,25,329125,1,8,0:0:0:0:
297,244,329313,6,0,P|342:232|382:235,1,85.0000016212464,4|0,1:2|0:0,0:0:0:0:
349,330,329688,5,8,0:0:0:0:
299,158,329875,1,8,0:0:0:0:
166,346,330063,5,8,0:0:0:0:
169,118,330250,1,8,0:0:0:0:
0,344,330438,5,8,0:0:0:0:
55,56,330625,1,8,0:0:0:0:
351,284,330813,6,0,P|284:235|200:221,1,170.000003242493,4|2,1:0|0:1,0:0:0:0:
110,256,331375,1,0,0:0:0:0:
136,0,331563,2,0,P|147:78|117:163,1,170.000003242493,12|2,0:0|0:0,0:0:0:0:
110,256,332125,1,0,0:0:0:0:
260,228,332313,6,0,L|256:144,1,85.0000016212464,0|0,1:0|3:0,0:0:0:0:
27,309,332688,2,0,P|80:345|164:341,1,127.50000243187,2|0,1:0|0:0,0:0:0:0:
161,338,333063,2,0,P|211:323|264:336,1,85.0000016212464,8|0,0:0|0:0,0:0:0:0:
255,143,333438,1,2,0:0:0:0:
353,275,333625,1,0,0:0:0:0:
344,154,333813,6,0,P|358:119|364:70,1,85.0000016212464,0|0,1:0|3:0,0:0:0:0:
189,202,334188,2,0,P|174:167|170:109,1,85.0000016212464,2|0,0:1|1:0,0:0:0:0:
338,257,334563,2,0,P|375:252|421:234,1,85.0000016212464,8|0,0:0|0:0,0:0:0:0:
207,294,334938,2,0,P|170:290|127:271,1,85.0000016212464,2|0,1:2|3:0,0:0:0:0:
126,270,335219,1,0,3:0:0:0:
126,270,335313,5,0,1:0:0:0:
258,109,335500,1,8,0:0:0:0:
307,332,335688,1,2,0:0:0:0:
191,175,335875,1,0,1:0:0:0:
381,123,336063,1,8,0:0:0:0:
207,294,336250,2,0,B|98:313|98:313|36:271,1,170.000003242493,4|0,1:2|1:0,0:0:0:0:
108,60,336813,6,0,B|200:48|186:113|288:87,1,170.000003242493,4|2,1:0|0:1,0:0:0:0:
378,22,337375,1,0,1:0:0:0:
302,177,337563,5,10,0:0:0:0:
475,114,337750,1,0,1:0:0:0:
388,299,337938,2,0,L|394:187,1,85.0000016212464,12|0,0:0|0:0,0:0:0:0:
271,90,338313,5,0,1:0:0:0:
197,256,338500,1,0,3:0:0:0:
365,100,338688,1,2,0:1:0:0:
176,81,338875,1,0,1:0:0:0:
309,226,339063,2,0,P|355:214|418:218,1,85.0000016212464,8|0,0:0|0:0,0:0:0:0:
256,340,339438,1,2,1:2:0:0:
184,168,339625,1,0,0:0:0:0:
364,304,339813,5,4,1:0:0:0:
336,92,340188,1,4,0:3:0:0:
148,304,340563,5,8,0:0:0:0:
176,92,340938,1,0,1:0:0:0:
353,331,341313,5,8,0:0:0:0:
95,136,341688,1,8,0:0:0:0:
418,142,342063,1,8,0:0:0:0:
153,327,342438,1,8,0:0:0:0:
258,22,342813,1,4,0:0:0:0:
256,192,342906,12,4,344552,0:0:0:0:
112,140,345837,6,0,L|232:136,1,100
304,179,346572,1,0,0:0:0:0:
304,179,346817,2,0,P|312:148|304:96,1,75.0000028610231
48,300,347911,6,0,L|148:304,1,100
208,168,348744,2,0,L|108:171,1,100
293,101,349594,6,0,P|313:149|309:205,1,100
172,280,350486,2,0,P|170:230|190:184,1,100
336,296,351374,5,4,0:0:0:0:
256,192,351496,12,0,356513,0:0:0:0:
256,192,356584,12,0,359941,0:0:0:0:
