osu file format v14

[General]
AudioFilename: audio.mp3
AudioLeadIn: 0
PreviewTime: 77269
Countdown: 0
SampleSet: Soft
StackLeniency: 0.3
Mode: 0
LetterboxInBreaks: 0
WidescreenStoryboard: 1

[Editor]
Bookmarks: 11062,33131,44165,55200,66234,99338,154510,165545,176579,187614,198648,220717,242786,264855,275890
DistanceSpacing: 0.5
BeatDivisor: 4
GridSize: 32
TimelineZoom: 2.5

[Metadata]
Title:Little Bit (feat. Sethh)
TitleUnicode:Little Bit (feat. Sethh)
Artist:Futuristik
ArtistUnicode:Futuristik
Creator:Xarr
Version:Insane
Source:
Tags:drum and bass dnb melodic electronic english ncs nocopyrightsounds NCS Is Love, NCS Is Life, Vol. 1
BeatmapID:3008980
BeatmapSetID:1390908

[Difficulty]
HPDrainRate:5
CircleSize:4
OverallDifficulty:8
ApproachRate:9
SliderMultiplier:1.79999990463257
SliderTickRate:1

[Events]
//Background and Video events
0,0,"wallhaven-k778dq.jpg",0,0
//Break Periods
2,33331,43565
2,154710,164945
//Storyboard Layer 0 (Background)
//Storyboard Layer 1 (Fail)
//Storyboard Layer 2 (Pass)
//Storyboard Layer 3 (Foreground)
//Storyboard Layer 4 (Overlay)
//Storyboard Sound Samples

[TimingPoints]
28,344.827586206897,4,2,0,100,1,0
11062,-166.666666666667,4,2,0,50,0,0
31752,-125,4,2,0,90,0,0
32269,-125,4,2,0,50,0,0
32441,-90.9090909090909,4,2,0,90,0,0
32786,-76.9230769230769,4,2,0,90,0,0
33131,-125,4,2,0,90,0,0
44165,-142.857142857143,4,2,0,50,0,0
53476,-90.9090909090909,4,2,0,50,0,0
53821,-125,4,2,0,90,0,0
54338,-125,4,2,0,70,0,0
54510,-125,4,2,0,90,0,0
55200,-166.666666666667,4,2,0,90,0,0
58303,-142.857142857143,4,2,0,90,0,0
59338,-111.111111111111,4,2,0,90,0,0
60028,-76.9230769230769,4,2,0,90,0,0
60717,-142.857142857143,4,2,0,90,0,0
64855,-100,4,2,0,90,0,0
65545,-76.9230769230769,4,2,0,90,0,0
66234,-111.111111111111,4,2,0,90,0,0
68648,-90.9090909090909,4,2,0,90,0,0
68993,-100,4,2,0,90,0,0
76407,-76.9230769230769,4,2,0,90,0,0
76924,-76.9230769230769,4,2,0,90,0,0
77269,-83.3333333333333,4,2,0,90,0,1
98476,-90.9090909090908,4,2,0,90,0,1
98993,-71.4285714285714,4,2,0,90,0,1
99338,-90.9090909090909,4,2,0,90,0,0
120545,-90.9090909090908,4,2,0,90,0,0
120890,-90.909090909091,4,2,0,90,0,0
132441,-166.666666666667,4,2,0,50,0,0
153131,-200,4,2,0,50,0,0
165545,-142.857142857143,4,2,0,50,0,0
174855,-90.9090909090909,4,2,0,50,0,0
175200,-125,4,2,0,90,0,0
176579,-166.666666666667,4,2,0,90,0,0
179683,-142.857142857143,4,2,0,90,0,0
180717,-90.909090909091,4,2,0,90,0,0
181407,-76.9230769230769,4,2,0,90,0,0
181752,-125,4,2,0,90,0,0
182096,-142.857142857143,4,2,0,90,0,0
186234,-100,4,2,0,90,0,0
186924,-76.9230769230769,4,2,0,90,0,0
187614,-111.111111111111,4,2,0,90,0,0
190028,-90.9090909090908,4,2,0,90,0,0
192441,-66.6666666666667,4,2,0,90,0,0
193131,-90.9090909090908,4,2,0,90,0,0
197786,-76.9230769230769,4,2,0,90,0,0
198648,-83.3333333333334,4,2,0,90,0,1
219855,-90.9090909090908,4,2,0,90,0,1
220372,-71.4285714285714,4,2,0,90,0,1
220717,-83.3333333333333,4,2,0,90,0,1
241924,-90.9090909090908,4,2,0,90,0,1
242441,-71.4285714285714,4,2,0,90,0,1
242786,-90.9090909090909,4,2,0,90,0,0
263993,-90.9090909090908,4,2,0,90,0,0
264855,-192.307692307692,4,2,0,90,0,0
264898,-192.307692307692,4,2,0,10,0,0
276234,-166.666666666667,4,2,0,30,0,0
286234,-250.000000000001,4,2,0,30,0,0

[Colours]
Combo1 : 255,91,140
Combo2 : 200,255,96
Combo3 : 253,141,94

[HitObjects]
256,192,6924,12,0,10717,0:0:0:0:
200,7,11062,6,0,P|213:88|218:189,1,161.999986473084,6|0,0:2|0:0,0:0:0:0:
292,247,11752,2,0,P|295:193|302:140,2,107.999990982056,2|2|2,0:0|0:0|0:0,0:0:0:0:
140,152,12786,5,2,0:0:0:0:
338,327,13131,2,0,P|381:264|514:239,1,215.999981964112,2|2,0:0|0:0,0:0:0:0:
478,361,14165,6,0,L|469:301,1,53.999995491028,2|0,0:0|0:0,0:0:0:0:
411,109,14510,2,0,P|438:141|502:152,2,107.999990982056,2|2|2,0:0|0:0|0:0,0:0:0:0:
449,38,15545,5,2,0:3:0:0:
321,122,15890,5,2,0:3:0:0:
226,105,16234,5,2,0:3:0:0:
171,35,16579,6,0,L|9:69,1,161.999986473084,2|0,0:0|0:0,0:0:0:0:
119,124,17269,2,0,P|149:138|174:211,2,107.999990982056,2|2|2,0:0|0:0|0:0,0:0:0:0:
215,77,18303,1,2,0:0:0:0:
57,176,18648,2,0,P|86:261|101:339,1,161.999986473084,2|0,0:0|0:0,0:0:0:0:
161,384,19338,6,0,P|209:367|218:261,1,161.999986473084,2|0,0:0|0:0,0:0:0:0:
305,252,20028,2,0,P|347:237|411:221,2,107.999990982056,2|2|2,0:0|0:0|0:0,0:0:0:0:
256,192,20803,12,4,22096,0:0:0:0:
175,122,22786,6,0,L|190:194,1,53.999995491028,2|0,0:0|0:0,0:0:0:0:
118,254,23131,2,0,P|112:214|83:139,1,107.999990982056,2|2,0:0|0:0,0:0:0:0:
236,39,23821,2,0,P|242:79|271:154,2,107.999990982056,2|2|0,0:0|0:0|0:0,0:0:0:0:
334,89,24855,6,0,P|369:29|504:12,1,215.999981964112,2|2,0:0|0:0,0:0:0:0:
500,100,25890,2,0,P|468:90|442:83,1,53.999995491028,2|0,0:0|0:0,0:0:0:0:
270,12,26234,6,0,P|310:27|333:94,2,107.999990982056,2|2|2,0:0|0:3|0:3,0:0:0:0:
247,147,27269,2,0,P|252:118|253:88,1,53.999995491028,2|0,0:3|0:2,0:2:0:0:
127,10,27614,6,0,P|65:34|71:182,1,215.999981964112,2|2,0:0|0:0,0:0:0:0:
263,324,28648,2,0,P|254:249|236:151,1,161.999986473084,2|0,0:0|0:0,0:0:0:0:
286,83,29338,2,0,P|323:104|396:121,2,107.999990982056,2|2|2,0:0|0:0|0:0,0:0:0:0:
160,22,30372,6,0,B|193:162|135:108|183:251,1,215.999981964112,2|2,0:0|0:0,0:0:0:0:
344,229,31407,2,0,P|339:255|333:281,1,53.999995491028,2|0,0:0|0:0,0:0:0:0:
247,380,31752,6,0,L|271:156,1,215.999988555908,8|0,0:3|3:0,0:0:0:0:
389,58,32441,2,0,P|392:97|346:139,1,98.9999977760315,0|0,3:0|1:0,0:0:0:0:
285,0,32786,1,8,0:0:0:0:
285,0,33131,5,4,0:0:0:0:
183,367,44165,6,0,P|226:305|340:316,2,188.999984218598,2|2|2,0:0|0:0|0:0,0:0:0:0:
55,135,45545,2,0,P|152:165|173:246,1,188.999984218598,2|0,0:0|0:0,0:0:0:0:
121,305,46234,6,0,P|84:318|-20:347,1,125.999989479065,2|0,0:0|0:0,0:0:0:0:
246,177,46924,1,2,0:0:0:0:
246,177,47269,6,0,L|270:39,2,125.999989479065,2|2|2,0:0|0:0|0:0,0:0:0:0:
189,49,48303,1,2,0:0:0:0:
330,125,48476,2,0,P|370:73|503:58,1,188.999984218598,2|0,0:0|0:0,0:0:0:0:
486,51,49338,5,2,0:0:0:0:
432,134,49510,2,0,B|405:291|470:220|437:396,1,251.999978958131,2|0,0:0|0:0,0:0:0:0:
503,214,50372,6,0,P|509:176|516:122,1,62.9999947395327,2|0,0:0|0:0,0:0:0:0:
499,57,50717,2,0,P|429:49|351:194,1,251.999978958131,2|0,0:0|0:0,0:0:0:0:
349,187,52096,5,2,0:0:0:0:
264,160,52269,2,0,P|198:136|13:105,1,251.999978958131,2|0,0:0|0:0,0:0:0:0:
96,0,53131,2,0,P|133:22|138:64,1,62.9999947395327,2|0,0:0|0:0,0:0:0:0:
101,189,53476,2,0,P|46:208|28:307,1,148.499996664047,2|0,0:0|0:0,0:0:0:0:
80,341,53821,5,8,0:3:0:0:
165,381,54338,1,0,3:0:0:0:
165,381,54424,1,0,3:0:0:0:
165,381,54510,1,0,3:0:0:0:
261,255,54683,1,0,1:0:0:0:
141,272,54855,2,0,P|180:293|224:317,1,71.9999961853028,8|0,0:0|0:0,0:0:0:0:
372,371,55200,6,0,P|405:357|493:346,1,107.999990982056,6|0,1:2|0:0,0:0:0:0:
405,175,55890,2,0,P|446:218|432:272,1,107.999990982056,2|0,1:2|0:0,0:0:0:0:
361,271,56407,1,2,0:0:0:0:
361,271,56579,2,0,L|293:248,2,53.999995491028,2|2|2,1:2|0:0|0:0,0:0:0:0:
475,139,57269,2,0,P|487:81|503:26,1,107.999990982056,2|0,1:2|0:0,0:0:0:0:
132,62,57959,1,0,1:0:0:0:
132,62,58303,6,0,P|144:108|149:142,1,62.9999947395327,2|0,0:0|0:0,0:0:0:0:
105,184,58648,2,0,P|61:190|6:123,1,125.999989479065,0|2,1:2|0:0,0:0:0:0:
218,79,59338,6,0,P|282:56|505:20,1,283.499976327897,2|0,1:2|0:0,0:0:0:0:
512,103,60028,6,0,P|465:102|401:207,1,175.499982667924,2|0,1:2|0:0,0:0:0:0:
471,208,60372,2,0,L|481:173,6,29.2499971113207
403,274,60717,6,0,P|446:292|517:338,1,125.999989479065,6|0,1:2|0:0,0:0:0:0:
359,384,61407,2,0,P|350:331|274:291,1,125.999989479065,2|0,1:2|0:0,0:0:0:0:
213,384,61924,1,2,0:0:0:0:
213,384,62096,2,0,P|243:373|288:359,2,62.9999947395327,0|2|2,1:2|0:0|0:0,0:0:0:0:
176,241,62786,2,0,P|129:280|152:347,1,125.999989479065,2|0,1:2|0:0,0:0:0:0:
348,356,63476,1,0,1:0:0:0:
348,356,63821,6,0,P|336:310|331:276,1,62.9999947395327,2|0,0:0|0:0,0:0:0:0:
471,221,64165,2,0,P|478:272|412:318,1,125.999989479065,0|2,1:2|0:0,0:0:0:0:
268,376,64855,6,0,B|234:185|300:280|258:60,1,314.9999833107,2|0,1:2|0:0,0:0:0:0:
158,1,65545,6,0,P|115:19|125:152,1,175.499982667924,2|0,1:2|0:0,0:0:0:0:
163,86,65890,2,0,L|209:106,6,29.2499971113207
190,178,66234,6,0,P|151:187|126:219,1,80.999993236542,6|0,1:2|0:0,0:0:0:0:
5,94,66579,2,0,P|17:132|25:172,1,80.999993236542,0|0,1:0|0:0,0:0:0:0:
69,294,66924,6,0,P|30:283|6:252,1,80.999993236542,2|0,1:2|0:0,0:0:0:0:
170,280,67269,2,0,P|159:313|147:389,1,80.999993236542,0|2,1:0|0:0,0:0:0:0:
114,214,67614,5,2,1:2:0:0:
235,329,67786,1,2,0:2:0:0:
342,226,67959,2,0,P|302:234|264:247,1,80.999993236542,2|0,1:2|0:0,0:0:0:0:
482,335,68303,2,0,P|509:306|512:267,1,80.999993236542,2|0,1:2|0:0,0:0:0:0:
442,174,68648,6,0,P|421:245|405:317,1,148.499996664047,0|0,1:0|0:0,0:0:0:0:
358,381,68993,6,0,P|327:343|333:301,1,89.9999952316285,0|0,1:0|0:0,0:0:0:0:
512,259,69338,1,2,1:2:0:0:
241,113,69510,2,0,P|322:146|349:229,1,179.999990463257,2|0,0:0|0:0,0:0:0:0:
274,230,70028,2,0,P|229:246|168:258,1,89.9999952316285,2|0,1:2|0:0,0:0:0:0:
426,140,70372,6,0,P|471:156|532:168,1,89.9999952316285,2|0,1:2|0:0,0:0:0:0:
406,0,70717,2,0,P|374:34|372:94,1,89.9999952316285,0|0,1:0|0:0,0:0:0:0:
512,267,71062,6,0,P|462:254|356:206,1,134.999992847443,0|0,1:2|0:0,0:0:0:0:
341,155,71407,1,0,1:0:0:0:
317,142,71493,1,0,1:0:0:0:
290,145,71579,1,0,1:0:0:0:
266,158,71665,1,0,1:0:0:0:
253,182,71752,5,4,1:2:0:0:
210,72,71924,1,0,1:0:0:0:
156,229,72096,5,0,1:0:0:0:
136,28,72269,1,0,1:0:0:0:
64,246,72441,6,0,P|74:198|91:148,1,89.9999952316285,0|0,1:0|1:0,1:0:0:0:
0,16,72786,2,0,P|13:58|22:102,1,89.9999952316285,0|0,1:0|1:0,1:0:0:0:
215,284,73131,5,4,1:2:0:0:
258,174,73303,1,0,1:0:0:0:
312,331,73475,5,0,1:0:0:0:
332,130,73648,1,0,1:0:0:0:
413,364,73821,6,0,P|402:316|386:266,1,89.9999952316285,0|0,1:0|1:0,1:0:0:0:
479,109,74166,2,0,P|465:151|456:195,1,89.9999952316285,0|0,1:0|1:0,1:0:0:0:
473,297,74510,5,4,1:2:0:0:
451,272,74596,1,0,1:0:0:0:
421,262,74683,1,0,1:0:0:0:
391,271,74769,1,0,1:0:0:0:
370,295,74855,1,0,1:0:0:0:
338,303,74941,1,0,1:0:0:0:
307,294,75028,1,0,1:0:0:0:
287,270,75114,1,0,1:0:0:0:
290,243,75200,6,0,L|274:174,1,44.9999976158143,0|0,1:0|1:0,1:0:0:0:
373,148,75372,2,0,L|362:191,1,44.9999976158143,0|0,1:0|1:0,1:0:0:0:
222,147,75545,6,0,L|232:103,1,44.9999976158143,0|0,1:0|1:0,1:0:0:0:
142,54,75717,2,0,L|152:97,1,44.9999976158143,0|0,1:0|1:0,1:0:0:0:
260,32,75890,5,8,0:3:0:0:
260,32,76407,2,0,P|253:60|249:89,1,58.4999942226413,0|0,3:0|3:0,3:0:0:0:
185,213,76579,1,0,3:0:0:0:
159,35,76752,1,0,1:2:0:0:
92,177,76924,2,0,P|86:139|77:106,1,58.4999942226413,10|0,0:0|0:0,0:0:0:0:
6,50,77096,1,2,0:0:0:0:
6,50,77183,1,0,0:0:0:0:
6,50,77269,6,0,P|87:41|166:160,1,215.999981964112,4|8,1:0|0:0,0:0:0:0:
239,64,77786,1,0,0:0:0:0:
316,209,77959,1,0,0:0:0:0:
357,116,78131,2,0,P|305:129|249:141,1,107.999990982056,0|8,1:0|0:0,0:0:0:0:
125,329,78476,1,2,0:0:0:0:
0,186,78648,6,0,P|46:198|108:211,1,107.999990982056,2|2,1:2|0:0,0:0:0:0:
206,374,78993,2,0,P|216:313|187:266,1,107.999990982056,8|0,0:0|0:0,0:0:0:0:
195,273,79252,1,0,0:0:0:0:
195,273,79338,1,0,0:0:0:0:
118,335,79510,1,0,1:0:0:0:
326,228,79683,2,0,P|312:277|299:344,1,107.999990982056,8|2,0:0|0:0,0:0:0:0:
250,181,80028,5,2,1:2:0:0:
373,373,80200,1,2,0:0:0:0:
406,133,80372,2,0,P|417:207|462:348,1,215.999981964112,10|0,0:2|0:0,0:0:0:0:
511,261,80890,1,0,1:0:0:0:
337,221,81062,1,8,0:0:0:0:
509,119,81234,2,0,P|496:144|486:179,1,53.999995491028,2|0,0:0|0:0,0:0:0:0:
409,275,81407,5,2,1:2:0:0:
332,136,81579,1,2,0:2:0:0:
189,210,81752,2,0,P|223:107|242:1,1,215.999981964112,10|2,0:0|0:0,0:0:0:0:
155,54,82269,1,0,1:0:0:0:
332,136,82441,2,0,P|323:110|311:86,1,53.999995491028,8|0,0:0|0:0,0:0:0:0:
106,134,82614,1,2,0:0:0:0:
106,134,82700,1,0,0:0:0:0:
106,134,82786,6,0,P|48:149|-39:170,1,107.999990982056,4|0,1:0|0:2,0:0:0:0:
169,60,83131,1,8,0:0:0:0:
50,285,83303,2,0,P|136:265|182:149,1,215.999981964112,0|0,0:0|1:0,0:0:0:0:
90,56,83821,1,8,0:0:0:0:
275,141,83993,2,0,L|259:210,1,53.999995491028,2|0,0:0|0:0,0:0:0:0:
181,349,84165,6,0,P|218:301|378:289,1,215.999981964112,2|8,1:2|0:0,0:0:0:0:
338,186,84683,1,0,0:0:0:0:
411,384,84855,2,0,P|362:362|310:349,1,107.999990982056,0|0,0:0|1:0,0:0:0:0:
225,143,85200,2,0,L|246:248,1,107.999990982056,8|2,0:0|0:0,0:0:0:0:
376,289,85545,5,2,1:2:0:0:
450,111,85717,1,2,0:0:0:0:
512,211,85890,2,0,B|386:168|448:242|294:189,1,215.999981964112,10|0,0:0|0:0,0:0:0:0:
375,130,86407,1,0,1:0:0:0:
96,150,86579,2,0,P|162:136|218:111,1,107.999990982056,8|0,0:0|0:0,0:0:0:0:
321,61,86924,6,0,L|331:-11,1,53.999995491028,2|0,1:2|0:0,0:0:0:0:
231,0,87096,2,0,L|239:53,1,53.999995491028,2|0,0:0|0:0,0:0:0:0:
278,125,87269,1,10,0:0:0:0:
51,22,87441,6,0,P|104:31|157:44,1,107.999990982056,2|0,1:2|0:0,0:0:0:0:
277,134,87786,1,2,1:2:0:0:
479,96,87959,2,0,P|426:105|374:119,1,107.999990982056,10|0,0:2|0:0,0:0:0:0:
244,384,88303,6,0,P|228:277|199:154,1,215.999981964112,4|8,1:0|0:0,0:0:0:0:
132,245,88821,1,0,0:0:0:0:
347,188,88993,2,0,P|346:234|282:280,1,107.999990982056,0|0,0:0|1:0,0:0:0:0:
122,240,89338,2,0,P|56:213|-14:189,1,107.999990982056,8|2,0:0|0:0,0:0:0:0:
126,155,89683,5,2,1:2:0:0:
2,384,89855,2,0,P|46:340|201:347,1,215.999981964112,2|0,0:0|0:0,0:0:0:0:
219,263,90372,1,0,0:0:0:0:
219,263,90459,1,0,0:0:0:0:
219,263,90545,1,0,1:0:0:0:
270,384,90717,2,0,P|280:328|298:266,1,107.999990982056,8|2,0:0|0:0,0:0:0:0:
499,242,91062,5,2,1:2:0:0:
353,361,91234,1,2,0:0:0:0:
512,331,91407,2,0,P|440:304|326:203,1,215.999981964112,10|0,0:0|0:0,0:0:0:0:
277,277,91924,1,0,1:0:0:0:
359,134,92096,1,8,0:0:0:0:
471,165,92269,2,0,P|441:183|391:198,1,53.999995491028,2|0,0:0|0:0,0:0:0:0:
139,178,92441,5,2,1:2:0:0:
277,288,92614,1,2,0:0:0:0:
93,291,92786,2,0,P|165:264|279:163,1,215.999981964112,10|0,0:0|0:0,0:0:0:0:
215,113,93303,1,0,1:0:0:0:
91,152,93476,2,0,P|121:170|171:185,1,53.999995491028,8|0,0:0|0:0,0:0:0:0:
292,106,93648,1,2,0:0:0:0:
292,106,93734,1,0,0:0:0:0:
292,106,93821,6,0,L|314:-1,1,107.999990982056,4|0,1:0|0:0,0:0:0:0:
226,29,94165,1,8,0:0:0:0:
349,177,94338,2,0,P|385:108|550:84,1,215.999981964112,0|0,0:0|1:0,0:0:0:0:
402,6,94855,1,8,0:0:0:0:
488,287,95028,1,2,0:0:0:0:
512,197,95200,6,0,P|459:210|386:243,1,107.999990982056,2|0,1:2|0:0,0:0:0:0:
295,353,95545,1,8,0:0:0:0:
244,285,95717,1,0,0:0:0:0:
283,267,95803,1,0,0:0:0:0:
326,273,95890,1,0,0:0:0:0:
362,296,95976,1,0,0:0:0:0:
382,334,96062,1,0,1:0:0:0:
330,185,96234,2,0,L|353:67,1,107.999990982056,8|2,0:0|0:0,0:0:0:0:
157,269,96579,6,0,P|130:148|93:50,1,215.999981964112,2|8,1:2|0:0,0:0:0:0:
208,116,97096,1,0,0:0:0:0:
0,153,97269,2,0,P|27:173|77:254,1,107.999990982056,0|2,0:0|1:2,0:0:0:0:
213,351,97614,2,0,P|244:321|233:247,1,107.999990982056,8|0,0:0|0:0,0:0:0:0:
124,368,97959,5,8,3:0:0:0:
0,263,98476,1,0,3:0:0:0:
0,263,98562,1,0,3:0:0:0:
0,263,98648,5,4,3:0:0:0:
32,352,98821,5,4,3:0:0:0:
211,384,98993,6,0,P|264:332|393:349,1,188.999984218598,8|0,0:0|0:0,0:0:0:0:
442,384,99338,6,0,B|469:262|414:313|448:168,1,197.999995552063,6|8,1:2|0:0,0:0:0:0:
512,245,99855,1,2,0:0:0:0:
337,149,100028,2,0,P|354:207|360:248,1,98.9999977760315,2|0,0:0|1:0,0:0:0:0:
512,150,100372,2,0,P|484:111|425:108,1,98.9999977760315,10|0,0:0|0:0,0:0:0:0:
247,194,100717,6,0,P|255:119|292:-21,1,197.999995552063,2|8,1:2|0:0,0:0:0:0:
339,143,101234,1,2,0:0:0:0:
179,81,101407,2,0,P|170:50|156:7,2,49.4999988880158,2|0|0,0:0|0:0|1:0,0:0:0:0:
363,47,101752,2,0,P|341:115|339:164,1,98.9999977760315,10|0,0:0|0:0,0:0:0:0:
160,231,102096,6,0,P|106:165|-12:155,1,197.999995552063,2|10,1:2|0:0,0:0:0:0:
40,235,102614,1,0,0:0:0:0:
40,235,102700,1,0,0:0:0:0:
40,235,102786,1,2,0:0:0:0:
210,161,102959,1,0,1:0:0:0:
151,332,103131,2,0,L|129:221,1,98.9999977760315,10|0,0:0|0:0,0:0:0:0:
7,349,103476,1,0,1:0:0:0:
7,349,103821,6,0,L|69:331,1,49.4999988880158,10|0,0:2|0:0,0:0:0:0:
176,199,103993,2,0,L|158:261,1,49.4999988880158,2|0,0:0|0:0,0:0:0:0:
128,313,104165,6,0,L|190:331,1,49.4999988880158,2|0,0:0|0:0,0:0:0:0:
263,384,104338,2,0,L|245:322,1,49.4999988880158,2|0,1:2|0:0,0:0:0:0:
246,260,104510,6,0,L|351:234,1,98.9999977760315,10|0,0:0|0:0,0:0:0:0:
468,379,104855,6,0,P|525:325|499:203,1,197.999995552063,6|8,1:2|0:0,0:0:0:0:
453,270,105372,1,2,0:0:0:0:
224,130,105545,2,0,P|277:148|357:165,1,98.9999977760315,2|0,0:0|1:0,0:0:0:0:
512,65,105890,2,0,P|518:95|464:150,1,98.9999977760315,10|0,0:0|0:0,0:0:0:0:
390,188,106234,6,0,P|395:93|318:39,1,197.999995552063,2|8,1:2|0:0,0:0:0:0:
298,215,106752,2,0,L|312:141,2,49.4999988880158,2|0|2,0:0|0:0|0:0,0:0:0:0:
239,272,107096,1,2,1:2:0:0:
386,200,107269,2,0,P|440:181|505:166,1,98.9999977760315,10|0,0:0|0:0,0:0:0:0:
226,131,107614,6,0,P|171:106|25:75,1,197.999995552063,2|8,1:2|0:0,0:0:0:0:
123,14,108131,1,0,0:0:0:0:
123,14,108217,1,0,0:0:0:0:
123,14,108303,1,0,0:0:0:0:
204,37,108476,1,0,1:0:0:0:
6,202,108648,2,0,P|51:181|99:169,1,98.9999977760315,10|0,0:0|0:0,0:0:0:0:
278,0,108993,6,0,B|292:133|238:59|256:233,1,197.999995552063,2|10,1:2|0:0,0:0:0:0:
200,47,109510,1,0,0:0:0:0:
331,148,109683,2,0,L|384:164,2,49.4999988880158,0|0|0,0:0|0:0|1:0,0:0:0:0:
190,245,110028,2,0,P|136:259|63:274,1,98.9999977760315,10|0,0:0|0:0,0:0:0:0:
254,365,110372,6,0,P|310:379|419:288,1,197.999995552063,6|8,1:2|0:0,0:0:0:0:
325,280,110890,1,2,0:0:0:0:
491,379,111062,2,0,P|501:312|524:261,1,98.9999977760315,2|0,0:0|1:0,0:0:0:0:
303,184,111407,2,0,P|319:230|325:280,1,98.9999977760315,10|0,0:0|0:0,0:0:0:0:
415,206,111752,6,0,L|451:1,1,197.999995552063,2|10,1:2|0:0,0:0:0:0:
369,7,112269,1,2,0:0:0:0:
369,7,112355,1,0,0:0:0:0:
369,7,112441,1,2,0:0:0:0:
510,168,112614,1,0,1:0:0:0:
285,0,112786,2,0,P|298:59|346:84,1,98.9999977760315,10|0,0:0|0:0,0:0:0:0:
512,79,113131,6,0,P|432:106|315:183,1,197.999995552063,2|10,1:2|0:0,0:0:0:0:
281,294,113648,1,0,0:0:0:0:
243,116,113821,2,0,P|261:173|268:236,1,98.9999977760315,2|0,0:0|1:0,0:0:0:0:
245,370,114165,2,0,P|203:343|205:279,1,98.9999977760315,10|0,0:0|0:0,0:0:0:0:
512,322,114510,1,0,1:0:0:0:
512,322,114855,6,0,L|450:304,1,49.4999988880158,10|0,0:0|0:0,0:0:0:0:
322,175,115028,2,0,L|340:237,1,49.4999988880158,2|0,0:0|0:0,0:0:0:0:
391,286,115200,6,0,L|329:304,1,49.4999988880158,2|0,0:0|0:0,0:0:0:0:
255,365,115372,2,0,L|273:303,1,49.4999988880158,2|0,1:2|0:0,0:0:0:0:
416,212,115545,6,0,L|522:179,1,98.9999977760315,8|0,0:0|0:0,0:0:0:0:
440,19,115890,6,0,P|373:41|359:174,1,197.999995552063,6|8,1:2|0:0,0:0:0:0:
421,127,116407,1,2,0:0:0:0:
236,5,116579,2,0,P|250:55|261:118,1,98.9999977760315,2|0,0:0|1:0,0:0:0:0:
489,190,116924,2,0,P|498:141|511:93,1,98.9999977760315,10|0,0:0|0:0,0:0:0:0:
274,179,117269,6,0,P|226:191|172:200,1,98.9999977760315,2|0,1:2|0:0,0:0:0:0:
89,383,117614,1,8,0:0:0:0:
0,238,117786,1,0,0:0:0:0:
19,273,117872,1,0,0:0:0:0:
54,295,117959,1,0,0:0:0:0:
93,298,118045,1,0,0:0:0:0:
132,285,118131,1,0,1:0:0:0:
154,113,118303,1,10,0:0:0:0:
91,210,118476,1,0,0:0:0:0:
50,17,118648,6,0,P|66:87|92:220,1,197.999995552063,2|8,1:2|0:0,0:0:0:0:
215,289,119165,2,0,L|287:306,2,49.4999988880158,0|0|0,0:0|0:0|0:0,0:0:0:0:
175,201,119510,1,0,1:0:0:0:
48,346,119683,2,0,P|79:301|143:287,1,98.9999977760315,10|0,0:0|0:0,0:0:0:0:
336,252,120028,5,8,0:3:0:0:
336,252,120545,2,0,L|347:194,2,49.4999988880158,0|0|2,3:0|3:0|3:2,3:0:0:0:
268,384,120890,6,0,B|230:216|293:303|248:98,1,247.499994440079,2|0,3:2|0:0,0:0:0:0:
255,62,121407,1,4,0:0:0:0:
256,192,121493,12,0,126924,0:0:0:0:
256,192,129683,12,0,132096,0:0:0:0:
343,197,132441,6,0,B|437:174|402:214|524:181,1,161.999986473084,4|0,0:0|0:0,0:0:0:0:
426,114,133131,2,0,P|387:94|375:21,2,107.999990982056,2|2|2,0:0|0:0|0:0,0:0:0:0:
489,61,134165,5,2,0:0:0:0:
291,0,134510,2,0,P|281:107|252:236,1,215.999981964112,2|2,0:0|0:0,0:0:0:0:
291,337,135545,6,0,P|281:308|276:275,1,53.999995491028,2|0,0:0|0:0,0:0:0:0:
91,279,135890,2,0,P|128:241|180:235,2,107.999990982056,2|2|2,0:0|0:0|0:0,0:0:0:0:
226,372,136924,5,2,0:3:0:0:
366,329,137269,5,2,0:3:0:0:
404,246,137614,5,2,0:3:0:0:
359,171,137959,6,0,P|341:90|325:3,1,161.999986473084,2|0,0:0|0:0,0:0:0:0:
168,145,138648,2,0,P|181:92|189:39,2,107.999990982056,2|2|2,0:0|0:0|0:0,0:0:0:0:
258,121,139683,5,2,0:0:0:0:
119,5,140028,2,0,P|50:17|14:111,1,161.999986473084,2|0,0:0|0:0,0:0:0:0:
83,152,140717,1,2,0:0:0:0:
0,239,141062,6,0,P|28:235|51:223,1,53.999995491028,2|0,0:0|0:0,0:0:0:0:
159,178,141407,2,0,P|144:231|129:300,2,107.999990982056,2|2|2,0:0|0:0|0:0,0:0:0:0:
256,192,142183,12,4,143476,0:0:0:0:
321,280,144165,6,0,L|386:300,1,53.999995491028,2|0,0:0|0:0,0:0:0:0:
450,349,144510,2,0,P|463:292|427:251,1,107.999990982056,2|2,0:0|0:0,0:0:0:0:
259,326,145200,2,0,P|192:342|136:350,2,107.999990982056,2|2|2,0:0|0:0|0:0,0:0:0:0:
155,248,146234,6,0,B|134:111|98:195|69:30,1,215.999981964112,2|2,0:0|0:0,0:0:0:0:
148,19,147269,2,0,P|155:51|165:88,1,53.999995491028,2|0,0:0|0:0,0:0:0:0:
36,226,147614,2,0,P|22:173|7:121,2,107.999990982056,2|2|2,0:0|0:3|0:3,0:0:0:0:
154,164,148648,2,0,P|129:175|112:196,1,53.999995491028,2|0,0:3|0:0,0:0:0:0:
31,372,148993,6,0,P|70:301|194:301,1,215.999981964112,2|2,0:0|0:0,0:0:0:0:
290,207,150028,2,0,P|281:252|272:375,1,161.999986473084,2|0,0:0|0:0,0:0:0:0:
361,290,150717,2,0,P|377:337|438:359,2,107.999990982056,2|2|0,0:0|0:0|0:0,0:0:0:0:
423,224,151752,6,0,P|437:145|496:8,1,215.999981964112,2|2,0:0|0:0,0:0:0:0:
367,0,152786,2,0,P|380:22|387:48,1,53.999995491028,2|0,0:0|0:0,0:0:0:0:
262,183,153131,6,0,B|237:77|289:124|258:2,2,179.999990463257,2|2|4,0:0|0:0|0:0,0:0:0:0:
258,187,165545,6,0,P|254:129|232:-11,2,188.999984218598,6|2|2,0:0|0:0|0:0,0:0:0:0:
464,88,166924,2,0,P|367:118|346:199,1,188.999984218598,2|0,0:0|0:0,0:0:0:0:
196,237,167614,2,0,P|152:247|108:168,1,125.999989479065,2|0,0:0|0:0,0:0:0:0:
16,224,168303,1,0,0:0:0:0:
16,224,168648,6,0,P|29:279|40:347,2,125.999989479065,2|2|2,0:0|0:0|0:0,0:0:0:0:
146,78,169683,1,2,0:0:0:0:
6,110,169855,2,0,P|71:124|111:239,1,188.999984218598,2|0,0:0|0:0,0:0:0:0:
114,230,170717,5,2,0:0:0:0:
209,384,170890,2,0,B|173:230|235:283|197:121,1,251.999978958131,2|0,0:0|0:0,0:0:0:0:
293,251,171752,6,0,P|285:281|281:313,1,62.9999947395327,2|0,0:0|0:0,0:0:0:0:
494,369,172096,2,0,P|486:249|376:201,1,251.999978958131,2|0,0:0|0:0,0:0:0:0:
376,201,173476,5,2,0:0:0:0:
277,127,173648,2,0,P|355:117|519:43,1,251.999978958131,2|0,0:0|0:0,0:0:0:0:
309,13,174510,2,0,P|343:29|379:32,1,62.9999947395327,2|0,0:0|0:0,0:0:0:0:
512,134,174855,2,0,P|491:188|478:294,1,148.499996664047,2|0,0:0|0:0,0:0:0:0:
477,277,175200,5,8,0:3:0:0:
340,317,175717,1,0,3:0:0:0:
340,317,175803,1,0,3:0:0:0:
340,317,175890,1,0,3:0:0:0:
399,372,176062,1,0,1:0:0:0:
340,211,176234,2,0,P|303:223|283:266,1,71.9999961853028,8|0,0:0|0:0,0:0:0:0:
220,370,176579,6,0,P|212:316|199:264,1,107.999990982056,6|0,1:2|0:0,0:0:0:0:
6,283,177269,2,0,P|1:230|40:195,1,107.999990982056,2|0,1:2|0:0,0:0:0:0:
132,297,177786,1,2,0:0:0:0:
132,297,177959,2,0,L|143:359,2,53.999995491028,2|2|2,1:2|0:0|0:0,0:0:0:0:
107,146,178648,2,0,P|175:170|228:180,1,107.999990982056,2|0,1:2|0:0,0:0:0:0:
341,384,179338,1,0,1:0:0:0:
341,384,179683,6,0,P|346:336|360:295,1,62.9999947395327,2|0,0:0|0:0,0:0:0:0:
315,250,180028,2,0,P|267:247|220:318,1,125.999989479065,0|2,1:2|0:0,0:0:0:0:
441,384,180717,2,0,B|414:178|382:300|348:103,1,296.999993328095,2|0,1:2|0:0,0:0:0:0:
409,9,181407,6,0,P|419:71|453:181,1,175.499982667924,2|0,1:2|0:0,0:0:0:0:
512,128,181752,2,0,P|508:107|506:101,6,17.9999990463257
481,251,182096,6,0,P|425:258|386:182,1,125.999989479065,6|0,1:2|0:0,0:0:0:0:
210,47,182786,2,0,P|154:39|115:115,1,125.999989479065,2|0,1:2|0:0,0:0:0:0:
320,123,183303,1,2,0:0:0:0:
320,123,183476,2,0,P|322:91|329:40,2,62.9999947395327,2|2|2,1:2|0:0|0:0,0:0:0:0:
261,279,184165,2,0,P|253:207|240:145,1,125.999989479065,2|0,1:2|0:0,0:0:0:0:
175,313,184855,1,0,1:0:0:0:
175,313,185200,6,0,P|140:294|105:288,1,62.9999947395327,2|0,0:0|0:0,0:0:0:0:
352,272,185545,2,0,P|391:249|494:232,1,125.999989479065,0|2,1:2|0:0,0:0:0:0:
414,371,186234,6,0,P|342:385|292:197,1,314.9999833107,2|0,1:2|0:0,0:0:0:0:
279,112,186924,6,0,P|206:119|196:217,1,175.499982667924,2|0,1:2|0:0,0:0:0:0:
106,181,187269,2,0,L|57:198,6,29.2499971113207
101,104,187614,6,0,P|46:89|-5:66,1,80.999993236542,6|0,1:2|0:0,0:0:0:0:
250,40,187959,2,0,P|305:25|356:2,1,80.999993236542,0|0,1:0|0:0,0:0:0:0:
112,26,188303,6,0,P|162:49|169:98,1,80.999993236542,2|0,1:2|0:0,0:0:0:0:
359,114,188648,2,0,P|320:124|300:158,1,80.999993236542,0|2,1:0|0:0,0:0:0:0:
264,282,188993,5,2,1:2:0:0:
201,153,189165,1,2,0:0:0:0:
331,233,189338,2,0,P|379:251|411:258,1,80.999993236542,2|0,1:2|0:0,0:0:0:0:
200,364,189683,2,0,P|173:329|191:269,1,80.999993236542,2|0,1:2|0:0,0:0:0:0:
487,236,190028,6,0,P|493:297|413:358,1,148.499996664047,0|0,1:0|0:0,0:0:0:0:
360,345,190372,6,0,P|310:325|264:317,1,98.9999977760315,0|0,1:0|0:0,0:0:0:0:
35,332,190717,1,2,1:2:0:0:
193,148,190890,2,0,P|119:167|110:289,1,197.999995552063,2|0,0:0|0:0,0:0:0:0:
151,347,191407,2,0,P|186:304|172:247,1,98.9999977760315,2|0,1:2|0:0,0:0:0:0:
0,155,191752,6,0,P|7:199|7:265,1,98.9999977760315,2|0,1:2|0:0,0:0:0:0:
213,164,192096,2,0,P|206:120|206:54,1,98.9999977760315,0|0,1:0|0:0,0:0:0:0:
80,22,192441,6,0,P|100:115|108:229,1,202.499996995926,0|0,1:2|1:0,0:0:0:0:
178,246,192786,1,0,1:0:0:0:
199,272,192872,1,0,1:0:0:0:
207,304,192959,1,0,1:0:0:0:
193,335,193045,1,0,1:0:0:0:
176,355,193131,5,4,1:2:0:0:
35,211,193303,1,0,1:0:0:0:
89,362,193476,5,0,1:0:0:0:
118,147,193648,1,0,1:0:0:0:
25,296,193821,6,0,P|83:280|125:262,1,98.9999977760315,0|0,1:0|1:0,1:0:0:0:
454,263,194165,2,0,P|407:245|360:232,1,98.9999977760315,0|0,1:0|1:0,1:0:0:0:
314,320,194510,5,6,1:2:0:0:
447,179,194682,1,0,1:0:0:0:
401,327,194855,5,0,1:0:0:0:
372,112,195027,1,0,1:0:0:0:
454,263,195200,6,0,P|407:251|360:232,1,98.9999977760315,0|0,1:0|1:0,1:0:0:0:
49,161,195545,2,0,P|95:142|142:130,1,98.9999977760315,0|0,1:0|1:0,1:0:0:0:
264,293,195890,5,4,1:2:0:0:
239,274,195976,1,0,1:0:0:0:
235,243,196062,1,0,1:0:0:0:
251,217,196148,1,0,1:0:0:0:
280,206,196234,1,0,1:0:0:0:
310,208,196321,1,0,1:0:0:0:
336,191,196407,1,0,1:0:0:0:
349,159,196493,1,0,1:0:0:0:
338,125,196579,6,0,L|265:113,1,49.4999988880158,0|0,1:0|1:0,1:0:0:0:
123,7,196752,2,0,L|196:19,1,49.4999988880158,0|0,1:0|1:0,1:0:0:0:
337,0,196924,6,0,P|330:23|326:48,1,49.4999988880158,0|0,1:0|1:0,1:0:0:0:
172,131,197097,2,0,P|166:102|151:51,1,49.4999988880158,0|0,1:0|1:0,1:0:0:0:
241,52,197269,5,8,0:3:0:0:
241,52,197786,2,0,P|248:80|252:109,1,58.4999942226413,0|0,3:0|3:0,3:0:0:0:
368,239,197959,1,0,3:0:0:0:
201,206,198131,1,0,1:0:0:0:
293,174,198303,2,0,P|286:202|282:231,1,58.4999942226413,10|0,3:2|3:0,3:0:0:0:
217,374,198476,1,2,2:0:0:0:
217,374,198562,1,0,2:0:0:0:
217,374,198648,6,0,B|239:235|269:316|297:154,1,215.999981964112,4|8,1:0|0:0,0:0:0:0:
314,337,199165,1,0,0:0:0:0:
194,216,199338,1,0,0:0:0:0:
454,178,199510,2,0,P|405:199|378:264,1,107.999990982056,0|8,1:0|0:0,0:0:0:0:
306,157,199855,1,2,0:0:0:0:
409,333,200028,6,0,P|479:356|543:365,1,107.999990982056,2|2,1:2|0:0,0:0:0:0:
306,157,200372,2,0,L|280:39,1,107.999990982056,8|0,0:0|0:0,0:0:0:0:
282,51,200631,1,0,0:0:0:0:
282,51,200717,1,0,0:0:0:0:
214,115,200890,1,0,1:0:0:0:
401,24,201062,2,0,P|409:76|379:120,1,107.999990982056,8|2,0:0|0:0,0:0:0:0:
122,33,201407,5,2,1:2:0:0:
214,203,201579,1,2,0:0:0:0:
32,41,201752,2,0,P|63:117|82:264,1,215.999981964112,10|0,0:0|0:0,0:0:0:0:
0,201,202269,1,0,1:0:0:0:
109,321,202441,1,8,0:0:0:0:
160,98,202614,2,0,P|151:134|149:171,1,53.999995491028,2|0,0:0|0:0,0:0:0:0:
191,291,202786,5,2,1:2:0:0:
372,227,202959,1,2,0:0:0:0:
261,374,203131,2,0,P|273:266|311:166,1,215.999981964112,10|0,0:0|0:0,0:0:0:0:
345,315,203648,1,0,1:0:0:0:
176,239,203821,2,0,P|186:264|191:291,1,53.999995491028,8|0,0:0|0:0,0:0:0:0:
403,384,203993,1,2,0:0:0:0:
403,384,204079,1,0,0:0:0:0:
403,384,204165,6,0,P|448:371|517:355,1,107.999990982056,4|0,1:0|0:0,0:0:0:0:
297,384,204510,1,8,0:0:0:0:
467,289,204683,2,0,P|501:232|418:100,1,215.999981964112,0|0,0:0|1:0,0:0:0:0:
390,256,205200,1,8,0:0:0:0:
512,3,205372,2,0,P|502:30|487:81,1,53.999995491028,2|0,0:0|0:0,0:0:0:0:
389,174,205545,6,0,P|297:137|156:113,1,215.999981964112,2|8,1:2|0:0,0:0:0:0:
273,51,206062,1,0,0:0:0:0:
140,194,206234,2,0,P|105:164|108:91,1,107.999990982056,0|0,0:0|1:0,0:0:0:0:
375,17,206579,2,0,P|313:37|255:56,1,107.999990982056,8|2,0:0|0:0,0:0:0:0:
217,209,206924,5,2,1:2:0:0:
100,24,207096,1,2,0:0:0:0:
110,263,207269,2,0,P|144:140|183:21,1,215.999981964112,10|0,0:0|0:0,0:0:0:0:
235,126,207786,1,0,1:0:0:0:
36,111,207959,2,0,P|21:160|72:222,1,107.999990982056,8|0,0:0|0:0,0:0:0:0:
293,274,208303,6,0,L|282:349,1,53.999995491028,2|0,1:2|0:0,0:0:0:0:
207,341,208476,2,0,L|199:287,1,53.999995491028,2|0,0:0|0:0,0:0:0:0:
363,384,208648,1,10,0:0:0:0:
103,262,208821,6,0,P|127:321|136:377,1,107.999990982056,2|0,1:2|0:0,0:0:0:0:
245,206,209165,1,2,1:2:0:0:
363,384,209338,2,0,P|373:331|395:281,1,107.999990982056,10|0,0:0|0:0,0:0:0:0:
512,172,209683,6,0,B|385:130|442:203|264:139,1,215.999981964112,4|8,1:0|0:0,0:0:0:0:
461,235,210200,1,0,0:0:0:0:
270,48,210372,2,0,P|323:71|398:93,1,107.999990982056,0|0,0:0|1:0,0:0:0:0:
236,215,210717,2,0,P|209:178|221:118,1,107.999990982056,8|2,0:0|0:0,0:0:0:0:
435,41,211062,5,2,1:2:0:0:
197,0,211234,2,0,P|133:25|136:175,1,215.999981964112,2|0,0:0|0:0,0:0:0:0:
24,110,211752,1,0,0:0:0:0:
24,110,211838,1,0,0:0:0:0:
24,110,211924,1,0,1:0:0:0:
218,119,212096,2,0,P|203:171|194:224,1,107.999990982056,8|2,0:0|0:0,0:0:0:0:
166,384,212441,5,2,1:2:0:0:
19,229,212614,1,2,0:0:0:0:
0,384,212786,2,0,P|81:329|211:298,1,215.999981964112,10|0,0:0|0:0,0:0:0:0:
230,225,213303,1,0,1:0:0:0:
166,384,213476,1,8,0:0:0:0:
19,229,213648,2,0,P|49:247|99:262,1,53.999995491028,2|0,0:0|0:0,0:0:0:0:
264,363,213821,5,2,1:2:0:0:
348,178,213993,1,2,0:0:0:0:
464,303,214165,2,0,P|359:276|269:217,1,215.999981964112,10|0,0:0|0:0,0:0:0:0:
436,216,214683,1,0,1:0:0:0:
264,363,214855,2,0,P|286:348|311:337,1,53.999995491028,8|0,0:0|0:0,0:0:0:0:
272,141,215028,1,2,0:0:0:0:
272,141,215114,1,0,0:0:0:0:
272,141,215200,6,0,P|215:154|188:198,1,107.999990982056,4|0,1:0|0:0,0:0:0:0:
348,178,215545,1,8,0:0:0:0:
109,219,215717,2,0,P|47:180|62:24,1,215.999981964112,0|0,0:0|1:0,0:0:0:0:
288,3,216234,1,8,0:0:0:0:
141,125,216407,1,2,0:0:0:0:
123,35,216579,6,0,P|175:47|225:68,1,107.999990982056,2|0,1:2|0:0,0:0:0:0:
306,144,216924,1,8,0:0:0:0:
491,18,217096,1,0,0:0:0:0:
452,0,217183,1,0,0:0:0:0:
409,6,217269,1,0,0:0:0:0:
373,29,217355,1,0,0:0:0:0:
353,67,217441,1,0,1:0:0:0:
420,185,217614,2,0,P|430:132|443:80,1,107.999990982056,8|2,0:0|0:0,0:0:0:0:
493,366,217959,6,0,P|389:363|338:273,1,215.999981964112,2|10,1:2|0:0,0:0:0:0:
424,266,218476,1,0,0:0:0:0:
276,184,218648,2,0,P|253:232|240:284,1,107.999990982056,2|0,0:0|1:0,0:0:0:0:
160,138,218993,2,0,P|188:93|239:82,1,107.999990982056,8|0,0:0|0:0,0:0:0:0:
254,362,219338,5,8,0:3:0:0:
366,261,219855,1,0,3:0:0:0:
366,261,219941,1,0,3:0:0:0:
366,261,220028,5,4,0:3:0:0:
330,347,220200,5,4,0:3:0:0:
173,369,220372,6,0,P|116:294|146:204,1,188.999984218598,8|0,0:0|0:0,0:0:0:0:
242,127,220717,6,0,B|272:259|212:195|256:353,1,215.999981964112,4|8,1:0|0:0,0:0:0:0:
325,241,221234,1,2,0:0:0:0:
161,350,221407,2,0,P|95:377|38:387,1,107.999990982056,2|0,0:0|1:0,0:0:0:0:
343,247,221752,2,0,P|409:274|466:284,1,107.999990982056,10|0,0:0|0:0,0:0:0:0:
105,292,222096,6,0,P|49:229|121:92,1,215.999981964112,0|8,1:0|0:0,0:0:0:0:
260,62,222614,1,0,0:0:0:0:
260,62,222700,1,0,0:0:0:0:
260,62,222786,1,0,0:0:0:0:
138,172,222959,1,0,1:0:0:0:
60,22,223131,2,0,P|122:41|186:68,1,107.999990982056,8|0,0:0|0:0,0:0:0:0:
386,212,223476,6,0,P|404:138|454:6,1,215.999981964112,2|8,1:2|0:0,0:0:0:0:
480,160,223993,1,2,0:0:0:0:
296,0,224165,2,0,P|337:25|334:95,1,107.999990982056,2|0,0:0|1:0,0:0:0:0:
150,100,224510,2,0,P|205:79|267:64,1,107.999990982056,10|0,0:0|0:0,0:0:0:0:
368,157,224855,6,0,P|472:135|498:6,1,215.999981964112,0|8,1:0|0:0,0:0:0:0:
433,54,225372,2,0,L|422:-9,2,53.999995491028
276,152,225717,1,0,1:0:0:0:
337,0,225890,2,0,P|358:75|366:207,1,161.999986473084,10|0,0:0|0:0,0:0:0:0:
462,125,226234,6,0,P|445:176|435:229,1,107.999990982056,4|0,1:0|0:0,0:0:0:0:
285,326,226579,2,0,P|274:272|257:221,1,107.999990982056,10|0,0:0|0:0,0:0:0:0:
257,221,226838,1,0,0:0:0:0:
257,221,226924,1,2,0:0:0:0:
359,267,227096,1,0,1:0:0:0:
212,377,227269,2,0,P|182:301|44:272,1,215.999981964112,10|0,0:0|1:2,0:0:0:0:
84,338,227786,5,0,0:0:0:0:
116,158,227959,2,0,P|52:186|-26:207,1,107.999990982056,8|0,0:0|0:0,0:0:0:0:
159,76,228303,2,0,P|198:114|187:192,1,107.999990982056,0|0,0:0|1:0,0:0:0:0:
50,270,228648,1,10,0:0:0:0:
277,82,228821,1,0,0:0:0:0:
277,82,228907,1,0,0:0:0:0:
277,82,228993,6,0,P|374:121|511:155,1,215.999981964112,2|8,1:2|0:0,0:0:0:0:
345,17,229510,1,2,0:0:0:0:
508,0,229683,2,0,P|465:8|425:56,1,107.999990982056,2|0,0:0|1:0,0:0:0:0:
354,266,230028,2,0,P|417:247|532:236,1,161.999986473084,10|0,0:0|0:0,0:0:0:0:
512,235,230372,6,0,P|503:262|490:312,1,53.999995491028,0|0,1:0|0:0,0:0:0:0:
440,378,230545,2,0,P|432:352|424:326,1,53.999995491028
396,152,230717,1,8,0:0:0:0:
354,357,230890,6,0,P|290:338|217:323,1,107.999990982056,0|0,1:0|0:0,0:0:0:0:
137,261,231234,1,0,1:0:0:0:
396,152,231407,2,0,P|332:171|259:186,1,107.999990982056,8|0,0:0|0:0,0:0:0:0:
25,251,231752,6,0,P|127:282|159:380,1,215.999981964112,4|8,1:0|0:0,0:0:0:0:
77,353,232269,1,2,0:0:0:0:
226,219,232441,1,2,0:0:0:0:
243,364,232614,2,0,P|234:333|231:295,1,53.999995491028,0|0,1:0|0:0,0:0:0:0:
226,219,232786,2,0,P|241:159|251:50,1,161.999986473084,10|0,0:0|0:0,0:0:0:0:
186,15,233131,6,0,P|135:31|62:36,1,107.999990982056,0|0,1:0|0:0,0:0:0:0:
319,15,233476,1,8,0:0:0:0:
37,196,233648,1,0,0:0:0:0:
53,150,233734,1,0,0:0:0:0:
87,123,233821,1,0,0:0:0:0:
129,115,233907,1,0,0:0:0:0:
171,124,233993,1,0,1:0:0:0:
337,237,234165,1,10,0:0:0:0:
260,126,234338,2,0,P|271:167|292:194,1,53.999995491028,2|0,0:0|0:0,0:0:0:0:
337,237,234510,6,0,P|387:222|480:204,1,107.999990982056,2|0,1:2|0:0,0:0:0:0:
512,32,234855,2,0,P|459:17|369:-1,1,107.999990982056,10|0,0:0|0:0,0:0:0:0:
407,5,235114,1,0,0:0:0:0:
407,5,235200,1,2,0:0:0:0:
512,247,235372,1,0,1:0:0:0:
367,152,235545,1,10,0:0:0:0:
511,138,235717,2,0,P|452:145|406:136,1,53.999995491028
367,152,235890,6,0,P|300:122|197:92,1,161.999986473084,0|0,1:0|0:0,0:0:0:0:
129,100,236234,1,8,0:0:0:0:
246,22,236407,1,0,0:0:0:0:
204,204,236579,1,0,0:0:0:0:
115,0,236752,2,0,P|143:12|171:37,1,53.999995491028,0|0,1:0|0:0,0:0:0:0:
104,184,236924,2,0,P|55:203|-15:228,1,107.999990982056,8|0,0:0|0:0,0:0:0:0:
232,106,237269,6,0,P|303:133|293:283,1,215.999981964112,4|8,1:0|0:0,0:0:0:0:
394,134,237786,1,2,0:0:0:0:
212,298,237959,2,0,P|212:242|260:209,1,107.999990982056,2|0,0:0|1:0,0:0:0:0:
379,316,238303,2,0,P|435:337|503:358,1,107.999990982056,10|0,0:0|0:0,0:0:0:0:
480,351,238562,1,0,0:0:0:0:
480,351,238648,5,2,1:2:0:0:
257,167,238821,2,0,P|275:254|279:394,1,215.999981964112,2|0,0:0|0:0,0:0:0:0:
353,237,239338,1,0,0:0:0:0:
208,340,239510,1,0,1:0:0:0:
76,224,239683,2,0,P|127:240|177:259,1,107.999990982056,10|0,0:0|0:0,0:0:0:0:
367,384,240028,6,0,P|451:340|413:208,1,215.999981964112,2|8,1:2|0:0,0:0:0:0:
496,166,240545,1,2,0:0:0:0:
379,282,240717,2,0,P|365:230|327:150,1,107.999990982056,2|0,0:0|1:0,0:0:0:0:
512,9,241062,2,0,P|501:64|436:88,1,107.999990982056,10|0,0:0|0:0,0:0:0:0:
255,185,241407,5,8,0:3:0:0:
328,121,241924,1,0,3:0:0:0:
328,121,242010,1,0,3:0:0:0:
328,121,242096,5,4,0:3:0:0:
184,46,242269,5,4,0:3:0:0:
259,0,242441,6,0,B|285:104|225:61|259:200,1,188.999984218598,8|0,0:0|0:0,0:0:0:0:
193,234,242786,6,0,P|119:209|0:198,1,197.999995552063,6|8,1:2|0:0,0:0:0:0:
170,146,243303,1,2,0:0:0:0:
0,343,243476,2,0,P|13:297|75:287,1,98.9999977760315,2|0,0:0|1:0,0:0:0:0:
257,216,243821,2,0,P|242:286|240:347,1,98.9999977760315,10|0,0:0|0:0,0:0:0:0:
353,357,244165,6,0,P|443:366|511:273,1,197.999995552063,2|8,1:2|0:0,0:0:0:0:
359,108,244683,1,2,0:0:0:0:
408,250,244855,2,0,P|417:281|431:324,2,49.4999988880158,2|0|2,0:0|0:0|1:2,0:0:0:0:
512,143,245200,2,0,P|462:160|395:167,1,98.9999977760315,10|0,0:0|0:0,0:0:0:0:
244,376,245545,6,0,P|254:303|286:173,1,197.999995552063,2|10,1:2|0:0,0:0:0:0:
199,212,246062,1,0,0:0:0:0:
199,212,246148,1,0,0:0:0:0:
199,212,246234,1,2,0:0:0:0:
336,316,246407,1,0,1:0:0:0:
151,332,246579,2,0,P|118:303|143:229,1,98.9999977760315,10|0,0:0|0:0,0:0:0:0:
240,110,246924,1,0,1:0:0:0:
240,110,247269,6,0,L|178:92,1,49.4999988880158,10|0,0:0|0:0,0:0:0:0:
51,185,247441,2,0,L|37:137,1,49.4999988880158,2|0,0:0|0:0,0:0:0:0:
180,18,247614,6,0,L|118:36,1,49.4999988880158,2|0,0:0|0:0,0:0:0:0:
52,17,247786,2,0,L|39:65,1,49.4999988880158,2|0,1:2|0:0,0:0:0:0:
144,231,247959,6,0,L|121:134,1,98.9999977760315,10|0,0:0|0:0,0:0:0:0:
228,295,248303,6,0,P|132:322|41:360,1,197.999995552063,6|8,1:2|0:0,0:0:0:0:
195,384,248821,1,2,0:0:0:0:
58,196,248993,2,0,P|25:231|35:278,1,98.9999977760315,2|0,0:0|1:0,0:0:0:0:
231,308,249338,2,0,P|282:325|336:332,1,98.9999977760315,10|0,0:0|0:0,0:0:0:0:
153,88,249683,6,0,P|228:105|236:221,1,197.999995552063,2|8,1:2|0:0,0:0:0:0:
341,148,250200,2,0,L|423:132,2,49.4999988880158,2|0|2,0:0|0:0|0:0,0:0:0:0:
165,189,250545,1,0,1:2:0:0:
344,234,250717,2,0,P|391:246|438:262,1,98.9999977760315,10|0,0:0|0:0,0:0:0:0:
494,62,251062,6,0,B|374:19|413:93|272:39,1,197.999995552063,2|8,1:2|0:0,0:0:0:0:
239,0,251579,1,0,0:0:0:0:
239,0,251665,1,0,0:0:0:0:
239,0,251752,1,0,0:0:0:0:
303,132,251924,1,0,1:0:0:0:
193,135,252096,2,0,P|165:96|178:50,1,98.9999977760315,10|0,0:0|0:0,0:0:0:0:
160,221,252441,6,0,P|65:213|0:283,1,197.999995552063,2|8,1:2|0:0,0:0:0:0:
69,328,252959,1,0,0:0:0:0:
245,241,253131,2,0,L|304:217,2,49.4999988880158,0|0|0,0:0|0:0|1:2,0:0:0:0:
175,384,253476,2,0,P|161:335|130:280,1,98.9999977760315,10|0,0:0|0:0,0:0:0:0:
407,176,253821,6,0,P|361:274|357:374,1,197.999995552063,6|8,1:2|0:0,0:0:0:0:
272,304,254338,1,2,0:0:0:0:
434,358,254510,2,0,P|458:314|498:286,1,98.9999977760315,2|0,0:0|1:0,0:0:0:0:
256,123,254855,2,0,P|276:169|283:218,1,98.9999977760315,10|0,0:0|0:0,0:0:0:0:
506,190,255200,6,0,P|492:127|349:94,1,197.999995552063,2|10,1:2|0:0,0:0:0:0:
399,0,255717,1,0,0:0:0:0:
399,0,255803,1,0,0:0:0:0:
399,0,255890,1,2,0:0:0:0:
289,112,256062,1,0,1:0:0:0:
187,32,256234,2,0,P|134:15|62:4,1,98.9999977760315,10|0,0:0|0:0,0:0:0:0:
183,131,256579,6,0,P|116:146|-2:229,1,197.999995552063,2|8,1:2|0:0,0:0:0:0:
0,118,257096,1,2,0:0:0:0:
149,378,257269,2,0,P|181:337|155:279,1,98.9999977760315,2|0,0:0|1:0,0:0:0:0:
0,293,257614,2,0,P|58:302|112:326,1,98.9999977760315,10|0,0:0|0:0,0:0:0:0:
264,380,257959,1,0,1:0:0:0:
264,380,258303,6,0,L|311:366,1,49.4999988880158,10|0,0:0|0:0,0:0:0:0:
423,189,258476,2,0,L|405:251,1,49.4999988880158,2|0,0:0|0:0,0:0:0:0:
443,317,258648,6,0,L|381:335,1,49.4999988880158,2|0,0:0|0:0,0:0:0:0:
250,310,258821,2,0,L|268:248,1,49.4999988880158,2|0,1:2|0:0,0:0:0:0:
308,143,258993,6,0,L|335:238,1,98.9999977760315,10|0,0:0|0:0,0:0:0:0:
239,0,259338,6,0,P|235:64|186:201,1,197.999995552063,6|8,1:2|0:0,0:0:0:0:
308,143,259855,1,2,0:0:0:0:
147,97,260028,2,0,P|87:114|16:119,1,98.9999977760315,2|0,0:0|1:0,0:0:0:0:
295,222,260372,2,0,P|355:239|426:244,1,98.9999977760315,10|0,0:0|0:0,0:0:0:0:
58,347,260717,6,0,P|86:299|231:293,1,197.999995552063,2|8,1:2|0:0,0:0:0:0:
477,278,261234,1,0,0:0:0:0:
458,313,261321,1,0,0:0:0:0:
423,335,261407,1,0,0:0:0:0:
384,338,261493,1,0,0:0:0:0:
345,325,261579,1,0,1:0:0:0:
392,238,261752,1,10,0:0:0:0:
248,371,261924,1,0,0:0:0:0:
260,204,262096,6,0,P|274:91|295:-9,1,197.999995552063,2|8,1:2|0:0,0:0:0:0:
201,44,262614,2,0,P|177:51|152:55,2,49.4999988880158
343,127,262959,1,0,1:0:0:0:
426,0,263131,2,0,P|373:17|355:75,1,98.9999977760315,10|0,0:0|0:0,0:0:0:0:
431,169,263476,5,8,0:3:0:0:
431,169,263993,2,0,L|440:117,2,49.4999988880158,0|0|0,3:0|3:0|3:0,3:0:0:0:
512,359,264338,1,0,0:0:0:0:
493,241,264510,6,0,P|468:246|445:253,1,49.4999988880158,0|0,3:0|0:0,0:0:0:0:
339,318,264683,2,0,P|363:324|406:334,1,49.4999988880158,0|0,3:0|0:0,0:0:0:0:
511,358,264855,6,0,B|534:279|442:220|364:249|373:350|437:347|437:347|365:408|267:359|259:275|293:216|293:216|378:277|461:232|474:162|474:162|503:-1|307:-18|293:160|424:188|424:188|318:192|288:63|288:63|8:172|8:172|-50:114|-24:9|54:-13|54:-13|101:72|183:25|183:25|251:98|185:201|166:105|56:235|222:375|222:375|162:301|205:195|205:195|47:204|45:330|45:330|109:309|153:345,1,2995.19982302735,4|0,0:2|0:0,0:0:0:0:
152,344,276234,6,0,P|140:288|121:222,1,107.999990982056,2|0,0:0|0:0,0:0:0:0:
243,170,276924,2,0,B|222:306|277:240|245:400,1,215.999981964112,2|0,0:0|0:0,0:0:0:0:
248,383,278303,6,0,P|273:371|319:362,1,53.999995491028,2|2,0:0|0:0,0:0:0:0:
477,384,278648,2,0,P|440:294|314:293,1,215.999981964112,2|2,0:0|0:0,0:0:0:0:
308,203,279683,2,0,P|320:115|374:-8,1,215.999981964112,2|0,0:0|0:0,0:0:0:0:
435,39,280717,5,2,0:0:0:0:
255,0,281062,2,0,P|267:37|257:75,1,53.999995491028,2|2,0:0|0:0,0:0:0:0:
206,102,281407,2,0,P|147:111|-7:163,1,215.999981964112,2|2,0:0|0:0,0:0:0:0:
207,190,282441,6,0,P|152:232|177:377,1,215.999981964112,2|0,0:0|0:0,0:0:0:0:
352,384,283821,2,0,P|370:344|367:314,1,53.999995491028,2|0,0:0|0:0,0:0:0:0:
264,224,284165,6,0,P|252:303|244:390,2,161.999986473084,2|2|2,0:0|0:0|0:0,0:0:0:0:
301,130,285545,6,0,P|255:129|209:183,1,107.999990982056,2|2,0:0|0:0,0:0:0:0:
217,23,286234,6,0,P|261:27|281:55,1,71.9999961853028,2|2,0:0|0:0,0:0:0:0:
