osu file format v14

[General]
AudioFilename: audio.mp3
AudioLeadIn: 0
PreviewTime: 47146
Countdown: 0
SampleSet: Soft
StackLeniency: 0.2
Mode: 0
LetterboxInBreaks: 0
WidescreenStoryboard: 0

[Editor]
Bookmarks: 94144,224212
DistanceSpacing: 1.6
BeatDivisor: 4
GridSize: 32
TimelineZoom: 2.899999

[Metadata]
Title:Life Is Good feat. Drake
TitleUnicode:Life Is Good feat. Drake
Artist:Future
ArtistUnicode:Future
Creator:Miraui
Version:Collab Insane
Source:
Tags:English Hip Hop Rap Trap High Off Life Senseabel Fukanamazat
BeatmapID:2825067
BeatmapSetID:1365798

[Difficulty]
HPDrainRate:4.2
CircleSize:4
OverallDifficulty:7.6
ApproachRate:8.7
SliderMultiplier:1.8
SliderTickRate:1

[Events]
//Background and Video events
0,0,"UXIpAEqNEpc.jpg",0,0
//Break Periods
2,94511,97997
//Storyboard Layer 0 (Background)
//Storyboard Layer 1 (Fail)
//Storyboard Layer 2 (Pass)
//Storyboard Layer 3 (Foreground)
//Storyboard Layer 4 (Overlay)
//Storyboard Sound Samples

[TimingPoints]
11904,370.37037037037,4,2,2,35,1,0
11904,-200,4,2,2,35,0,0
12644,-363.636363636364,4,2,2,35,0,0
14866,-266.666666666667,4,2,2,35,0,0
15607,-363.636363636364,4,2,2,35,0,0
17829,-266.666666666667,4,2,2,35,0,0
18200,-363.636363636364,4,2,2,35,0,0
20792,-266.666666666667,4,2,2,35,0,0
23660,366.97247706422,4,2,2,70,1,0
23660,-64.5161290322581,4,2,2,70,0,0
24393,-95.2380952380952,4,2,2,70,0,0
24760,-64.5161290322581,4,2,2,70,0,0
25127,-95.2380952380952,4,2,2,70,0,0
26595,-64.5161290322581,4,2,2,70,0,0
27146,-95.2380952380952,4,2,2,70,0,0
27696,-64.5161290322581,4,2,2,70,0,0
29531,-64.5161290322581,4,2,2,70,0,0
30265,-95.2380952380952,4,2,2,70,0,0
30632,-64.5161290322581,4,2,2,70,0,0
32467,-64.5161290322581,4,2,2,70,0,0
32834,-64.5161290322581,4,2,2,70,0,0
32926,-64.5161290322581,4,2,2,70,0,0
33017,-64.5161290322581,4,2,2,70,0,0
33568,-64.5161290322581,4,2,2,70,0,0
35403,-64.5161290322581,4,2,2,70,0,0
36137,-95.2380952380952,4,2,2,70,0,0
36504,-64.5161290322581,4,2,2,70,0,0
38338,-64.5161290322581,4,2,2,70,0,0
39439,-64.5161290322581,4,2,2,70,0,0
41274,-64.5161290322581,4,2,2,70,0,0
41825,-95.2380952380952,4,2,2,70,0,0
42008,-95.2380952380952,4,2,2,70,0,0
42375,-64.5161290322581,4,2,2,70,0,0
43843,-95.2380952380952,4,2,2,70,0,0
44210,-64.5161290322581,4,2,2,70,0,0
44760,-64.5161290322581,4,2,2,70,0,0
45311,-64.5161290322581,4,2,2,70,0,0
47146,-64.5161290322581,4,2,2,70,0,0
48247,-64.5161290322581,4,2,2,70,0,0
49715,-95.2380952380952,4,2,2,70,0,0
50082,-64.5161290322581,4,2,2,70,0,0
51182,-64.5161290322581,4,2,2,70,0,0
52283,-95.2380952380952,4,2,2,70,0,0
53017,-64.5161290322581,4,2,2,70,0,0
54118,-64.5161290322581,4,2,2,70,0,0
54210,-64.5161290322581,4,2,2,70,0,0
55953,-64.5161290322581,4,2,2,70,0,0
56504,-64.5161290322581,4,2,2,70,0,0
57054,-64.5161290322581,4,2,2,70,0,0
58889,-64.5161290322581,4,2,2,70,0,0
59623,-95.2380952380952,4,2,2,70,0,0
59990,-64.5161290322581,4,2,2,70,0,0
61825,-64.5161290322581,4,2,2,70,0,0
62926,-64.5161290322581,4,2,2,70,0,0
64760,-64.5161290322581,4,2,2,70,0,0
65861,-64.5161290322581,4,2,2,70,0,0
67696,-64.5161290322581,4,2,2,70,0,0
68155,-64.5161290322581,4,2,2,70,0,0
68247,-64.5161290322581,4,2,2,70,0,0
68797,-64.5161290322581,4,2,2,70,0,0
70647,370.37037037037,4,2,2,35,1,0
70647,-266.666666666667,4,2,2,35,0,0
71572,-363.636363636364,4,2,2,35,0,0
73609,-266.666666666667,4,2,2,35,0,0
74350,-363.636363636364,4,2,2,35,0,0
76572,-266.666666666667,4,2,2,35,0,0
77313,-363.636363636364,4,2,2,35,0,0
78795,-266.666666666667,4,2,2,35,0,0
82401,366.97247706422,4,2,2,70,1,0
82401,-64.5161290322581,4,2,2,70,0,0
83501,-64.5161290322581,4,2,2,70,0,0
85336,-64.5161290322581,4,2,2,70,0,0
86437,-64.5161290322581,4,2,2,70,0,0
88272,-64.5161290322581,4,2,2,70,0,0
89373,-64.5161290322581,4,2,2,70,0,0
91208,-64.5161290322581,4,2,2,70,0,0
91758,-64.5161290322581,4,2,2,70,0,0
92309,-64.5161290322581,4,2,2,70,0,0
92492,-64.5161290322581,4,2,2,70,0,0
93410,-133.333333333333,4,2,2,70,0,0
94052,-133.333333333333,4,2,2,5,0,0
102522,422.535211267606,4,2,3,70,1,0
102522,-57.1428571428571,4,2,3,70,0,0
128296,-100,4,2,3,70,0,0
129564,-57.1428571428571,4,2,3,70,0,0
166324,-100,4,2,3,70,0,0
170127,-57.1428571428571,4,2,3,70,0,0
230972,-57.1428571428571,4,2,3,5,0,0

[Colours]
Combo1 : 227,194,128
Combo2 : 207,201,167

[HitObjects]
101,37,11904,6,0,L|89:217,1,180,2|0,0:0|0:0,0:0:0:0:
168,216,12829,1,0,0:0:0:0:
168,216,13015,2,0,L|170:182,1,24.7500007553101
320,64,13385,6,0,L|324:116,1,49.5000015106202
391,169,13941,1,0,0:0:0:0:
391,169,14126,2,0,L|394:131,2,33.0000010070801
391,169,14866,6,0,L|406:309,1,135.000005149842,2|0,0:0|0:0,0:0:0:0:
328,309,15792,1,0,0:0:0:0:
328,309,15978,2,0,L|323:275,1,24.7500007553101
225,164,16348,6,0,L|220:218,1,49.5000015106202
147,257,16904,1,0,0:0:0:0:
147,257,17089,2,0,L|143:217,2,33.0000010070801
0,327,17829,6,0,L|101:338,1,101.250003862381,2|0,0:0|0:0,0:0:0:0:
100,337,18570,6,0,L|103:301,1,24.7500007553101
180,310,18941,2,0,L|178:335,1,24.7500007553101
300,362,19311,6,0,L|295:307,1,49.5000015106202,0|0,0:0|0:0,0:0:0:0:
371,293,19867,1,0,0:0:0:0:
371,293,20052,2,0,L|374:257,1,24.7500007553101,0|0,0:0|0:0,0:0:0:0:
171,158,20422,6,0,L|173:182,1,24.7500007553101,2|0,0:0|0:0,0:0:0:0:
247,168,20792,2,0,L|402:187,1,135.000005149842,2|0,0:0|0:0,0:0:0:0:
381,185,23660,6,0,B|434:160|434:160|446:132|446:132|421:37|421:37|388:8,1,209.250001596451,2|0,3:2|0:0,0:0:0:0:
404,22,24026,1,0,0:0:0:0:
335,48,24210,1,0,0:0:0:0:
450,159,24393,1,8,0:0:0:0:
381,185,24577,1,0,0:0:0:0:
450,159,24760,6,0,P|378:128|199:160,1,209.250001596451,0|0,3:0|0:0,0:0:0:0:
249,134,25127,2,0,L|225:26,1,94.499997116089,0|0,0:0|0:0,0:0:0:0:
249,213,25494,1,0,0:0:0:0:
249,213,25678,1,0,0:0:0:0:
251,291,25861,2,0,L|275:399,1,94.499997116089,8|0,0:0|0:0,0:0:0:0:
129,217,26228,5,0,0:0:0:0:
50,228,26412,1,0,0:0:0:0:
129,217,26595,6,0,B|157:227|173:248|173:248|176:195|127:153|132:177|97:164|75:142|75:142|56:89|98:57,1,279.000002128601,2|0,3:2|0:0,0:0:0:0:
139,25,27146,1,0,0:0:0:0:
129,217,27329,2,0,P|179:182|230:176,1,94.499997116089,8|0,0:0|0:0,0:0:0:0:
238,288,27696,6,0,P|181:230|-11:163,1,279.000002128601,0|0,3:0|0:0,0:0:0:0:
0,163,28247,1,8,0:0:0:0:
75,134,28430,1,0,0:0:0:0:
120,68,28614,1,0,0:0:0:0:
204,220,28797,5,8,0:0:0:0:
204,220,28981,1,0,0:0:0:0:
277,277,29164,5,0,0:0:0:0:
277,277,29348,1,0,0:0:0:0:
9,350,29531,6,0,B|122:307|122:307|144:279|144:279|126:262|121:224,1,209.250001596451,2|0,3:2|0:0,0:0:0:0:
122,232,29898,1,0,0:0:0:0:
57,194,30082,1,0,0:0:0:0:
204,220,30265,6,0,L|316:189,1,94.499997116089,8|0,0:0|0:0,0:0:0:0:
489,335,30632,6,0,B|519:287|481:231|436:231|434:224|434:224|423:259|366:291,1,209.250001596451,0|0,3:0|0:0,0:0:0:0:
392,274,30999,1,0,0:0:0:0:
319,293,31182,1,0,0:0:0:0:
206,346,31366,1,0,0:0:0:0:
133,327,31549,1,0,0:0:0:0:
264,193,31733,5,8,0:0:0:0:
337,212,31916,1,0,0:0:0:0:
223,99,32100,1,0,0:0:0:0:
150,118,32283,1,0,0:0:0:0:
404,270,32467,6,0,B|470:110|284:175|387:-25,1,279.000002128601,2|0,3:2|0:0,0:0:0:0:
479,71,33017,6,0,P|465:199|337:212,1,279.000002128601,2|0,3:2|0:0,0:0:0:0:
438,329,33568,6,0,B|449:359|499:366|499:366|542:299|497:226|395:226,1,279.000002128601,0|0,3:0|0:0,0:0:0:0:
336,211,34118,1,8,0:0:0:0:
242,140,34302,1,0,0:0:0:0:
252,64,34485,1,0,0:0:0:0:
252,64,34669,1,0,0:0:0:0:
252,64,35403,6,0,B|216:61|199:45|199:45|158:23|129:29|129:29|200:158,1,279.000002128601,2|0,3:2|0:0,0:0:0:0:
317,236,35953,1,0,0:0:0:0:
382,188,36137,2,0,B|405:163|405:163|394:89,1,94.499997116089,8|0,0:0|0:0,0:0:0:0:
502,206,36504,6,0,L|206:237,1,279.000002128601,0|0,3:0|0:0,0:0:0:0:
326,308,37054,5,0,0:0:0:0:
425,299,37237,1,0,0:0:0:0:
407,137,37421,1,0,0:0:0:0:
308,146,37604,1,8,0:0:0:0:
365,220,37788,5,0,0:0:0:0:
365,220,37971,1,0,0:0:0:0:
365,220,38155,1,0,0:0:0:0:
365,220,38338,6,0,P|258:212|234:43,1,279.000002128601,2|0,3:2|0:0,0:0:0:0:
286,29,38889,1,0,0:0:0:0:
429,57,39072,1,8,0:0:0:0:
479,120,39256,1,0,0:0:0:0:
316,144,39439,6,0,B|282:155|273:193|273:193|295:251|295:251|311:159|348:210|362:142|348:110,1,279.000002128601,0|0,3:0|0:0,0:0:0:0:
344,45,39990,1,8,0:0:0:0:
176,63,40173,1,0,0:0:0:0:
191,142,40356,1,0,0:0:0:0:
262,89,40540,5,8,0:0:0:0:
108,116,40724,1,0,0:0:0:0:
108,116,40907,1,0,0:0:0:0:
108,116,41091,1,0,0:0:0:0:
24,360,41274,6,0,B|80:315|80:315|53:180|53:180|11:170|-4:126,1,279.000002128601,2|0,3:2|0:0,0:0:0:0:
0,137,41825,1,0,0:0:0:0:
101,36,42008,2,0,P|143:36|183:102,1,94.499997116089,8|0,0:0|0:0,0:0:0:0:
27,64,42375,6,0,P|106:133|222:140,1,209.250001596451,0|0,3:0|0:0,0:0:0:0:
206,143,42742,1,0,0:0:0:0:
296,95,42926,1,0,0:0:0:0:
291,284,43109,1,0,0:0:0:0:
225,242,43293,1,0,0:0:0:0:
310,192,43476,1,8,0:0:0:0:
310,192,43659,1,0,0:0:0:0:
392,310,43843,6,0,P|423:279|484:266,1,94.499997116089,0|0,0:0|0:0,0:0:0:0:
468,358,44210,6,0,P|318:308|173:332,1,279.000002128601,2|0,3:2|0:0,0:0:0:0:
61,279,44760,6,0,P|4:322|76:285,1,279.000002128601,2|0,3:2|0:0,0:0:0:0:
200,321,45311,6,0,B|230:238|155:266|191:170,1,139.500001064301,0|0,3:0|0:0,0:0:0:0:
109,105,45678,5,0,0:0:0:0:
181,79,45861,1,8,0:0:0:0:
377,41,46045,5,0,0:0:0:0:
305,15,46228,1,0,0:0:0:0:
305,15,47146,6,0,B|231:43|243:124|243:124|290:100|331:111|331:111|376:166,1,279.000002128601,2|0,3:2|0:0,0:0:0:0:
400,220,47696,1,0,0:0:0:0:
434,85,47880,1,8,0:0:0:0:
400,220,48063,1,0,0:0:0:0:
362,149,48247,6,0,B|331:110|331:110|240:98|186:172|186:172|176:135|154:113,1,279.000002128601,0|0,3:0|0:0,0:0:0:0:
99,65,48797,5,0,0:0:0:0:
65,139,48981,1,0,0:0:0:0:
219,247,49164,5,0,0:0:0:0:
157,116,49348,1,8,0:0:0:0:
0,271,49531,5,0,0:0:0:0:
0,271,49715,2,0,P|47:237|102:232,1,94.499997116089,0|0,0:0|0:0,0:0:0:0:
233,141,50082,6,0,B|304:158|324:227|324:227|385:199|388:156|388:156|401:130|432:113,1,279.000002128601,2|0,3:2|0:0,0:0:0:0:
480,163,50632,1,0,0:0:0:0:
483,378,50815,5,8,0:0:0:0:
324,312,50999,1,0,0:0:0:0:
483,378,51182,6,0,B|506:315|450:294|450:294|390:247|430:197|430:197|487:183|506:104,1,279.000002128601,0|0,3:0|0:0,0:0:0:0:
512,10,51733,1,8,0:0:0:0:
480,163,51916,1,0,0:0:0:0:
341,114,52100,1,0,0:0:0:0:
446,91,52283,6,0,P|427:50|441:-12,1,94.499997116089,8|0,0:0|0:0,0:0:0:0:
388,212,52650,5,0,0:0:0:0:
311,230,52834,1,0,0:0:0:0:
461,354,53017,6,0,P|382:298|187:316,1,279.000002128601,2|0,3:2|0:0,0:0:0:0:
143,351,53568,1,0,0:0:0:0:
26,227,53751,1,8,0:0:0:0:
123,242,53935,1,0,0:0:0:0:
26,227,54118,6,0,B|1:205|-2:179|-2:179|8:153|11:129|11:129|31:105|63:96|63:96|121:63|86:-6,1,279.000002128601,0|0,3:0|0:0,0:0:0:0:
173,180,54669,5,0,0:0:0:0:
249,253,54852,1,0,0:0:0:0:
242,332,55036,1,0,0:0:0:0:
344,210,55219,1,8,0:0:0:0:
249,253,55403,5,0,0:0:0:0:
249,253,55586,1,0,0:0:0:0:
249,253,55770,1,0,0:0:0:0:
249,253,55953,6,0,B|331:254|438:345|303:451|229:385|314:330|165:310,1,348.750002660751,2|0,3:2|0:0,0:0:0:0:
249,253,56504,6,0,B|182:178|243:108|239:141|310:98|243:0,1,279.000002128601,2|0,3:2|0:0,0:0:0:0:
170,63,57054,6,0,B|172:113|237:142|239:123|303:128|321:211,1,209.250001596451,0|0,3:0|0:0,0:0:0:0:
316,194,57421,1,0,0:0:0:0:
418,118,57604,1,8,0:0:0:0:
490,193,57788,5,0,0:0:0:0:
490,193,57971,1,0,0:0:0:0:
449,326,58155,5,8,0:0:0:0:
299,363,58338,1,0,0:0:0:0:
374,342,58521,1,0,0:0:0:0:
374,342,58705,1,0,0:0:0:0:
148,304,58889,6,0,P|90:233|81:32,1,279.000002128601,2|0,3:2|0:0,0:0:0:0:
73,51,59439,1,0,0:0:0:0:
218,103,59623,6,0,P|238:127|241:198,1,94.499997116089,8|0,0:0|0:0,0:0:0:0:
421,123,59990,6,0,P|331:104|137:203,1,279.000002128601,0|0,3:0|0:0,0:0:0:0:
87,327,60540,5,0,0:0:0:0:
161,346,60724,1,0,0:0:0:0:
210,287,60907,1,0,0:0:0:0:
421,123,61091,5,8,0:0:0:0:
347,142,61275,1,0,0:0:0:0:
298,83,61458,1,0,0:0:0:0:
298,83,61641,1,0,0:0:0:0:
385,318,61825,6,0,B|381:348|367:378|367:378|450:320|439:245|439:245|409:214|413:172,1,279.000002128601,2|0,3:2|0:0,0:0:0:0:
413,195,62375,1,0,0:0:0:0:
466,78,62559,1,8,0:0:0:0:
466,78,62742,1,0,0:0:0:0:
501,192,62926,6,0,B|274:231|274:231|268:200|238:177,1,279.000002128601,0|0,3:0|0:0,0:0:0:0:
145,69,63476,1,8,0:0:0:0:
191,240,63659,5,0,0:0:0:0:
117,260,63842,1,0,0:0:0:0:
14,384,64026,5,8,0:0:0:0:
83,355,64210,1,0,0:0:0:0:
83,355,64393,1,0,0:0:0:0:
83,355,64577,1,0,0:0:0:0:
77,78,64760,6,0,B|93:211|182:108|196:279,1,209.250001596451,2|0,3:2|0:0,0:0:0:0:
190,239,65127,1,0,0:0:0:0:
123,275,65311,1,0,0:0:0:0:
232,131,65494,5,8,0:0:0:0:
307,263,65678,1,0,0:0:0:0:
451,125,65861,6,0,B|384:145|354:104|354:104|353:29|253:29|258:23|258:23|254:57,1,279.000002128601,0|0,3:0|0:0,0:0:0:0:
232,131,66412,1,0,0:0:0:0:
232,131,66595,1,0,0:0:0:0:
162,170,66779,1,0,0:0:0:0:
47,88,66962,1,8,0:0:0:0:
15,154,67146,1,0,0:0:0:0:
102,265,67329,1,0,0:0:0:0:
114,341,67513,1,0,0:0:0:0:
12,318,67696,6,0,B|230:289|230:289|215:322|233:353|233:353|210:339,1,279.000002128601,2|0,3:2|0:0,0:0:0:0:
303,320,68247,6,0,B|315:291|315:291|463:265,1,139.500001064301,2|0,3:2|0:0,0:0:0:0:
376,354,68614,1,0,0:0:0:0:
230,346,68797,6,0,B|204:379|204:379|155:192|155:192|225:256,1,279.000002128601,0|0,3:0|0:0,0:0:0:0:
314,250,69348,5,8,0:0:0:0:
392,236,69531,1,0,0:0:0:0:
195,135,69715,5,0,0:0:0:0:
117,121,69898,1,8,0:0:0:0:
321,16,70082,5,0,0:0:0:0:
307,94,70265,1,0,0:0:0:0:
187,221,70448,5,0,0:0:0:0:
201,299,70647,2,0,L|337:314,1,135.000005149842,2|0,0:0|0:0,0:0:0:0:
395,262,71572,5,0,0:0:0:0:
395,262,71758,2,0,L|392:226,1,24.7500007553101,0|0,0:0|0:0,0:0:0:0:
242,121,72128,6,0,L|238:175,1,49.5000015106202,0|0,0:0|0:0,0:0:0:0:
172,215,72684,1,0,0:0:0:0:
172,215,72869,2,0,L|167:169,2,33.0000010070801
172,215,73609,6,0,L|308:230,1,135.000005149842,2|0,0:0|0:0,0:0:0:0:
293,308,74534,5,0,0:0:0:0:
293,308,74720,2,0,L|290:344,1,24.7500007553101,0|0,0:0|0:0,0:0:0:0:
363,347,75090,2,0,L|367:298,1,49.5000015106202,0|0,0:0|0:0,0:0:0:0:
441,317,75646,1,0,0:0:0:0:
441,317,75832,2,0,L|438:353,2,33.0000010070801
450,210,76572,6,0,L|463:63,1,135.000005149842,2|0,0:0|0:0,0:0:0:0:
377,140,77498,5,0,0:0:0:0:
377,140,77684,2,0,L|374:104,1,24.7500007553101,0|0,0:0|0:0,0:0:0:0:
306,147,78054,2,0,L|308:171,1,24.7500007553101,0|0,0:0|0:0,0:0:0:0:
232,155,78424,1,0,0:0:0:0:
232,155,78610,1,0,0:0:0:0:
156,165,78795,1,0,0:0:0:0:
12,180,79165,5,2,0:0:0:0:
46,293,79535,2,0,P|85:261|187:265,1,135.000005149842,2|0,0:0|0:0,0:0:0:0:
166,255,82401,6,0,B|192:218|192:218|387:182|387:182|365:220,1,279.000002128601,2|0,3:2|0:0,0:0:0:0:
320,274,82951,1,0,0:0:0:0:
447,361,83134,1,8,0:0:0:0:
475,218,83318,1,0,0:0:0:0:
416,278,83501,6,0,B|328:133|533:179|436:9,1,279.000002128601,0|0,3:0|0:0,0:0:0:0:
370,21,84052,1,0,0:0:0:0:
282,118,84235,5,0,0:0:0:0:
204,136,84419,1,0,0:0:0:0:
70,106,84602,5,8,0:0:0:0:
25,264,84786,1,0,0:0:0:0:
94,190,84969,5,0,0:0:0:0:
94,190,85153,1,0,0:0:0:0:
94,190,85336,6,0,B|114:225|114:225|309:191|309:191|330:124,1,279.000002128601,2|0,3:2|0:0,0:0:0:0:
296,78,85887,1,0,0:0:0:0:
447,8,86070,5,8,0:0:0:0:
400,129,86254,1,0,0:0:0:0:
321,152,86437,6,0,B|309:194|309:194|330:261|404:248|404:248|481:288|453:351,1,279.000002128601,0|0,3:0|0:0,0:0:0:0:
325,384,86988,5,8,0:0:0:0:
282,317,87171,1,0,0:0:0:0:
168,142,87355,5,0,0:0:0:0:
125,209,87538,1,8,0:0:0:0:
21,99,87722,5,0,0:0:0:0:
21,99,87905,1,0,0:0:0:0:
21,99,88089,1,0,0:0:0:0:
3,258,88272,6,0,P|66:200|276:212,1,279.000002128601,2|0,3:2|0:0,0:0:0:0:
250,196,88823,1,0,0:0:0:0:
317,320,89006,1,8,0:0:0:0:
317,320,89189,1,0,0:0:0:0:
166,292,89373,6,0,B|90:356|2:257|2:257|67:247|94:171,1,279.000002128601,0|0,3:0|0:0,0:0:0:0:
122,150,89923,1,0,0:0:0:0:
76,85,90107,1,0,0:0:0:0:
76,85,90290,1,0,0:0:0:0:
183,246,90474,1,8,0:0:0:0:
260,233,90657,1,0,0:0:0:0:
337,216,90841,1,0,0:0:0:0:
337,216,91024,1,0,0:0:0:0:
245,24,91208,6,0,P|206:91|295:31,1,279.000002128601,2|0,3:2|0:0,0:0:0:0:
245,24,91758,6,0,P|164:37|103:93,1,139.500001064301,2|0,3:2|0:0,0:0:0:0:
40,183,92125,1,0,0:0:0:0:
245,24,92309,6,0,B|179:185|360:114|267:320,1,279.000002128601,0|0,3:0|0:0,0:0:0:0:
161,377,92859,1,8,0:0:0:0:
53,262,93043,1,0,0:0:0:0:
40,183,93226,1,0,0:0:0:0:
222,191,93410,6,0,L|309:182,1,67.5000025749208,0|0,0:0|0:0,0:0:0:0:
289,184,93777,1,0,0:0:0:0:
289,184,93960,6,0,L|236:189,1,33.7500012874604,0|0,0:0|0:0,0:0:0:0:
454,356,102522,6,0,P|447:257|298:230,1,236.250002253056,2|0,3:2|0:0,0:0:0:0:
358,288,102944,1,0,0:0:0:0:
434,269,103155,1,0,0:0:0:0:
450,157,103367,2,0,P|459:68|474:-2,1,157.500001502037,8|0,0:0|0:0,0:0:0:0:
342,13,103789,1,0,0:0:0:0:
474,78,104000,6,0,P|344:95|233:126,1,236.250002253056,0|0,3:0|0:0,0:0:0:0:
226,199,104423,1,0,0:0:0:0:
237,36,104634,6,0,P|267:150|281:267,1,236.250002253056,0|0,3:0|0:0,0:0:0:0:
217,312,105057,2,0,P|209:340|205:369,2,39.3750003755093,8|0|0,0:0|0:0|0:0,0:0:0:0:
137,334,105268,2,0,P|140:314|146:295,2,39.3750003755093
89,222,105479,2,0,P|67:297|57:374,1,157.500001502037
111,145,105902,6,0,B|152:53|57:0|57:0|32:80,1,236.250002253056,2|0,3:2|0:0,0:0:0:0:
20,134,106324,1,0,0:0:0:0:
137,61,106536,1,0,0:0:0:0:
299,41,106747,2,0,P|281:117|269:195,1,157.500001502037,8|0,0:0|0:0,0:0:0:0:
164,208,107169,1,0,0:0:0:0:
268,195,107381,6,0,P|353:229|320:356,1,236.250002253056,0|0,3:0|0:0,0:0:0:0:
256,335,107803,1,0,0:0:0:0:
447,245,108014,6,0,P|346:128|259:118,1,236.250002253056,0|0,3:0|0:0,0:0:0:0:
199,138,108437,1,8,0:0:0:0:
53,85,108648,2,0,P|55:65|60:46,2,39.3750003755093
138,47,108860,2,0,P|122:136|101:224,1,157.500001502037
0,384,109282,6,0,P|39:316|200:301,1,236.250002253056,2|0,3:2|0:0,0:0:0:0:
202,370,109705,1,0,0:0:0:0:
80,308,109916,1,0,0:0:0:0:
191,212,110127,2,0,P|213:136|223:58,1,157.500001502037,8|0,0:0|0:0,0:0:0:0:
338,27,110550,1,0,0:0:0:0:
512,153,110761,6,0,B|445:67|338:113|338:113|357:170,1,236.250002253056,0|0,3:0|0:0,0:0:0:0:
374,228,111183,1,0,0:0:0:0:
400,315,111395,6,0,B|413:354|413:354|306:400|239:314,1,236.250002253056,0|0,3:0|0:0,0:0:0:0:
164,295,111817,2,0,L|104:287,2,39.3750003755093,8|0|0,0:0|0:0|0:0,0:0:0:0:
115,363,112029,2,0,L|154:369,2,39.3750003755093
164,295,112240,2,0,P|179:218|181:124,1,157.500001502037
121,4,112662,6,0,P|104:71|195:21,1,236.250002253056,2|0,3:2|0:0,0:0:0:0:
271,14,113085,1,0,0:0:0:0:
63,51,113296,1,0,0:0:0:0:
29,179,113507,2,0,P|92:125|196:119,1,157.500001502037,8|0,0:0|0:0,0:0:0:0:
287,137,113930,1,0,0:0:0:0:
354,4,114141,6,0,B|331:75|380:150|380:150|368:93|406:54,1,236.250002253056,0|0,3:0|0:0,0:0:0:0:
453,119,114564,1,0,0:0:0:0:
479,304,114775,6,0,P|475:248|469:212,1,78.7500007510185,0|0,3:0|0:0,0:0:0:0:
398,231,114986,2,0,P|400:270|405:309,1,78.7500007510185
331,320,115198,2,0,P|326:287|324:254,2,39.3750003755093,8|0|0,0:0|0:0|0:0,0:0:0:0:
406,320,115409,1,0,0:0:0:0:
252,267,115620,2,0,P|175:258|92:254,1,157.500001502037
49,384,116043,6,0,P|94:319|-4:224,1,236.250002253056,2|0,3:2|0:0,0:0:0:0:
0,146,116465,1,0,0:0:0:0:
10,298,116676,1,0,0:0:0:0:
76,160,116888,2,0,P|85:76|97:0,1,157.500001502037,8|0,0:0|0:0,0:0:0:0:
177,24,117310,1,0,0:0:0:0:
0,146,117522,6,0,B|161:108|161:108|143:141|148:180,1,236.250002253056,8|0,3:2|0:0,0:0:0:0:
225,156,117944,1,0,0:0:0:0:
280,0,118155,6,0,P|260:107|242:241,1,236.250002253056,0|0,3:0|0:0,0:0:0:0:
273,302,118578,2,0,P|293:295|308:273,2,39.3750003755093,8|0|0,0:0|0:0|0:0,0:0:0:0:
374,312,118789,2,0,P|383:292|378:266,2,39.3750003755093
437,221,119000,2,0,P|414:156|343:108,1,157.500001502037
236,4,119423,6,0,B|199:81|263:136|263:136|252:80|287:49,1,236.250002253056,2|0,3:2|0:0,0:0:0:0:
341,108,119845,1,0,0:0:0:0:
443,182,120057,1,0,0:0:0:0:
508,5,120268,2,0,P|446:27|426:117,1,157.500001502037,8|0,0:0|0:0,0:0:0:0:
380,222,120691,1,0,0:0:0:0:
512,102,120902,6,0,B|320:151|320:151|293:213,1,236.250002253056,8|0,3:2|0:0,0:0:0:0:
283,261,121324,1,0,0:0:0:0:
144,184,121536,6,0,B|159:149|159:149|243:134|243:134|192:260,1,236.250002253056,0|0,3:2|0:0,0:0:0:0:
173,313,121958,1,8,0:0:0:0:
99,322,122169,2,0,L|51:328,2,39.3750003755093
173,313,122381,2,0,P|259:318|345:336,1,157.500001502037
512,267,122803,6,0,P|441:246|468:100,1,236.250002253056,2|0,3:2|0:0,0:0:0:0:
436,33,123226,1,0,0:0:0:0:
498,180,123437,1,0,0:0:0:0:
328,145,123648,2,0,P|246:129|155:121,1,157.500001502037,8|0,0:0|0:0,0:0:0:0:
65,168,124071,1,0,0:0:0:0:
216,0,124282,6,0,P|239:119|251:252,1,236.250002253056,8|0,3:2|0:0,0:0:0:0:
232,310,124705,1,0,0:0:0:0:
328,145,124916,6,0,P|404:250|483:194,1,236.250002253056,0|0,3:0|0:0,0:0:0:0:
467,135,125338,2,0,L|460:91,2,39.3750003755093,8|0|0,0:0|0:0|0:0,0:0:0:0:
487,208,125550,2,0,L|493:246,2,39.3750003755093
430,331,125761,2,0,P|421:258|402:162,1,157.500001502037
216,0,126183,6,0,B|160:59|201:139|201:139|206:89|249:64,1,236.250002253056,2|0,3:2|0:0,0:0:0:0:
317,43,126606,1,0,0:0:0:0:
165,58,126817,1,0,0:0:0:0:
280,140,127029,2,0,P|286:215|289:317,1,157.500001502037,8|0,0:0|0:0,0:0:0:0:
212,384,127451,1,0,0:0:0:0:
174,251,127662,6,0,P|279:220|420:198,1,236.250002253056,8|0,3:2|0:0,0:0:0:0:
478,225,128085,1,0,0:0:0:0:
501,26,128296,6,0,P|406:53|395:127,1,180,0|0,3:2|0:0,0:0:0:0:
96,50,129564,5,2,3:2:0:0:
212,70,129775,1,0,0:0:0:0:
196,149,129986,1,0,0:0:0:0:
60,164,130197,1,0,0:0:0:0:
37,294,130409,2,0,B|103:361|205:319|205:319|181:289|192:248,1,236.250002253056,8|0,0:0|0:0,0:0:0:0:
265,269,130831,1,0,0:0:0:0:
124,384,131043,6,0,P|110:254|87:150,1,236.250002253056,8|0,3:2|0:0,0:0:0:0:
97,72,131465,1,0,0:0:0:0:
227,41,131676,6,0,P|363:87|377:175,1,236.250002253056,0|0,3:2|0:0,0:0:0:0:
304,182,132099,1,8,0:0:0:0:
374,35,132310,1,0,0:0:0:0:
374,35,132416,1,0,0:0:0:0:
374,35,132522,2,0,B|430:-5|493:19|493:19|479:77,1,157.500001502037
495,317,132944,6,0,P|494:223|367:167,1,236.250002253056,2|0,3:2|0:0,0:0:0:0:
366,244,133367,1,0,0:0:0:0:
379,152,133578,1,0,0:0:0:0:
229,266,133789,2,0,B|110:287|110:287|64:245,1,157.500001502037,8|0,0:0|0:0,0:0:0:0:
6,182,134212,1,0,0:0:0:0:
131,384,134423,6,0,B|158:230|158:230|103:170,1,236.250002253056,8|0,3:2|0:0,0:0:0:0:
53,114,134845,1,0,0:0:0:0:
229,266,135057,6,0,P|246:142|267:29,1,236.250002253056,0|0,3:0|0:0,0:0:0:0:
343,21,135479,1,8,0:0:0:0:
225,151,135691,1,0,0:0:0:0:
225,151,135796,1,0,0:0:0:0:
225,151,135902,2,0,P|154:132|36:113,1,157.500001502037
12,266,136324,6,0,B|70:289|81:353|81:353|70:289|119:244,1,236.250002253056,2|0,3:2|0:0,0:0:0:0:
194,236,136747,1,0,0:0:0:0:
0,349,136958,1,0,0:0:0:0:
171,329,137169,1,8,0:0:0:0:
171,329,137275,1,0,0:0:0:0:
171,329,137381,2,0,L|275:316,1,78.7500007510185
409,313,137592,1,0,0:0:0:0:
488,151,137803,6,0,B|430:174|418:238|418:238|430:174|381:129,1,236.250002253056,8|0,3:2|0:0,0:0:0:0:
446,83,138226,1,0,0:0:0:0:
505,237,138437,6,0,P|381:209|260:196,1,236.250002253056,0|0,3:2|0:0,0:0:0:0:
196,213,138860,1,8,0:0:0:0:
154,60,139071,1,0,0:0:0:0:
154,60,139176,1,0,0:0:0:0:
154,60,139282,2,0,P|230:35|310:21,1,157.500001502037
512,0,139705,6,0,B|460:47|501:112|501:112|541:174|476:232,1,236.250002253056,2|0,3:2|0:0,0:0:0:0:
440,160,140127,1,0,0:0:0:0:
280,192,140338,1,0,0:0:0:0:
254,336,140550,2,0,P|250:245|241:177,1,157.500001502037,8|0,0:0|0:0,0:0:0:0:
267,90,140972,1,0,0:0:0:0:
138,189,141183,6,0,P|257:203|386:235,1,236.250002253056,8|0,3:2|0:0,0:0:0:0:
382,309,141606,1,0,0:0:0:0:
341,107,141817,6,0,P|350:68|355:29,1,78.7500007510185,0|0,3:0|0:0,0:0:0:0:
281,12,142029,2,0,P|276:51|266:89,1,78.7500007510185
179,103,142240,1,8,0:0:0:0:
179,103,142345,1,0,0:0:0:0:
179,103,142451,1,0,0:0:0:0:
0,103,142662,2,0,P|88:129|59:200,1,157.500001502037
214,310,143085,6,0,B|231:260|231:260|82:220|7:348,1,315.000003004074,2|0,3:2|0:0,0:0:0:0:
117,378,143719,1,0,0:0:0:0:
214,310,143930,2,0,P|300:296|375:286,1,157.500001502037,8|0,0:0|0:0,0:0:0:0:
441,354,144352,1,0,0:0:0:0:
326,133,144564,6,0,P|345:249|361:366,1,236.250002253056,8|0,3:2|0:0,0:0:0:0:
441,354,144986,1,0,0:0:0:0:
416,191,145198,6,0,B|385:100|449:53|449:53|443:104|483:142,1,236.250002253056,0|0,3:2|0:0,0:0:0:0:
491,206,145620,1,8,0:0:0:0:
293,125,145831,1,0,0:0:0:0:
293,125,145937,1,0,0:0:0:0:
293,125,146043,2,0,B|233:137|199:90|199:90|220:70|217:38,1,157.500001502037
0,0,146465,6,0,P|77:38|6:149,1,236.250002253056,2|0,3:2|0:0,0:0:0:0:
38,227,146888,1,0,0:0:0:0:
60,113,147099,1,0,0:0:0:0:
154,10,147310,2,0,P|233:0|318:0,1,157.500001502037,8|0,0:0|0:0,0:0:0:0:
365,183,147733,1,0,0:0:0:0:
465,46,147944,6,0,P|353:66|291:202,1,236.250002253056,8|0,3:2|0:0,0:0:0:0:
308,239,148367,1,0,0:0:0:0:
250,0,148578,6,0,B|236:68|308:96|308:96|377:121|360:206,1,236.250002253056,0|0,3:0|0:0,0:0:0:0:
308,239,149000,1,8,0:0:0:0:
186,384,149212,1,0,0:0:0:0:
186,384,149317,1,0,0:0:0:0:
186,384,149423,2,0,P|178:298|168:222,1,157.500001502037
31,127,149845,6,0,B|25:100|3:90|3:90|126:51|126:51|101:82|99:118,1,236.250002253056,2|0,3:2|0:0,0:0:0:0:
181,110,150268,1,0,0:0:0:0:
41,51,150479,1,0,0:0:0:0:
230,37,150691,2,0,P|262:104|230:180,1,157.500001502037,8|0,0:0|0:0,0:0:0:0:
219,253,151113,1,0,0:0:0:0:
410,281,151324,6,0,B|480:293|480:293|498:206|414:222|431:134,1,236.250002253056,8|0,3:2|0:0,0:0:0:0:
505,154,151747,1,0,0:0:0:0:
512,375,151958,6,0,B|319:341|319:341|321:318|308:292,1,236.250002253056,0|0,3:0|0:0,0:0:0:0:
242,333,152381,1,8,0:0:0:0:
71,358,152592,1,0,0:0:0:0:
71,358,152698,1,0,0:0:0:0:
71,358,152803,2,0,P|69:273|65:196,1,157.500001502037
251,2,153226,6,0,P|196:146|154:107,1,236.250002253056,2|0,3:2|0:0,0:0:0:0:
189,75,153648,1,0,0:0:0:0:
372,108,153860,1,0,0:0:0:0:
426,0,154071,2,0,P|379:140|378:213,1,157.500001502037,8|0,0:0|0:0,0:0:0:0:
467,279,154493,1,0,0:0:0:0:
378,148,154705,6,0,B|455:145|500:203|500:203|446:184|401:224,1,236.250002253056,8|0,3:2|0:0,0:0:0:0:
333,230,155127,1,0,0:0:0:0:
146,195,155338,6,0,P|105:186|57:179,1,78.7500007510185,0|0,3:0|0:0,0:0:0:0:
53,253,155550,2,0,P|91:259|130:267,1,78.7500007510185
176,346,155761,1,8,0:0:0:0:
176,346,155867,1,0,0:0:0:0:
176,346,155972,1,0,0:0:0:0:
146,195,156183,2,0,P|128:116|116:36,1,157.500001502037
0,189,156606,6,0,P|127:209|253:237,1,236.250002253056,2|0,3:2|0:0,0:0:0:0:
252,306,157029,1,0,0:0:0:0:
345,285,157240,1,0,0:0:0:0:
346,189,157451,2,0,P|340:111|400:48,1,157.500001502037,8|0,0:0|0:0,0:0:0:0:
464,70,157874,1,0,0:0:0:0:
304,22,158085,6,0,B|208:-13|134:69|134:69|153:84|156:122,1,236.250002253056,0|0,3:0|0:0,0:0:0:0:
78,124,158507,1,0,0:0:0:0:
218,43,158719,6,0,P|247:157|264:280,1,236.250002253056,0|0,3:0|0:0,0:0:0:0:
250,350,159141,1,8,0:0:0:0:
336,161,159352,1,0,0:0:0:0:
336,161,159458,1,0,0:0:0:0:
336,161,159564,2,0,P|345:103|438:74,1,157.500001502037
463,340,159986,6,0,P|397:260|236:270,1,236.250002253056,2|0,3:2|0:0,0:0:0:0:
261,330,160409,1,0,0:0:0:0:
78,252,160620,1,0,0:0:0:0:
189,384,160831,2,0,P|169:290|147:221,1,157.500001502037,8|0,0:0|0:0,0:0:0:0:
168,134,161254,1,0,0:0:0:0:
15,88,161465,6,0,L|254:133,1,236.250002253056,0|0,3:0|0:0,0:0:0:0:
270,209,161888,1,0,0:0:0:0:
214,0,162099,6,0,L|170:232,1,236.250002253056,0|0,3:0|0:0,0:0:0:0:
94,244,162522,1,8,0:0:0:0:
88,365,162733,1,0,0:0:0:0:
88,365,162838,1,0,0:0:0:0:
88,365,162944,2,0,P|149:345|157:241,1,157.500001502037
340,384,163367,6,0,P|292:296|381:209,1,236.250002253056,2|0,3:2|0:0,0:0:0:0:
392,284,163789,1,0,0:0:0:0:
456,200,164000,1,0,0:0:0:0:
369,105,164212,2,0,P|291:96|205:95,1,157.500001502037,8|0,0:0|0:0,0:0:0:0:
78,155,164634,1,0,0:0:0:0:
197,0,164845,6,0,B|237:57|182:111|182:111|129:163|179:234,1,236.250002253056,0|0,3:0|0:0,0:0:0:0:
245,225,165268,1,0,0:0:0:0:
78,155,165479,6,0,P|203:140|329:138,1,236.250002253056,0|0,3:0|0:0,0:0:0:0:
390,123,165902,1,8,0:0:0:0:
490,302,166113,1,0,0:0:0:0:
490,302,166219,1,0,0:0:0:0:
490,302,166324,2,0,P|493:257|498:212,1,90
512,88,166747,5,0,0:0:0:0:
302,333,170127,5,2,3:2:0:0:
378,353,170338,1,0,0:0:0:0:
306,254,170550,1,0,0:0:0:0:
440,238,170761,1,0,0:0:0:0:
306,254,170972,2,0,P|235:241|145:233,1,157.500001502037,8|0,0:0|0:0,0:0:0:0:
133,107,171395,1,0,0:0:0:0:
216,363,171606,6,0,P|226:244|247:127,1,236.250002253056,0|0,3:0|0:0,0:0:0:0:
325,117,172029,1,0,0:0:0:0:
150,233,172240,6,0,P|139:114|118:-2,1,236.250002253056,0|0,3:0|0:0,0:0:0:0:
44,9,172662,1,8,0:0:0:0:
215,35,172874,1,0,0:0:0:0:
215,35,172979,1,0,0:0:0:0:
215,35,173085,2,0,P|274:27|375:18,1,157.500001502037
487,279,173507,6,0,B|513:181|410:144|410:144|398:227,1,236.250002253056,2|0,3:2|0:0,0:0:0:0:
325,198,173930,1,0,0:0:0:0:
393,284,174141,1,0,0:0:0:0:
305,384,174352,2,0,P|239:368|146:360,1,157.500001502037,8|0,0:0|0:0,0:0:0:0:
87,201,174775,1,0,0:0:0:0:
227,348,174986,6,0,B|284:281|239:205|239:205|247:262|206:292,1,236.250002253056,0|0,3:0|0:0,0:0:0:0:
163,223,175409,1,0,0:0:0:0:
0,184,175620,6,0,P|6:102|148:65,1,236.250002253056,0|0,3:0|0:0,0:0:0:0:
147,138,176043,1,8,0:0:0:0:
8,75,176254,2,0,L|0:34,2,39.3750003755093
136,58,176465,2,0,P|220:48|295:42,1,157.500001502037
488,232,176888,6,0,B|384:283|384:283|299:198,1,236.250002253056,2|0,3:2|0:0,0:0:0:0:
304,119,177310,1,0,0:0:0:0:
295,221,177522,1,0,0:0:0:0:
112,203,177733,2,0,P|100:280|96:359,1,157.500001502037,8|0,0:0|0:0,0:0:0:0:
210,373,178155,1,0,0:0:0:0:
0,238,178367,6,0,B|57:263|95:200|95:200|136:134|204:163,1,236.250002253056,0|0,3:0|0:0,0:0:0:0:
278,146,178789,1,0,0:0:0:0:
512,118,179000,6,0,P|406:126|379:1,1,236.250002253056,0|0,3:0|0:0,0:0:0:0:
296,0,179423,1,8,0:0:0:0:
287,153,179634,1,0,0:0:0:0:
287,153,179740,1,0,0:0:0:0:
287,153,179845,2,0,P|277:235|263:317,1,157.500001502037
20,292,180268,6,0,P|148:270|278:256,1,236.250002253056,2|0,3:2|0:0,0:0:0:0:
332,250,180691,1,0,0:0:0:0:
258,339,180902,1,0,0:0:0:0:
139,251,181113,2,0,B|102:181|102:181|148:117,1,157.500001502037,8|0,0:0|0:0,0:0:0:0:
76,38,181536,1,0,0:0:0:0:
197,185,181747,6,0,P|320:168|447:158,1,236.250002253056,0|0,3:0|0:0,0:0:0:0:
504,189,182169,1,0,0:0:0:0:
346,152,182381,6,0,P|350:112|356:74,1,78.7500007510185,0|0,3:0|0:0,0:0:0:0:
282,67,182592,2,0,P|277:106|273:146,1,78.7500007510185
202,115,182803,2,0,P|204:95|207:76,2,39.3750003755093,8|0|0,0:0|0:0|0:0,0:0:0:0:
211,191,183014,1,0,0:0:0:0:
49,175,183226,2,0,B|2:239|2:239|39:308,1,157.500001502037
268,372,187029,6,0,P|274:254|297:127,1,236.250002253056,2|0,3:2|0:0,0:0:0:0:
319,62,187451,1,0,0:0:0:0:
319,62,187662,1,0,0:0:0:0:
261,243,187874,2,0,B|191:279|191:279|127:233,1,157.500001502037,8|0,0:0|0:0,0:0:0:0:
0,258,188296,1,0,0:0:0:0:
183,241,188507,6,0,P|177:123|155:1,1,236.250002253056,0|0,3:0|0:0,0:0:0:0:
80,0,188930,1,0,0:0:0:0:
192,149,189141,6,0,P|290:167|327:51,1,236.250002253056,0|0,3:0|0:0,0:0:0:0:
251,43,189564,1,8,0:0:0:0:
267,232,189775,2,0,L|263:192,2,39.3750003755093
353,123,189986,2,0,L|336:290,1,157.500001502037
189,365,190409,5,2,3:2:0:0:
189,365,190620,1,0,0:0:0:0:
174,286,190831,5,0,0:0:0:0:
174,286,190937,1,0,0:0:0:0:
174,286,191043,1,0,0:0:0:0:
254,269,191254,1,8,0:0:0:0:
332,160,191465,1,0,0:0:0:0:
234,96,191676,2,0,P|172:102|74:121,1,157.500001502037,0|0,0:0|3:0,0:0:0:0:
19,19,192099,5,0,0:0:0:0:
19,19,192205,1,0,0:0:0:0:
19,19,192311,1,0,0:0:0:0:
131,135,192522,1,0,3:0:0:0:
131,135,192628,1,0,0:0:0:0:
131,135,192734,1,0,0:0:0:0:
251,18,192944,2,0,P|329:25|407:38,1,157.500001502037,8|0,0:0|0:0,0:0:0:0:
288,104,193367,2,0,P|248:107|209:112,2,78.7500007510185
512,0,193789,6,0,P|427:69|507:175,1,236.250002253056,2|0,3:2|0:0,0:0:0:0:
491,243,194212,2,0,P|496:281|499:321,2,78.7500007510185
353,349,194634,2,0,P|356:309|361:270,2,78.7500007510185,8|0|0,0:0|0:0|0:0,0:0:0:0:
210,277,195057,2,0,B|170:212|170:212|218:147,1,157.500001502037,0|0,0:0|3:0,0:0:0:0:
192,3,195479,6,0,P|153:8|113:11,2,78.7500007510185
53,66,195902,1,0,3:0:0:0:
53,66,196007,1,0,0:0:0:0:
53,66,196113,1,0,0:0:0:0:
267,84,196324,2,0,P|373:92|479:107,1,157.500001502037,8|0,0:0|0:0,0:0:0:0:
512,130,196747,1,0,0:0:0:0:
348,74,196958,1,0,0:0:0:0:
218,160,197169,6,0,B|162:218|162:218|194:288,1,157.500001502037,2|0,3:2|0:0,0:0:0:0:
68,384,197592,2,0,B|123:325|123:325|91:255,1,157.500001502037
0,75,198014,1,8,0:0:0:0:
68,384,198437,1,0,0:0:0:0:
182,252,198648,1,0,3:0:0:0:
265,241,198860,5,0,0:0:0:0:
265,241,199071,1,0,0:0:0:0:
343,233,199282,1,0,3:0:0:0:
422,103,199493,1,0,0:0:0:0:
325,0,199705,2,0,P|334:94|339:191,1,157.500001502037,8|0,0:0|0:0,0:0:0:0:
246,318,200127,2,0,P|253:239|258:161,1,157.500001502037
240,8,200550,5,2,3:2:0:0:
240,8,200761,1,0,0:0:0:0:
90,0,200972,5,0,0:0:0:0:
82,79,201183,1,0,0:0:0:0:
15,234,201395,5,8,0:0:0:0:
0,91,201606,1,0,0:0:0:0:
82,79,201817,2,0,P|168:85|257:97,1,157.500001502037,0|0,0:0|3:0,0:0:0:0:
413,141,202240,5,0,0:0:0:0:
413,141,202451,1,0,0:0:0:0:
422,60,202662,5,0,3:0:0:0:
405,223,202873,1,0,0:0:0:0:
250,239,203085,1,8,0:0:0:0:
242,314,203296,2,0,L|237:361,2,39.3750003755093
250,239,203507,5,0,0:0:0:0:
250,239,203719,1,0,0:0:0:0:
237,108,203930,6,0,P|234:68|228:29,2,78.7500007510185,2|0|0,3:2|0:0|0:0,0:0:0:0:
46,135,204352,1,0,0:0:0:0:
46,135,204564,1,0,0:0:0:0:
70,321,204775,5,8,0:0:0:0:
166,308,204986,1,0,0:0:0:0:
252,221,205198,1,0,0:0:0:0:
279,61,205409,6,0,P|269:139|259:309,1,236.250002253056,0|0,3:0|0:0,0:0:0:0:
279,374,205831,1,0,0:0:0:0:
450,384,206043,6,0,P|437:266|431:148,1,236.250002253056,0|0,3:0|0:0,0:0:0:0:
509,139,206465,1,8,0:0:0:0:
358,131,206676,1,0,0:0:0:0:
358,131,206782,1,0,0:0:0:0:
358,131,206888,1,0,0:0:0:0:
345,45,207099,1,0,0:0:0:0:
511,14,207310,1,0,0:0:0:0:
460,338,210691,5,2,3:2:0:0:
460,338,210902,1,0,0:0:0:0:
365,317,211113,1,0,0:0:0:0:
383,226,211324,1,0,0:0:0:0:
251,384,211536,2,0,P|245:309|220:214,1,157.500001502037,8|0,0:0|0:0,0:0:0:0:
111,213,211958,1,0,0:0:0:0:
157,60,212169,6,0,P|125:185|115:313,1,236.250002253056,0|0,3:0|0:0,0:0:0:0:
140,367,212592,1,0,0:0:0:0:
111,213,212803,6,0,P|18:180|41:35,1,236.250002253056,0|0,3:0|0:0,0:0:0:0:
88,33,213226,1,8,0:0:0:0:
299,73,213437,1,0,0:0:0:0:
299,73,213543,1,0,0:0:0:0:
299,73,213648,2,0,P|305:153|317:233,1,157.500001502037
480,384,214071,6,0,B|431:339|442:275|442:275|431:339|373:362,1,236.250002253056,2|0,3:2|0:0,0:0:0:0:
300,344,214493,1,0,0:0:0:0:
283,221,214705,1,0,0:0:0:0:
138,363,214916,2,0,B|126:322|166:295|166:295|208:266|196:222,1,157.500001502037,8|0,0:0|0:0,0:0:0:0:
74,195,215338,1,0,0:0:0:0:
283,221,215550,6,0,P|290:130|417:60,1,236.250002253056,0|0,3:0|0:0,0:0:0:0:
478,84,215972,1,0,0:0:0:0:
322,0,216183,6,0,P|340:82|364:242,1,236.250002253056,0|0,3:0|0:0,0:0:0:0:
349,311,216606,1,8,0:0:0:0:
474,333,216817,2,0,L|512:340,2,39.3750003755093
349,311,217029,2,0,P|343:226|328:146,1,157.500001502037
109,43,217451,6,0,P|163:119|183:28,1,236.250002253056,2|0,3:2|0:0,0:0:0:0:
259,0,217874,1,0,0:0:0:0:
218,83,218085,1,0,0:0:0:0:
29,114,218296,2,0,B|-13:183|-13:183|51:272,1,157.500001502037,8|0,0:0|0:0,0:0:0:0:
10,371,218719,1,0,0:0:0:0:
85,176,218930,6,0,P|192:184|217:321,1,236.250002253056,0|0,3:0|0:0,0:0:0:0:
211,374,219352,1,0,0:0:0:0:
310,239,219564,6,0,P|308:116|316:3,1,236.250002253056,0|0,3:0|0:0,0:0:0:0:
395,7,219986,1,8,0:0:0:0:
293,140,220198,1,0,0:0:0:0:
293,140,220303,1,0,0:0:0:0:
293,140,220409,2,0,P|200:133|115:119,1,157.500001502037
0,11,220831,6,0,P|86:18|97:167,1,236.250002253056,2|0,3:2|0:0,0:0:0:0:
87,218,221254,1,0,0:0:0:0:
203,116,221465,1,0,0:0:0:0:
369,187,221676,2,0,P|376:108|391:31,1,157.500001502037,8|0,0:0|0:0,0:0:0:0:
494,19,222099,1,0,0:0:0:0:
254,0,222310,6,0,P|279:130|290:257,1,236.250002253056,0|0,3:0|0:0,0:0:0:0:
279,313,222733,1,0,0:0:0:0:
369,187,222944,6,0,P|373:146|381:106,1,78.7500007510185,0|0,3:0|0:0,0:0:0:0:
456,123,223155,2,0,P|451:163|443:203,1,78.7500007510185
485,282,223367,1,8,0:0:0:0:
485,282,223472,1,0,0:0:0:0:
485,282,223578,1,0,0:0:0:0:
380,383,223789,1,0,0:0:0:0:
288,233,224000,1,0,0:0:0:0:
138,384,224212,5,6,3:2:0:0:
256,192,224634,12,0,230972,0:0:0:0:
