osu file format v14

[General]
AudioFilename: audio.mp3
AudioLeadIn: 0
PreviewTime: 47146
Countdown: 0
SampleSet: Soft
StackLeniency: 0.6
Mode: 0
LetterboxInBreaks: 0
WidescreenStoryboard: 0

[Editor]
Bookmarks: 94144,224212
DistanceSpacing: 1.5
BeatDivisor: 4
GridSize: 32
TimelineZoom: 2.899999

[Metadata]
Title:Life Is Good feat. Drake
TitleUnicode:Life Is Good feat. Drake
Artist:Future
ArtistUnicode:Future
Creator:Miraui
Version:Collab Hard
Source:
Tags:English Hip Hop Rap Trap High Off Life Senseabel Fukanamazat
BeatmapID:2828409
BeatmapSetID:1365798

[Difficulty]
HPDrainRate:3.6
CircleSize:4
OverallDifficulty:6
ApproachRate:7
SliderMultiplier:1.8
SliderTickRate:1

[Events]
//Background and Video events
0,0,"UXIpAEqNEpc.jpg",0,0
//Break Periods
2,94160,97997
//Storyboard Layer 0 (Background)
//Storyboard Layer 1 (Fail)
//Storyboard Layer 2 (Pass)
//Storyboard Layer 3 (Foreground)
//Storyboard Layer 4 (Overlay)
//Storyboard Sound Samples

[TimingPoints]
11904,370.37037037037,4,2,2,35,1,0
11904,-200,4,2,2,35,0,0
23660,366.97247706422,4,2,2,70,1,0
23660,-166.666666666667,4,2,2,70,0,0
34669,-200,4,2,2,70,0,0
35403,-153.846153846154,4,2,2,70,0,0
46412,-200,4,2,2,70,0,0
47146,-166.666666666667,4,2,2,70,0,0
70647,370.37037037037,4,2,2,35,1,0
70647,-200,4,2,2,35,0,0
82401,366.97247706422,4,2,2,70,1,0
82401,-142.857142857143,4,2,2,70,0,0
93410,-200,4,2,2,70,0,0
102522,422.535211267606,4,2,3,70,1,0
102522,-105.263157894737,4,2,3,70,0,0
230972,-105.263157894737,4,2,3,5,0,0

[Colours]
Combo1 : 227,194,128
Combo2 : 207,201,167

[HitObjects]
400,345,11903,5,2,0:0:0:0:
400,345,12644,2,0,P|400:323|405:294,3,45
433,234,13385,2,0,P|464:230|521:228,2,67.5
376,188,14126,2,0,P|347:184|304:180,2,60
441,158,14866,5,2,0:0:0:0:
461,74,15607,2,0,P|439:75|411:68,3,45
345,80,16348,2,0,P|337:32|338:-8,2,67.5
284,119,17089,2,0,P|278:157|279:189,2,60
231,70,17829,5,2,0:0:0:0:
157,92,18570,2,0,P|141:83|114:84,3,45
42,90,19311,2,0,P|48:51|62:4,2,67.5
77,152,20052,2,0,P|43:147|4:143,2,67.5
142,182,20792,5,2,0:0:0:0:
109,247,21533,2,0,P|115:265|117:290,3,45
80,353,22274,2,0,P|40:353|-2:360,2,67.5
151,361,23015,2,0,P|198:362|235:366,1,67.5
242,233,23660,6,0,L|359:218,1,107.999996704102,2|0,3:2|0:0,0:0:0:0:
415,163,24210,1,0,0:0:0:0:
348,111,24393,2,0,P|338:85|324:54,1,53.9999983520508,8|0,0:0|0:0,0:0:0:0:
408,31,24760,2,0,P|421:62|432:97,1,53.9999983520508,0|0,3:0|0:0,0:0:0:0:
416,167,25127,5,0,0:0:0:0:
501,181,25311,1,0,0:0:0:0:
489,266,25494,1,0,0:0:0:0:
403,254,25678,1,0,0:0:0:0:
420,338,25861,6,0,P|383:347|330:357,2,80.9999975280763,8|0|0,0:0|0:0|0:0,0:0:0:0:
403,254,26595,2,0,L|279:275,1,107.999996704102,2|0,3:2|0:0,0:0:0:0:
245,342,27146,1,0,0:0:0:0:
166,306,27329,2,0,L|113:316,1,53.9999983520508,8|0,0:0|0:0,0:0:0:0:
33,342,27696,2,0,L|21:286,1,53.9999983520508,0|0,3:0|0:0,0:0:0:0:
80,225,28063,5,0,0:0:0:0:
162,198,28247,1,8,0:0:0:0:
92,147,28430,1,0,0:0:0:0:
18,101,28614,1,0,0:0:0:0:
95,63,28797,6,0,P|139:46|184:33,2,80.9999975280763,8|0|0,0:0|0:0|0:0,0:0:0:0:
163,115,29531,2,0,L|274:88,1,107.999996704102,2|0,3:2|0:0,0:0:0:0:
329,28,30082,1,0,0:0:0:0:
400,75,30265,2,0,P|431:78|463:84,1,53.9999983520508,8|0,0:0|0:0,0:0:0:0:
502,153,30632,2,0,P|499:180|494:209,1,53.9999983520508,0|0,3:0|0:0,0:0:0:0:
457,284,30999,6,0,L|346:270,1,107.999996704102
310,347,31549,1,0,0:0:0:0:
234,311,31733,6,0,L|173:328,1,53.9999983520508,8|0,0:0|0:0,0:0:0:0:
96,313,32100,2,0,L|77:242,1,53.9999983520508
35,185,32467,6,0,P|87:165|138:149,1,107.999996704102,2|0,3:2|0:0,0:0:0:0:
170,71,33017,1,2,3:2:0:0:
170,71,33201,2,0,P|188:51|219:55,1,53.9999983520508,8|0,0:0|0:0,0:0:0:0:
291,88,33568,1,0,3:0:0:0:
332,12,33751,1,0,0:0:0:0:
407,54,33935,6,0,L|519:69,1,107.999996704102
502,154,34485,1,0,0:0:0:0:
433,132,34669,6,0,P|430:171|428:208,2,67.5
349,174,35403,6,0,P|353:236|362:313,1,116.999994644165,2|0,3:2|0:0,0:0:0:0:
285,349,35953,1,0,0:0:0:0:
192,334,36137,2,0,P|162:340|129:349,1,58.4999973220826,8|0,0:0|0:0,0:0:0:0:
102,257,36504,2,0,P|132:246|168:235,1,58.4999973220826,0|0,3:0|0:0,0:0:0:0:
183,147,36871,5,0,0:0:0:0:
271,177,37054,1,0,0:0:0:0:
330,105,37237,1,0,0:0:0:0:
241,73,37421,1,0,0:0:0:0:
241,73,37604,2,0,B|209:40|209:40|228:0,2,87.749995983124,8|0|0,0:0|0:0|0:0,0:0:0:0:
334,78,38338,6,0,P|387:80|460:106,1,116.999994644165,2|0,3:2|0:0,0:0:0:0:
490,183,38889,1,0,0:0:0:0:
413,236,39072,5,8,0:0:0:0:
358,159,39256,1,0,0:0:0:0:
302,83,39439,1,0,3:0:0:0:
229,142,39623,1,0,0:0:0:0:
229,142,39806,2,0,L|163:151,1,58.4999973220826,0|8,0:0|0:0,0:0:0:0:
79,129,40173,2,0,L|69:65,1,58.4999973220826
156,35,40540,6,0,P|165:81|172:133,2,87.749995983124,8|0|0,0:0|0:0|0:0,0:0:0:0:
69,71,41274,2,0,P|73:130|72:188,1,116.999994644165,2|0,3:2|0:0,0:0:0:0:
13,261,41825,1,0,0:0:0:0:
88,315,42008,2,0,B|114:326|114:326|139:310,1,58.4999973220826,8|0,0:0|0:0,0:0:0:0:
184,227,42375,2,0,B|209:211|209:211|235:222,1,58.4999973220826,0|0,3:0|0:0,0:0:0:0:
267,310,42742,6,0,P|301:311|360:316,1,87.749995983124
354,315,43109,1,0,0:0:0:0:
445,295,43293,1,0,0:0:0:0:
445,295,43476,6,0,P|475:264|518:236,2,87.749995983124,8|0|0,0:0|0:0|0:0,0:0:0:0:
375,231,44210,2,0,P|386:172|409:118,1,116.999994644165,2|0,3:2|0:0,0:0:0:0:
476,55,44760,1,2,3:2:0:0:
392,18,44944,2,0,P|363:16|329:27,1,58.4999973220826,8|0,0:0|0:0,0:0:0:0:
308,113,45311,2,0,P|274:122|245:118,1,58.4999973220826,0|0,3:0|0:0,0:0:0:0:
158,101,45678,5,0,0:0:0:0:
152,7,45861,1,8,0:0:0:0:
58,19,46045,1,0,0:0:0:0:
61,112,46228,1,0,0:0:0:0:
61,112,46412,6,0,B|33:133|33:133|-7:131,2,67.5
89,193,47146,6,0,L|99:307,1,107.999996704102,2|0,3:2|0:0,0:0:0:0:
170,348,47696,1,0,0:0:0:0:
212,272,47880,2,0,P|238:264|268:258,1,53.9999983520508,8|0,0:0|0:0,0:0:0:0:
323,321,48247,2,0,P|360:325|414:335,1,80.9999975280763,0|0,3:0|0:0,0:0:0:0:
438,307,48614,2,0,L|450:246,1,53.9999983520508
362,239,48981,2,0,L|373:169,1,53.9999983520508
390,101,49348,5,8,0:0:0:0:
470,70,49531,1,0,0:0:0:0:
411,6,49715,1,0,0:0:0:0:
332,41,49898,1,0,0:0:0:0:
332,41,50082,6,0,L|215:27,1,107.999996704102,2|0,3:2|0:0,0:0:0:0:
142,38,50632,1,0,0:0:0:0:
142,38,50815,2,0,P|106:61|102:81,1,53.9999983520508,8|0,0:0|0:0,0:0:0:0:
151,139,51182,2,0,L|140:235,1,80.9999975280763,0|0,3:0|0:0,0:0:0:0:
165,255,51549,2,0,L|225:262,1,53.9999983520508,0|8,0:0|0:0,0:0:0:0:
225,347,51916,2,0,L|157:340,1,53.9999983520508
95,299,52283,5,8,0:0:0:0:
56,376,52467,1,0,0:0:0:0:
6,305,52650,1,0,0:0:0:0:
46,228,52834,1,0,0:0:0:0:
46,228,53017,6,0,P|43:176|33:110,1,107.999996704102,2|0,3:2|0:0,0:0:0:0:
90,54,53568,1,0,0:0:0:0:
90,54,53751,2,0,P|98:25|124:6,1,53.9999983520508,8|0,0:0|0:0,0:0:0:0:
171,75,54118,2,0,P|210:70|260:67,1,80.9999975280763,0|0,3:0|0:0,0:0:0:0:
280,99,54485,2,0,P|286:135|286:160,1,53.9999983520508
367,123,54852,1,0,0:0:0:0:
427,184,55036,1,0,0:0:0:0:
491,126,55219,6,0,P|493:97|487:72,1,53.9999983520508,8|0,0:0|0:0,0:0:0:0:
423,14,55586,1,0,0:0:0:0:
374,85,55770,1,0,0:0:0:0:
374,85,55953,6,0,L|380:212,1,107.999996704102,2|0,3:2|0:0,0:0:0:0:
398,277,56504,2,0,P|358:281|313:290,1,80.9999975280763,2|0,3:2|0:0,0:0:0:0:
298,327,56871,1,0,0:0:0:0:
218,297,57054,2,0,P|179:296|134:302,1,80.9999975280763,0|0,3:0|0:0,0:0:0:0:
97,284,57421,2,0,L|43:279,1,53.9999983520508,0|8,0:0|0:0,0:0:0:0:
15,199,57788,2,0,L|26:138,1,53.9999983520508
63,68,58155,5,8,0:0:0:0:
104,143,58338,1,0,0:0:0:0:
164,81,58522,1,0,0:0:0:0:
127,2,58705,1,0,0:0:0:0:
127,2,58889,6,0,L|251:16,1,107.999996704102,2|0,3:2|0:0,0:0:0:0:
284,84,59439,1,0,0:0:0:0:
284,84,59623,2,0,P|293:113|292:148,1,53.9999983520508,8|0,0:0|0:0,0:0:0:0:
362,189,59990,2,0,L|456:176,1,80.9999975280763,0|0,3:0|0:0,0:0:0:0:
475,205,60357,2,0,P|490:231|486:259,1,53.9999983520508
407,285,60724,2,0,L|339:295,1,53.9999983520508
270,269,61091,5,8,0:0:0:0:
230,345,61274,1,0,0:0:0:0:
158,296,61458,1,0,0:0:0:0:
76,322,61641,1,0,0:0:0:0:
37,246,61825,6,0,P|15:199|25:142,1,107.999996704102,2|0,3:2|0:0,0:0:0:0:
101,108,62375,1,0,0:0:0:0:
176,150,62559,2,0,P|184:180|183:206,1,53.9999983520508,8|0,0:0|0:0,0:0:0:0:
244,263,62926,2,0,P|283:271|330:275,1,80.9999975280763,0|0,3:0|0:0,0:0:0:0:
364,259,63293,2,0,L|373:199,1,53.9999983520508,0|8,0:0|0:0,0:0:0:0:
437,149,63659,2,0,L|493:160,1,53.9999983520508
510,75,64026,6,0,P|502:54|466:38,1,53.9999983520508,8|0,0:0|0:0,0:0:0:0:
399,73,64393,1,0,0:0:0:0:
399,73,64577,1,0,0:0:0:0:
334,130,64760,6,0,P|287:119|221:109,1,107.999996704102,2|0,3:2|0:0,0:0:0:0:
149,71,65311,1,0,0:0:0:0:
68,100,65494,2,0,P|52:129|54:153,1,53.9999983520508,8|0,0:0|0:0,0:0:0:0:
130,182,65861,2,0,P|148:216|139:266,1,80.9999975280763,0|0,3:0|0:0,0:0:0:0:
102,269,66228,2,0,P|72:273|43:282,1,53.9999983520508
98,351,66595,2,0,P|130:342|168:333,1,53.9999983520508
232,362,66962,6,0,P|251:310|303:291,1,107.999996704102,8|0,0:0|0:0,0:0:0:0:
363,346,67513,1,0,0:0:0:0:
430,293,67696,6,0,L|432:199,1,80.9999975280763,2|0,3:2|0:0,0:0:0:0:
431,212,68063,1,0,0:0:0:0:
470,134,68247,2,0,B|506:116|506:116|475:88,1,80.9999975280763,2|0,3:2|0:0,0:0:0:0:
475,88,68614,1,0,0:0:0:0:
413,30,68797,2,0,P|374:28|325:31,1,80.9999975280763,0|0,3:0|0:0,0:0:0:0:
298,56,69164,2,0,P|270:60|240:60,1,53.9999983520508,0|8,0:0|0:0,0:0:0:0:
198,133,69531,1,0,0:0:0:0:
260,193,69715,1,0,0:0:0:0:
320,131,69898,6,0,P|360:126|386:125,1,53.9999983520508,8|0,0:0|0:0,0:0:0:0:
456,94,70265,1,0,0:0:0:0:
456,94,70448,1,0,0:0:0:0:
433,19,70647,6,0,L|332:25,1,90,2|0,0:0|0:0,0:0:0:0:
324,13,71387,2,0,L|272:17,3,45
217,53,72128,2,0,B|188:35|188:35|206:3,2,67.5
273,98,72869,2,0,L|341:91,2,60
207,126,73609,5,2,0:0:0:0:
207,126,74350,2,0,L|259:130,3,45
315,165,75091,2,0,B|344:147|344:147|326:115,2,67.5
259,210,75832,2,0,L|188:202,2,60
325,238,76572,5,2,0:0:0:0:
325,238,77313,2,0,L|273:242,3,45
218,278,78054,2,0,B|189:260|189:260|207:228,2,67.5
274,323,78795,2,0,L|350:312,2,67.5
208,351,79535,5,2,0:0:0:0:
208,351,80276,2,0,L|159:348,1,45
106,303,80647,2,0,P|102:280|115:258,1,45
150,200,81017,2,0,P|159:164|166:134,2,60
67,149,81758,2,0,P|58:182|44:231,1,67.5
142,351,82401,6,0,P|201:337|279:326,1,125.999996154785,2|0,3:2|0:0,0:0:0:0:
335,254,82951,1,0,0:0:0:0:
399,330,83134,2,0,P|434:323|470:317,1,62.9999980773926,8|0,0:0|0:0,0:0:0:0:
481,218,83501,2,0,P|476:189|469:140,1,62.9999980773926,0|0,3:0|0:0,0:0:0:0:
372,129,83868,5,0,0:0:0:0:
445,59,84052,1,0,0:0:0:0:
356,10,84235,1,0,0:0:0:0:
286,83,84419,1,0,0:0:0:0:
286,83,84602,6,0,P|240:89|189:91,2,94.499997116089,8|0|0,0:0|0:0|0:0,0:0:0:0:
354,156,85336,2,0,P|357:213|357:286,1,125.999996154785,2|0,3:2|0:0,0:0:0:0:
268,331,85887,1,0,0:0:0:0:
268,331,86070,2,0,P|234:335|192:342,1,62.9999980773926,8|0,0:0|0:0,0:0:0:0:
109,357,86437,1,0,3:0:0:0:
109,357,86621,1,0,0:0:0:0:
42,281,86804,6,0,B|18:262|18:262|42:231,1,62.9999980773926,0|8,0:0|0:0,0:0:0:0:
137,218,87171,2,0,B|160:193|160:193|125:177,1,62.9999980773926
48,127,87538,6,0,P|55:176|60:241,2,94.499997116089,8|0|0,0:0|0:0|0:0,0:0:0:0:
94,37,88272,2,0,P|161:50|188:112,1,125.999996154785,2|0,3:2|0:0,0:0:0:0:
257,170,88823,1,0,0:0:0:0:
257,170,89006,2,0,P|290:172|331:176,1,62.9999980773926,8|0,0:0|0:0,0:0:0:0:
413,137,89373,2,0,P|416:106|420:73,1,62.9999980773926,0|0,3:0|0:0,0:0:0:0:
331,25,89740,6,0,L|230:46,1,94.499997116089
238,44,90107,1,0,0:0:0:0:
194,134,90290,1,0,0:0:0:0:
112,73,90474,2,0,L|44:65,1,62.9999980773926,8|0,0:0|0:0,0:0:0:0:
21,162,90841,2,0,P|15:193|12:227,1,62.9999980773926
69,312,91208,6,0,P|139:291|215:274,1,125.999996154785,2|0,3:2|0:0,0:0:0:0:
278,233,91758,2,0,P|298:273|298:331,1,94.499997116089,2|0,3:2|0:0,0:0:0:0:
299,322,92125,1,0,0:0:0:0:
386,269,92309,2,0,P|428:259|467:253,1,62.9999980773926,0|0,3:0|0:0,0:0:0:0:
474,158,92676,5,0,0:0:0:0:
378,127,92859,1,8,0:0:0:0:
466,77,93043,1,0,0:0:0:0:
370,46,93226,1,0,0:0:0:0:
298,52,93410,6,0,P|264:57|223:61,2,67.5
465,343,102522,6,0,P|398:328|318:317,1,128.249996575356,2|0,3:2|0:0,0:0:0:0:
296,327,102944,2,0,P|289:282|279:239,1,85.4999977169037
295,161,103367,1,8,0:0:0:0:
295,161,103578,1,0,0:0:0:0:
306,76,103789,1,0,0:0:0:0:
232,31,104000,6,0,B|186:24|186:24|147:55,1,85.4999977169037,0|0,3:0|0:0,0:0:0:0:
146,134,104423,1,0,0:0:0:0:
134,218,104634,6,0,B|88:224|88:224|57:199,1,85.4999977169037,0|0,3:0|0:0,0:0:0:0:
45,114,105057,1,8,0:0:0:0:
109,58,105268,1,0,0:0:0:0:
109,58,105374,1,0,0:0:0:0:
109,58,105479,2,0,P|149:44|191:38,1,85.4999977169037
272,9,105902,6,0,P|262:93|258:171,1,128.249996575356,2|0,3:2|0:0,0:0:0:0:
280,173,106324,2,0,P|331:166|383:162,1,85.4999977169037
453,179,106747,1,8,0:0:0:0:
453,179,106958,1,0,0:0:0:0:
438,263,107169,1,0,0:0:0:0:
354,283,107381,6,0,P|357:325|362:368,1,85.4999977169037,0|0,3:0|0:0,0:0:0:0:
277,382,107803,1,0,0:0:0:0:
197,352,108014,6,0,P|154:347|111:343,1,85.4999977169037,0|0,3:0|0:0,0:0:0:0:
40,296,108437,1,8,0:0:0:0:
102,238,108648,1,0,0:0:0:0:
102,238,108754,1,0,0:0:0:0:
102,238,108860,2,0,B|142:252|142:252|193:223,1,85.4999977169037
242,172,109282,6,0,P|232:100|228:32,1,128.249996575356,2|0,3:2|0:0,0:0:0:0:
253,9,109705,2,0,P|315:7|334:48,1,85.4999977169037
318,108,110127,1,8,0:0:0:0:
318,108,110338,1,0,0:0:0:0:
402,124,110550,1,0,0:0:0:0:
485,142,110761,6,0,B|498:189|498:189|455:236,1,85.4999977169037,0|0,3:0|0:0,0:0:0:0:
389,234,111183,1,0,0:0:0:0:
305,255,111395,6,0,B|292:302|292:302|316:329,1,85.4999977169037,0|0,3:0|0:0,0:0:0:0:
398,355,111817,1,8,0:0:0:0:
471,308,112029,1,0,0:0:0:0:
471,308,112134,1,0,0:0:0:0:
471,308,112240,2,0,P|473:246|491:195,1,85.4999977169037
397,196,112662,6,0,P|331:169|331:118,1,128.249996575356,2|0,3:2|0:0,0:0:0:0:
321,77,113085,2,0,B|284:52|284:52|225:72,1,85.4999977169037
225,150,113507,1,8,0:0:0:0:
225,150,113719,1,0,0:0:0:0:
151,107,113930,1,0,0:0:0:0:
89,165,114141,6,0,P|84:228|75:283,1,85.4999977169037,0|0,3:0|0:0,0:0:0:0:
64,334,114564,1,0,0:0:0:0:
152,348,114775,5,0,3:0:0:0:
152,348,114986,1,0,0:0:0:0:
244,367,115198,1,8,0:0:0:0:
244,367,115303,1,0,0:0:0:0:
244,367,115409,1,0,0:0:0:0:
313,316,115620,2,0,P|315:271|321:203,1,85.4999977169037
387,180,116043,6,0,B|446:209|446:209|493:158,1,128.249996575356,2|0,3:2|0:0,0:0:0:0:
494,120,116465,1,0,0:0:0:0:
494,120,116676,1,0,0:0:0:0:
439,53,116888,2,0,P|394:60|345:72,1,85.4999977169037,8|0,0:0|0:0,0:0:0:0:
274,96,117310,1,0,0:0:0:0:
238,18,117522,6,0,P|228:81|211:150,1,128.249996575356,8|0,3:2|0:0,0:0:0:0:
202,185,117944,1,0,0:0:0:0:
119,206,118155,6,0,P|133:268|143:331,1,128.249996575356,0|0,3:0|0:0,0:0:0:0:
137,374,118578,1,8,0:0:0:0:
229,371,118789,1,0,0:0:0:0:
229,371,118895,1,0,0:0:0:0:
229,371,119000,2,0,P|238:319|252:260,1,85.4999977169037
329,270,119423,6,0,P|397:246|392:189,1,128.249996575356,2|0,3:2|0:0,0:0:0:0:
372,164,119845,1,0,0:0:0:0:
372,164,120057,1,0,0:0:0:0:
407,86,120268,2,0,P|453:91|505:102,1,85.4999977169037,8|0,0:0|0:0,0:0:0:0:
511,182,120691,1,0,0:0:0:0:
473,258,120902,6,0,P|406:292|403:357,1,128.249996575356,8|0,3:2|0:0,0:0:0:0:
409,380,121324,1,0,0:0:0:0:
323,368,121536,6,0,P|251:360|175:353,1,128.249996575356,0|0,3:2|0:0,0:0:0:0:
152,356,121958,1,8,0:0:0:0:
99,301,122169,1,0,0:0:0:0:
99,301,122275,1,0,0:0:0:0:
99,301,122381,2,0,B|121:257|121:257|104:209,1,85.4999977169037
26,201,122803,6,0,P|11:137|76:109,1,128.249996575356,2|0,3:2|0:0,0:0:0:0:
97,119,123226,1,0,0:0:0:0:
97,119,123437,1,0,0:0:0:0:
165,67,123648,2,0,P|207:70|249:76,1,85.4999977169037,8|0,0:0|0:0,0:0:0:0:
310,136,124071,1,0,0:0:0:0:
252,199,124282,6,0,B|224:263|224:263|261:314,1,128.249996575356,8|0,3:2|0:0,0:0:0:0:
300,320,124705,1,0,0:0:0:0:
383,303,124916,6,0,P|391:209|401:164,1,128.249996575356,0|0,3:0|0:0,0:0:0:0:
411,135,125338,1,8,0:0:0:0:
501,162,125550,1,0,0:0:0:0:
501,162,125655,1,0,0:0:0:0:
501,162,125761,2,0,P|500:228|508:285,1,85.4999977169037
463,323,126183,6,0,P|399:312|356:375,1,128.249996575356,2|0,3:2|0:0,0:0:0:0:
319,362,126606,1,0,0:0:0:0:
319,362,126817,1,0,0:0:0:0:
237,336,127029,2,0,P|230:266|222:224,1,85.4999977169037,8|0,0:0|0:0,0:0:0:0:
142,241,127451,1,0,0:0:0:0:
200,177,127662,6,0,P|210:72|222:9,1,128.249996575356,8|0,3:2|0:0,0:0:0:0:
226,8,128085,1,0,0:0:0:0:
310,21,128296,6,0,B|355:96|355:96|286:176,1,170.999995433807,0|0,3:2|0:0,0:0:0:0:
36,377,129564,6,0,P|22:275|9:216,1,128.249996575356,2|0,3:2|0:0,0:0:0:0:
32,215,129986,1,0,0:0:0:0:
32,215,130092,1,0,0:0:0:0:
32,215,130198,1,0,0:0:0:0:
117,222,130409,2,0,P|167:227|236:240,1,85.4999977169037,8|0,0:0|0:0,0:0:0:0:
264,174,130831,1,0,0:0:0:0:
217,101,131043,6,0,B|204:59|204:59|239:17,1,85.4999977169037,8|0,3:2|0:0,0:0:0:0:
315,38,131465,1,0,0:0:0:0:
331,121,131676,6,0,B|373:134|373:134|404:107,1,85.4999977169037,0|0,3:2|0:0,0:0:0:0:
489,118,132099,1,8,0:0:0:0:
479,209,132310,1,0,0:0:0:0:
479,209,132416,1,0,0:0:0:0:
479,209,132522,2,0,P|480:273|484:315,1,85.4999977169037
415,347,132944,6,0,B|368:304|368:304|279:333,1,128.249996575356,2|0,3:2|0:0,0:0:0:0:
269,341,133367,1,0,0:0:0:0:
269,341,133578,1,0,0:0:0:0:
211,277,133789,2,0,P|219:213|219:176,1,85.4999977169037,8|0,0:0|0:0,0:0:0:0:
285,137,134212,1,0,0:0:0:0:
201,118,134423,6,0,P|193:54|193:17,1,85.4999977169037,8|0,3:2|0:0,0:0:0:0:
272,2,134845,1,0,0:0:0:0:
353,29,135057,6,0,B|376:71|376:71|357:109,1,85.4999977169037,0|0,3:0|0:0,0:0:0:0:
350,189,135479,1,8,0:0:0:0:
442,189,135691,1,0,0:0:0:0:
442,189,135796,1,0,0:0:0:0:
442,189,135902,2,0,P|446:259|450:295,1,85.4999977169037
362,284,136324,6,0,P|345:230|260:237,1,128.249996575356,2|0,3:2|0:0,0:0:0:0:
241,216,136747,1,0,0:0:0:0:
241,216,136958,1,0,0:0:0:0:
220,304,137169,1,8,0:0:0:0:
220,304,137275,1,0,0:0:0:0:
220,304,137381,1,0,0:0:0:0:
135,318,137592,1,0,0:0:0:0:
55,285,137803,6,0,P|46:215|32:181,1,85.4999977169037,8|0,3:2|0:0,0:0:0:0:
55,116,138226,1,0,0:0:0:0:
138,100,138437,6,0,P|208:91|242:77,1,85.4999977169037,0|0,3:2|0:0,0:0:0:0:
235,1,138860,1,8,0:0:0:0:
315,52,139071,1,0,0:0:0:0:
315,52,139176,1,0,0:0:0:0:
315,52,139282,2,0,P|393:63|422:70,1,85.4999977169037
473,20,139705,6,0,B|429:76|429:76|460:141,1,128.249996575356,2|0,3:2|0:0,0:0:0:0:
443,169,140127,1,0,0:0:0:0:
443,169,140338,1,0,0:0:0:0:
358,182,140550,2,0,P|354:249|348:288,1,85.4999977169037,8|0,0:0|0:0,0:0:0:0:
277,309,140972,1,0,0:0:0:0:
273,226,141183,6,0,P|277:183|279:140,1,85.4999977169037,8|0,3:2|0:0,0:0:0:0:
218,80,141606,1,0,0:0:0:0:
133,95,141817,5,0,3:0:0:0:
133,95,142029,1,0,0:0:0:0:
49,111,142240,1,8,0:0:0:0:
49,111,142345,1,0,0:0:0:0:
49,111,142451,1,0,0:0:0:0:
33,195,142662,1,0,0:0:0:0:
7,364,143085,6,0,P|20:297|134:298,1,170.999995433807,2|0,3:2|0:0,0:0:0:0:
173,336,143719,1,0,0:0:0:0:
243,287,143930,2,0,P|249:232|260:166,1,85.4999977169037,8|0,0:0|0:0,0:0:0:0:
338,192,144352,1,0,0:0:0:0:
422,176,144564,6,0,B|456:98|456:98|399:28,1,170.999995433807,8|0,3:2|0:0,0:0:0:0:
325,70,145198,6,0,B|299:127|299:127|342:179,1,128.249996575356,0|0,3:2|0:0,0:0:0:0:
330,220,145620,1,8,0:0:0:0:
262,268,145831,1,0,0:0:0:0:
262,268,145937,1,0,0:0:0:0:
262,268,146043,2,0,P|213:259|145:249,1,85.4999977169037
109,201,146465,6,0,P|146:132|57:81,1,170.999995433807,2|0,3:2|0:0,0:0:0:0:
3,94,147099,1,0,0:0:0:0:
19,177,147310,2,0,P|29:244|34:302,1,85.4999977169037,8|0,0:0|0:0,0:0:0:0:
35,347,147733,1,0,0:0:0:0:
118,362,147944,6,0,B|178:303|178:303|280:345,1,170.999995433807,8|0,3:2|0:0,0:0:0:0:
341,315,148578,6,0,B|387:267|387:267|361:204,1,128.249996575356,0|0,3:0|0:0,0:0:0:0:
365,167,149000,1,8,0:0:0:0:
455,153,149212,1,0,0:0:0:0:
455,153,149317,1,0,0:0:0:0:
455,153,149423,2,0,P|447:72|446:45,1,85.4999977169037
365,42,149845,6,0,P|375:137|375:205,1,128.249996575356,2|0,3:2|0:0,0:0:0:0:
372,216,150268,1,0,0:0:0:0:
372,216,150479,1,0,0:0:0:0:
286,226,150691,2,0,P|239:231|180:246,1,85.4999977169037,8|0,0:0|0:0,0:0:0:0:
132,188,151113,1,0,0:0:0:0:
194,129,151324,6,0,B|219:90|219:90|199:50,1,85.4999977169037,8|0,3:2|0:0,0:0:0:0:
116,43,151747,1,0,0:0:0:0:
39,81,151958,6,0,P|47:131|48:185,1,85.4999977169037,0|0,3:0|0:0,0:0:0:0:
10,242,152381,1,8,0:0:0:0:
70,315,152592,1,0,0:0:0:0:
70,315,152698,1,0,0:0:0:0:
70,315,152803,2,0,P|132:298|163:295,1,85.4999977169037
200,367,153226,6,0,P|209:247|219:210,1,128.249996575356,2|0,3:2|0:0,0:0:0:0:
229,203,153648,1,0,0:0:0:0:
229,203,153860,1,0,0:0:0:0:
303,244,154071,2,0,B|365:257|365:257|402:233,1,85.4999977169037,8|0,0:0|0:0,0:0:0:0:
457,202,154493,1,0,0:0:0:0:
402,136,154705,6,0,P|399:65|387:2,1,128.249996575356,8|0,3:2|0:0,0:0:0:0:
346,3,155127,1,0,0:0:0:0:
265,17,155338,5,0,3:0:0:0:
265,17,155550,1,0,0:0:0:0:
187,33,155761,1,8,0:0:0:0:
187,33,155867,1,0,0:0:0:0:
187,33,155972,1,0,0:0:0:0:
175,117,156183,2,0,P|164:192|159:240,1,85.4999977169037
110,269,156606,6,0,P|189:215|251:242,1,170.999995433807,2|0,3:2|0:0,0:0:0:0:
263,326,157240,1,0,0:0:0:0:
347,337,157451,2,0,P|393:344|436:353,1,85.4999977169037,8|0,0:0|0:0,0:0:0:0:
507,312,157874,1,0,0:0:0:0:
453,245,158085,6,0,B|419:187|419:187|457:129,1,128.249996575356,0|0,3:0|0:0,0:0:0:0:
456,93,158507,1,0,0:0:0:0:
370,99,158719,6,0,P|318:105|250:121,1,85.4999977169037,0|0,3:0|0:0,0:0:0:0:
208,73,159141,1,8,0:0:0:0:
262,9,159352,1,0,0:0:0:0:
262,9,159458,1,0,0:0:0:0:
262,9,159564,1,0,0:0:0:0:
345,24,159775,1,0,0:0:0:0:
354,108,159986,6,0,P|362:189|370:247,1,128.249996575356,2|0,3:2|0:0,0:0:0:0:
382,276,160409,1,0,0:0:0:0:
382,276,160620,1,0,0:0:0:0:
347,353,160831,2,0,P|285:346|240:340,1,85.4999977169037,8|0,0:0|0:0,0:0:0:0:
178,363,161254,1,0,0:0:0:0:
210,283,161465,6,0,B|237:225|237:225|198:166,1,128.249996575356,0|0,3:0|0:0,0:0:0:0:
159,161,161888,1,0,0:0:0:0:
74,146,162099,6,0,P|81:80|94:37,1,85.4999977169037,0|0,3:0|0:0,0:0:0:0:
5,31,162522,1,8,0:0:0:0:
97,28,162733,1,0,0:0:0:0:
97,28,162838,1,0,0:0:0:0:
97,28,162944,2,0,P|175:38|199:44,1,85.4999977169037
264,19,163367,6,0,P|250:92|241:209,1,170.999995433807,2|0,3:2|0:0,0:0:0:0:
317,226,164000,1,0,0:0:0:0:
392,184,164212,2,0,B|414:227|414:227|395:267,1,85.4999977169037,8|0,0:0|0:0,0:0:0:0:
414,344,164634,1,0,0:0:0:0:
498,332,164845,6,0,P|495:255|493:163,1,128.249996575356,0|0,3:0|0:0,0:0:0:0:
499,160,165268,1,0,0:0:0:0:
459,84,165479,6,0,B|420:106|420:106|376:90,1,85.4999977169037,0|0,3:0|0:0,0:0:0:0:
301,61,165902,1,8,0:0:0:0:
223,73,166113,1,0,0:0:0:0:
223,73,166219,1,0,0:0:0:0:
223,73,166324,2,0,P|230:153|229:188,1,85.4999977169037
220,243,166747,5,0,0:0:0:0:
61,59,170127,5,2,3:2:0:0:
61,59,170338,1,0,0:0:0:0:
145,73,170550,1,0,0:0:0:0:
154,157,170761,1,0,0:0:0:0:
77,194,170972,2,0,P|78:253|83:309,1,85.4999977169037,8|0,0:0|0:0,0:0:0:0:
102,362,171395,1,0,0:0:0:0:
180,329,171606,6,0,B|218:302|218:302|260:321,1,85.4999977169037,0|0,3:0|0:0,0:0:0:0:
332,350,172029,1,0,0:0:0:0:
394,291,172240,6,0,P|387:199|388:166,1,85.4999977169037,0|0,3:0|0:0,0:0:0:0:
428,131,172662,1,8,0:0:0:0:
361,94,172874,1,0,0:0:0:0:
361,94,172979,1,0,0:0:0:0:
361,94,173085,2,0,P|357:40|350:5,1,85.4999977169037
267,24,173507,6,0,B|221:68|221:68|154:32,1,128.249996575356,2|0,3:2|0:0,0:0:0:0:
125,48,173930,1,0,0:0:0:0:
125,48,174141,1,0,0:0:0:0:
133,133,174352,2,0,P|137:204|136:256,1,85.4999977169037,8|0,0:0|0:0,0:0:0:0:
82,284,174775,1,0,0:0:0:0:
16,229,174986,6,0,B|2:187|2:187|32:137,1,85.4999977169037,0|0,3:0|0:0,0:0:0:0:
108,142,175409,1,0,0:0:0:0:
192,131,175620,6,0,B|213:95|213:95|199:53,1,85.4999977169037,0|0,3:0|0:0,0:0:0:0:
114,41,176043,1,8,0:0:0:0:
201,20,176254,1,0,0:0:0:0:
201,20,176360,1,0,0:0:0:0:
201,20,176465,2,0,P|262:28|290:33,1,85.4999977169037
371,33,176888,6,0,P|359:117|297:109,1,128.249996575356,2|0,3:2|0:0,0:0:0:0:
293,112,177310,1,0,0:0:0:0:
293,112,177522,1,0,0:0:0:0:
249,185,177733,2,0,B|222:223|222:223|242:279,1,85.4999977169037,8|0,0:0|0:0,0:0:0:0:
261,340,178155,1,0,0:0:0:0:
343,315,178367,6,0,P|348:237|357:193,1,85.4999977169037,0|0,3:0|0:0,0:0:0:0:
433,215,178789,1,0,0:0:0:0:
495,273,179000,6,0,P|496:315|501:358,1,85.4999977169037,0|0,3:0|0:0,0:0:0:0:
417,379,179423,1,8,0:0:0:0:
341,365,179634,1,0,0:0:0:0:
341,365,179740,1,0,0:0:0:0:
341,365,179845,2,0,P|287:354|235:343,1,85.4999977169037
172,357,180268,6,0,P|176:288|111:259,1,128.249996575356,2|0,3:2|0:0,0:0:0:0:
93,271,180691,1,0,0:0:0:0:
93,271,180902,1,0,0:0:0:0:
40,203,181113,2,0,P|35:149|29:115,1,85.4999977169037,8|0,0:0|0:0,0:0:0:0:
66,40,181536,1,0,0:0:0:0:
146,12,181747,6,0,P|139:54|135:96,1,85.4999977169037,0|0,3:0|0:0,0:0:0:0:
209,138,182169,1,0,0:0:0:0:
275,82,182381,5,0,3:0:0:0:
275,82,182592,1,0,0:0:0:0:
367,98,182803,1,8,0:0:0:0:
367,98,182909,1,0,0:0:0:0:
367,98,183014,1,0,0:0:0:0:
451,110,183226,1,0,0:0:0:0:
311,366,187029,6,0,P|311:293|303:227,1,128.249996575356,2|0,3:2|0:0,0:0:0:0:
262,230,187451,1,0,0:0:0:0:
177,240,187662,1,0,0:0:0:0:
106,191,187874,2,0,P|99:124|94:102,1,85.4999977169037,8|0,0:0|0:0,0:0:0:0:
18,69,188296,1,0,0:0:0:0:
92,26,188507,6,0,B|158:48|158:48|210:10,1,128.249996575356,0|0,3:0|0:0,0:0:0:0:
248,17,188930,1,0,0:0:0:0:
255,102,189141,6,0,P|259:145|265:189,1,85.4999977169037,0|0,3:0|0:0,0:0:0:0:
337,232,189564,1,8,0:0:0:0:
399,174,189775,1,0,0:0:0:0:
399,174,189881,1,0,0:0:0:0:
399,174,189986,2,0,P|389:118|389:86,1,85.4999977169037
317,42,190409,6,0,P|223:51|221:142,1,170.999995433807,2|0,3:2|0:0,0:0:0:0:
195,198,191043,1,0,0:0:0:0:
112,219,191254,2,0,P|122:275|126:324,1,85.4999977169037,8|0,0:0|0:0,0:0:0:0:
94,383,191676,1,0,0:0:0:0:
37,318,191888,6,0,B|12:281|12:281|30:234,1,85.4999977169037,0|0,3:0|0:0,0:0:0:0:
112,219,192310,1,0,0:0:0:0:
195,198,192522,6,0,B|220:161|220:161|202:114,1,85.4999977169037,0|0,3:0|0:0,0:0:0:0:
218,38,192944,1,8,0:0:0:0:
309,34,193155,1,0,0:0:0:0:
309,34,193261,1,0,0:0:0:0:
309,34,193367,1,0,0:0:0:0:
478,12,193789,6,0,P|467:132|465:205,1,170.999995433807,2|0,3:2|0:0,0:0:0:0:
401,239,194423,1,0,0:0:0:0:
333,186,194634,2,0,B|289:176|289:176|252:200,1,85.4999977169037,8|0,0:0|0:0,0:0:0:0:
244,283,195057,1,0,0:0:0:0:
159,297,195268,6,0,P|156:211|149:179,1,85.4999977169037,0|0,3:0|0:0,0:0:0:0:
79,174,195691,1,0,0:0:0:0:
98,93,195902,5,0,3:0:0:0:
98,93,196113,1,0,0:0:0:0:
190,94,196324,1,8,0:0:0:0:
190,94,196430,1,0,0:0:0:0:
190,94,196536,1,0,0:0:0:0:
225,171,196747,2,0,P|228:239|233:281,1,85.4999977169037
273,329,197169,6,0,B|336:357|336:357|405:307,1,128.249996575356,2|0,3:2|0:0,0:0:0:0:
426,328,197592,1,0,0:0:0:0:
481,263,197803,1,0,0:0:0:0:
420,203,198014,2,0,P|413:132|414:94,1,85.4999977169037,8|0,0:0|0:0,0:0:0:0:
471,55,198437,1,0,0:0:0:0:
386,45,198648,6,0,P|316:47|248:56,1,128.249996575356,0|0,3:0|0:0,0:0:0:0:
217,69,199071,1,0,0:0:0:0:
141,29,199282,6,0,P|138:98|129:166,1,128.249996575356,0|0,3:0|0:0,0:0:0:0:
117,198,199705,1,8,0:0:0:0:
40,219,199916,1,0,0:0:0:0:
40,219,200022,1,0,0:0:0:0:
40,219,200127,1,0,0:0:0:0:
24,302,200338,1,0,0:0:0:0:
97,346,200550,6,0,P|133:279|220:283,1,170.999995433807,2|0,3:2|0:0,0:0:0:0:
277,346,201183,1,0,0:0:0:0:
346,295,201395,2,0,B|366:255|366:255|337:218,1,85.4999977169037,8|0,0:0|0:0,0:0:0:0:
256,208,201817,1,0,0:0:0:0:
171,193,202029,6,0,B|142:135|142:135|183:82,1,128.249996575356,0|0,3:0|0:0,0:0:0:0:
181,42,202451,1,0,0:0:0:0:
261,71,202662,6,0,B|318:99|318:99|368:60,1,128.249996575356,0|0,3:0|0:0,0:0:0:0:
411,67,203085,1,8,0:0:0:0:
458,149,203296,1,0,0:0:0:0:
458,149,203402,1,0,0:0:0:0:
458,149,203507,1,0,0:0:0:0:
391,202,203719,1,0,0:0:0:0:
306,190,203930,6,0,P|322:278|326:345,1,128.249996575356,2|0,3:2|0:0,0:0:0:0:
315,358,204352,1,0,0:0:0:0:
229,349,204564,1,0,0:0:0:0:
205,266,204775,2,0,B|160:251|160:251|107:289,1,85.4999977169037,8|0,0:0|0:0,0:0:0:0:
44,256,205198,1,0,0:0:0:0:
69,174,205409,6,0,B|114:189|114:189|191:140,1,128.249996575356,0|0,3:0|0:0,0:0:0:0:
191,103,205831,1,0,0:0:0:0:
276,91,206043,6,0,P|281:153|288:197,1,85.4999977169037,0|0,3:0|0:0,0:0:0:0:
359,217,206465,1,8,0:0:0:0:
428,165,206676,1,0,0:0:0:0:
428,165,206782,1,0,0:0:0:0:
428,165,206888,1,0,0:0:0:0:
362,119,207099,1,0,0:0:0:0:
362,119,207310,5,0,0:0:0:0:
185,340,210691,5,2,3:2:0:0:
185,340,210902,1,0,0:0:0:0:
199,255,211113,1,0,0:0:0:0:
283,246,211324,1,0,0:0:0:0:
336,178,211536,2,0,P|328:116|325:64,1,85.4999977169037,8|0,0:0|0:0,0:0:0:0:
342,9,211958,1,0,0:0:0:0:
262,39,212169,6,0,B|204:72|204:72|143:14,1,128.249996575356,0|0,3:0|0:0,0:0:0:0:
116,25,212592,1,0,0:0:0:0:
41,66,212803,6,0,P|48:138|52:208,1,128.249996575356,0|0,3:0|0:0,0:0:0:0:
51,237,213226,1,8,0:0:0:0:
137,211,213437,1,0,0:0:0:0:
137,211,213543,1,0,0:0:0:0:
137,211,213648,2,0,P|196:203|246:198,1,85.4999977169037
251,280,214071,6,0,B|304:321|304:321|391:280,1,128.249996575356,2|0,3:2|0:0,0:0:0:0:
402,298,214493,1,0,0:0:0:0:
467,243,214705,1,0,0:0:0:0:
412,176,214916,2,0,P|416:124|423:59,1,85.4999977169037,8|0,0:0|0:0,0:0:0:0:
503,74,215338,1,0,0:0:0:0:
494,159,215550,6,0,P|487:223|482:287,1,128.249996575356,0|0,3:0|0:0,0:0:0:0:
484,329,215972,1,0,0:0:0:0:
401,350,216183,6,0,P|394:285|389:221,1,128.249996575356,0|0,3:0|0:0,0:0:0:0:
391,180,216605,1,8,0:0:0:0:
315,164,216817,1,0,0:0:0:0:
315,164,216923,1,0,0:0:0:0:
315,164,217029,2,0,P|253:153|197:144,1,85.4999977169037
191,225,217451,6,0,P|170:293|108:282,1,128.249996575356,2|0,3:2|0:0,0:0:0:0:
81,278,217874,1,0,0:0:0:0:
15,223,218085,1,0,0:0:0:0:
68,156,218296,2,0,P|62:102|53:69,1,85.4999977169037,8|0,0:0|0:0,0:0:0:0:
109,6,218719,1,0,0:0:0:0:
167,68,218930,6,0,B|224:109|224:109|281:81,1,128.249996575356,0|0,3:0|0:0,0:0:0:0:
314,64,219352,1,0,0:0:0:0:
352,140,219564,2,0,P|341:208|328:300,1,128.249996575356,0|0,3:0|0:0,0:0:0:0:
335,309,219986,1,8,0:0:0:0:
422,286,220198,1,0,0:0:0:0:
422,286,220303,1,0,0:0:0:0:
422,286,220409,2,0,P|432:210|441:181,1,85.4999977169037
482,131,220831,6,0,P|426:100|432:38,1,128.249996575356,2|0,3:2|0:0,0:0:0:0:
388,26,221254,1,0,0:0:0:0:
303,41,221465,1,0,0:0:0:0:
295,126,221676,2,0,P|290:185|283:232,1,85.4999977169037,8|0,0:0|0:0,0:0:0:0:
267,294,222099,1,0,0:0:0:0:
200,240,222310,6,0,P|193:146|181:53,1,170.999995433807,0|0,3:0|0:0,0:0:0:0:
102,63,222944,5,0,3:0:0:0:
102,63,223155,1,0,0:0:0:0:
94,154,223367,1,8,0:0:0:0:
94,154,223472,1,0,0:0:0:0:
94,154,223578,1,0,0:0:0:0:
83,241,223789,1,0,0:0:0:0:
83,241,224000,1,0,0:0:0:0:
1,268,224212,5,6,3:2:0:0:
256,192,224634,12,0,230972,0:0:0:0:
