osu file format v14

[General]
AudioFilename: audio.mp3
AudioLeadIn: 0
PreviewTime: 34611
Countdown: 0
SampleSet: Soft
StackLeniency: 0.7
Mode: 0
LetterboxInBreaks: 0
WidescreenStoryboard: 1

[Editor]
DistanceSpacing: 1.2
BeatDivisor: 4
GridSize: 4
TimelineZoom: 1

[Metadata]
Title:Comin Out Strong (feat. The Weeknd)
TitleUnicode:Comin Out Strong (feat. The Weeknd)
Artist:Future
ArtistUnicode:Future
Creator:Archie
Version:Strong
Source:
Tags:
BeatmapID:1251711
BeatmapSetID:591225

[Difficulty]
HPDrainRate:7
CircleSize:4
OverallDifficulty:8
ApproachRate:10
SliderMultiplier:3
SliderTickRate:1

[Events]
//Background and Video events
0,0,"a3334b3b040c2c12cf716402693c55af.1000x1000x1.jpg",0,0
//Break Periods
//Storyboard Layer 0 (Background)
//Storyboard Layer 1 (Fail)
//Storyboard Layer 2 (Pass)
//Storyboard Layer 3 (Foreground)
//Storyboard Sound Samples

[TimingPoints]
10,736.196319018405,4,2,0,70,1,0
35347,-66.6666666666667,4,2,0,100,0,1
58721,-66.6666666666667,4,2,0,100,0,0
70684,-66.6666666666667,4,2,0,100,0,1
82279,-66.6666666666667,4,2,0,100,0,0
106022,-66.6666666666667,4,2,0,100,0,1
129396,-66.6666666666667,4,2,0,100,0,0
141359,-66.6666666666667,4,2,0,100,0,1
152954,-66.6666666666667,4,2,0,100,0,0
176697,-66.6666666666667,4,2,0,100,0,1
200071,-66.6666666666667,4,2,0,100,0,0
212034,-66.6666666666667,4,2,0,100,0,1
223813,-50,4,2,0,100,0,1
247187,-50,4,2,0,100,0,0

[Colours]
Combo1 : 255,255,255
Combo2 : 192,192,192
Combo3 : 60,60,60

[HitObjects]
32,40,10,6,0,B|100:84|156:148|68:420|100:420|140:436|216:52|244:52|280:64|240:452|280:420|316:424|476:40,1,900
480,36,2586,2,0,B|464:116|424:364|340:356|268:348|136:348|116:316|288:204|400:36|376:0|296:0|236:28|152:92|124:172|48:320,1,1050
188,212,5347,1,0,0:0:0:0:
88,88,5531,1,0,0:0:0:0:
348,196,5715,1,0,0:0:0:0:
140,52,5899,6,0,B|360:16|488:76|488:256|424:344|328:364|184:376|56:216,1,825
240,228,8108,1,0,0:0:0:0:
296,140,8292,1,0,0:0:0:0:
388,216,8476,2,0,B|432:256|368:380|240:388|88:348|40:192|184:136|212:112|292:48|112:56|60:120|48:304,1,750
60,324,11052,5,0,0:0:0:0:
96,172,11236,1,0,0:0:0:0:
192,88,11421,1,0,0:0:0:0:
320,56,11605,1,0,0:0:0:0:
272,152,11789,2,0,P|268:184|208:220,1,75
172,344,12157,1,0,0:0:0:0:
368,260,12525,1,0,0:0:0:0:
416,40,12893,2,0,L|372:136,1,75
228,120,13261,1,0,0:0:0:0:
64,132,13629,2,0,P|48:148|48:260,1,75
400,336,14181,5,0,0:0:0:0:
344,244,14365,1,0,0:0:0:0:
440,252,14549,2,0,P|452:216|412:148,1,75
296,76,15102,1,0,0:0:0:0:
208,232,15286,1,0,0:0:0:0:
168,128,15470,1,0,0:0:0:0:
60,212,15654,1,0,0:0:0:0:
40,116,15838,2,0,L|112:48,1,75
180,36,16206,2,0,P|220:36|328:92,1,150
168,248,17126,5,0,0:0:0:0:
192,344,17310,2,0,P|264:332|328:256,1,150
208,172,18046,1,0,0:0:0:0:
348,72,18230,1,0,0:0:0:0:
416,288,18414,1,0,0:0:0:0:
320,172,18598,1,0,0:0:0:0:
472,76,18783,1,0,0:0:0:0:
208,336,18967,1,0,0:0:0:0:
140,232,19151,2,0,P|124:192|192:96,1,150
440,52,20071,6,0,P|424:84|408:152,1,75
400,252,20439,1,0,0:0:0:0:
304,172,20623,2,0,P|288:152|164:96,1,150
80,176,21175,1,0,0:0:0:0:
88,60,21359,1,0,0:0:0:0:
200,264,21543,1,0,0:0:0:0:
68,328,21727,1,0,0:0:0:0:
212,132,21911,1,0,0:0:0:0:
52,184,22095,2,0,P|60:136|132:60,1,150
248,64,22832,1,0,0:0:0:0:
376,324,23200,6,0,P|328:336|272:296,1,75
300,248,23568,2,0,P|276:240|192:256,1,75
204,328,23936,2,0,P|152:308|128:268,1,75
124,196,24304,1,0,0:0:0:0:
232,44,24672,2,0,P|268:68|292:112,1,75
200,136,25040,2,0,P|216:160|288:188,1,75
332,152,25408,2,0,P|360:184|376:272,1,75
96,340,26144,5,0,0:0:0:0:
172,232,26329,1,0,0:0:0:0:
48,192,26513,2,0,P|36:148|84:104,1,75
136,72,26881,1,0,0:0:0:0:
72,292,27065,1,0,0:0:0:0:
232,260,27249,2,0,P|288:236|304:188,1,75
320,116,27617,1,0,0:0:0:0:
400,44,27801,1,0,0:0:0:0:
432,176,27985,2,0,P|452:200|428:264,1,75
368,264,28353,2,0,P|352:300|288:320,1,75
208,280,28721,1,0,0:0:0:0:
48,40,29089,6,0,P|36:72|56:136,1,75
288,64,29457,1,0,0:0:0:0:
172,232,29641,1,0,0:0:0:0:
148,64,29825,1,0,0:0:0:0:
340,276,30010,1,0,0:0:0:0:
400,160,30194,2,0,P|412:128|332:68,1,150
156,276,30746,1,0,0:0:0:0:
100,56,30930,2,0,P|140:72|192:128,1,75
312,328,31298,2,0,P|352:312|336:204,1,150
196,192,31850,5,0,0:0:0:0:
64,324,32034,1,0,0:0:0:0:
80,80,32402,2,0,L|72:172,1,75
352,308,32770,1,0,0:0:0:0:
256,60,32954,1,0,0:0:0:0:
164,304,33138,1,0,0:0:0:0:
412,152,33322,1,0,0:0:0:0:
112,148,33506,1,0,0:0:0:0:
256,192,33690,1,0,0:0:0:0:
244,336,33875,2,0,P|288:340|336:296,1,75
424,240,34243,2,0,P|448:196|428:152,1,75
144,320,34795,1,0,0:0:0:0:
216,244,34979,1,0,0:0:0:0:
72,192,35163,1,0,0:0:0:0:
152,104,35347,5,0,0:0:0:0:
184,112,35439,1,0,0:0:0:0:
220,124,35531,1,0,0:0:0:0:
248,136,35623,1,0,0:0:0:0:
272,148,35715,2,0,P|312:172|284:296,1,187.500007152558
72,232,36451,1,0,0:0:0:0:
160,56,36635,1,0,0:0:0:0:
128,340,36819,1,0,0:0:0:0:
228,148,37003,1,0,0:0:0:0:
56,92,37187,1,0,0:0:0:0:
240,344,37371,1,0,0:0:0:0:
388,72,37556,1,0,0:0:0:0:
232,44,37924,6,0,P|200:40|124:116,1,93.7500035762788
460,44,38292,1,0,0:0:0:0:
304,192,38476,1,0,0:0:0:0:
416,304,38660,2,0,P|440:264|412:164,2,93.7500035762788
204,232,39396,1,0,0:0:0:0:
76,72,39580,1,0,0:0:0:0:
76,308,39764,1,0,0:0:0:0:
256,60,39948,1,0,0:0:0:0:
36,220,40132,1,0,0:0:0:0:
264,176,40316,2,0,P|292:160|352:248,1,93.7500035762788
56,324,40868,6,0,P|104:348|184:300,1,93.7500035762788
96,240,41236,1,0,0:0:0:0:
124,132,41421,1,0,0:0:0:0:
196,40,41605,2,0,P|252:28|344:60,1,93.7500035762788
252,160,41973,2,0,P|224:184|196:264,1,93.7500035762788
312,340,42341,2,0,P|332:316|404:260,1,93.7500035762788
356,184,42709,1,0,0:0:0:0:
248,64,42893,1,0,0:0:0:0:
156,224,43077,1,0,0:0:0:0:
80,72,43261,1,0,0:0:0:0:
48,344,43629,6,0,L|176:320,1,93.7500035762788
260,260,43997,1,0,0:0:0:0:
280,52,44181,2,0,P|260:48|112:136,1,187.500007152558
256,340,44917,2,0,P|360:328|456:216,1,187.500007152558
400,152,45470,1,0,0:0:0:0:
284,96,45654,1,0,0:0:0:0:
272,228,45838,1,0,0:0:0:0:
148,272,46022,1,0,0:0:0:0:
40,208,46206,1,0,0:0:0:0:
432,48,46574,6,0,P|456:96|440:200,1,93.7500035762788
420,240,46942,1,0,0:0:0:0:
188,104,47126,1,0,0:0:0:0:
104,296,47310,1,0,0:0:0:0:
320,104,47494,1,0,0:0:0:0:
444,340,47862,1,0,0:0:0:0:
136,204,48046,1,0,0:0:0:0:
272,60,48230,2,0,P|272:100|352:260,1,187.500007152558
132,320,48783,1,0,0:0:0:0:
344,140,48967,1,0,0:0:0:0:
124,112,49151,1,0,0:0:0:0:
124,256,49703,6,0,L|264:256,2,112.500004291535
68,168,50255,1,0,0:0:0:0:
196,44,50623,2,0,P|236:44|384:156,1,225.000008583069
296,316,51175,1,0,0:0:0:0:
128,300,51359,1,0,0:0:0:0:
212,228,51543,2,0,P|248:212|384:256,2,112.500004291535
76,132,52279,1,0,0:0:0:0:
384,68,52648,5,0,0:0:0:0:
412,200,52832,1,0,0:0:0:0:
348,320,53016,2,0,P|288:328|128:252,1,225.000008583069
208,48,53752,2,0,P|272:40|420:144,1,225.000008583069
256,288,54304,1,0,0:0:0:0:
96,128,54488,1,0,0:0:0:0:
328,48,54672,1,0,0:0:0:0:
96,296,54856,1,0,0:0:0:0:
412,192,55040,1,0,0:0:0:0:
152,48,55592,6,0,P|120:48|64:176,1,112.500004291535
44,192,55960,1,0,0:0:0:0:
96,304,56329,2,0,B|140:328|160:176|232:368|268:376|332:268,1,225.000008583069
360,200,57065,1,0,0:0:0:0:
208,224,57249,1,0,0:0:0:0:
92,196,57433,1,0,0:0:0:0:
72,88,57617,1,0,0:0:0:0:
144,36,57801,2,0,B|192:48|128:244|152:276|320:40|392:72|336:256,1,337.500012874604
256,192,58721,12,0,61114,0:0:0:0:
