osu file format v14

[General]
AudioFilename: audio.mp3
AudioLeadIn: 0
PreviewTime: 40478
Countdown: 0
SampleSet: Soft
StackLeniency: 0.5
Mode: 0
LetterboxInBreaks: 0
WidescreenStoryboard: 1

[Editor]
DistanceSpacing: 2.5
BeatDivisor: 6
GridSize: 32
TimelineZoom: 0.8999999

[Metadata]
Title:Fukashigi no Karte (TV Size)
TitleUnicode:不可思議のカルテ (TV Size)
Artist:Futaba Rio (CV: Tanezaki Atsumi)
ArtistUnicode:双葉 理央 (CV: 種﨑 敦美)
Creator:zhu
Version:Hard
Source:青春ブタ野郎はバニーガール先輩の夢を見ない
Tags:Anime Japanese Seishun Buta Yarō Yarou wa Yumemiru Shōjo Shoujo no Yume o Minai ao-buta aobuta Puberty Syndrome: Abnormal experiences during adolescence due to sensitivity and instability. Rascal Does Not Dream of Bunny Girl Senpai 桜島麻衣 瀬戸麻沙美 古賀朋絵 東山奈央 双葉理央 種﨑敦美 豊浜のどか 内田真礼 梓川かえで 久保ユリカ 牧之原翔子 水瀬いのり Sakurajima Mai Seto Asami Koga Tomoe Touyama Toyama Nao Futaba Rio Tanezaki Atsumi Toyohama Nodoka Uchida Maaya Azusagawa Kaede Kubo Yurika Makinohara Shouko Shoko Minase Inori ending mysterious patient chart carte karute
BeatmapID:1849215
BeatmapSetID:878352

[Difficulty]
HPDrainRate:4
CircleSize:3.5
OverallDifficulty:5
ApproachRate:6.7
SliderMultiplier:1.3
SliderTickRate:1

[Events]
//Background and Video events
0,0,"bg.jpg",0,0
Video,417,"video.flv"
//Break Periods
//Storyboard Layer 0 (Background)
//Storyboard Layer 1 (Fail)
//Storyboard Layer 2 (Pass)
//Storyboard Layer 3 (Foreground)
//Storyboard Layer 4 (Overlay)
//Storyboard Sound Samples

[TimingPoints]
504,625,4,2,1,30,1,0
504,-133.333333333333,4,2,1,30,0,0
1129,625,4,2,1,30,1,0
1129,-133.333333333333,4,2,1,30,0,0
6129,618.556701030928,4,2,1,30,1,0
6129,-133.333333333333,4,2,1,30,0,0
8603,628.272251308901,4,2,1,30,1,0
8603,-133.333333333333,4,2,1,30,0,0
12372,618.556701030928,4,2,1,30,1,0
12372,-133.333333333333,4,2,1,30,0,0
13609,625,4,2,1,30,1,0
13609,-133.333333333333,4,2,1,30,0,0
20484,618.556701030928,4,2,1,30,1,0
21103,625,4,2,1,40,1,0
36103,-100,4,2,1,50,0,0
41103,-90.9090909090909,4,2,1,60,0,1
58603,-100,4,2,1,35,0,0

[Colours]
Combo1 : 255,128,64
Combo2 : 192,192,192
Combo3 : 128,128,128
Combo4 : 255,200,0

[HitObjects]
165,89,504,6,0,L|161:121,1,32.5000012397767,2|2,0:0|0:0,0:0:0:0:
137,203,920,1,2,0:0:0:0:
137,203,1129,2,0,P|168:194|199:202,1,65.0000024795533,2|0,0:0|0:0,0:0:0:0:
291,171,1754,5,2,0:0:0:0:
291,171,1962,1,2,0:0:0:0:
291,171,2170,1,2,0:0:0:0:
291,171,2379,2,0,L|294:247,1,65.0000024795533,2|0,0:0|0:0,0:0:0:0:
364,345,3004,37,2,0:0:0:0:
364,344,3212,2,0,P|379:339|395:338,1,32.5000012397767,2|2,0:0|0:0,0:0:0:0:
488,368,3629,2,0,L|491:270,2,97.50000371933,2|2|0,0:0|0:0|0:0,0:0:0:0:
254,368,5504,6,0,L|256:336,1,32.5000012397767,2|2,0:0|0:0,0:0:0:0:
183,292,5920,1,2,0:0:0:0:
183,292,6129,2,0,P|188:260|181:228,1,65.0000024795533,2|0,0:0|0:0,0:0:0:0:
84,200,6747,37,2,0:0:0:0:
84,200,6953,2,0,L|42:190,1,32.5000012397767,2|2,0:0|0:0,0:0:0:0:
9,105,7366,2,0,P|3:73|10:41,1,65.0000024795533,2|0,0:0|0:0,0:0:0:0:
115,22,7984,2,0,P|120:53|113:85,1,65.0000024795533,2|0,0:0|0:0,0:0:0:0:
203,101,8603,2,0,B|295:60|295:132|393:94,1,195.00000743866,2|0,0:0|0:0,0:0:0:0:
465,181,10487,5,2,0:0:0:0:
465,181,10697,2,0,L|467:219,1,32.5000012397767,2|2,0:0|0:0,0:0:0:0:
477,312,11116,2,0,B|448:304|448:304|413:311,1,65.0000024795533,2|0,0:0|0:0,0:0:0:0:
338,248,11744,2,0,B|303:255|303:255|274:247,1,65.0000024795533,2|0,0:0|0:0,0:0:0:0:
218,328,12372,2,0,B|173:315|173:315|121:326,1,97.50000371933,2|2,0:0|0:0,0:0:0:0:
46,61,13609,37,2,0:0:0:0:
46,61,14234,1,2,0:0:0:0:
46,61,14859,1,2,0:0:0:0:
338,61,15484,5,2,0:0:0:0:
338,61,15692,1,2,0:0:0:0:
338,61,15900,1,2,0:0:0:0:
338,61,16109,2,0,P|323:97|322:133,1,65.0000024795533,2|0,0:0|0:0,0:0:0:0:
333,219,16734,38,0,L|294:226,1,32.5000012397767,2|2,0:0|0:0,0:0:0:0:
203,219,17150,1,2,0:0:0:0:
203,219,17359,2,0,P|202:166|175:120,2,97.50000371933,2|2|2,0:0|0:0|0:0,0:0:0:0:
255,177,20484,5,8,0:3:0:0:
255,177,20793,1,4,0:3:0:0:
255,177,21103,38,0,L|127:150,1,130,4|8,0:3|0:0,0:0:0:0:
38,74,22040,1,2,0:0:0:0:
12,188,22353,2,0,P|-1:217|0:249,1,65,4|2,0:3|0:0,0:0:0:0:
87,326,22978,2,0,P|100:296|99:264,1,65,8|2,0:0|0:0,0:0:0:0:
129,151,23603,6,0,P|134:103|162:146,1,130,4|8,0:3|0:0,0:0:0:0:
219,247,24540,1,2,0:0:0:0:
330,211,24853,2,0,P|330:243|342:274,1,65,4|2,0:3|0:0,0:0:0:0:
445,219,25478,2,0,L|441:154,1,65,8|2,0:0|0:0,0:0:0:0:
357,72,26103,38,0,P|296:91|234:73,1,130,4|8,0:3|0:0,0:0:0:0:
119,57,27040,1,2,0:0:0:0:
35,138,27353,2,0,L|29:219,1,65,4|2,0:3|0:0,0:0:0:0:
82,307,27978,1,8,0:0:0:0:
82,307,28290,1,2,0:0:0:0:
177,239,28603,6,0,P|208:233|238:246,1,65,4|2,0:3|0:0,0:0:0:0:
308,339,29228,1,8,0:0:0:0:
308,339,29540,1,2,0:0:0:0:
351,230,29853,2,0,L|363:166,1,65,4|2,0:3|0:0,0:0:0:0:
475,198,30478,2,0,L|487:134,1,65,8|2,0:0|0:0,0:0:0:0:
398,57,31103,38,0,B|356:31|356:31|276:43,1,130,4|8,0:3|0:0,0:0:0:0:
174,101,32040,1,2,0:0:0:0:
268,170,32353,2,0,L|264:249,1,65,4|2,0:3|0:0,0:0:0:0:
209,338,32978,2,0,P|180:322|148:317,1,65,8|2,0:0|0:0,0:0:0:0:
34,346,33603,6,0,P|70:293|71:229,1,130,4|8,0:3|0:0,0:0:0:0:
0,136,34540,1,2,0:0:0:0:
116,151,34853,2,0,L|180:132,1,65,4|2,0:3|0:0,0:0:0:0:
291,103,35478,1,8,0:0:0:0:
263,196,35790,1,2,0:0:0:0:
359,181,36103,38,0,P|341:221|347:263,1,86.6666666666667,4|0,0:3|0:0,0:0:0:0:
380,334,36728,2,0,P|354:299|315:283,1,86.6666666666667,8|0,0:0|0:0,0:0:0:0:
237,276,37353,2,0,P|279:271|313:245,1,86.6666666666667,4|0,0:3|0:0,0:0:0:0:
359,181,37978,2,0,P|341:221|347:263,1,86.6666666666667,8|0,0:0|0:0,0:0:0:0:
380,334,38603,5,6,0:0:0:0:
318,353,40478,5,2,0:0:0:0:
302,245,40686,1,2,0:0:0:0:
333,348,40894,1,2,0:0:0:0:
281,240,41103,2,0,L|275:144,1,95.3333362426759,4|0,0:3|0:0,0:0:0:0:
189,61,41728,6,0,P|162:75|145:100,1,47.6666681213379,10|2,0:0|0:0,0:0:0:0:
157,207,42144,1,2,0:0:0:0:
71,290,42353,2,0,L|165:300,1,95.3333362426759,4|0,0:3|0:0,0:0:0:0:
276,255,42978,37,10,0:0:0:0:
357,341,43186,2,0,P|380:340|403:346,1,47.6666681213379,2|2,0:0|0:0,0:0:0:0:
485,258,43603,2,0,P|523:202|496:116,2,143.000004364014,4|8|4,0:3|0:0|0:3,0:0:0:0:
357,132,45165,1,2,0:0:0:0:
357,317,45478,5,10,0:0:0:0:
241,275,45686,1,2,0:0:0:0:
356,302,45894,1,2,0:0:0:0:
239,259,46103,2,0,P|225:213|231:166,1,95.3333362426759,4|0,0:3|0:0,0:0:0:0:
189,54,46728,37,10,0:0:0:0:
86,115,46936,2,0,L|77:165,1,47.6666681213379,2|2,0:0|0:0,0:0:0:0:
138,264,47353,2,0,L|121:357,1,95.3333362426759,4|0,0:3|0:0,0:0:0:0:
237,336,47978,2,0,P|283:323|328:336,1,95.3333362426759,8|0,0:0|0:0,0:0:0:0:
447,346,48603,6,0,B|433:299|433:299|450:256|450:256|441:208,1,143.000004364014,4|8,0:3|0:0,0:0:0:0:
396,36,49540,1,2,0:0:0:0:
269,162,49853,2,0,L|186:140,1,71.5000021820069,4|2,0:3|0:0,0:0:0:0:
78,32,50478,37,10,0:0:0:0:
79,150,50686,1,2,0:0:0:0:
52,33,50894,1,2,0:0:0:0:
99,142,51103,2,0,B|97:241,1,95.3333362426759,4|0,0:3|0:0,0:0:0:0:
19,329,51728,2,0,P|65:318|111:329,1,95.3333362426759,8|0,0:0|0:0,0:0:0:0:
222,372,52353,2,0,B|224:273,1,95.3333362426759,4|0,0:3|0:0,0:0:0:0:
245,159,52978,2,0,P|199:170|153:158,1,95.3333362426759,8|0,0:0|0:0,0:0:0:0:
63,83,53603,5,4,0:3:0:0:
63,83,54228,1,8,0:0:0:0:
63,83,54853,1,4,0:3:0:0:
415,145,55478,37,10,0:0:0:0:
336,56,55686,1,2,0:0:0:0:
433,125,55894,1,2,0:0:0:0:
319,89,56103,2,0,P|330:134|314:179,1,95.3333362426759,4|0,0:3|0:0,0:0:0:0:
201,138,56728,5,10,0:0:0:0:
212,256,56936,1,2,0:0:0:0:
172,144,57144,1,2,0:0:0:0:
184,263,57353,2,0,B|138:251|138:251|91:259,1,95.3333362426759,4|0,0:3|0:0,0:0:0:0:
8,345,57978,2,0,B|20:299|20:299|12:251,1,95.3333362426759,8|0,0:0|0:0,0:0:0:0:
8,143,58603,5,4,0:0:0:0:
