osu file format v14

[General]
AudioFilename: audio.mp3
AudioLeadIn: 0
PreviewTime: 40493
Countdown: 0
SampleSet: Soft
StackLeniency: 0.7
Mode: 0
LetterboxInBreaks: 0
WidescreenStoryboard: 1

[Editor]
DistanceSpacing: 1.4
BeatDivisor: 6
GridSize: 32
TimelineZoom: 3.100009

[Metadata]
Title:Fukashigi no Karte (TV Size)
TitleUnicode:不可思議のカルテ (TV Size)
Artist:Futaba Rio (CV: Tanezaki Atsumi)
ArtistUnicode:双葉理央 (CV: 種﨑敦美)
Creator:jiebi
Version:Nyantiaz's Easy
Source:青春ブタ野郎はバニーガール先輩の夢を見ない
Tags:pop j-pop jpop Anime Japanese Ending Seishun Buta Yarō Yarou wa Yumemiru Shōjo Shoujo no Yume o Minai ao-buta aobuta Puberty Syndrome: Abnormal experiences during adolescence due to sensitivity and instability. Rascal Does Not Dream of Bunny Girl Senpai 桜島麻衣 瀬戸麻沙美 古賀朋絵 東山奈央 双葉理央 種﨑敦美 豊浜のどか 内田真礼 梓川かえで 久保ユリカ 牧之原翔子 水瀬いのり Sakurajima Mai Seto Asami Koga Tomoe Touyama Toyama Nao Futaba Rio Tanezaki Atsumi Toyohama Nodoka Uchida Maaya Azusagawa Kaede Kubo Yurika Makinohara Shouko Shoko Minase Inori ending mysterious patient chart carte karute 双葉 理央 Astronic gibee games yShadowXOP_ zhu Nyantiaz
BeatmapID:2397791
BeatmapSetID:1083001

[Difficulty]
HPDrainRate:3
CircleSize:3.4
OverallDifficulty:3
ApproachRate:5
SliderMultiplier:1
SliderTickRate:1

[Events]
//Background and Video events
0,0,"bg.jpg",0,0
Video,0,"video.flv"
//Break Periods
2,38818,39918
//Storyboard Layer 0 (Background)
//Storyboard Layer 1 (Fail)
//Storyboard Layer 2 (Pass)
//Storyboard Layer 3 (Foreground)
//Storyboard Layer 4 (Overlay)
//Storyboard Sound Samples

[TimingPoints]
504,625,4,2,1,30,1,0
904,625,4,2,1,30,1,0
1129,625,4,2,1,30,1,0
2154,625,4,2,1,30,1,0
2379,625,4,2,1,30,1,0
3404,625,4,2,1,30,1,0
3629,625,4,2,1,30,1,0
6129,618.556701030928,4,2,1,30,1,0
8603,628.272251308901,4,2,1,30,1,0
12372,618.556701030928,4,2,1,30,1,0
13609,625,4,2,1,30,1,0
18609,655.737704918033,4,2,1,30,1,0
19266,666.666666666667,4,2,1,30,1,0
19870,697.674418604651,4,2,1,30,1,0
20490,628.272251308901,4,2,1,30,1,0
21118,625,4,2,1,40,1,0
41118,-100,4,2,1,60,0,1
43393,625,4,2,1,60,1,1
43598,625,4,2,1,60,1,1
51110,625,4,2,1,60,1,1
51110,-98.4251968503937,4,2,1,60,0,1
51724,625,4,2,1,60,1,1
53599,625,4,2,1,60,1,1
57360,625,4,2,1,60,1,1
58624,625,4,2,1,60,1,0
58624,-100,4,2,1,40,0,0

[Colours]
Combo1 : 255,0,0
Combo2 : 192,192,192
Combo3 : 255,128,128
Combo4 : 128,128,128

[HitObjects]
435,73,1129,6,0,L|315:69,1,100,2|2,0:0|0:0,0:0:0:0:
251,123,2379,2,0,P|235:172|252:237,1,100,2|2,0:0|0:0,0:0:0:0:
298,301,3629,2,0,B|228:262|228:262|92:286,1,200,2|0,0:0|0:0,0:0:0:0:
31,96,6129,6,0,P|81:83|133:95,1,100,2|2,0:0|0:0,0:0:0:0:
208,151,7366,2,0,P|258:164|310:152,1,100,2|2,0:0|0:0,0:0:0:0:
368,80,8603,2,0,L|361:284,1,200,2|0,0:0|0:0,0:0:0:0:
163,312,11116,6,0,P|128:318|60:294,2,100,2|2|2,0:0|0:0|0:0,0:0:0:0:
242,251,12990,1,2,0:0:0:0:
201,160,13609,2,0,L|207:57,1,100,2|2,0:0|0:0,0:0:0:0:
305,60,14859,2,0,L|311:160,1,100,2|2,0:0|0:0,0:0:0:0:
402,199,16109,6,0,P|373:237|233:222,1,200,2|2,0:0|0:0,0:0:0:0:
152,170,17984,2,0,P|102:189|71:223,1,100,2|2,0:0|0:0,0:0:0:0:
353,344,20490,1,8,0:3:0:0:
433,286,21118,6,0,B|468:237|468:237|468:92,1,200,4|4,0:3|0:3,0:0:0:0:
386,39,22993,1,8,0:0:0:0:
299,88,23618,2,0,B|196:49|211:123|105:95,1,200,4|4,0:3|0:3,0:0:0:0:
23,153,25493,1,8,0:0:0:0:
97,220,26118,6,0,P|112:266|98:331,1,100,4|8,0:3|0:0,0:0:0:0:
191,366,27368,2,0,L|291:362,1,100,4|8,0:3|0:0,0:0:0:0:
354,285,28618,2,0,B|324:201|390:196|348:82,1,200,4|4,0:3|0:3,0:0:0:0:
256,54,30493,1,8,0:0:0:0:
161,89,31118,6,0,B|122:196|188:201|158:285,1,200,4|4,0:3|0:3,0:0:0:0:
256,330,32993,1,8,0:0:0:0:
351,358,33618,2,0,P|407:365|459:348,1,100,4|8,0:3|0:0,0:0:0:0:
508,273,34868,2,0,L|508:174,1,100,4|8,0:3|0:0,0:0:0:0:
444,95,36118,6,0,P|395:83|346:90,2,100,4|8|4,0:3|0:0|0:3,0:0:0:0:
508,173,37993,2,0,L|508:273,1,100,8|6,0:0|0:0,0:0:0:0:
114,344,41118,6,0,P|74:333|13:290,1,100,4|10,0:3|0:0,0:0:0:0:
13,202,42368,1,4,0:3:0:0:
102,162,42993,1,10,0:0:0:0:
200,178,43598,2,0,P|250:182|312:165,1,100,4|8,0:3|0:0,0:0:0:0:
341,145,44535,1,2,0:0:0:0:
383,124,44848,2,0,L|383:23,1,100,4|10,0:3|0:0,0:0:0:0:
283,17,46098,6,0,B|174:10,1,100,4|10,0:3|0:0,0:0:0:0:
112,81,47348,1,4,0:3:0:0:
22,36,47973,1,8,0:0:0:0:
13,135,48598,2,0,L|17:238,1,100,4|8,0:3|0:0,0:0:0:0:
41,278,49535,1,2,0:0:0:0:
81,307,49848,2,0,P|124:315|195:313,1,100,4|10,0:3|0:0,0:0:0:0:
278,293,51110,6,0,P|321:285|392:287,1,100,4|8,0:3|0:0,0:0:0:0:
451,218,52349,1,4,0:3:0:0:
381,146,52974,1,8,0:0:0:0:
289,104,53599,2,0,P|242:92|188:102,1,100,4|8,0:3|0:0,0:0:0:0:
160,195,54849,2,0,P|111:207|62:198,1,100,4|10,0:3|0:0,0:0:0:0:
20,173,55787,1,0,0:0:0:0:
5,125,56099,6,0,B|5:25,1,100,4|10,0:3|0:0,0:0:0:0:
53,6,57036,1,0,0:0:0:0:
100,21,57360,1,4,0:3:0:0:
177,83,57985,1,8,0:0:0:0:
256,32,58624,5,4,0:0:0:0:
