osu file format v14

[General]
AudioFilename: audio.mp3
AudioLeadIn: 0
PreviewTime: 40478
Countdown: 0
SampleSet: Normal
StackLeniency: 0.7
Mode: 1
LetterboxInBreaks: 0
WidescreenStoryboard: 0

[Editor]
DistanceSpacing: 2.5
BeatDivisor: 9
GridSize: 32
TimelineZoom: 1.4

[Metadata]
Title:Fukashigi no Karte (TV Size)
TitleUnicode:不可思議のカルテ (TV Size)
Artist:Futaba Rio (CV: Tanezaki Atsumi)
ArtistUnicode:双葉理央 (CV: 種﨑敦美)
Creator:Yui Funami
Version:Uyamuya
Source:青春ブタ野郎はバニーガール先輩の夢を見ない
Tags:Seishun Buta Yarō Yarou wa Banīgāru Baniigaaru Senpai no Yume o Minai ao-buta aobuta Rascal Does Not Dream of Bunny Girl Senpai ed ending pop j-pop jpop Anime Japanese [r] Ron -Maruko- e_s_i_a [-e_s_i_a-] esia [-esia-]
BeatmapID:3812045
BeatmapSetID:1855047

[Difficulty]
HPDrainRate:8
CircleSize:2
OverallDifficulty:4
ApproachRate:10
SliderMultiplier:1.4
SliderTickRate:1

[Events]
//Background and Video events
0,0,"uyamuya.jpg",0,0
Video,425,"output.mp4"
//Break Periods
//Storyboard Layer 0 (Background)
//Storyboard Layer 1 (Fail)
//Storyboard Layer 2 (Pass)
//Storyboard Layer 3 (Foreground)
//Storyboard Layer 4 (Overlay)
//Storyboard Sound Samples

[TimingPoints]
504,625,4,1,0,30,1,8
504,-66.6666666666667,4,1,0,30,0,0
1129,625,4,1,0,30,1,0
1129,-66.6666666666667,4,1,0,30,0,0
6129,618.556701030928,4,1,0,30,1,0
6129,-67.1140939597315,4,1,0,30,0,0
8603,628.272251308901,4,1,0,30,1,0
8603,-66.2251655629139,4,1,0,30,0,0
12372,618.556701030928,4,1,0,30,1,8
12372,-67.1140939597315,4,1,0,30,0,0
13609,625,4,1,0,30,1,0
13609,-66.6666666666667,4,1,0,30,0,0
20494,618.556701030928,4,1,0,30,1,8
20494,-67.1140939597315,4,1,0,30,0,0
21103,625,4,1,0,40,1,0
21103,-66.6666666666667,4,1,0,40,0,0
41103,-66.6666666666667,4,1,0,65,0,1
58603,-66.6666666666667,4,1,0,65,0,0

[HitObjects]
258,190,504,5,0,0:0:0:0:
258,190,712,1,0,0:0:0:0:
258,190,920,1,0,0:0:0:0:
258,190,1129,1,8,0:0:0:0:
258,190,1754,1,0,0:0:0:0:
258,190,1962,1,8,0:0:0:0:
258,190,2170,1,0,0:0:0:0:
258,190,2379,1,8,0:0:0:0:
84,166,3004,1,0,0:0:0:0:
258,190,3212,1,8,0:0:0:0:
258,190,3420,1,8,0:0:0:0:
258,190,3629,1,0,0:0:0:0:
258,190,4254,1,0,0:0:0:0:
258,190,5504,1,0,0:0:0:0:
258,190,5712,1,0,0:0:0:0:
258,190,5920,1,0,0:0:0:0:
258,190,6129,1,8,0:0:0:0:
258,190,6747,1,8,0:0:0:0:
258,190,6953,1,0,0:0:0:0:
258,190,7159,1,0,0:0:0:0:
258,190,7366,1,8,0:0:0:0:
258,190,7984,1,8,0:0:0:0:
258,190,8603,1,0,0:0:0:0:
258,190,10487,1,8,0:0:0:0:
258,190,10697,1,0,0:0:0:0:
258,190,10906,1,0,0:0:0:0:
258,190,11116,1,8,0:0:0:0:
258,190,11744,1,0,0:0:0:0:
258,190,12372,1,8,0:0:0:0:
258,190,12990,1,8,0:0:0:0:
258,190,13609,1,0,0:0:0:0:
258,190,14234,1,0,0:0:0:0:
258,190,14859,1,8,0:0:0:0:
258,190,15484,1,0,0:0:0:0:
258,190,15692,1,0,0:0:0:0:
258,190,15900,1,0,0:0:0:0:
258,190,16109,1,8,0:0:0:0:
258,190,16734,1,8,0:0:0:0:
258,190,16942,1,0,0:0:0:0:
258,190,17150,1,8,0:0:0:0:
258,190,17359,1,0,0:0:0:0:
258,190,17984,1,0,0:0:0:0:
258,190,18609,1,8,0:0:0:0:
258,190,20379,1,8,0:0:0:0:
237,183,20484,1,0,0:0:0:0:
252,185,20803,1,0,0:0:0:0:
258,174,21103,1,8,0:0:0:0:
257,182,21623,1,0,0:0:0:0:
256,167,21728,1,8,0:0:0:0:
303,334,22040,1,0,0:0:0:0:
246,176,22353,1,0,0:0:0:0:
253,174,22561,1,8,0:0:0:0:
253,174,22665,1,0,0:0:0:0:
259,174,22978,1,8,0:0:0:0:
257,171,23290,1,0,0:0:0:0:
263,173,23603,1,8,0:0:0:0:
258,172,23915,1,0,0:0:0:0:
258,172,24123,1,0,0:0:0:0:
258,172,24228,1,8,0:0:0:0:
263,162,24540,1,0,0:0:0:0:
263,162,24853,1,8,0:0:0:0:
262,161,25165,1,0,0:0:0:0:
262,161,25373,1,0,0:0:0:0:
262,153,25478,1,8,0:0:0:0:
263,154,25790,1,0,0:0:0:0:
263,154,26103,1,8,0:0:0:0:
261,148,26415,1,8,0:0:0:0:
269,153,26728,1,0,0:0:0:0:
420,229,27248,1,8,0:0:0:0:
55,311,27353,1,0,0:0:0:0:
264,153,27665,1,8,0:0:0:0:
265,152,27978,1,0,0:0:0:0:
264,152,28290,1,8,0:0:0:0:
264,152,28603,1,8,0:0:0:0:
263,152,28915,1,0,0:0:0:0:
152,275,29228,1,8,0:0:0:0:
259,147,29540,1,0,0:0:0:0:
155,288,29853,1,0,0:0:0:0:
238,168,30061,1,8,0:0:0:0:
180,162,30165,1,0,0:0:0:0:
242,165,30478,1,8,0:0:0:0:
242,165,30790,1,0,0:0:0:0:
239,164,31103,1,8,0:0:0:0:
239,164,31415,1,0,0:0:0:0:
239,164,31623,1,0,0:0:0:0:
239,164,31728,1,8,0:0:0:0:
239,168,32040,1,8,0:0:0:0:
250,343,32353,1,0,0:0:0:0:
311,88,32665,1,0,0:0:0:0:
247,166,32978,1,8,0:0:0:0:
47,335,33290,1,0,0:0:0:0:
247,166,33603,1,8,0:0:0:0:
196,333,33915,1,0,0:0:0:0:
260,284,34123,1,0,0:0:0:0:
250,226,34228,1,8,0:0:0:0:
250,343,34540,1,8,0:0:0:0:
184,180,34853,1,0,0:0:0:0:
290,227,35061,1,8,0:0:0:0:
242,193,35165,1,0,0:0:0:0:
242,193,35373,1,0,0:0:0:0:
242,193,35478,1,8,0:0:0:0:
242,193,35790,1,0,0:0:0:0:
245,200,36103,1,8,0:0:0:0:
179,183,36728,1,0,0:0:0:0:
441,178,37040,1,0,0:0:0:0:
178,186,37353,1,8,0:0:0:0:
272,210,37978,1,8,0:0:0:0:
298,210,38290,1,0,0:0:0:0:
93,44,38603,1,8,0:0:0:0:
389,364,39158,1,0,0:0:0:0:
327,300,39263,1,8,0:0:0:0:
156,101,39540,1,0,0:0:0:0:
206,267,39748,1,8,0:0:0:0:
327,300,39853,1,0,0:0:0:0:
204,175,40061,1,0,0:0:0:0:
250,246,40165,1,8,0:0:0:0:
253,207,40478,1,8,0:0:0:0:
253,207,40686,1,0,0:0:0:0:
253,207,40790,1,0,0:0:0:0:
253,207,40894,1,0,0:0:0:0:
253,207,41103,1,12,0:0:0:0:
253,207,41415,1,0,0:0:0:0:
253,207,41728,1,8,0:0:0:0:
133,79,41936,1,0,0:0:0:0:
243,214,42144,1,8,0:0:0:0:
122,86,42353,1,0,0:0:0:0:
376,150,42665,1,8,0:0:0:0:
202,132,42873,1,0,0:0:0:0:
243,151,42978,1,8,0:0:0:0:
243,151,43186,1,0,0:0:0:0:
243,151,43394,1,0,0:0:0:0:
264,324,43603,1,8,0:0:0:0:
257,325,43811,1,8,0:0:0:0:
247,154,43915,1,0,0:0:0:0:
336,303,44123,1,0,0:0:0:0:
287,229,44228,1,8,0:0:0:0:
25,205,44540,1,0,0:0:0:0:
254,155,44853,1,0,0:0:0:0:
93,223,45061,1,0,0:0:0:0:
285,326,45165,1,8,0:0:0:0:
256,150,45478,1,8,0:0:0:0:
214,319,45686,1,0,0:0:0:0:
256,150,45894,1,8,0:0:0:0:
320,313,46103,1,0,0:0:0:0:
266,208,46415,1,0,0:0:0:0:
266,208,46728,1,8,0:0:0:0:
119,112,46936,1,0,0:0:0:0:
293,108,47144,1,0,0:0:0:0:
293,108,47353,1,8,0:0:0:0:
298,282,47561,1,0,0:0:0:0:
287,107,47665,1,8,0:0:0:0:
261,138,47978,1,8,0:0:0:0:
261,138,48186,1,0,0:0:0:0:
261,138,48290,1,0,0:0:0:0:
240,200,48603,1,8,0:0:0:0:
262,138,48811,1,0,0:0:0:0:
222,216,48915,1,8,0:0:0:0:
432,58,49228,1,8,0:0:0:0:
222,216,49540,1,0,0:0:0:0:
57,273,49748,1,8,0:0:0:0:
401,23,49853,1,0,0:0:0:0:
270,133,50061,1,0,0:0:0:0:
275,220,50165,1,8,0:0:0:0:
275,220,50478,1,8,0:0:0:0:
172,78,50686,1,0,0:0:0:0:
275,135,50894,1,0,0:0:0:0:
171,276,51103,1,8,0:0:0:0:
351,85,51415,1,0,0:0:0:0:
254,230,51623,1,0,0:0:0:0:
273,132,51728,1,8,0:0:0:0:
266,214,52040,1,0,0:0:0:0:
266,214,52248,1,8,0:0:0:0:
267,147,52353,1,0,0:0:0:0:
263,184,52665,1,0,0:0:0:0:
263,184,52978,1,8,0:0:0:0:
28,301,53290,1,0,0:0:0:0:
267,146,53498,1,0,0:0:0:0:
267,146,53603,1,8,0:0:0:0:
88,338,53915,1,0,0:0:0:0:
298,180,54228,1,8,0:0:0:0:
90,339,54540,1,0,0:0:0:0:
256,148,54748,1,8,0:0:0:0:
232,232,54853,1,0,0:0:0:0:
232,232,55165,1,8,0:0:0:0:
387,19,55478,1,8,0:0:0:0:
291,165,55686,1,0,0:0:0:0:
257,139,55894,1,0,0:0:0:0:
229,312,56103,1,12,0:0:0:0:
280,55,56415,1,0,0:0:0:0:
229,312,56728,1,0,0:0:0:0:
261,147,56936,1,8,0:0:0:0:
233,319,57144,1,8,0:0:0:0:
261,147,57353,1,0,0:0:0:0:
233,319,57561,1,0,0:0:0:0:
155,278,57665,1,8,0:0:0:0:
276,60,57873,1,8,0:0:0:0:
261,147,57978,1,0,0:0:0:0:
262,154,58186,1,0,0:0:0:0:
262,154,58290,1,0,0:0:0:0:
261,154,58603,1,12,0:0:0:0:
