osu file format v14

[General]
AudioFilename: audio.mp3
AudioLeadIn: 0
PreviewTime: 40478
Countdown: 0
SampleSet: Normal
StackLeniency: 0.7
Mode: 1
LetterboxInBreaks: 0
WidescreenStoryboard: 1

[Editor]
Bookmarks: 21103
DistanceSpacing: 2.5
BeatDivisor: 4
GridSize: 32
TimelineZoom: 1.4

[Metadata]
Title:Fukashigi no Karte (TV Size)
TitleUnicode:不可思議のカルテ (TV Size)
Artist:Futaba Rio (CV: Tanezaki Atsumi)
ArtistUnicode:双葉理央 (CV: 種﨑敦美)
Creator:Yui Funami
Version:Maruko's Futsuu
Source:青春ブタ野郎はバニーガール先輩の夢を見ない
Tags:Seishun Buta Yarō Yarou wa Banīgāru Baniigaaru Senpai no Yume o Minai ao-buta aobuta Rascal Does Not Dream of Bunny Girl Senpai ed ending pop j-pop jpop Anime Japanese [r] Ron -Maruko- e_s_i_a [-e_s_i_a-] esia [-esia-]
BeatmapID:3827997
BeatmapSetID:1855047

[Difficulty]
HPDrainRate:9
CircleSize:2
OverallDifficulty:3
ApproachRate:10
SliderMultiplier:1.4
SliderTickRate:1

[Events]
//Background and Video events
0,0,"bg.jpg",0,30
Video,425,"output.mp4"
//Break Periods
//Storyboard Layer 0 (Background)
//Storyboard Layer 1 (Fail)
//Storyboard Layer 2 (Pass)
//Storyboard Layer 3 (Foreground)
//Storyboard Layer 4 (Overlay)
//Storyboard Sound Samples

[TimingPoints]
504,625,4,1,0,30,1,8
504,-66.6666666666667,4,1,0,30,0,0
1129,625,4,1,0,30,1,0
1129,-66.6666666666667,4,1,0,30,0,0
6129,618.556701030928,4,1,0,30,1,0
6129,-67.1140939597315,4,1,0,30,0,0
8603,628.272251308901,4,1,0,30,1,0
8603,-66.2251655629139,4,1,0,30,0,0
12372,618.556701030928,4,1,0,30,1,8
12372,-67.1140939597315,4,1,0,30,0,0
13609,625,4,1,0,30,1,0
13609,-66.6666666666667,4,1,0,30,0,0
20494,618.556701030928,4,1,0,30,1,8
20494,-67.1140939597315,4,1,0,30,0,0
21103,625,4,1,0,40,1,0
21103,-66.6666666666667,4,1,0,40,0,0
41103,-66.6666666666667,4,1,0,65,0,1
58603,-66.6666666666667,4,1,0,65,0,0

[HitObjects]
258,190,504,5,0,0:0:0:0:
258,190,1754,1,8,0:0:0:0:
258,190,3004,1,0,0:0:0:0:
258,190,3629,1,8,0:0:0:0:
258,190,4254,1,0,0:0:0:0:
258,190,5504,1,0,0:0:0:0:
258,190,6747,1,8,0:0:0:0:
258,190,7366,1,0,0:0:0:0:
258,190,7984,1,0,0:0:0:0:
258,190,8603,1,8,0:0:0:0:
258,190,10487,1,8,0:0:0:0:
258,190,11116,1,0,0:0:0:0:
258,190,11744,1,8,0:0:0:0:
258,190,12372,1,0,0:0:0:0:
258,190,13609,1,0,0:0:0:0:
258,190,14234,1,0,0:0:0:0:
258,190,14859,1,8,0:0:0:0:
258,190,16109,1,8,0:0:0:0:
258,190,17359,1,0,0:0:0:0:
258,190,17984,1,0,0:0:0:0:
258,190,18609,1,8,0:0:0:0:
237,183,20484,1,8,0:0:0:0:
258,174,21103,1,0,0:0:0:0:
258,174,21728,1,0,0:0:0:0:
256,167,22040,1,8,0:0:0:0:
246,176,22353,1,0,0:0:0:0:
259,174,22978,1,8,0:0:0:0:
263,173,23603,1,0,0:0:0:0:
263,173,24228,1,0,0:0:0:0:
263,162,24540,1,8,0:0:0:0:
263,162,24853,1,0,0:0:0:0:
263,154,25478,1,0,0:0:0:0:
262,153,26103,1,8,0:0:0:0:
55,311,27353,1,8,0:0:0:0:
265,152,27978,1,8,0:0:0:0:
264,152,28603,1,0,0:0:0:0:
259,147,29228,1,0,0:0:0:0:
155,288,29540,1,0,0:0:0:0:
152,275,29853,1,8,0:0:0:0:
242,165,30478,1,8,0:0:0:0:
239,164,31103,1,0,0:0:0:0:
239,164,31728,1,8,0:0:0:0:
239,168,32040,1,8,0:0:0:0:
250,343,32353,1,0,0:0:0:0:
247,166,32978,1,8,0:0:0:0:
247,166,33603,1,0,0:0:0:0:
290,227,34853,1,8,0:0:0:0:
242,193,35478,1,8,0:0:0:0:
245,200,36103,1,0,0:0:0:0:
251,192,36415,1,0,0:0:0:0:
179,183,36728,1,8,0:0:0:0:
178,186,37353,1,0,0:0:0:0:
441,178,37665,1,0,0:0:0:0:
272,210,37978,1,8,0:0:0:0:
93,44,38603,1,0,0:0:0:0:
327,300,39228,1,8,0:0:0:0:
327,300,39853,1,8,0:0:0:0:
250,246,40165,1,0,0:0:0:0:
253,207,40478,1,8,0:0:0:0:
253,207,41103,1,4,0:0:0:0:
253,207,41728,1,8,0:0:0:0:
122,86,42353,1,8,0:0:0:0:
243,151,42978,1,8,0:0:0:0:
243,151,43603,1,0,0:0:0:0:
247,154,43915,1,0,0:0:0:0:
287,229,44228,1,8,0:0:0:0:
254,155,44853,1,8,0:0:0:0:
285,326,45165,1,0,0:0:0:0:
256,150,45478,1,8,0:0:0:0:
263,194,45790,1,0,0:0:0:0:
320,313,46103,1,0,0:0:0:0:
266,208,46728,1,8,0:0:0:0:
293,108,47353,1,0,0:0:0:0:
261,138,47978,1,8,0:0:0:0:
240,200,48603,1,8,0:0:0:0:
222,216,48915,1,8,0:0:0:0:
432,58,49228,1,0,0:0:0:0:
401,23,49853,1,8,0:0:0:0:
275,220,50165,1,0,0:0:0:0:
275,220,50478,1,8,0:0:0:0:
275,220,50790,1,0,0:0:0:0:
171,276,51103,1,0,0:0:0:0:
273,132,51728,1,8,0:0:0:0:
267,147,52353,1,0,0:0:0:0:
263,184,52978,1,8,0:0:0:0:
267,146,53603,1,0,0:0:0:0:
298,180,54228,1,8,0:0:0:0:
256,148,54853,1,8,0:0:0:0:
387,19,55478,1,8,0:0:0:0:
293,108,55790,1,8,0:0:0:0:
229,312,56103,1,0,0:0:0:0:
229,312,56728,1,8,0:0:0:0:
233,319,57040,1,8,0:0:0:0:
261,147,57353,1,0,0:0:0:0:
261,147,57978,1,0,0:0:0:0:
261,154,58603,1,12,0:0:0:0:
