osu file format v14

[General]
AudioFilename: audio.mp3
AudioLeadIn: 0
PreviewTime: -1
Countdown: 1
SampleSet: Soft
StackLeniency: 0.7
Mode: 0
LetterboxInBreaks: 0
WidescreenStoryboard: 0

[Editor]
DistanceSpacing: 2.8
BeatDivisor: 4
GridSize: 8
TimelineZoom: 2.2

[Metadata]
Title:Anzu no uta
TitleUnicode:Anzu no uta
Artist:Futaba Anzu
ArtistUnicode:Futaba Anzu
Creator:Die_Schokohexe
Version:Insane
Source:
Tags:
BeatmapID:1391133
BeatmapSetID:656646

[Difficulty]
HPDrainRate:7.5
CircleSize:4.5
OverallDifficulty:6.6
ApproachRate:9.5
SliderMultiplier:2.4
SliderTickRate:1

[Events]
//Background and Video events
0,0,"Anzu_SS_SSR2.png",0,0
//Break Periods
2,57399,71705
//Storyboard Layer 0 (Background)
//Storyboard Layer 1 (Fail)
//Storyboard Layer 2 (Pass)
//Storyboard Layer 3 (Foreground)
//Storyboard Sound Samples

[TimingPoints]
19199,307.692307692308,4,2,0,100,1,0

[HitObjects]
192,176,19198,6,0,P|208:144|168:72,1,120
88,120,19506,2,0,P|122:110|160:40,1,120
64,24,19814,2,0,P|97:35|184:0,1,120
280,48,20122,2,0,P|310:78|388:78,1,120
400,16,20429,2,0,P|394:51|443:114,1,120
496,56,20737,2,0,P|471:82|469:175,1,120
512,280,21045,1,0,0:0:0:0:
512,280,21352,6,0,P|404:326|409:207,1,240
381,237,21737,1,0,0:0:0:0:
381,237,21814,1,0,0:0:0:0:
508,194,21968,1,0,0:0:0:0:
504,304,22122,1,0,0:0:0:0:
504,304,22279,2,0,P|527:250|505:190,1,120
416,48,22737,1,0,0:0:0:0:
200,56,23045,2,0,P|248:96|256:160,1,120
152,224,23352,2,0,P|200:304|248:304,1,120
376,136,23660,1,0,0:0:0:0:
376,136,23814,6,0,P|464:120|464:272,1,240
500,241,24198,1,0,0:0:0:0:
500,241,24275,1,0,0:0:0:0:
365,277,24429,1,0,0:0:0:0:
440,184,24583,1,0,0:0:0:0:
365,277,24737,2,0,P|406:224|446:176,1,120
432,40,25045,2,0,P|365:66|362:117,1,120
392,320,25352,6,0,P|427:313|463:242,1,120
463,243,25660,1,0,0:0:0:0:
384,40,25814,2,0,P|350:50|312:120,1,120
320,304,26122,1,0,0:0:0:0:
400,216,26275,2,0,P|368:248|312:312,1,120
80,344,26583,2,0,P|22:272|109:207,1,180
363,201,26935,1,0,0:0:0:0:
336,80,27198,1,0,0:0:0:0:
336,80,27352,1,0,0:0:0:0:
336,80,27506,6,0,P|216:152|272:208,1,240
328,152,27968,2,0,P|392:136|416:72,1,120
344,88,28275,2,0,P|336:24|256:8,1,120
264,80,28583,1,0,0:0:0:0:
288,232,28737,1,0,0:0:0:0:
288,232,28891,2,0,P|272:296|208:312,1,120
64,144,29198,2,0,B|128:80|128:80|176:96|176:88,1,120
352,128,29506,2,0,P|304:184|256:192,1,120
40,184,29814,1,0,0:0:0:0:
216,48,29968,2,0,P|296:32|336:96,1,120
232,256,30275,6,0,P|304:328|352:312,1,120
506,140,30583,2,0,P|458:107|400:112,1,120
96,160,30891,1,0,0:0:0:0:
408,160,31045,1,0,0:0:0:0:
128,280,31199,1,0,0:0:0:0:
360,72,31352,1,0,0:0:0:0:
224,200,31506,2,0,B|112:160|104:192|160:336|0:280,1,240
32,112,31968,2,0,P|64:64|136:56,1,120
456,64,32275,1,0,0:0:0:0:
192,184,32429,1,0,0:0:0:0:
504,160,32583,1,0,0:0:0:0:
210,87,32737,2,0,P|172:152|201:190,1,120
440,312,33045,5,0,0:0:0:0:
312,96,33199,1,0,0:0:0:0:
512,256,33352,1,0,0:0:0:0:
208,248,33506,1,0,0:0:0:0:
456,144,33660,2,0,P|464:224|416:240,1,120
128,240,33968,2,0,B|72:208|64:248|72:184|272:184,1,240
464,144,34429,2,0,P|472:224|408:280,1,120
248,336,34737,1,0,0:0:0:0:
464,144,34891,1,0,0:0:0:0:
200,136,35045,1,0,0:0:0:0:
432,280,35199,6,0,P|496:272|456:112,1,240
264,24,35660,2,0,P|192:32|160:80,1,120
40,280,35968,2,0,B|79:328|151:289|152:273,1,120
432,112,36275,2,0,B|435:49|355:29|344:41,1,120
152,56,36583,2,0,P|192:112|264:80,1,120
480,56,36891,1,0,0:0:0:0:
360,304,37045,1,0,0:0:0:0:
392,24,37199,1,0,0:0:0:0:
512,240,37352,5,0,0:0:0:0:
272,80,37506,2,0,P|208:56|144:80,1,120
40,192,37814,1,0,0:0:0:0:
184,328,37968,2,0,P|242:324|277:278,1,120
472,64,38275,2,0,P|432:112|352:96,1,120
256,192,38583,12,0,39814,0:0:0:0:
64,56,40122,5,0,0:0:0:0:
384,320,40430,1,0,0:0:0:0:
232,168,40584,1,0,0:0:0:0:
480,32,40892,1,0,0:0:0:0:
80,328,41199,1,0,0:0:0:0:
288,160,41353,1,0,0:0:0:0:
72,56,41661,1,0,0:0:0:0:
256,272,41815,1,0,0:0:0:0:
440,56,42122,1,0,0:0:0:0:
304,256,42430,2,0,P|256:296|192:272,1,120
48,128,42892,2,0,P|96:80|160:96,1,120
456,176,43199,1,0,0:0:0:0:
176,336,43506,2,0,P|72:320|32:200,1,240
88,64,44122,5,0,0:0:0:0:
424,64,44429,1,0,0:0:0:0:
96,136,44737,1,0,0:0:0:0:
432,160,45045,5,0,0:0:0:0:
120,184,45331,1,0,0:0:0:0:
472,256,45660,1,0,0:0:0:0:
272,312,45814,6,0,P|216:336|152:296,1,120
160,160,46122,2,0,B|104:136|104:136|48:160,1,120
56,160,46429,1,0,0:0:0:0:
328,120,46583,1,0,0:0:0:0:
376,320,46737,1,0,0:0:0:0:
72,352,46891,1,0,0:0:0:0:
64,136,47045,1,0,0:0:0:0:
328,120,47198,1,0,0:0:0:0:
216,288,47352,6,0,P|288:320|344:264,1,120
320,312,47583,1,0,0:0:0:0:
320,312,47660,1,0,0:0:0:0:
384,176,47814,1,0,0:0:0:0:
384,176,47968,2,0,P|350:166|312:96,1,120
392,64,48275,2,0,P|359:75|272:40,1,120
280,49,48583,1,0,0:0:0:0:
208,160,48737,2,0,P|178:190|100:190,1,120
146,94,49045,2,0,P|152:129|103:192,1,120
70,85,49352,2,0,P|95:111|97:204,1,120
120,344,49660,6,0,P|236:325|199:218,1,240
224,240,50045,1,0,0:0:0:0:
224,240,50122,1,0,0:0:0:0:
184,48,50275,1,0,0:0:0:0:
88,176,50429,1,0,0:0:0:0:
104,296,50583,2,0,P|96:240|88:168,1,120
248,40,51045,1,0,0:0:0:0:
64,264,51352,2,0,P|122:286|182:262,1,120
432,32,51660,2,0,P|384:112|336:112,1,120
200,120,51968,1,0,0:0:0:0:
200,120,52122,6,0,P|128:112|136:272,1,240
86,247,52506,1,0,0:0:0:0:
86,247,52585,1,0,0:0:0:0:
368,336,52737,1,0,0:0:0:0:
258,122,52891,1,0,0:0:0:0:
160,192,53045,2,0,P|208:160|272:112,1,120
145,187,53506,1,0,0:0:0:0:
120,80,53814,2,0,P|114:142|153:193,1,120
408,208,54122,2,0,P|360:288|312:288,1,120
40,312,54429,1,0,0:0:0:0:
256,192,54737,12,0,55814,0:0:0:0:
232,112,56122,6,0,P|296:40|376:128,1,240
336,336,56583,1,0,0:0:0:0:
88,208,56737,1,0,0:0:0:0:
384,192,56891,1,0,0:0:0:0:
104,72,57045,1,0,0:0:0:0:
392,56,57199,1,0,0:0:0:0:
184,128,72275,6,0,P|184:64|240:32,1,120
256,152,72583,2,0,P|288:88|376:104,1,120
320,192,72891,2,0,P|366:145|425:165,1,120
320,40,73199,2,0,P|248:8|192:56,1,120
88,128,73506,2,0,P|104:200|152:216,1,120
432,248,73968,5,0,0:0:0:0:
112,72,74122,1,0,0:0:0:0:
432,104,74275,1,0,0:0:0:0:
80,136,74429,2,0,B|40:184|40:184|88:240,1,120
288,344,74737,2,0,B|336:296|336:296|288:248,1,120
32,56,75199,2,0,B|96:16|96:16|264:16,1,240
512,24,75660,2,0,B|472:80|472:80|368:96,1,120
120,152,75968,1,0,0:0:0:0:
472,144,76122,1,0,0:0:0:0:
296,320,76275,1,0,0:0:0:0:
96,104,76429,1,0,0:0:0:0:
464,136,76583,5,0,0:0:0:0:
192,336,76737,1,0,0:0:0:0:
56,160,76891,2,0,P|96:56|176:24,1,180
472,56,77352,2,0,B|416:120|416:120|440:136|440:136|336:216,1,240
64,272,77814,2,0,P|64:208|104:176,1,120
392,88,78122,2,0,P|368:32|312:24,1,120
144,136,78429,2,0,B|64:152|64:152|160:192|24:272|16:264,1,240
32,256,79045,2,0,P|24:192|64:152,1,120
384,80,79506,1,0,0:0:0:0:
496,296,79660,1,0,0:0:0:0:
152,288,79814,1,0,0:0:0:0:
488,104,79968,1,0,0:0:0:0:
248,352,80122,5,0,0:0:0:0:
440,128,80429,2,0,B|416:56|416:56|328:40,1,120
144,32,80737,2,0,B|152:96|152:96|208:112,1,120
440,128,81045,1,0,0:0:0:0:
416,160,81199,1,0,0:0:0:0:
384,192,81352,1,0,0:0:0:0:
344,208,81506,1,0,0:0:0:0:
304,208,81660,1,0,0:0:0:0:
264,192,81814,1,0,0:0:0:0:
264,256,81968,2,0,P|336:288|368:264,1,120
328,136,82275,2,0,P|333:62|378:51,1,120
440,264,82583,2,0,P|384:288|328:248,1,120
96,48,82891,5,0,0:0:0:0:
96,48,83045,2,0,B|32:72|24:136|24:136|136:96,1,240
512,80,83660,1,0,0:0:0:0:
160,152,83814,1,0,0:0:0:0:
496,272,83968,1,0,0:0:0:0:
224,40,84122,1,0,0:0:0:0:
456,136,84429,2,0,B|480:64|480:64|376:96|280:48,1,240
16,56,84891,2,0,P|63:114|105:125,1,120
496,136,85199,2,0,P|432:160|392:223,1,120
160,328,85506,2,0,B|120:312|104:352|104:352|48:288|48:288,1,120
48,80,85814,1,0,0:0:0:0:
256,224,85968,1,0,0:0:0:0:
456,56,86122,1,0,0:0:0:0:
256,64,86275,2,0,P|256:128|208:176,1,120
40,320,86583,1,0,0:0:0:0:
48,48,86737,1,0,0:0:0:0:
256,328,86891,2,0,P|256:240|320:192,1,120
456,48,87199,1,0,0:0:0:0:
448,320,87352,1,0,0:0:0:0:
248,48,87506,1,0,0:0:0:0:
56,192,87660,1,0,0:0:0:0:
432,192,87814,1,0,0:0:0:0:
256,344,87968,1,0,0:0:0:0:
256,64,88122,1,0,0:0:0:0:
64,192,88275,1,0,0:0:0:0:
424,192,88429,1,0,0:0:0:0:
256,56,88583,1,0,0:0:0:0:
256,344,88737,1,0,0:0:0:0:
256,192,88891,1,0,0:0:0:0:
256,192,89352,12,0,91199,0:0:0:0:
256,192,91814,12,0,94275,0:0:0:0:
64,56,96737,6,0,B|48:168|56:168|96:152|96:152|200:152,1,240
416,152,97352,1,0,0:0:0:0:
192,320,97506,1,0,0:0:0:0:
168,64,97660,1,0,0:0:0:0:
416,152,97968,1,0,0:0:0:0:
192,320,98122,1,0,0:0:0:0:
168,64,98275,5,0,0:0:0:0:
200,104,98583,1,0,0:0:0:0:
216,96,98660,1,0,0:0:0:0:
232,88,98737,1,0,0:0:0:0:
248,80,98814,1,0,0:0:0:0:
264,72,98891,2,0,B|288:72|288:72|312:104|312:104|344:64|344:64|360:48,1,120
512,176,99199,2,0,B|472:184|464:224|464:224|408:216,1,120
72,128,99506,2,0,B|120:168|120:168|200:136|296:184,1,240
456,224,99968,2,0,B|440:304|440:304|400:320|352:280,1,120
144,304,100275,2,0,P|96:256|96:192,1,120
96,192,100506,1,0,0:0:0:0:
104,176,100583,5,0,0:0:0:0:
120,160,100660,1,0,0:0:0:0:
136,144,100737,1,0,0:0:0:0:
152,136,100814,1,0,0:0:0:0:
168,128,100891,1,0,0:0:0:0:
184,120,100968,1,0,0:0:0:0:
200,112,101045,1,0,0:0:0:0:
464,104,101199,1,0,0:0:0:0:
328,360,101352,1,0,0:0:0:0:
80,208,101506,2,0,B|104:136|104:136|160:144|248:48,1,240
480,208,101968,2,0,B|440:256|432:264|432:264|352:272|280:352,1,240
72,80,102583,2,0,P|112:144|192:152,1,120
456,184,102891,5,2,0:0:0:0:
88,56,103199,1,0,0:0:0:0:
264,328,103506,1,0,0:0:0:0:
256,32,103814,1,0,0:0:0:0:
456,248,104122,2,0,B|384:288|320:288|320:288|264:264|176:272,1,240
96,56,104737,2,0,P|192:24|232:56,1,120
256,192,105045,12,0,106583,0:0:0:0:
