osu file format v14

[General]
AudioFilename: audio.mp3
AudioLeadIn: 0
PreviewTime: 60998
Countdown: 0
SampleSet: None
StackLeniency: 0.8
Mode: 0
LetterboxInBreaks: 0
WidescreenStoryboard: 1

[Editor]
DistanceSpacing: 1
BeatDivisor: 4
GridSize: 16
TimelineZoom: 1

[Metadata]
Title:Slow Life Fantasy
TitleUnicode:スローライフ・ファンタジー
Artist:Futaba Anzu (CV: Igarashi Hiromi)
ArtistUnicode:双葉杏 (CV: 五十嵐裕美)
Creator:Curisu
Version:Pro
Source:アイドルマスター シンデレラガールズ
Tags:the idolm@ster cinderella girls master beyond the starlight imas monaca 田中秀和 tanaka hidekazu
BeatmapID:1236979
BeatmapSetID:584211

[Difficulty]
HPDrainRate:3
CircleSize:4
OverallDifficulty:5
ApproachRate:7
SliderMultiplier:1.39
SliderTickRate:1

[Events]
//Background and Video events
0,0,"bg.jpg",0,0
//Break Periods
//Storyboard Layer 0 (Background)
//Storyboard Layer 1 (Fail)
//Storyboard Layer 2 (Pass)
//Storyboard Layer 3 (Foreground)
//Storyboard Sound Samples

[TimingPoints]
511,487.80487804878,4,2,6,60,1,0
2218,-100,4,2,4,60,0,0
2462,-100,4,2,6,60,0,0
3925,-100,4,2,4,35,0,0
4413,-100,4,2,6,60,0,0
6120,-100,4,2,4,35,0,0
6364,-100,4,2,6,60,0,0
7828,-100,4,2,4,35,0,0
8071,-100,4,3,1,60,0,0
8315,-100,4,3,1,70,0,0
47340,-100,4,2,2,70,0,0
50754,-100,4,3,1,70,0,0
51242,-100,4,2,2,70,0,0
53193,-100,4,2,3,70,0,0
54169,-100,4,2,2,70,0,0
57096,-100,4,2,3,70,0,0
58559,-100,4,3,1,70,0,0
59047,-100,4,2,3,70,0,0
62950,-100,4,3,1,70,0,0
109779,-100,4,2,6,60,0,0
111486,-100,4,2,4,60,0,0
111730,-100,4,2,6,60,0,0
113193,-100,4,2,4,35,0,0
113681,-100,4,2,6,60,0,0
115389,-100,4,2,4,35,0,0
115632,-100,4,2,6,60,0,0
117096,-100,4,2,4,35,0,0
117584,-100,4,2,6,55,0,0
120998,-100,4,2,4,30,0,0

[Colours]
Combo1 : 230,230,230
Combo2 : 242,138,242

[HitObjects]
130,295,511,6,0,P|95:333|16:298,1,139,0|2,0:0|0:0,0:0:0:0:
20,307,1242,1,0,0:0:0:0:
31,238,1486,1,0,0:0:0:0:
42,169,1730,1,2,0:0:0:0:
54,100,2218,5,2,0:0:0:0:
69,167,2462,2,0,P|127:196|178:154,1,139,0|2,0:0|0:0,0:0:0:0:
189,85,3193,1,0,0:0:0:0:
190,15,3437,2,0,P|155:10|111:15,2,69.5,0|2|8,0:0|0:0|0:0,0:0:0:0:
190,15,4413,6,0,P|148:65|177:124,1,139,0|2,0:0|0:0,0:0:0:0:
177,124,5145,1,0,0:0:0:0:
245,134,5389,1,0,0:0:0:0:
313,144,5632,1,2,0:0:0:0:
381,154,6120,5,4,0:0:0:0:
315,177,6364,2,0,P|273:227|302:286,1,139,0|2,0:0|0:0,0:0:0:0:
371,297,7096,1,0,0:0:0:0:
439,307,7340,2,0,L|442:235,1,69.5,0|2,0:0|0:0,0:0:0:0:
411,124,7828,6,0,L|339:123,1,69.5,2|4,0:1|0:1,0:0:0:0:
272,121,8315,5,2,0:0:0:0:
280,129,9047,1,2,0:0:0:0:
280,129,9535,2,0,L|131:128,1,139,8|0,0:0|0:0,0:0:0:0:
71,127,10267,5,2,0:0:0:0:
79,135,10998,1,2,0:0:0:0:
79,135,11242,6,0,P|67:185|82:211,1,69.5,0|8,0:0|0:0,0:0:0:0:
104,262,11730,1,0,0:0:0:0:
235,306,12218,5,2,0:0:0:0:
243,314,12950,1,2,0:0:0:0:
243,314,13438,2,0,L|325:314,1,69.5,8|0,0:0|0:0,0:0:0:0:
381,320,13925,1,2,0:0:0:0:
419,262,14169,5,2,0:0:0:0:
427,270,14901,1,2,0:0:0:0:
427,270,15145,2,0,L|403:195,1,69.5
298,168,15632,6,0,L|224:168,1,69.5,8|0,0:0|0:0,0:0:0:0:
159,150,16120,1,2,0:0:0:0:
91,134,16364,1,0,0:0:0:0:
91,134,16852,2,0,L|82:62,2,69.5,2|0|0,0:0|0:0|0:0,0:0:0:0:
159,150,17584,1,0,0:0:0:0:
224,124,17828,1,0,0:0:0:0:
264,67,18071,5,2,0:0:0:0:
194,61,18315,1,0,0:0:0:0:
194,61,18803,1,2,0:0:0:0:
224,124,19047,1,0,0:0:0:0:
288,149,19291,2,0,L|362:143,1,69.5,8|0,0:0|0:0,0:0:0:0:
397,86,19779,2,0,P|401:66|400:50,2,34.75,2|2|2,0:0|0:0|0:0,0:0:0:0:
397,86,20510,5,0,0:0:0:0:
336,84,20754,1,2,0:0:0:0:
336,84,21242,1,8,0:0:0:0:
246,190,21730,2,0,P|166:222|118:190,1,139,2|0,0:0|0:0,0:0:0:0:
109,130,22462,5,2,0:0:0:0:
247,120,22950,1,2,0:0:0:0:
309,149,23193,1,8,0:0:0:0:
378,145,23437,1,0,0:0:0:0:
433,102,23681,1,2,0:0:0:0:
431,32,23925,5,2,0:0:0:0:
371,67,24169,1,0,0:0:0:0:
371,67,24657,2,0,L|284:66,2,69.5,2|0|8,0:0|0:0|0:0,0:0:0:0:
413,122,25389,1,0,0:0:0:0:
414,191,25632,1,2,0:0:0:0:
374,248,25876,5,2,0:0:0:0:
344,184,26120,1,0,0:0:0:0:
344,184,26608,1,2,0:0:0:0:
303,240,26852,1,0,0:0:0:0:
236,260,27096,2,0,P|197:258|165:229,2,69.5,8|0|0,0:0|0:0|0:0,0:0:0:0:
303,240,27828,6,0,P|337:195|314:114,1,139,2|0,0:0|0:0,0:0:0:0:
272,64,28559,2,0,P|217:25|152:50,1,139,2|8,0:0|0:0,0:0:0:0:
90,172,29535,1,2,0:0:0:0:
207,98,30023,1,0,0:0:0:0:
272,64,30267,2,0,P|217:25|152:50,1,139,8|0,0:0|0:0,0:0:0:0:
61,91,30998,5,2,0:1:0:0:
146,165,31242,1,4,0:1:0:0:
124,275,31486,1,8,0:1:0:0:
55,298,31730,6,0,P|93:342|173:327,1,139,6|8,0:2|0:0,0:0:0:0:
227,296,32462,2,0,P|265:340|345:325,1,139,2|8,0:0|0:0,0:0:0:0:
451,248,33437,1,2,0:0:0:0:
451,248,33681,6,0,L|447:107,1,139,2|8,0:0|0:0,0:0:0:0:
378,96,34413,2,0,L|381:234,2,139,2|8|2,0:0|0:0|0:0,0:0:0:0:
376,26,35632,6,0,P|317:61|315:129,1,139,2|8,0:0|0:0,0:0:0:0:
380,166,36364,2,0,P|439:131|441:63,1,139,2|8,0:0|0:0,0:0:0:0:
303,66,37340,1,2,0:0:0:0:
233,67,37584,6,0,L|155:66,2,69.5,2|0|8,0:0|0:0|0:0,0:0:0:0:
364,112,38559,1,0,0:0:0:0:
364,112,38803,2,0,L|442:113,2,69.5,8|0|0,0:0|0:0|0:0,0:0:0:0:
375,180,39535,6,0,P|337:224|257:209,1,139,6|8,2:0|0:0,0:0:0:0:
193,201,40267,2,0,P|155:245|75:230,1,139,2|8,0:0|0:0,0:0:0:0:
79,100,41242,1,2,0:0:0:0:
79,100,41486,6,0,L|222:100,1,139,2|8,0:0|0:0,0:0:0:0:
273,58,42218,2,0,L|416:58,1,139,2|8,0:0|0:0,0:0:0:0:
481,55,42950,2,0,L|474:126,2,69.5,0|2|2,0:0|0:0|0:0,0:0:0:0:
403,170,43925,6,0,L|410:241,1,69.5,8|2,0:0|0:0,0:0:0:0:
314,340,44657,2,0,P|246:371|192:330,1,139,8|2,0:0|0:0,0:0:0:0:
88,252,45632,1,2,0:0:0:0:
147,215,45876,2,0,P|88:182|29:214,1,139,8|2,0:0|0:0,0:0:0:0:
135,122,46852,1,8,0:1:0:0:
51,10,47340,6,0,L|194:11,2,139,6|2|2,0:0|0:0|0:0,0:0:0:0:
48,148,48803,1,2,0:0:0:0:
182,113,49291,6,0,P|192:144|183:183,2,69.5,2|0|2,0:0|0:0|0:0,0:0:0:0:
110,232,50267,2,0,P|100:263|109:302,2,69.5,10|0|8,0:0|0:0|1:0,0:0:0:0:
244,267,51242,6,0,P|311:241|369:278,2,139,6|2|10,0:1|0:0|0:1,0:0:0:0:
107,298,52706,1,2,0:0:0:0:
238,341,53193,5,10,0:3:0:0:
220,203,53681,1,2,0:0:0:0:
203,64,54169,2,0,L|127:64,2,69.5,10|0|2,0:1|0:0|0:0,0:0:0:0:
342,64,55145,6,0,P|384:138|351:195,2,139,10|2|2,0:3|0:0|0:0,0:0:0:0:
342,64,56364,1,0,0:0:0:0:
342,64,56608,1,2,0:0:0:0:
218,128,57096,6,0,P|176:202|209:259,2,139,6|2|2,0:0|0:0|0:0,0:0:0:0:
225,135,58315,1,0,0:0:0:0:
225,135,58559,2,0,L|298:135,1,69.5,8|0,0:1|0:0,0:0:0:0:
364,135,59047,5,10,2:0:0:0:
256,192,59291,12,12,60998,0:1:0:0:
81,308,62950,5,6,2:0:0:0:
81,308,63193,2,0,P|151:241|201:255,1,139
247,275,63925,2,0,L|319:272,1,69.5,2|4,0:0|0:0,0:0:0:0:
311,202,64413,2,0,L|239:205,1,69.5,0|2,0:0|0:0,0:0:0:0:
177,177,64901,6,0,P|174:104|124:60,1,139,2|4,0:0|0:0,0:0:0:0:
66,94,65632,2,0,P|69:167|119:211,1,139,2|4,0:0|0:0,0:0:0:0:
184,216,66364,2,0,L|253:219,1,69.5,4|8,1:0|1:0,0:0:0:0:
259,150,66852,6,0,L|181:147,2,69.5,2|0|4,0:0|0:0|0:0,0:0:0:0:
315,190,67584,2,0,P|344:247|300:313,1,139,2|4,0:0|0:0,0:0:0:0:
241,298,68315,2,0,P|200:290|168:294,1,69.5,0|2,0:0|0:0,0:0:0:0:
104,306,68803,5,2,0:0:0:0:
52,259,69047,1,0,0:0:0:0:
53,189,69291,1,4,0:0:0:0:
100,138,69535,2,0,P|176:105|235:131,1,139,2|2,0:0|1:0,0:0:0:0:
293,138,70267,1,4,1:0:0:0:
337,84,70510,1,8,1:0:0:0:
319,16,70754,5,6,2:0:0:0:
249,8,70998,2,0,L|171:8,1,69.5,0|4,0:0|0:0,0:0:0:0:
109,6,71486,2,0,L|118:151,1,139,2|4,0:0|0:0,0:0:0:0:
184,163,72218,1,0,0:0:0:0:
169,230,72462,1,2,0:0:0:0:
101,214,72706,6,0,P|56:178|70:92,1,139,2|4,0:0|0:0,0:0:0:0:
106,50,73437,1,2,0:0:0:0:
175,45,73681,2,0,P|231:81|295:60,1,139,2|4,0:0|1:0,0:0:0:0:
365,65,74413,1,8,1:0:0:0:
434,69,74657,5,6,0:2:0:0:
375,195,75145,1,4,0:0:0:0:
305,190,75389,2,0,L|167:180,1,139,2|4,0:0|0:0,0:0:0:0:
105,213,76120,1,0,0:0:0:0:
162,252,76364,2,0,L|300:262,1,139,2|2,0:0|0:0,0:0:0:0:
363,232,77096,1,4,0:0:0:0:
305,190,77340,1,0,0:0:0:0:
368,160,77584,6,0,P|378:119|372:86,2,69.5,4|0|4,2:0|0:0|2:0,0:0:0:0:
239,213,78559,5,6,2:0:0:0:
196,157,78803,1,0,0:0:0:0:
152,103,79047,1,4,0:0:0:0:
96,233,79535,6,0,P|97:272|101:309,1,69.5,2|4,0:0|0:0,0:0:0:0:
126,366,80023,2,0,L|197:364,1,69.5,0|2,0:0|0:0,0:0:0:0:
240,311,80510,6,0,L|241:167,1,139,2|4,0:0|0:0,0:0:0:0:
310,173,81242,2,0,L|309:311,1,139,2|4,0:0|0:0,0:0:0:0:
373,338,81974,2,0,P|408:349|447:335,1,69.5,4|8,1:0|1:0,0:0:0:0:
491,294,82462,5,2,0:0:0:0:
503,225,82706,1,0,0:0:0:0:
465,166,82950,1,4,0:0:0:0:
399,144,83193,2,0,P|353:216|295:214,1,139,2|4,0:0|0:0,0:0:0:0:
239,195,83925,2,0,P|230:153|231:121,1,69.5,0|2,0:0|0:0,0:0:0:0:
261,64,84413,5,2,0:0:0:0:
328,48,84657,1,0,0:0:0:0:
393,69,84901,1,4,0:0:0:0:
427,129,85145,2,0,P|416:193|372:256,1,139,2|2,0:0|1:0,0:0:0:0:
314,287,85876,1,4,1:0:0:0:
242,294,86120,1,8,1:0:0:0:
174,278,86364,5,4,2:0:0:0:
74,181,86852,1,4,0:0:0:0:
74,181,87096,1,2,0:0:0:0:
217,176,87584,2,0,P|291:152|345:193,1,139,4|2,0:0|0:0,0:0:0:0:
427,289,88559,2,0,P|485:232|466:165,1,139,0|2,0:0|0:0,0:0:0:0:
433,48,89535,2,0,L|357:50,1,69.5,2|4,0:0|1:0,0:0:0:0:
224,56,90267,5,6,2:0:0:0:
95,109,90754,1,4,0:0:0:0:
220,165,91242,2,0,P|192:226|127:243,1,139,4|0,0:0|0:0,0:0:0:0:
127,243,92218,6,0,P|203:321|462:226,1,417,4|0,2:0|0:0,0:0:0:0:
448,92,94169,6,0,L|300:90,1,139,6|4,2:0|0:0,0:0:0:0:
266,222,95145,2,0,L|118:220,1,139,2|4,0:0|0:0,0:0:0:0:
117,81,96120,6,0,P|41:134|118:291,1,278,2|2,0:0|0:0,0:0:0:0:
203,196,97584,1,4,0:0:0:0:
325,260,98071,6,0,B|294:117|339:42|436:43,1,278,2|2,0:0|0:0,0:0:0:0:
477,88,99291,2,0,L|474:169,2,69.5,2|4|2,0:0|0:0|0:0,0:0:0:0:
356,158,100267,6,0,L|353:239,2,69.5,2|4|0,0:0|0:0|0:0,0:0:0:0:
313,103,100998,2,0,L|315:33,2,69.5,0|2|4,0:0|0:0|0:0,0:0:0:0:
174,89,101974,6,0,L|171:244,1,139,6|4,2:0|0:0,0:0:0:0:
44,170,102950,2,0,L|41:325,1,139,2|4,0:0|0:0,0:0:0:0:
176,340,103925,6,0,P|266:314|303:138,1,278,2|2,0:0|0:0,0:0:0:0:
191,76,105389,1,2,0:0:0:0:
54,100,105876,5,4,2:0:0:0:
130,295,106608,1,4,1:0:0:0:
295,168,107340,1,8,1:0:0:0:
191,76,107828,5,4,2:0:0:0:
130,295,109779,6,0,P|95:333|16:298,1,139,0|2,0:0|0:0,0:0:0:0:
20,307,110510,1,0,0:0:0:0:
31,238,110754,1,0,0:0:0:0:
42,169,110998,1,2,0:0:0:0:
54,100,111486,5,2,0:0:0:0:
69,167,111730,2,0,P|127:196|178:154,1,139,0|2,0:0|0:0,0:0:0:0:
189,85,112461,1,0,0:0:0:0:
190,15,112705,2,0,P|155:10|111:15,2,69.5,0|2|8,0:0|0:0|0:0,0:0:0:0:
190,15,113681,6,0,P|148:65|177:124,1,139,0|2,0:0|0:0,0:0:0:0:
177,124,114413,1,0,0:0:0:0:
245,134,114657,1,0,0:0:0:0:
313,144,114900,1,2,0:0:0:0:
381,154,115388,5,4,0:0:0:0:
315,177,115632,2,0,P|273:227|302:286,1,139,0|2,0:0|0:0,0:0:0:0:
371,297,116364,5,0,0:0:0:0:
439,307,116608,2,0,L|442:235,1,69.5,0|2,0:0|0:0,0:0:0:0:
441,237,117096,1,2,0:1:0:0:
296,207,117584,6,0,L|299:135,2,69.5,0|0|2,0:0|0:0|0:0,0:0:0:0:
240,249,118315,2,0,L|237:318,2,69.5,0|0|2,0:0|0:0|0:0,0:0:0:0:
78,116,119535,6,0,L|81:44,2,69.5,0|0|2,0:0|0:0|0:0,0:0:0:0:
22,158,120266,2,0,L|19:227,2,69.5,0|0|2,0:0|0:0|0:0,0:0:0:0:
22,158,120998,5,2,0:1:0:0:
