osu file format v14

[General]
AudioFilename: audio.mp3
AudioLeadIn: 0
PreviewTime: 57105
Countdown: 0
SampleSet: Soft
StackLeniency: 0.7
Mode: 0
LetterboxInBreaks: 0
WidescreenStoryboard: 0

[Editor]
Bookmarks: 6960,12890,20041,21437,32425,43588,57716,63297,68879,82658,88762
DistanceSpacing: 1.4
BeatDivisor: 4
GridSize: 4
TimelineZoom: 2.5

[Metadata]
Title:Heart Purupuru Jiken desu
TitleUnicode:ハートぷるぷる事件です
Artist:Furimawasare-tai
ArtistUnicode:振り回され隊
Creator:Lami
Version:Insane
Source:ご注文はうさぎですか?
Tags:gochuumon wa usagi desu ka is the order a rabbit gochiusa ごちうさ chino syaro rize intoon dailycare
BeatmapID:1284141
BeatmapSetID:525287

[Difficulty]
HPDrainRate:6
CircleSize:4
OverallDifficulty:7.2
ApproachRate:8.8
SliderMultiplier:1.65
SliderTickRate:1

[Events]
//Background and Video events
0,0,"ww.jpg",0,0
//Break Periods
//Storyboard Layer 0 (Background)
//Storyboard Layer 1 (Fail)
//Storyboard Layer 2 (Pass)
//Storyboard Layer 3 (Foreground)
//Storyboard Sound Samples

[TimingPoints]
507,348.837209302326,4,2,2,40,1,0
1204,-125,4,2,2,40,0,0
6960,-125,4,2,1,40,0,0
7483,-100,4,2,1,50,0,0
10274,-100,4,2,1,65,0,0
10797,-100,4,2,1,70,0,0
11320,-100,4,2,1,75,0,0
11582,-100,4,2,1,5,0,0
11669,-100,4,2,1,80,0,0
12541,-100,4,2,1,75,0,0
20041,-100,4,2,1,85,0,0
21437,-111.111111111111,4,2,1,65,0,0
31030,-100,4,2,1,70,0,0
31727,-100,4,2,1,75,0,0
32425,-111.111111111111,4,2,1,65,0,0
42018,-100,4,2,1,65,0,0
42193,-86.9565217391304,4,2,1,70,0,0
42890,-86.9565217391304,4,2,1,75,0,0
43587,-100,4,2,1,70,0,0
51960,-100,4,2,1,75,0,0
54925,-100,4,2,1,80,0,0
56495,-100,4,2,1,85,0,0
56844,-100,4,2,1,90,0,0
57193,-90.9090909090909,4,2,1,75,0,0
57716,-95.2380952380952,4,2,1,85,0,1
77774,-95.2380952380952,4,2,1,90,0,1
78646,-95.2380952380952,4,2,1,95,0,1
79518,-95.2380952380952,4,2,1,85,0,1
80041,-95.2380952380952,4,2,1,90,0,1
81437,-95.2380952380952,4,2,1,85,0,1
82658,-100,4,2,1,75,0,0
89809,-100,4,2,1,85,0,0
91117,-100,4,2,1,85,0,0
92512,-100,4,2,1,5,0,0
92600,-100,4,2,1,65,0,0
93820,-90.9090909090909,4,2,1,75,0,0

[Colours]
Combo1 : 126,84,84
Combo2 : 141,226,254
Combo3 : 244,179,106
Combo4 : 173,91,255
Combo5 : 252,250,146

[HitObjects]
62,273,1204,6,0,L|67:306,7,33
124,356,1902,6,0,P|157:356|187:342,1,66,2|0,0:0|0:0,0:0:0:0:
220,222,2251,1,10,0:0:0:0:
282,289,2425,2,0,L|423:273,1,132,2|2,0:0|0:0,0:0:0:0:
505,262,2948,1,8,0:0:0:0:
423,152,3123,6,0,P|358:151|309:193,1,132,2|0,0:0|0:0,0:0:0:0:
195,283,3646,2,0,L|174:145,2,132,10|2|10,0:0|0:0|0:0,0:0:0:0:
77,159,4693,6,0,L|86:93,1,66,2|0,0:0|0:0,0:0:0:0:
206,15,5041,1,10,0:0:0:0:
258,95,5216,2,0,P|322:97|368:53,1,132,2|2,0:0|0:0,0:0:0:0:
455,84,5739,1,8,0:0:0:0:
339,195,5913,6,0,B|294:187|294:187|256:200|256:200|210:190,2,132,2|2|2,0:0|0:0|0:0,0:0:0:0:
494,168,6786,1,0,0:0:0:0:
406,120,6960,1,8,0:3:0:0:
339,195,7134,2,0,P|339:227|349:259,1,66,4|8,0:3|0:1,0:0:0:0:
499,343,7483,5,14,0:1:0:0:
499,343,8181,1,12,0:0:0:0:
499,343,8704,1,8,0:1:0:0:
409,158,8879,5,14,0:1:0:0:
409,158,9576,1,12,0:0:0:0:
317,232,9751,1,0,3:0:0:0:
317,232,9838,1,0,3:0:0:0:
317,232,9925,2,0,L|234:221,1,82.5,6|8,3:0|3:1,0:0:0:0:
115,55,10274,5,12,0:0:0:0:
270,127,10448,1,8,0:1:0:0:
150,210,10623,1,8,0:1:0:0:
86,68,10797,5,12,0:0:0:0:
241,140,10972,1,8,0:1:0:0:
121,223,11146,1,8,0:1:0:0:
201,40,11320,6,0,L|323:24,1,123.75,12|0,0:0|0:0,0:0:0:0:
356,20,11669,5,12,0:0:0:0:
426,177,11844,1,8,0:0:0:0:
426,177,12541,2,0,L|436:132,2,41.25,8|8|8,0:1|0:1|0:0,0:0:0:0:
315,328,12890,6,0,P|229:321|148:317,1,165,14|8,0:1|0:1,0:0:0:0:
140,142,13413,1,10,0:0:0:0:
69,248,13588,1,2,3:0:0:0:
225,201,13762,2,0,P|242:153|243:115,1,82.5,8|10,3:1|0:1,0:0:0:0:
207,27,14111,1,8,0:0:0:0:
343,167,14286,6,0,P|427:170|473:104,1,165,14|8,0:1|0:1,0:0:0:0:
341,5,14809,1,10,0:0:0:0:
258,118,14983,1,2,3:0:0:0:
258,118,15070,1,8,3:2:0:0:
258,118,15158,1,8,3:1:0:0:
207,27,15332,1,10,0:1:0:0:
193,189,15507,1,8,0:0:0:0:
85,9,15681,6,0,P|98:87|108:182,1,165,14|8,0:1|0:1,0:0:0:0:
183,321,16204,1,10,0:0:0:0:
216,224,16379,1,2,3:0:0:0:
82,267,16553,2,0,L|-10:258,1,82.5,8|10,3:1|0:1,0:0:0:0:
94,368,16902,1,8,0:0:0:0:
216,224,17076,6,0,P|295:212|362:266,1,165,14|8,0:1|0:1,0:0:0:0:
441,384,17600,2,0,L|461:295,1,82.5,10|2,0:0|3:0,0:0:0:0:
403,172,17948,1,8,3:1:0:0:
403,172,18036,1,0,3:0:0:0:
403,172,18123,2,0,L|447:162,2,41.25,10|0|8,3:1|3:0|3:2,0:0:0:0:
251,304,18472,6,0,L|171:283,1,82.5,14|0,0:1|0:0,0:0:0:0:
130,104,18820,1,8,3:1:0:0:
247,208,18995,2,0,L|287:197,3,41.25,14|0|0|0,0:2|3:0|3:0|3:0,0:0:0:0:
312,166,19344,2,0,P|325:122|318:81,1,82.5,8|8,3:1|0:1,0:0:0:0:
151,26,19693,1,12,0:0:0:0:
91,220,19867,1,8,0:0:0:0:
91,220,19954,1,8,0:0:0:0:
91,220,20041,5,12,1:0:0:0:
233,84,20216,1,8,1:0:0:0:
85,257,20565,5,12,1:0:0:0:
227,121,20739,1,8,1:0:0:0:
79,294,21088,6,0,B|161:316|161:316|203:293,1,123.75,12|0,1:0|0:0,0:0:0:0:
262,252,21437,5,12,0:1:0:0:
227,121,21611,1,2,0:0:0:0:
333,191,21786,2,0,P|374:190|409:173,1,74.2499977340699,8|2,0:0|3:0,0:0:0:0:
428,30,22134,1,8,3:1:0:0:
352,102,22309,1,10,0:1:0:0:
488,171,22483,1,8,0:0:0:0:
352,102,22658,6,0,L|203:93,1,148.49999546814,10|8,0:1|0:1,0:0:0:0:
126,212,23181,1,10,0:0:0:0:
105,116,23355,1,2,3:0:0:0:
105,116,23443,1,0,3:0:0:0:
105,116,23530,2,0,L|110:41,2,74.2499977340699,8|10|8,3:1|0:1|0:0,0:0:0:0:
96,302,24053,5,10,0:1:0:0:
96,302,24402,1,10,0:1:0:0:
199,230,24576,2,0,P|233:215|271:215,1,74.2499977340699,8|2,0:0|3:0,0:0:0:0:
394,328,24925,1,8,3:1:0:0:
375,232,25100,1,10,0:1:0:0:
252,298,25274,1,8,0:0:0:0:
215,154,25448,6,0,L|137:142,1,74.2499977340699,10|0,0:1|0:0,0:0:0:0:
35,231,25797,2,0,L|108:219,1,74.2499977340699,10|8,0:1|0:0,0:0:0:0:
130,69,26146,2,0,L|142:147,1,74.2499977340699,2|8,3:0|3:1,0:0:0:0:
97,292,26495,2,0,L|108:219,1,74.2499977340699,10|8,0:1|0:0,0:0:0:0:
230,136,26844,6,0,B|275:150|275:150|368:107,1,148.49999546814,14|10,0:1|0:1,0:0:0:0:
472,187,27367,2,0,L|455:115,1,74.2499977340699,8|0,0:0|0:0,0:0:0:0:
369,212,27716,2,0,L|349:288,1,74.2499977340699,10|10,0:1|0:1,0:0:0:0:
279,365,28065,1,8,0:0:0:0:
208,204,28239,6,0,P|145:198|84:260,1,148.49999546814,10|10,0:1|0:1,0:0:0:0:
146,359,28762,1,8,0:0:0:0:
260,280,28937,2,0,B|310:286|310:286|348:314|348:314|398:323,1,148.49999546814,2|10,3:0|0:1,0:0:0:0:
409,209,29460,1,8,0:0:0:0:
277,164,29634,6,0,P|263:92|312:38,1,148.49999546814,10|10,0:1|0:1,0:0:0:0:
424,136,30158,2,0,P|421:172|409:208,1,74.2499977340699,8|0,0:0|0:0,0:0:0:0:
291,280,30507,1,8,3:1:0:0:
291,280,30594,1,0,3:0:0:0:
291,280,30681,2,0,L|247:273,1,37.1249988670349,10|0,3:1|3:0,0:0:0:0:
176,319,30855,2,0,L|132:312,1,37.1249988670349,8|2,3:2|3:0,0:0:0:0:
82,236,31030,6,0,P|135:177|216:188,1,165,14|10,3:1|0:1,0:0:0:0:
291,280,31553,1,8,0:0:0:0:
427,122,31727,6,0,P|415:193|405:284,1,165,14|10,0:1|3:1,0:0:0:0:
404,285,32163,1,0,3:0:0:0:
404,285,32251,1,10,3:2:0:0:
316,175,32425,5,14,0:1:0:0:
316,175,32774,1,10,0:1:0:0:
216,258,32948,2,0,P|170:268|137:263,1,74.2499977340699,8|2,0:0|3:0,0:0:0:0:
86,139,33297,1,8,3:1:0:0:
44,226,33472,1,10,0:1:0:0:
13,77,33646,1,8,0:0:0:0:
162,187,33820,6,0,P|233:171|317:157,1,148.49999546814,10|8,0:1|0:1,0:0:0:0:
426,218,34344,1,10,0:0:0:0:
349,286,34518,1,2,3:0:0:0:
349,286,34605,1,0,3:0:0:0:
349,286,34693,2,0,L|275:277,2,74.2499977340699,8|10|8,3:1|0:1|0:0,0:0:0:0:
415,110,35216,5,10,0:1:0:0:
415,110,35565,1,10,0:1:0:0:
299,159,35739,2,0,P|260:156|231:138,1,74.2499977340699,8|2,0:0|3:0,0:0:0:0:
181,22,36088,1,8,3:1:0:0:
286,80,36262,1,10,0:1:0:0:
173,200,36437,1,8,0:0:0:0:
286,80,36611,6,0,L|365:68,1,74.2499977340699,10|0,0:1|0:0,0:0:0:0:
456,167,36960,2,0,L|377:155,1,74.2499977340699,10|8,0:1|0:0,0:0:0:0:
259,258,37309,2,0,L|337:246,1,74.2499977340699,2|8,3:0|3:1,0:0:0:0:
428,345,37658,2,0,L|349:333,1,74.2499977340699,10|8,0:1|0:0,0:0:0:0:
170,340,38007,6,0,P|126:291|141:207,1,148.49999546814,14|10,0:1|0:1,0:0:0:0:
290,121,38530,2,0,L|301:195,1,74.2499977340699,8|0,0:0|0:0,0:0:0:0:
279,345,38879,1,10,0:1:0:0:
220,259,39053,1,10,0:1:0:0:
389,226,39227,1,8,0:0:0:0:
279,345,39402,6,0,P|206:344|130:341,1,148.49999546814,10|10,0:1|0:1,0:0:0:0:
111,187,39925,1,8,0:0:0:0:
220,259,40100,2,0,P|291:259|371:261,1,148.49999546814,2|10,3:0|0:1,0:0:0:0:
430,121,40623,1,8,0:0:0:0:
277,182,40797,6,0,P|236:139|254:59,1,148.49999546814,10|10,0:1|0:1,0:0:0:0:
443,47,41320,2,0,L|430:120,1,74.2499977340699,8|0,0:0|0:0,0:0:0:0:
369,260,41669,1,8,3:1:0:0:
311,112,41844,1,10,3:1:0:0:
311,112,41931,1,0,3:0:0:0:
311,112,42018,2,0,B|268:104,1,41.25,8|2,3:2|3:0,0:0:0:0:
206,151,42193,6,0,P|190:194|196:255,1,94.8750018095971,14|0,0:1|0:0,0:0:0:0:
355,351,42541,2,0,P|370:307|365:247,1,94.8750018095971,12|0,0:1|0:0,0:0:0:0:
207,344,42890,1,12,3:1:0:0:
207,344,42977,1,0,3:0:0:0:
207,344,43065,1,10,3:2:0:0:
280,203,43239,1,12,3:1:0:0:
108,301,43413,1,6,3:0:0:0:
206,151,43588,6,0,P|292:113|354:151,1,165,14|10,0:1|0:1,0:0:0:0:
393,320,44111,1,8,0:0:0:0:
280,203,44286,1,2,0:0:0:0:
436,158,44460,1,8,0:1:0:0:
393,320,44634,1,10,0:1:0:0:
348,144,44809,1,8,0:0:0:0:
269,294,44983,6,0,B|161:304|161:304|112:259,1,165,10|10,0:1|0:1,0:0:0:0:
175,86,45507,2,0,P|183:126|187:186,1,82.5,8|0,0:0|3:0,0:0:0:0:
37,231,45855,1,8,3:1:0:0:
37,231,45943,1,0,3:0:0:0:
37,231,46030,1,10,3:1:0:0:
90,93,46204,1,8,0:0:0:0:
259,210,46379,6,0,P|335:195|378:124,1,165,14|10,0:1|0:1,0:0:0:0:
245,30,46902,1,8,0:0:0:0:
186,167,47076,1,2,3:0:0:0:
90,93,47251,2,0,L|8:77,1,82.5,8|10,3:1|0:1,0:0:0:0:
21,235,47600,1,8,0:0:0:0:
186,167,47774,6,0,P|210:84|180:13,1,165,10|10,0:1|0:1,0:0:0:0:
9,77,48297,2,0,L|91:93,1,82.5,8|2,0:0|3:0,0:0:0:0:
113,239,48646,1,8,3:1:0:0:
113,239,48733,1,0,3:0:0:0:
113,239,48820,1,8,3:1:0:0:
209,94,48995,1,8,0:0:0:0:
266,257,49169,6,0,P|341:273|410:215,1,165,14|8,0:1|0:1,0:0:0:0:
334,95,49693,2,0,L|320:177,1,82.5,10|0,0:0|3:0,0:0:0:0:
199,313,50041,2,0,L|184:231,1,82.5,10|8,3:1|0:1,0:0:0:0:
155,79,50390,1,8,0:0:0:0:
320,176,50565,6,0,B|377:168|377:168|419:136|419:136|475:127,1,165,10|10,0:1|0:1,0:0:0:0:
454,298,51088,2,0,P|413:292|378:270,1,82.5,8|2,0:0|3:0,0:0:0:0:
333,82,51437,2,0,P|272:33|182:52,1,165,10|8,3:1|0:0,0:0:0:0:
97,194,51960,6,0,P|176:207|239:157,1,165,14|8,0:1|0:1,0:0:0:0:
106,26,52483,2,0,L|93:111,1,82.5,10|0,0:0|3:0,0:0:0:0:
252,239,52832,2,0,L|239:157,1,82.5,10|8,3:2|0:1,0:0:0:0:
220,40,53181,1,10,0:0:0:0:
93,107,53355,1,10,0:1:0:0:
175,258,53530,6,0,P|224:255|259:231,1,82.5,8|10,0:0|0:1,0:0:0:0:
380,65,53879,2,0,P|331:68|296:92,1,82.5,8|10,0:0|3:1,0:0:0:0:
360,255,54227,1,8,3:1:0:0:
471,122,54402,1,10,0:1:0:0:
450,264,54576,1,8,3:2:0:0:
447,279,54663,1,8,3:2:0:0:
444,294,54751,1,8,3:2:0:0:
442,309,54838,1,8,3:2:0:0:
440,325,54925,6,0,P|394:342|354:343,1,82.5,10|8,0:1|0:0,0:0:0:0:
193,235,55274,1,10,0:3:0:0:
384,176,55448,1,10,0:1:0:0:
384,176,55797,5,10,0:1:0:0:
247,73,55972,1,10,1:0:0:0:
193,235,56146,2,0,P|112:245|60:177,2,165,14|12|12,1:0|1:0|1:0,0:0:0:0:
247,73,57193,5,8,0:1:0:0:
247,73,57280,1,8,0:1:0:0:
247,73,57367,2,0,L|262:174,1,90.7500027694703,8|0,0:0|0:0,0:0:0:0:
409,300,57716,6,0,P|453:291|489:260,1,86.6249973564149,12|2,0:1|0:0,0:0:0:0:
359,120,58065,1,8,0:0:0:0:
291,248,58239,2,0,P|274:287|277:330,1,86.6249973564149,2|8,3:0|3:1,0:0:0:0:
443,175,58588,2,0,P|460:136|457:93,1,86.6249973564149,10|8,0:1|0:0,0:0:0:0:
276,23,58937,6,0,B|157:9|157:9|113:55,1,173.24999471283,14|8,0:1|0:1,0:0:0:0:
178,184,59460,2,0,L|194:99,1,86.6249973564149,10|0,0:0|0:0,0:0:0:0:
42,183,59809,2,0,L|58:268,1,86.6249973564149,10|8,0:1|0:1,0:0:0:0:
170,374,60158,2,0,L|186:289,1,86.6249973564149,10|0,0:0|0:0,0:0:0:0:
311,115,60507,5,10,0:1:0:0:
345,276,60681,1,2,0:0:0:0:
253,208,60855,1,8,0:0:0:0:
414,174,61030,1,2,3:0:0:0:
414,174,61117,1,8,3:2:0:0:
414,174,61204,1,8,3:1:0:0:
253,208,61379,2,0,L|163:197,1,86.6249973564149,10|8,0:1|0:0,0:0:0:0:
256,35,61727,6,0,P|345:24|402:84,2,173.24999471283,14|10|10,0:1|0:1|0:1,0:0:0:0:
167,197,62600,1,10,0:1:0:0:
311,115,62774,1,8,0:1:0:0:
154,48,62948,1,8,0:0:0:0:
263,200,63123,1,0,3:0:0:0:
263,200,63210,1,0,3:0:0:0:
263,200,63297,6,0,L|274:298,1,86.6249973564149,12|2,0:1|0:0,0:0:0:0:
392,198,63646,1,8,0:0:0:0:
309,115,63820,2,0,P|240:105|168:185,1,173.24999471283,2|10,0:0|0:1,0:0:0:0:
153,285,64344,1,8,0:0:0:0:
321,362,64518,6,0,P|406:351|495:346,1,173.24999471283,14|10,0:1|0:1,0:0:0:0:
512,179,65041,1,8,0:0:0:0:
419,239,65216,2,0,P|371:237|332:221,1,86.6249973564149,2|8,3:0|3:1,0:0:0:0:
292,57,65565,1,8,3:1:0:0:
265,161,65739,1,8,3:2:0:0:
258,187,65826,1,0,3:0:0:0:
251,213,65913,1,8,3:1:0:0:
244,239,66001,1,8,3:2:0:0:
238,265,66088,6,0,L|147:258,1,86.6249973564149,14|0,0:1|0:0,0:0:0:0:
71,97,66437,2,0,L|157:90,1,86.6249973564149,10|0,0:0|0:0,0:0:0:0:
265,161,66786,1,10,0:1:0:0:
303,16,66960,1,8,0:1:0:0:
303,16,67047,1,8,0:1:0:0:
303,16,67134,1,8,0:0:0:0:
380,173,67309,6,0,B|394:225|394:225|372:343,2,173.24999471283,14|10|10,0:1|0:1|1:0,0:0:0:0:
157,90,68181,2,0,L|150:195,1,86.6249973564149,2|8,3:0|3:1,0:0:0:0:
185,330,68530,1,10,1:0:0:0:
214,342,68617,1,0,3:0:0:0:
247,342,68704,1,8,0:1:0:0:
277,330,68791,1,8,3:2:0:0:
300,308,68879,6,0,P|314:266|308:213,1,86.6249973564149,12|2,0:1|0:0,0:0:0:0:
157,90,69227,1,8,0:0:0:0:
274,127,69402,2,0,L|370:111,1,86.6249973564149,2|8,3:0|3:1,0:0:0:0:
491,249,69751,2,0,L|395:233,1,86.6249973564149,10|8,0:1|0:0,0:0:0:0:
166,255,70100,6,0,P|231:202|311:224,1,173.24999471283,14|8,0:1|0:1,0:0:0:0:
200,349,70623,2,0,P|154:351|115:338,1,86.6249973564149,10|0,0:0|0:0,0:0:0:0:
6,185,70972,2,0,P|52:183|91:196,1,86.6249973564149,10|8,0:1|0:1,0:0:0:0:
21,369,71320,2,0,P|18:325|31:284,1,86.6249973564149,10|0,0:0|0:0,0:0:0:0:
182,138,71669,5,10,0:1:0:0:
250,293,71844,1,2,0:0:0:0:
292,184,72018,1,8,0:0:0:0:
136,252,72193,1,2,3:0:0:0:
136,252,72280,1,8,3:2:0:0:
136,252,72367,1,8,3:1:0:0:
292,184,72541,2,0,L|312:88,1,86.6249973564149,10|8,0:1|0:0,0:0:0:0:
142,29,72890,6,0,P|57:20|0:85,2,173.24999471283,14|10|10,0:1|0:1|0:1,0:0:0:0:
206,202,73762,1,10,0:1:0:0:
239,35,73937,1,8,0:1:0:0:
91,108,74111,1,8,0:0:0:0:
272,130,74286,1,0,3:0:0:0:
272,130,74373,1,0,3:0:0:0:
272,130,74460,6,0,L|374:112,1,86.6249973564149,12|2,3:1|0:0,0:0:0:0:
510,253,74809,1,8,0:0:0:0:
449,98,74983,1,2,0:0:0:0:
329,249,75158,2,0,P|287:261|244:263,1,86.6249973564149,8|8,3:2|0:1,0:0:0:0:
183,85,75507,5,8,0:0:0:0:
148,265,75681,1,10,0:1:0:0:
91,108,75855,2,0,L|73:6,1,86.6249973564149,12|2,0:1|0:0,0:0:0:0:
229,177,76204,2,0,L|244:262,1,86.6249973564149,8|0,0:0|0:0,0:0:0:0:
429,204,76553,6,0,P|386:193|343:194,1,86.6249973564149,10|8,0:0|0:1,0:0:0:0:
260,368,76902,2,0,P|302:378|345:377,1,86.6249973564149,10|8,0:0|3:1,0:0:0:0:
512,235,77251,5,14,3:2:0:0:
351,290,77425,1,8,0:1:0:0:
466,384,77600,1,8,0:1:0:0:
485,210,77774,5,12,0:0:0:0:
324,265,77948,1,8,0:1:0:0:
439,359,78123,1,8,0:1:0:0:
371,183,78297,6,0,L|357:45,1,129.937496034622,12|0,0:0|0:0,0:0:0:0:
354,23,78646,5,12,0:0:0:0:
237,201,78820,1,8,0:0:0:0:
237,201,79518,2,0,L|180:192,1,43.3124986782074,8|8,0:1|0:1,0:0:0:0:
126,242,79693,2,0,P|87:251|35:240,1,86.6249973564149,8|0,0:0|0:0,0:0:0:0:
86,56,80041,5,12,0:0:0:0:
270,117,80216,1,8,1:0:0:0:
118,162,80390,1,8,0:0:0:0:
238,11,80565,1,12,0:0:0:0:
238,11,80913,6,0,L|326:5,1,86.6249973564149,12|0,0:0|0:0,0:0:0:0:
411,180,81262,2,0,L|323:174,1,86.6249973564149,12|0,0:1|0:0,0:0:0:0:
152,109,81611,1,8,0:0:0:0:
152,109,81698,1,8,0:0:0:0:
152,109,81786,2,0,L|240:103,1,86.6249973564149,8|8,0:1|0:1,0:0:0:0:
291,283,82134,1,8,0:0:0:0:
291,283,82222,1,8,0:0:0:0:
291,283,82309,1,8,0:1:0:0:
131,242,82483,1,8,0:1:0:0:
238,103,82658,6,0,P|321:83|385:145,1,165,14|10,0:1|0:1,0:0:0:0:
378,304,83181,1,8,0:0:0:0:
299,170,83355,1,2,3:0:0:0:
202,294,83530,2,0,L|191:388,1,82.5,8|10,3:1|0:1,0:0:0:0:
56,292,83879,1,8,0:0:0:0:
39,125,84053,6,0,P|117:110|179:162,1,165,14|10,0:1|0:1,0:0:0:0:
202,294,84576,1,8,0:0:0:0:
299,170,84751,1,2,3:0:0:0:
299,170,84838,1,8,3:2:0:0:
299,170,84925,1,8,3:1:0:0:
234,311,85100,1,10,0:1:0:0:
101,202,85274,1,8,0:0:0:0:
302,255,85448,6,0,L|488:237,1,165,14|10,0:1|0:1,0:0:0:0:
498,62,85972,1,8,0:0:0:0:
402,147,86146,1,2,3:0:0:0:
302,35,86320,2,0,P|263:20|212:23,1,82.5,8|10,3:1|0:1,0:0:0:0:
103,93,86669,1,8,0:0:0:0:
205,249,86844,6,0,P|260:207|246:113,1,165,14|10,0:1|0:1,0:0:0:0:
98,204,87367,2,0,L|112:286,1,82.5,8|2,0:0|3:0,0:0:0:0:
250,363,87716,1,8,3:1:0:0:
250,363,87803,1,0,3:0:0:0:
250,363,87890,2,0,L|291:356,2,41.25,10|0|8,3:1|0:0|0:0,0:0:0:0:
309,201,88239,6,0,P|346:182|389:180,1,82.5,14|0,0:1|0:0,0:0:0:0:
426,337,88588,1,8,0:1:0:0:
254,276,88762,2,0,L|213:269,3,41.25,12|0|0|8,0:0|0:0|3:0|3:2,0:0:0:0:
178,248,89111,2,0,P|138:247|96:262,1,82.5,8|8,3:1|0:1,0:0:0:0:
250,363,89460,1,12,0:0:0:0:
243,175,89634,1,8,0:0:0:0:
243,175,89722,1,8,0:0:0:0:
243,175,89809,5,12,1:0:0:0:
337,346,89983,1,8,1:0:0:0:
265,147,90332,5,12,1:0:0:0:
359,318,90507,1,8,1:0:0:0:
287,119,90855,6,0,L|416:107,1,123.75,12|0,1:0|3:0,0:0:0:0:
443,105,91204,5,12,1:0:0:0:
349,276,91379,1,8,1:0:0:0:
465,133,91727,5,12,1:0:0:0:
371,304,91902,1,8,1:0:0:0:
487,161,92251,6,0,L|499:290,1,123.75,12|0,1:0|3:0,0:0:0:0:
501,315,92600,5,12,0:1:0:0:
356,378,92774,1,2,0:0:0:0:
337,283,92948,1,2,0:0:0:0:
265,346,93123,1,0,0:0:0:0:
411,221,93297,5,14,0:1:0:0:
319,189,93472,1,0,0:0:0:0:
337,283,93646,1,2,0:0:0:0:
393,127,93820,6,0,P|353:75|273:72,1,136.125004154205,12|0,0:1|0:0,0:0:0:0:
218,127,94169,2,0,L|210:172,1,45.3750013847352,8|10,0:0|0:0,0:0:0:0:
140,84,94344,2,0,L|132:39,1,45.3750013847352,8|10,0:3|0:1,0:0:0:0:
60,132,94518,5,12,1:0:0:0:
