osu file format v14

[General]
AudioFilename: audio.mp3
AudioLeadIn: 0
PreviewTime: 57105
Countdown: 0
SampleSet: Soft
StackLeniency: 0.7
Mode: 0
LetterboxInBreaks: 0
WidescreenStoryboard: 0

[Editor]
DistanceSpacing: 1.1
BeatDivisor: 4
GridSize: 4
TimelineZoom: 1

[Metadata]
Title:Heart Purupuru Jiken desu
TitleUnicode:ハートぷるぷる事件です
Artist:Furimawasare-tai
ArtistUnicode:振り回され隊
Creator:Lami
Version:Easy
Source:ご注文はうさぎですか?
Tags:gochuumon wa usagi desu ka is the order a rabbit gochiusa ごちうさ chino syaro rize intoon dailycare
BeatmapID:1116231
BeatmapSetID:525287

[Difficulty]
HPDrainRate:2
CircleSize:3
OverallDifficulty:2
ApproachRate:3
SliderMultiplier:0.8
SliderTickRate:1

[Events]
//Background and Video events
0,0,"ww.jpg",0,0
//Break Periods
//Storyboard Layer 0 (Background)
//Storyboard Layer 1 (Fail)
//Storyboard Layer 2 (Pass)
//Storyboard Layer 3 (Foreground)
//Storyboard Sound Samples

[TimingPoints]
507,348.837209302326,4,2,2,40,1,0
6960,-100,4,2,1,40,0,0
7483,-100,4,2,1,50,0,0
10274,-100,4,2,1,65,0,0
10797,-100,4,2,1,70,0,0
11320,-100,4,2,1,75,0,0
11669,-100,4,2,1,80,0,0
12541,-100,4,2,1,75,0,0
20041,-100,4,2,1,85,0,0
21437,-100,4,2,1,65,0,0
31030,-100,4,2,1,70,0,0
31727,-100,4,2,1,75,0,0
32425,-100,4,2,1,65,0,0
42193,-100,4,2,1,70,0,0
42890,-100,4,2,1,75,0,0
43587,-100,4,2,1,70,0,0
51960,-100,4,2,1,75,0,0
54925,-100,4,2,1,80,0,0
56495,-100,4,2,1,85,0,0
56844,-100,4,2,1,90,0,0
57193,-100,4,2,1,75,0,0
57716,-100,4,2,1,85,0,1
77774,-100,4,2,1,90,0,1
78646,-100,4,2,1,95,0,1
79518,-100,4,2,1,85,0,1
80041,-100,4,2,1,90,0,1
81437,-100,4,2,1,85,0,1
82658,-100,4,2,1,75,0,0
89809,-100,4,2,1,85,0,0
92600,-100,4,2,1,65,0,0
93820,-100,4,2,1,75,0,0

[Colours]
Combo1 : 126,84,84
Combo2 : 141,226,254
Combo3 : 244,179,106
Combo4 : 173,91,255
Combo5 : 252,250,146

[HitObjects]
270,319,1902,6,0,P|308:273|312:214,1,120,2|2,0:0|0:0,0:0:0:0:
240,164,2774,1,2,0:0:0:0:
154,185,3123,2,0,P|100:184|44:133,1,120,2|10,0:0|0:0,0:0:0:0:
34,57,3995,1,10,0:0:0:0:
208,35,4693,6,0,B|250:40|250:40|280:61|280:61|321:65,1,120,2|2,0:0|0:0,0:0:0:0:
407,78,5565,1,2,0:0:0:0:
469,139,5913,2,0,P|479:181|450:265,1,120,2|0,0:0|0:0,0:0:0:0:
378,287,6786,2,0,L|295:274,1,80,0|4,0:0|0:3,0:0:0:0:
212,259,7483,5,14,0:1:0:0:
37,231,8181,1,12,0:0:0:0:
147,94,8879,1,14,0:1:0:0:
212,259,9576,2,0,P|201:308|168:340,1,80,12|6,0:0|3:0,0:0:0:0:
124,264,10274,6,0,B|109:184|109:184|68:147,2,120,12|12|12,0:0|0:0|0:0,0:0:0:0:
99,348,11669,1,12,0:0:0:0:
138,166,12890,6,0,P|196:168|241:207,1,120,14|10,0:1|0:0,0:0:0:0:
253,294,13762,2,0,P|303:324|364:316,1,120,8|14,3:1|0:1,0:0:0:0:
443,285,14634,1,8,0:1:0:0:
495,214,14983,2,0,L|480:134,1,80,2|10,3:0|0:1,0:0:0:0:
464,48,15681,6,0,P|411:20|353:31,1,120,14|10,0:1|0:0,0:0:0:0:
324,114,16553,2,0,L|302:246,1,120,8|14,3:1|0:1,0:0:0:0:
291,319,17425,1,8,0:1:0:0:
219,369,17774,2,0,P|182:384|142:382,1,80,2|10,3:0|3:1,0:0:0:0:
54,373,18472,6,0,B|20:354|20:354|10:273,1,120,14|14,0:1|0:2,0:0:0:0:
1,185,19344,2,0,P|9:146|32:113,1,80,8|12,3:1|0:0,0:0:0:0:
117,139,20041,2,0,P|114:80|69:32,2,120,12|12|12,1:0|1:0|1:0,0:0:0:0:
144,222,21437,6,0,P|188:231|225:227,1,80,12|8,0:1|0:0,0:0:0:0:
290,171,22134,2,0,L|307:42,2,120,8|10|10,3:1|0:1|0:0,0:0:0:0:
306,257,23530,2,0,P|361:260|422:219,1,120,8|10,3:1|0:1,0:0:0:0:
482,170,24402,6,0,L|465:50,2,120,10|8|10,0:1|3:1|0:1,0:0:0:0:
494,257,25797,1,10,0:1:0:0:
439,326,26146,2,0,P|400:338|360:336,1,80,2|10,3:0|0:1,0:0:0:0:
277,308,26844,6,0,B|232:296|232:296|193:304|193:304|148:288,1,120,14|8,0:1|0:0,0:0:0:0:
76,268,27716,2,0,P|44:211|65:151,1,120,10|10,0:1|0:1,0:0:0:0:
103,86,28588,1,10,0:1:0:0:
179,40,28937,2,0,P|218:37|257:46,1,80,2|10,3:0|0:1,0:0:0:0:
336,85,29634,6,0,L|357:207,1,120,10|8,0:1|0:0,0:0:0:0:
368,290,30507,1,8,3:1:0:0:
239,261,31030,2,0,B|211:251|170:266|170:266|138:253|138:253|99:272|76:259,2,160,14|14|14,3:1|0:1|0:1,0:0:0:0:
298,195,32774,6,0,B|317:118|317:118|292:67,1,120,10|8,0:1|3:1,0:0:0:0:
183,17,33820,2,0,B|164:94|164:94|189:145,1,120,10|10,0:1|0:0,0:0:0:0:
212,213,34693,2,0,P|179:241|97:235,1,120,8|10,3:1|0:1,0:0:0:0:
23,207,35565,6,0,B|8:87,2,120,10|8|10,0:1|3:1|0:1,0:0:0:0:
34,294,36960,1,10,0:1:0:0:
83,367,37309,2,0,P|122:367|161:357,1,80,2|10,3:0|0:1,0:0:0:0:
203,279,38007,6,0,P|257:251|320:267,1,120,14|8,0:1|0:0,0:0:0:0:
380,319,38879,2,0,P|438:330|490:302,1,120,10|10,0:1|0:1,0:0:0:0:
507,215,39751,1,10,0:1:0:0:
500,128,40100,2,0,L|494:46,1,80,2|10,3:0|0:1,0:0:0:0:
412,16,40797,6,0,P|362:6|295:50,1,120,10|8,0:1|0:0,0:0:0:0:
235,92,41669,2,0,P|177:101|127:71,1,120,8|14,3:1|0:1,0:0:0:0:
61,11,42541,1,12,0:1:0:0:
6,79,42890,2,0,P|1:123|14:171,1,80,12|12,3:1|3:1,0:0:0:0:
80,208,43588,6,0,L|206:192,2,120,14|8|10,0:1|0:0|0:1,0:0:0:0:
0,246,44983,2,0,P|-8:295|19:360,1,120,10|8,0:1|0:0,0:0:0:0:
103,380,45855,1,8,3:1:0:0:
167,264,46379,6,0,L|148:135,2,120,14|8|10,0:1|0:0|0:1,0:0:0:0:
242,309,47774,2,0,P|304:302|346:259,1,120,10|8,0:1|0:0,0:0:0:0:
360,177,48646,1,8,3:1:0:0:
252,99,49169,6,0,P|190:106|148:145,1,120,14|10,0:1|0:0,0:0:0:0:
145,231,50041,2,0,B|140:363,2,120,10|10|8,3:1|0:1|0:0,0:0:0:0:
70,184,51437,1,10,3:1:0:0:
151,80,51960,6,0,B|191:58|191:58|273:61,1,120,14|10,0:1|0:0,0:0:0:0:
325,124,52832,2,0,B|285:146|285:146|203:143,2,120,10|10|8,3:2|0:1|0:0,0:0:0:0:
404,162,54227,2,0,P|419:198|420:238,1,80,8|8,3:1|3:2,0:0:0:0:
418,326,54925,6,0,P|360:333|305:306,1,120,10|10,0:1|0:1,0:0:0:0:
251,238,55797,1,10,0:1:0:0:
181,184,56146,2,0,P|145:175|88:182,2,80,14|12|12,1:0|1:0|1:0,0:0:0:0:
193,315,57367,1,8,0:0:0:0:
119,363,57716,6,0,P|67:366|12:309,1,120,12|2,0:1|3:0,0:0:0:0:
14,236,58588,1,10,0:1:0:0:
89,190,58937,2,0,B|131:195|131:195|161:216|161:216|202:220,1,120,14|10,0:1|0:0,0:0:0:0:
289,225,59809,2,0,P|311:192|317:153,1,80,10|10,0:1|0:0,0:0:0:0:
312,64,60507,6,0,P|266:25|208:23,1,120,10|2,0:1|3:0,0:0:0:0:
122,45,61379,1,10,0:1:0:0:
69,115,61727,2,0,L|52:240,1,120,14|0,0:1|0:0,0:0:0:0:
113,297,62600,2,0,P|154:302|195:288,1,80,10|8,0:1|0:0,0:0:0:0:
275,269,63297,6,0,B|310:293|310:293|310:336|339:363,1,120,12|2,0:1|0:0,0:0:0:0:
425,373,64169,1,10,0:1:0:0:
500,326,64518,2,0,P|511:284|496:238,1,80,14|10,0:1|0:1,0:0:0:0:
447,181,65216,2,0,L|323:173,1,120,2|8,3:0|3:2,0:0:0:0:
252,130,66088,6,0,L|237:48,2,80,14|10|10,0:1|0:0|0:1,0:0:0:0:
183,242,67309,2,0,L|197:320,1,80,14|10,0:1|0:1,0:0:0:0:
72,363,68181,2,0,P|44:333|32:296,1,80,2|10,3:0|1:0,0:0:0:0:
34,208,68879,6,0,P|77:168|135:169,1,120,12|2,0:1|3:0,0:0:0:0:
219,196,69751,1,10,0:1:0:0:
262,272,70100,2,0,P|302:222|300:165,1,120,14|10,0:1|0:0,0:0:0:0:
283,82,70972,2,0,P|309:52|345:36,1,80,10|10,0:1|0:0,0:0:0:0:
433,40,71669,6,0,B|455:73|455:73|453:159,1,120,10|2,0:1|3:0,0:0:0:0:
430,238,72541,1,10,0:1:0:0:
351,278,72890,2,0,P|290:278|242:244,1,120,14|0,0:1|0:0,0:0:0:0:
202,167,73762,2,0,P|162:151|122:150,1,80,10|8,0:1|0:0,0:0:0:0:
43,181,74460,6,0,P|30:220|35:260,1,80,12|8,3:1|0:0,0:0:0:0:
90,325,75158,2,0,P|129:338|169:333,1,80,8|8,3:2|0:0,0:0:0:0:
249,301,75855,2,0,P|288:288|328:293,1,80,12|8,0:1|0:0,0:0:0:0:
409,320,76553,2,0,L|425:234,1,80,10|10,0:0|0:0,0:0:0:0:
432,153,77251,6,0,B|405:144|384:115|384:115|352:122|322:109,2,120,14|12|12,3:2|0:0|0:0,0:0:0:0:
465,71,78646,1,12,0:0:0:0:
319,239,80041,6,0,B|241:231|241:231|207:193,1,120,12|12,0:0|0:0,0:0:0:0:
174,120,80913,1,12,0:0:0:0:
88,97,81262,2,0,P|35:105|0:166,1,120,12|8,0:1|0:1,0:0:0:0:
7,245,82134,1,8,0:0:0:0:
77,359,82658,6,0,P|137:360|186:313,1,120,14|8,0:1|0:0,0:0:0:0:
191,235,83530,2,0,L|209:104,1,120,8|14,3:1|0:1,0:0:0:0:
247,37,84402,1,10,0:1:0:0:
333,53,84751,2,0,P|357:83|363:126,1,80,2|10,3:0|0:1,0:0:0:0:
355,210,85448,6,0,B|347:247|347:247|359:295|359:295|351:333,1,120,14|8,0:1|0:0,0:0:0:0:
272,363,86320,2,0,P|214:375|161:348,1,120,8|14,3:1|0:1,0:0:0:0:
137,263,87193,1,10,0:1:0:0:
157,177,87541,2,0,P|193:162|233:164,1,80,2|10,3:0|3:1,0:0:0:0:
296,225,88239,6,0,P|348:234|413:191,1,120,14|12,0:1|0:0,0:0:0:0:
447,126,89111,2,0,P|447:83|435:47,1,80,8|12,3:1|0:0,0:0:0:0:
352,17,89809,2,0,B|233:26,2,120,12|12|12,1:0|1:0|1:0,0:0:0:0:
333,103,91204,2,0,B|214:112,2,120,12|12|12,0:1|1:0|1:0,0:0:0:0:
374,180,92600,6,0,L|367:341,1,160,12|14,0:1|0:1,0:0:0:0:
242,382,93820,2,0,P|184:355|182:264,1,160,12|12,0:1|1:0,0:0:0:0:
