osu file format v14

[General]
AudioFilename: audio.mp3
AudioLeadIn: 0
PreviewTime: 57105
Countdown: 0
SampleSet: Soft
StackLeniency: 0.7
Mode: 0
LetterboxInBreaks: 0
WidescreenStoryboard: 0

[Editor]
DistanceSpacing: 1
BeatDivisor: 4
GridSize: 8
TimelineZoom: 1

[Metadata]
Title:Heart Purupuru Jiken desu
TitleUnicode:ハートぷるぷる事件です
Artist:Furimawasare-tai
ArtistUnicode:振り回され隊
Creator:Lami
Version:Dailycare's Hard
Source:ご注文はうさぎですか?
Tags:gochuumon wa usagi desu ka is the order a rabbit gochiusa ごちうさ chino syaro rize intoon dailycare
BeatmapID:1125971
BeatmapSetID:525287

[Difficulty]
HPDrainRate:5.2
CircleSize:3.7
OverallDifficulty:6
ApproachRate:7.7
SliderMultiplier:1.51
SliderTickRate:1

[Events]
//Background and Video events
0,0,"ww.jpg",0,0
//Break Periods
//Storyboard Layer 0 (Background)
//Storyboard Layer 1 (Fail)
//Storyboard Layer 2 (Pass)
//Storyboard Layer 3 (Foreground)
//Storyboard Sound Samples

[TimingPoints]
507,348.837209302326,4,2,2,40,1,0
1902,-125,4,2,2,40,0,0
6786,-125,4,2,1,65,0,0
9751,-125,4,2,1,20,0,0
9925,-125,4,2,1,65,0,0
10100,-125,4,2,1,20,0,0
10274,-125,4,2,1,65,0,0
12890,-104.166666666667,4,2,1,75,0,0
49954,-104.166666666667,4,2,1,25,0,0
50041,-104.166666666667,4,2,1,75,0,0
57716,-104.166666666667,4,2,1,75,0,1
82658,-104.166666666667,4,2,1,75,0,0

[Colours]
Combo1 : 126,84,84
Combo2 : 141,226,254
Combo3 : 244,179,106
Combo4 : 173,91,255
Combo5 : 252,250,146

[HitObjects]
228,113,1902,6,0,P|175:95|84:107,1,120.8,2|10,0:0|0:0,0:0:0:0:
28,133,2425,2,0,P|23:100|19:59,1,60.4,2|0,0:0|0:0,0:0:0:0:
86,12,2774,1,2,0:0:0:0:
228,113,3123,6,0,L|216:247,1,120.8,2|0,0:0|0:0,0:0:0:0:
159,304,3646,2,0,P|204:285|288:292,2,120.8,10|2|10,0:0|0:0|0:0,0:0:0:0:
343,344,4693,6,0,L|354:281,2,60.4,2|0|10,0:0|0:0|0:0,0:0:0:0:
426,378,5216,2,0,L|449:251,1,120.8,2|2,0:0|0:0,0:0:0:0:
469,81,5913,6,0,P|516:135|507:193,2,120.8,2|2|2,0:0|0:0|0:0,0:0:0:0:
379,105,6786,2,0,L|302:94,1,60.4,0|8,0:0|0:3,0:0:0:0:
244,49,7134,1,4,0:3:0:0:
244,49,7483,6,0,B|192:84|197:153|197:153|212:180|215:212,1,181.2,14|0,0:1|0:0,0:0:0:0:
246,296,8181,2,0,P|226:265|126:270,1,120.8,12|0,0:0|0:0,0:0:0:0:
11,306,8704,1,8,0:1:0:0:
11,306,8879,6,0,P|47:304|83:295,1,60.4,14|0,0:1|0:0,0:0:0:0:
117,177,9227,1,0,0:0:0:0:
117,177,9576,6,0,L|45:171,1,60.4,12|0,0:0|3:0,0:0:0:0:
151,261,9925,2,0,L|211:255,1,60.4,6|8,3:0|3:1,0:0:0:0:
291,218,10274,6,0,P|296:182|299:147,2,60.4,12|8|8,0:0|0:1|0:1,0:0:0:0:
343,290,10797,2,0,P|345:320|350:349,2,60.4,12|8|8,0:0|0:1|0:1,0:0:0:0:
412,235,11320,2,0,P|462:230|512:272,1,90.6,12|0,0:0|0:0,0:0:0:0:
503,257,11669,5,12,0:0:0:0:
457,366,11844,1,8,0:0:0:0:
457,366,12541,2,0,L|413:360,2,30.2,8|8|8,0:1|0:1|0:0,0:0:0:0:
511,287,12890,6,0,P|483:239|496:144,1,144.960003539063,14|8,0:1|0:1,0:0:0:0:
400,40,13413,2,0,P|407:75|409:111,1,72.4800017695313,10|2,0:0|3:0,0:0:0:0:
357,187,13762,2,0,L|367:277,2,72.4800017695313,8|10|8,3:1|0:1|0:0,0:0:0:0:
279,136,14286,6,0,P|238:123|132:183,1,144.960003539063,14|8,0:1|0:1,0:0:0:0:
73,215,14809,1,10,0:0:0:0:
9,146,14983,2,0,P|13:107|23:68,1,72.4800017695313,2|8,3:0|3:1,0:0:0:0:
139,12,15332,2,0,L|61:0,1,72.4800017695313,10|8,0:1|0:0,0:0:0:0:
155,98,15681,6,0,P|196:111|302:51,1,144.960003539063,14|8,0:1|0:1,0:0:0:0:
426,145,16204,2,0,P|385:135|342:135,1,72.4800017695313,10|2,0:0|3:0,0:0:0:0:
283,196,16553,2,0,L|202:189,2,72.4800017695313,8|10|8,3:1|0:1|0:0,0:0:0:0:
355,259,17076,6,0,P|369:303|301:389,1,144.960003539063,14|8,0:1|0:1,0:0:0:0:
238,340,17600,1,10,0:0:0:0:
155,379,17774,2,0,L|146:306,1,72.4800017695313,2|8,3:0|3:1,0:0:0:0:
179,221,18123,2,0,L|182:178,2,36.2400008847657,10|0|8,3:1|3:0|3:2,0:0:0:0:
253,280,18472,6,0,P|300:273|425:266,1,144.960003539063,14|8,0:1|3:1,0:0:0:0:
479,312,18995,2,0,P|513:264|500:193,1,108.720002654297,14|0,0:2|3:0,0:0:0:0:
507,205,19344,2,0,P|453:191|414:184,1,72.4800017695313,8|8,3:1|0:1,0:0:0:0:
351,229,19693,1,12,0:0:0:0:
276,170,19867,1,8,0:0:0:0:
277,159,19954,1,8,0:0:0:0:
278,148,20041,6,0,P|307:128|360:128,1,72.4800017695313,12|8,1:0|1:0,0:0:0:0:
296,337,20565,2,0,P|265:318|241:271,1,72.4800017695313,12|8,1:0|1:0,0:0:0:0:
451,227,21088,1,12,1:0:0:0:
451,227,21437,6,0,L|440:373,1,144.960003539063,12|8,0:1|0:0,0:0:0:0:
358,325,21960,2,0,L|351:249,1,72.4800017695313,2|8,3:0|3:1,0:0:0:0:
426,198,22309,2,0,P|430:164|433:122,1,72.4800017695313,10|8,0:1|0:0,0:0:0:0:
498,59,22658,6,0,P|469:22|352:26,1,144.960003539063,10|8,0:1|0:1,0:0:0:0:
301,73,23181,2,0,P|249:69|202:64,1,72.4800017695313,10|2,0:0|3:0,0:0:0:0:
218,72,23443,1,0,3:0:0:0:
207,78,23530,2,0,P|201:34|197:0,2,72.4800017695313,8|10|8,3:1|0:1|0:0,0:0:0:0:
257,157,24053,6,0,P|228:194|111:190,1,144.960003539063,10|10,0:1|0:1,0:0:0:0:
44,190,24576,2,0,P|47:231|53:273,1,72.4800017695313,8|2,0:0|3:0,0:0:0:0:
88,351,24925,1,8,3:1:0:0:
88,351,25100,2,0,L|1:347,1,72.4800017695313,10|8,0:1|0:0,0:0:0:0:
165,297,25448,6,0,P|217:286|313:336,2,144.960003539063,10|10|2,0:1|0:1|3:0,0:0:0:0:
88,351,26320,1,8,3:1:0:0:
51,262,26495,2,0,P|46:226|44:190,1,72.4800017695313,10|8,0:1|0:0,0:0:0:0:
169,69,26844,6,0,P|177:139|134:196,1,144.960003539063,14|10,0:1|0:1,0:0:0:0:
18,110,27367,2,0,P|54:112|91:117,1,72.4800017695313,8|0,0:0|0:0,0:0:0:0:
254,166,27716,1,10,0:1:0:0:
254,166,27890,2,0,L|264:72,1,72.4800017695313,10|8,0:1|0:0,0:0:0:0:
324,23,28239,6,0,P|381:66|474:41,1,144.960003539063,10|10,0:1|0:1,0:0:0:0:
510,129,28762,1,8,0:0:0:0:
436,183,28937,2,0,L|388:176,2,36.2400008847657,2|0|8,3:0|3:0|3:1,0:0:0:0:
502,249,29286,2,0,P|509:291|514:346,1,72.4800017695313,10|8,0:1|0:0,0:0:0:0:
308,345,29634,6,0,P|360:288|449:309,1,144.960003539063,10|10,0:1|0:1,0:0:0:0:
512,320,30158,2,0,P|508:284|502:249,1,72.4800017695313,8|0,0:0|0:0,0:0:0:0:
436,183,30507,2,0,P|440:147|446:111,2,72.4800017695313,8|10|8,3:1|3:1|3:2,0:0:0:0:
372,248,31030,6,0,P|311:259|217:268,1,144.960003539063,14|10,3:1|0:1,0:0:0:0:
189,187,31553,1,8,0:0:0:0:
189,187,31727,2,0,P|250:176|344:167,1,144.960003539063,14|10,0:1|3:1,0:0:0:0:
372,248,32251,1,10,3:2:0:0:
327,330,32425,6,0,P|283:293|184:310,1,144.960003539063,14|10,0:1|0:1,0:0:0:0:
113,271,32948,2,0,P|103:221|103:180,1,72.4800017695313,8|2,0:0|3:0,0:0:0:0:
184,154,33297,2,0,P|194:104|194:63,2,72.4800017695313,8|10|8,3:1|0:1|0:0,0:0:0:0:
241,229,33820,6,0,P|311:241|399:192,1,144.960003539063,10|8,0:1|0:1,0:0:0:0:
461,255,34344,2,0,L|467:172,1,72.4800017695313,10|2,0:0|3:0,0:0:0:0:
463,171,34605,1,0,3:0:0:0:
460,159,34693,2,0,P|505:162|542:165,2,72.4800017695313,8|10|8,3:1|0:1|0:0,0:0:0:0:
393,94,35216,6,0,P|323:82|235:131,1,144.960003539063,10|10,0:1|0:1,0:0:0:0:
193,173,35739,2,0,L|120:163,1,72.4800017695313,8|2,0:0|3:0,0:0:0:0:
36,199,36088,1,8,3:1:0:0:
36,199,36262,2,0,P|30:149|28:113,1,72.4800017695313,10|8,0:1|0:0,0:0:0:0:
108,258,36611,6,0,P|117:313|59:382,2,144.960003539063,10|10|2,0:1|0:1|3:0,0:0:0:0:
36,199,37483,1,8,3:1:0:0:
121,163,37658,2,0,L|192:172,1,72.4800017695313,10|8,0:1|0:0,0:0:0:0:
393,181,38007,6,0,P|407:227|356:314,1,144.960003539063,14|10,0:1|0:1,0:0:0:0:
249,240,38530,2,0,L|320:230,1,72.4800017695313,8|0,0:0|0:0,0:0:0:0:
483,274,38879,1,10,0:1:0:0:
483,274,39053,2,0,P|488:241|489:200,1,72.4800017695313,10|8,0:1|0:0,0:0:0:0:
512,113,39402,6,0,P|466:149|365:132,1,144.960003539063,10|10,0:1|0:1,0:0:0:0:
314,80,39925,1,8,0:0:0:0:
241,139,40100,2,0,L|246:183,2,36.2400008847656,2|0|8,3:0|3:0|3:1,0:0:0:0:
198,56,40448,2,0,P|161:40|118:42,1,72.4800017695313,10|8,0:1|0:0,0:0:0:0:
0,165,40797,6,0,P|78:171|127:102,1,144.960003539063,10|10,0:1|0:1,0:0:0:0:
198,56,41320,2,0,P|161:40|118:42,1,72.4800017695313,8|0,0:0|0:0,0:0:0:0:
36,18,41669,2,0,L|45:103,1,72.4800017695313,8|10,3:1|3:1,0:0:0:0:
43,90,41931,1,0,3:0:0:0:
43,90,42018,1,8,3:2:0:0:
127,155,42193,6,0,L|119:307,2,144.960003539063,14|12|12,0:1|0:1|3:1,0:0:0:0:
203,100,43065,2,0,L|195:27,2,72.4800017695313,10|12|6,3:2|3:1|3:0,0:0:0:0:
255,176,43588,6,0,P|319:213|401:193,1,144.960003539063,14|10,0:1|0:1,0:0:0:0:
478,180,44111,2,0,P|475:219|468:265,1,72.4800017695313,8|2,0:0|0:0,0:0:0:0:
413,117,44460,2,0,P|416:78|423:32,1,72.4800017695313,8|10,0:1|0:1,0:0:0:0:
506,6,44809,1,8,0:0:0:0:
506,6,44983,6,0,P|427:19|343:30,1,144.960003539063,10|10,0:1|0:1,0:0:0:0:
286,76,45507,1,8,0:0:0:0:
339,160,45681,1,0,3:0:0:0:
339,160,45768,1,0,3:0:0:0:
339,160,45855,2,0,P|345:202|350:242,2,72.4800017695313,8|10|8,3:1|3:1|0:0,0:0:0:0:
427,136,46379,6,0,P|477:174|468:275,1,144.960003539063,14|10,0:1|0:1,0:0:0:0:
440,334,46902,2,0,P|484:343|516:339,1,72.4800017695313,8|2,0:0|3:0,0:0:0:0:
357,296,47251,2,0,P|278:306|198:320,1,144.960003539063,8|8,3:1|0:0,0:0:0:0:
138,370,47774,6,0,P|88:332|97:231,1,144.960003539063,10|10,0:1|0:1,0:0:0:0:
102,165,48297,1,8,0:0:0:0:
199,194,48472,1,2,3:0:0:0:
199,194,48559,1,0,3:0:0:0:
199,194,48646,2,0,P|207:239|213:285,2,72.4800017695313,8|8|8,3:1|3:1|0:0,0:0:0:0:
273,137,49169,6,0,P|333:178|422:151,1,144.960003539063,14|8,0:1|0:1,0:0:0:0:
477,216,49693,2,0,L|485:84,1,108.720002654297,10|0,0:0|3:0,0:0:0:0:
491,100,50041,2,0,L|484:14,2,72.4800017695313,10|8|8,3:1|0:1|0:0,0:0:0:0:
406,143,50565,6,0,P|346:102|257:129,1,144.960003539063,10|10,0:1|0:1,0:0:0:0:
244,201,51088,2,0,P|205:210|163:209,1,72.4800017695313,8|2,0:0|3:0,0:0:0:0:
93,254,51437,1,10,3:1:0:0:
93,254,51524,1,0,3:0:0:0:
93,254,51611,2,0,L|82:175,1,72.4800017695313,8|8,3:1|0:0,0:0:0:0:
22,115,51960,6,0,P|92:139|167:96,1,144.960003539063,14|8,0:1|0:1,0:0:0:0:
241,139,52483,2,0,P|251:96|257:57,1,72.4800017695313,10|0,0:0|3:0,0:0:0:0:
261,58,52745,1,8,3:1:0:0:
269,50,52832,2,0,L|169:42,1,72.4800017695313,10|8,3:2|0:1,0:0:0:0:
332,124,53181,2,0,L|404:118,1,72.4800017695313,10|10,0:0|0:1,0:0:0:0:
487,175,53530,5,8,0:0:0:0:
487,175,53704,1,10,0:1:0:0:
487,82,53879,2,0,P|481:40|481:2,1,72.4800017695313,8|10,0:0|3:1,0:0:0:0:
392,172,54227,2,0,P|398:214|398:252,1,72.4800017695313,8|10,3:1|0:1,0:0:0:0:
333,313,54576,1,8,3:2:0:0:
246,274,54751,1,8,3:2:0:0:
247,263,54838,1,8,3:2:0:0:
248,252,54925,6,0,P|279:235|332:238,1,72.4800017695313,10|8,0:1|0:0,0:0:0:0:
402,198,55274,1,10,0:3:0:0:
458,274,55448,2,0,P|481:246|466:128,1,144.960003539063,10|10,0:1|0:1,0:0:0:0:
463,49,55972,1,10,1:0:0:0:
394,105,56146,6,0,P|309:118|225:131,2,144.960003539063,14|12|12,1:0|1:0|1:0,0:0:0:0:
191,232,57193,5,8,0:1:0:0:
194,219,57280,1,8,0:1:0:0:
197,206,57367,2,0,P|153:174|87:188,1,108.720002654297,8|0,0:0|0:0,0:0:0:0:
88,175,57716,6,0,L|103:329,1,144.960003539063,12|8,0:1|0:0,0:0:0:0:
187,378,58239,1,2,3:0:0:0:
187,378,58326,1,8,3:2:0:0:
187,378,58413,1,8,3:1:0:0:
253,314,58588,2,0,P|299:316|350:333,1,72.4800017695313,10|8,0:1|0:0,0:0:0:0:
399,375,58937,6,0,P|368:323|395:232,1,144.960003539063,14|8,0:1|0:1,0:0:0:0:
465,204,59460,2,0,L|440:116,1,72.4800017695313,10|0,0:0|0:0,0:0:0:0:
441,41,59809,2,0,L|544:24,1,72.4800017695313,10|8,0:1|0:1,0:0:0:0:
362,106,60158,2,0,P|342:102|290:94,1,72.4800017695313,10|0,0:0|0:1,0:0:0:0:
196,104,60507,6,0,P|207:151|217:207,1,72.4800017695313,8|2,0:1|0:0,0:0:0:0:
267,248,60855,1,8,0:0:0:0:
180,265,61030,2,0,P|143:231|41:235,1,144.960003539063,2|10,3:0|0:1,0:0:0:0:
141,62,61727,6,0,P|78:54|-13:38,2,144.960003539063,14|10|10,0:1|0:1|0:1,0:0:0:0:
183,154,62600,1,10,0:1:0:0:
183,154,62774,1,8,0:1:0:0:
245,77,62948,1,8,0:0:0:0:
245,77,63297,6,0,P|309:74|373:157,1,144.960003539063,12|8,0:1|0:0,0:0:0:0:
330,208,63820,2,0,L|406:226,1,72.4800017695313,2|8,0:0|0:1,0:0:0:0:
489,235,64169,2,0,P|494:281|499:314,1,72.4800017695313,10|8,0:1|0:0,0:0:0:0:
427,360,64518,6,0,P|391:339|288:324,1,144.960003539063,14|10,0:1|0:1,0:0:0:0:
211,281,65041,1,8,0:0:0:0:
142,343,65216,2,0,P|159:306|131:207,1,144.960003539063,2|8,3:0|3:1,0:0:0:0:
65,150,65739,2,0,L|-9:157,1,72.4800017695313,8|8,3:2|3:1,0:0:0:0:
133,209,66088,6,0,P|174:178|290:202,2,144.960003539063,14|10|10,0:1|0:0|0:1,0:0:0:0:
50,257,66960,2,0,L|-3:249,2,36.2400008847656,8|8|8,0:1|0:1|0:0,0:0:0:0:
106,333,67309,5,14,0:1:0:0:
256,224,67658,1,10,0:1:0:0:
406,333,68007,1,10,1:0:0:0:
318,362,68181,6,0,L|324:280,1,72.4800017695313,2|8,3:0|3:1,0:0:0:0:
256,224,68530,2,0,L|251:169,3,36.2400008847656,10|0|8|8,1:0|3:0|0:1|3:2,0:0:0:0:
245,177,68879,6,0,P|282:149|393:167,1,144.960003539063,12|8,0:1|0:0,0:0:0:0:
445,231,69402,1,2,3:0:0:0:
445,231,69489,1,8,3:2:0:0:
445,231,69576,1,8,3:1:0:0:
511,167,69751,2,0,P|518:120|518:75,1,72.4800017695313,10|8,0:1|0:0,0:0:0:0:
486,8,70100,6,0,P|435:47|341:36,1,144.960003539063,14|8,0:1|0:1,0:0:0:0:
275,9,70623,2,0,L|182:32,1,72.4800017695313,10|0,0:0|0:0,0:0:0:0:
179,116,70972,2,0,P|181:152|187:187,1,72.4800017695313,10|8,0:1|0:1,0:0:0:0:
284,293,71320,2,0,P|281:256|275:221,1,72.4800017695313,10|0,0:0|0:0,0:0:0:0:
356,174,71669,6,0,L|450:188,1,72.4800017695313,8|2,0:1|0:0,0:0:0:0:
502,236,72018,1,8,0:0:0:0:
507,324,72193,2,0,P|460:286|373:297,1,144.960003539063,2|10,3:0|0:1,0:0:0:0:
186,276,72890,6,0,L|203:127,2,144.960003539063,14|10|10,0:1|0:1|0:1,0:0:0:0:
103,341,73762,1,10,0:1:0:0:
103,341,73937,1,8,0:1:0:0:
10,312,74111,1,8,0:0:0:0:
10,312,74460,6,0,P|20:254|23:219,1,72.4800017695313,12|2,3:1|0:0,0:0:0:0:
93,127,74809,2,0,P|97:162|104:198,1,72.4800017695313,8|2,0:0|0:0,0:0:0:0:
231,331,75158,2,0,P|245:263|194:216,1,144.960003539063,8|8,3:2|0:0,0:0:0:0:
188,127,75681,1,10,0:1:0:0:
273,162,75855,6,0,P|312:159|357:152,1,72.4800017695313,12|2,0:1|0:0,0:0:0:0:
224,45,76204,1,8,0:0:0:0:
224,45,76553,2,0,P|188:39|152:37,1,72.4800017695313,10|8,0:0|0:1,0:0:0:0:
306,8,76902,2,0,P|342:6|377:0,1,72.4800017695313,10|8,0:0|3:1,0:0:0:0:
440,69,77251,6,0,P|487:71|528:84,2,72.4800017695313,14|8|8,3:2|0:1|0:1,0:0:0:0:
360,113,77774,2,0,P|324:120|288:121,2,72.4800017695313,12|8|8,0:0|0:1|0:1,0:0:0:0:
435,165,78297,2,0,P|460:198|451:271,1,108.720002654297,12|0,0:0|0:0,0:0:0:0:
447,273,78646,5,12,0:0:0:0:
320,193,78820,1,8,0:0:0:0:
320,193,79518,2,0,L|326:143,2,36.2400008847656,8|8|8,0:1|0:1|0:0,0:0:0:0:
194,332,80041,6,0,P|190:293|187:252,1,72.4800017695313,12|8,0:0|1:0,0:0:0:0:
149,174,80390,1,8,0:0:0:0:
75,231,80565,2,0,P|89:291|41:367,2,144.960003539063,12|12|12,0:0|0:0|0:1,0:0:0:0:
0,180,81437,5,0,0:0:0:0:
56,109,81611,1,8,0:0:0:0:
56,109,81698,1,8,0:0:0:0:
56,109,81786,2,0,P|93:112|148:117,1,72.4800017695313,8|8,0:1|0:1,0:0:0:0:
213,79,82134,2,0,L|301:71,2,72.4800017695313,8|8|8,0:0|0:1|0:1,0:0:0:0:
129,116,82658,6,0,P|92:153|100:258,1,144.960003539063,14|10,0:1|0:1,0:0:0:0:
160,354,83181,2,0,P|165:318|170:283,1,72.4800017695313,8|2,0:0|3:0,0:0:0:0:
229,212,83530,2,0,L|218:125,2,72.4800017695313,8|10|8,3:1|0:1|0:0,0:0:0:0:
294,277,84053,6,0,P|330:285|422:229,1,144.960003539063,14|10,0:1|0:1,0:0:0:0:
493,183,84576,1,8,0:0:0:0:
444,104,84751,2,0,P|486:90|526:97,1,72.4800017695313,2|8,3:0|3:1,0:0:0:0:
374,159,85100,2,0,L|290:146,1,72.4800017695313,10|8,0:1|0:0,0:0:0:0:
186,193,85448,6,0,P|135:145|159:65,1,144.960003539063,14|10,0:1|0:1,0:0:0:0:
220,17,85972,2,0,P|237:80|236:105,1,72.4800017695313,8|2,0:0|3:0,0:0:0:0:
302,147,86320,2,0,P|298:183|295:230,2,72.4800017695313,8|10|8,3:1|0:1|0:0,0:0:0:0:
370,85,86844,6,0,P|445:73|517:118,1,144.960003539063,14|10,0:1|0:1,0:0:0:0:
441,171,87367,1,8,0:0:0:0:
507,235,87541,2,0,P|513:271|517:321,1,72.4800017695313,2|8,3:0|3:1,0:0:0:0:
433,347,87890,2,0,L|437:391,2,36.2400008847656,10|0|8,3:1|0:0|0:0,0:0:0:0:
373,275,88239,6,0,P|331:250|207:258,1,144.960003539063,14|8,0:1|0:1,0:0:0:0:
165,303,88762,2,0,L|49:310,1,108.720002654297,12|8,0:0|3:2,0:0:0:0:
46,315,89111,2,0,P|41:274|55:235,1,72.4800017695313,8|8,3:1|0:1,0:0:0:0:
126,188,89460,1,12,0:0:0:0:
77,105,89635,1,8,0:0:0:0:
78,94,89722,1,8,0:0:0:0:
79,83,89809,6,0,P|110:66|163:69,1,72.4800017695313,12|8,1:0|1:0,0:0:0:0:
97,272,90333,2,0,P|66:253|42:206,1,72.4800017695313,12|8,1:0|1:0,0:0:0:0:
252,162,90856,1,12,1:0:0:0:
252,162,91204,6,0,P|244:127|207:89,1,72.4800017695313,12|8,1:0|1:0,0:0:0:0:
93,270,91728,2,0,P|127:280|178:268,1,72.4800017695313,12|8,1:0|1:0,0:0:0:0:
74,79,92251,1,12,1:0:0:0:
93,270,92600,5,12,0:1:0:0:
150,199,92774,2,0,L|156:116,2,72.4800017695313,2|2|0,0:0|0:0|0:0,0:0:0:0:
222,256,93297,2,0,L|232:345,2,72.4800017695313,14|0|2,0:1|0:0|0:0,0:0:0:0:
307,223,93820,6,0,P|339:255|439:249,1,144.960003539063,12|8,0:1|0:0,0:0:0:0:
433,252,94257,1,10,0:0:0:0:
433,252,94344,1,8,0:3:0:0:
415,350,94518,1,12,1:0:0:0:
