osu file format v14

[General]
AudioFilename: audio.mp3
AudioLeadIn: 0
PreviewTime: 2168
Countdown: 1
SampleSet: Normal
StackLeniency: 0.7
Mode: 1
LetterboxInBreaks: 0
WidescreenStoryboard: 1

[Editor]
Bookmarks: 16946
DistanceSpacing: 0.6
BeatDivisor: 4
GridSize: 4
TimelineZoom: 1

[Metadata]
Title:Toby Super Star
TitleUnicode:ギャラクティック・ノヴァにTobyfoxがぶつかった時の曲
Artist:Fura Sensui
ArtistUnicode:仙水風楽
Creator:Front
Version:Oni
Source:星のカービィ スーパーデラックス
Tags:星のカービィ スーパーデラックス SDX Kirby Super Star Kirby's Fun Pak Undertale toby fox
BeatmapID:1942721
BeatmapSetID:930261

[Difficulty]
HPDrainRate:5
CircleSize:5
OverallDifficulty:5.5
ApproachRate:5
SliderMultiplier:1.4
SliderTickRate:1

[Events]
//Background and Video events
Video,0,"Toby Super Star.mp4"
0,0,"maxresdefault.jpg",0,0
//Break Periods
//Storyboard Layer 0 (Background)
//Storyboard Layer 1 (Fail)
//Storyboard Layer 2 (Pass)
//Storyboard Layer 3 (Foreground)
//Storyboard Sound Samples

[TimingPoints]
2280,444.444444444444,4,1,0,45,1,0
18724,-50,4,1,0,45,0,1

[HitObjects]
172,113,2280,5,4,0:0:0:0:
213,113,2502,1,8,0:0:0:0:
253,113,2724,1,0,0:0:0:0:
273,113,2835,1,0,0:0:0:0:
293,113,2946,1,8,0:0:0:0:
313,113,3057,1,8,0:0:0:0:
333,113,3168,1,0,0:0:0:0:
353,113,3391,1,8,0:0:0:0:
374,113,3613,1,0,0:0:0:0:
394,113,3835,1,8,0:0:0:0:
414,114,3946,1,8,0:0:0:0:
434,115,4057,1,0,0:0:0:0:
475,115,4279,1,8,0:0:0:0:
477,157,4502,1,0,0:0:0:0:
478,177,4613,1,0,0:0:0:0:
478,197,4724,1,0,0:0:0:0:
478,217,4835,1,8,0:0:0:0:
478,237,4946,1,0,0:0:0:0:
478,278,5168,1,8,0:0:0:0:
477,298,5279,1,8,0:0:0:0:
477,319,5391,1,0,0:0:0:0:
477,360,5613,1,8,0:0:0:0:
435,364,5835,1,0,0:0:0:0:
393,366,6057,1,8,0:0:0:0:
372,367,6168,1,8,0:0:0:0:
351,368,6279,1,0,0:0:0:0:
308,365,6502,1,8,0:0:0:0:
266,363,6724,1,0,0:0:0:0:
245,362,6835,1,8,0:0:0:0:
224,361,6946,1,8,0:0:0:0:
203,360,7057,1,8,0:0:0:0:
182,359,7168,1,0,0:0:0:0:
139,359,7391,1,8,0:0:0:0:
97,356,7613,1,0,0:0:0:0:
55,355,7835,1,8,0:0:0:0:
34,354,7946,1,8,0:0:0:0:
13,354,8057,1,0,0:0:0:0:
14,312,8279,1,8,0:0:0:0:
15,269,8502,1,0,0:0:0:0:
17,185,8613,1,0,0:0:0:0:
16,227,8724,1,8,0:0:0:0:
17,185,8946,1,0,0:0:0:0:
17,157,9094,1,0,0:0:0:0:
17,129,9242,1,0,0:0:0:0:
18,100,9391,1,0,0:0:0:0:
15,62,9613,1,8,0:0:0:0:
56,62,9835,1,8,0:0:0:0:
76,62,9946,1,8,0:0:0:0:
96,62,10057,1,0,0:0:0:0:
137,63,10279,1,8,0:0:0:0:
179,64,10502,1,0,0:0:0:0:
199,65,10613,1,0,0:0:0:0:
219,64,10724,1,8,0:0:0:0:
239,64,10835,1,8,0:0:0:0:
259,64,10946,1,0,0:0:0:0:
272,64,11020,1,0,0:0:0:0:
285,64,11094,1,0,0:0:0:0:
298,64,11168,1,0,0:0:0:0:
289,83,11279,1,0,0:0:0:0:
341,63,11391,1,8,0:0:0:0:
382,63,11613,1,8,0:0:0:0:
409,94,11835,1,0,0:0:0:0:
410,114,11946,1,0,0:0:0:0:
410,134,12057,1,8,0:0:0:0:
412,175,12279,1,0,0:0:0:0:
413,196,12391,1,0,0:0:0:0:
414,216,12502,1,8,0:0:0:0:
415,236,12613,1,8,0:0:0:0:
415,256,12724,1,8,0:0:0:0:
415,276,12835,1,0,0:0:0:0:
414,296,12946,1,8,0:0:0:0:
372,297,13168,1,0,0:0:0:0:
351,297,13279,1,0,0:0:0:0:
329,297,13391,1,8,0:0:0:0:
308,297,13502,1,0,0:0:0:0:
287,297,13613,1,8,0:0:0:0:
266,298,13724,1,0,0:0:0:0:
245,299,13835,1,8,0:0:0:0:
203,300,14057,1,0,0:0:0:0:
182,300,14168,1,0,0:0:0:0:
161,300,14279,1,8,0:0:0:0:
139,300,14391,1,8,0:0:0:0:
118,300,14502,1,8,0:0:0:0:
97,300,14613,1,0,0:0:0:0:
98,274,14724,1,8,0:0:0:0:
98,253,14835,1,8,0:0:0:0:
99,232,14946,1,0,0:0:0:0:
100,211,15057,1,0,0:0:0:0:
101,190,15168,1,8,0:0:0:0:
102,147,15391,1,0,0:0:0:0:
101,105,15613,1,8,0:0:0:0:
102,84,15724,1,0,0:0:0:0:
102,63,15835,1,0,0:0:0:0:
121,55,15946,1,0,0:0:0:0:
140,48,16057,1,8,0:0:0:0:
181,43,16279,1,8,0:0:0:0:
223,44,16502,1,8,0:0:0:0:
243,44,16613,1,8,0:0:0:0:
263,47,16724,1,0,0:0:0:0:
283,49,16835,1,0,0:0:0:0:
303,50,16946,1,8,0:0:0:0:
323,50,17057,1,8,0:0:0:0:
343,50,17168,1,0,0:0:0:0:
363,50,17279,1,0,0:0:0:0:
384,49,17391,1,8,0:0:0:0:
389,69,17502,1,0,0:0:0:0:
396,88,17613,1,0,0:0:0:0:
399,108,17724,1,0,0:0:0:0:
399,128,17835,1,8,0:0:0:0:
399,148,17946,1,0,0:0:0:0:
399,168,18057,1,8,0:0:0:0:
399,188,18168,1,8,0:0:0:0:
397,208,18279,1,0,0:0:0:0:
222,200,18724,1,4,0:0:0:0:
222,200,18835,1,4,0:0:0:0:
216,201,18946,1,4,0:0:0:0:
222,200,19057,1,4,0:0:0:0:
222,200,19168,1,4,0:0:0:0:
