osu file format v14

[General]
AudioFilename: audio.mp3
AudioLeadIn: 0
PreviewTime: 2168
Countdown: 1
SampleSet: Normal
StackLeniency: 0.7
Mode: 1
LetterboxInBreaks: 0
WidescreenStoryboard: 0

[Editor]
Bookmarks: 16946
DistanceSpacing: 0.6
BeatDivisor: 4
GridSize: 4
TimelineZoom: 1

[Metadata]
Title:Toby Super Star
TitleUnicode:ギャラクティック・ノヴァにTobyfoxがぶつかった時の曲
Artist:Fura Sensui
ArtistUnicode:仙水風楽
Creator:Front
Version:Inner Oni
Source:星のカービィ スーパーデラックス
Tags:星のカービィ スーパーデラックス SDX Kirby Super Star Kirby's Fun Pak Undertale toby fox
BeatmapID:1942719
BeatmapSetID:930261

[Difficulty]
HPDrainRate:5
CircleSize:5
OverallDifficulty:6
ApproachRate:5
SliderMultiplier:1.4
SliderTickRate:1

[Events]
//Background and Video events
Video,0,"Toby Super Star.mp4"
0,0,"maxresdefault.jpg",0,0
//Break Periods
//Storyboard Layer 0 (Background)
//Storyboard Layer 1 (Fail)
//Storyboard Layer 2 (Pass)
//Storyboard Layer 3 (Foreground)
//Storyboard Sound Samples

[TimingPoints]
2280,444.444444444444,4,1,0,45,1,0
18724,-50,4,1,0,45,0,1

[HitObjects]
197,184,2280,5,8,0:0:0:0:
234,176,2391,1,8,0:0:0:0:
254,177,2502,1,0,0:0:0:0:
274,178,2613,1,0,0:0:0:0:
294,175,2724,1,8,0:0:0:0:
314,173,2835,1,0,0:0:0:0:
335,171,2946,1,0,0:0:0:0:
355,169,3057,1,0,0:0:0:0:
351,189,3168,1,8,0:0:0:0:
347,209,3279,1,8,0:0:0:0:
343,229,3391,1,0,0:0:0:0:
339,249,3502,1,0,0:0:0:0:
336,269,3613,1,8,0:0:0:0:
330,289,3724,1,0,0:0:0:0:
324,309,3835,1,0,0:0:0:0:
319,329,3946,1,0,0:0:0:0:
339,328,4057,1,0,0:0:0:0:
359,325,4168,1,0,0:0:0:0:
379,322,4279,1,8,0:0:0:0:
400,319,4391,1,0,0:0:0:0:
403,298,4502,1,8,0:0:0:0:
405,277,4613,1,8,0:0:0:0:
406,256,4724,1,0,0:0:0:0:
407,235,4835,1,8,0:0:0:0:
393,218,4946,1,0,0:0:0:0:
377,204,5057,1,0,0:0:0:0:
361,190,5168,1,0,0:0:0:0:
345,176,5279,1,0,0:0:0:0:
329,161,5391,1,8,0:0:0:0:
313,147,5502,1,8,0:0:0:0:
313,147,5613,1,0,0:0:0:0:
313,147,5724,1,8,0:0:0:0:
294,157,5835,1,0,0:0:0:0:
275,167,5946,1,8,0:0:0:0:
256,177,6057,1,0,0:0:0:0:
238,187,6168,1,0,0:0:0:0:
218,195,6279,1,8,0:0:0:0:
198,203,6391,1,8,0:0:0:0:
178,211,6502,1,0,0:0:0:0:
159,220,6613,1,8,0:0:0:0:
140,229,6724,1,0,0:0:0:0:
140,229,6835,1,8,0:0:0:0:
156,242,6946,1,0,0:0:0:0:
172,255,7057,1,0,0:0:0:0:
187,268,7168,1,8,0:0:0:0:
204,279,7279,1,8,0:0:0:0:
221,290,7391,1,0,0:0:0:0:
238,301,7502,1,8,0:0:0:0:
258,304,7613,1,0,0:0:0:0:
278,306,7724,1,0,0:0:0:0:
298,308,7835,1,0,0:0:0:0:
318,311,7946,1,0,0:0:0:0:
338,308,8057,1,8,0:0:0:0:
357,300,8168,1,8,0:0:0:0:
375,289,8279,1,0,0:0:0:0:
390,274,8391,1,8,0:0:0:0:
398,254,8502,1,0,0:0:0:0:
402,233,8613,1,0,0:0:0:0:
402,212,8724,1,8,0:0:0:0:
403,191,8835,1,8,0:0:0:0:
404,170,8946,1,0,0:0:0:0:
403,142,9094,1,0,0:0:0:0:
382,125,9242,1,0,0:0:0:0:
354,128,9391,1,0,0:0:0:0:
333,128,9502,1,0,0:0:0:0:
312,128,9613,1,8,0:0:0:0:
291,128,9724,1,0,0:0:0:0:
270,127,9835,1,8,0:0:0:0:
249,126,9946,1,0,0:0:0:0:
228,126,10057,1,8,0:0:0:0:
207,126,10168,1,8,0:0:0:0:
186,126,10279,1,0,0:0:0:0:
164,125,10391,1,0,0:0:0:0:
143,124,10502,1,8,0:0:0:0:
122,123,10613,1,0,0:0:0:0:
133,140,10724,1,8,0:0:0:0:
144,157,10835,1,0,0:0:0:0:
155,174,10946,1,8,0:0:0:0:
166,191,11057,1,8,0:0:0:0:
184,201,11168,1,0,0:0:0:0:
202,211,11279,1,0,0:0:0:0:
220,221,11391,1,8,0:0:0:0:
238,231,11502,1,0,0:0:0:0:
256,241,11613,1,8,0:0:0:0:
273,251,11724,1,0,0:0:0:0:
290,261,11835,1,0,0:0:0:0:
307,271,11946,1,8,0:0:0:0:
327,271,12057,1,0,0:0:0:0:
347,271,12168,1,0,0:0:0:0:
367,271,12279,1,8,0:0:0:0:
388,271,12391,1,0,0:0:0:0:
408,272,12502,1,0,0:0:0:0:
428,273,12613,1,0,0:0:0:0:
448,274,12724,1,8,0:0:0:0:
468,275,12835,1,0,0:0:0:0:
471,254,12946,1,0,0:0:0:0:
474,233,13057,1,8,0:0:0:0:
474,212,13168,1,8,0:0:0:0:
475,191,13279,1,8,0:0:0:0:
475,169,13391,1,0,0:0:0:0:
475,148,13502,1,8,0:0:0:0:
475,127,13613,1,0,0:0:0:0:
475,106,13724,1,8,0:0:0:0:
454,108,13835,1,0,0:0:0:0:
433,110,13946,1,8,0:0:0:0:
412,113,14057,1,0,0:0:0:0:
391,116,14168,1,8,0:0:0:0:
370,119,14279,1,0,0:0:0:0:
348,119,14391,1,0,0:0:0:0:
327,119,14502,1,0,0:0:0:0:
306,119,14613,1,0,0:0:0:0:
285,121,14724,1,8,0:0:0:0:
264,123,14835,1,8,0:0:0:0:
243,122,14946,1,0,0:0:0:0:
222,121,15057,1,0,0:0:0:0:
201,120,15168,1,8,0:0:0:0:
180,123,15279,1,0,0:0:0:0:
159,126,15391,1,0,0:0:0:0:
138,129,15502,1,8,0:0:0:0:
117,132,15613,1,0,0:0:0:0:
98,141,15724,1,8,0:0:0:0:
80,153,15835,1,8,0:0:0:0:
65,168,15946,1,8,0:0:0:0:
51,184,16057,1,0,0:0:0:0:
39,201,16168,1,8,0:0:0:0:
54,215,16279,1,0,0:0:0:0:
71,226,16391,1,0,0:0:0:0:
91,231,16502,1,0,0:0:0:0:
111,236,16613,1,8,0:0:0:0:
131,241,16724,1,8,0:0:0:0:
151,246,16835,1,8,0:0:0:0:
171,251,16946,1,0,0:0:0:0:
191,256,17057,1,8,0:0:0:0:
211,261,17168,1,0,0:0:0:0:
231,265,17279,1,8,0:0:0:0:
251,269,17391,1,0,0:0:0:0:
271,269,17502,1,0,0:0:0:0:
291,267,17613,1,8,0:0:0:0:
311,264,17724,1,8,0:0:0:0:
331,262,17835,1,0,0:0:0:0:
351,260,17946,1,0,0:0:0:0:
371,258,18057,1,0,0:0:0:0:
391,256,18168,1,8,0:0:0:0:
403,219,18279,1,4,0:0:0:0:
330,181,18724,1,4,0:0:0:0:
309,170,18835,1,4,0:0:0:0:
287,158,18946,1,4,0:0:0:0:
268,148,19057,1,4,0:0:0:0:
259,143,19168,1,4,0:0:0:0:
