osu file format v14

[General]
AudioFilename: audio.mp3
AudioLeadIn: 0
PreviewTime: 36093
Countdown: 0
SampleSet: None
StackLeniency: 0.7
Mode: 3
LetterboxInBreaks: 0
SpecialStyle: 0
WidescreenStoryboard: 1

[Editor]
DistanceSpacing: 0.8
BeatDivisor: 4
GridSize: 16
TimelineZoom: 1.7

[Metadata]
Title:Shizuku
TitleUnicode:雫
Artist:Funton
ArtistUnicode:Funton
Creator:ExNeko
Version:Pluviophile
Source:
Tags:piano
BeatmapID:1871075
BeatmapSetID:895490

[Difficulty]
HPDrainRate:7
CircleSize:4
OverallDifficulty:7
ApproachRate:5
SliderMultiplier:1.4
SliderTickRate:1

[Events]
//Background and Video events
0,0,"259847.jpg",0,0
//Break Periods
//Storyboard Layer 0 (Background)
//Storyboard Layer 1 (Fail)
//Storyboard Layer 2 (Pass)
//Storyboard Layer 3 (Foreground)
//Storyboard Sound Samples

[TimingPoints]
538,555.555555555556,4,2,1,10,1,0
71649,-100,4,2,1,10,0,1
124982,-100,4,2,1,10,0,0

[HitObjects]
64,192,538,5,0,0:0:0:0:
448,192,538,1,0,0:0:0:0:
192,192,815,1,0,0:0:0:70:A6S.wav
320,192,1093,1,0,0:0:0:70:A6S.wav
448,192,1093,1,0,0:0:0:0:
192,192,1371,1,0,0:0:0:70:G5S.wav
320,192,1926,1,0,0:0:0:70:A6S.wav
64,192,2204,1,0,0:0:0:70:C6S.wav
448,192,2204,1,0,0:0:0:0:
320,192,2482,1,0,0:0:0:70:B6S.wav
64,192,2760,1,0,0:0:0:0:
192,192,2760,1,0,0:0:0:0:
448,192,3038,1,0,0:0:0:70:A6S.wav
64,192,3315,1,0,0:0:0:70:C6S.wav
320,192,3315,1,0,0:0:0:0:
192,192,3593,1,0,0:0:0:70:B6S.wav
448,192,4149,1,0,0:0:0:70:A6S.wav
64,192,4426,1,0,0:0:0:70:G5S.wav
192,192,4426,1,0,0:0:0:0:
320,192,4704,1,0,0:0:0:70:A6S.wav
64,192,4982,1,0,0:0:0:70:A6S.wav
448,192,4982,1,0,0:0:0:0:
192,192,5260,1,0,0:0:0:0:
320,192,5538,1,0,0:0:0:0:
448,192,5815,1,0,0:0:0:0:
64,192,6649,1,0,0:0:0:0:
192,192,7204,1,0,0:0:0:0:
64,192,7482,1,0,0:0:0:0:
192,192,7760,1,0,0:0:0:0:
320,192,8038,1,0,0:0:0:0:
64,192,8871,1,0,0:0:0:0:
192,192,9426,1,0,0:0:0:0:
320,192,9426,1,0,0:0:0:0:
448,192,9704,1,0,0:0:0:70:A6S.wav
64,192,9982,1,0,0:0:0:70:A6S.wav
192,192,9982,1,0,0:0:0:0:
320,192,10260,1,0,0:0:0:70:G5S.wav
64,192,10815,1,0,0:0:0:70:A6S.wav
192,192,11093,1,0,0:0:0:70:C6S.wav
448,192,11093,1,0,0:0:0:0:
320,192,11371,1,0,0:0:0:70:B6S.wav
64,192,11649,1,0,0:0:0:0:
192,192,11649,1,0,0:0:0:0:
448,192,11926,1,0,0:0:0:70:A6S.wav
64,192,12204,1,0,0:0:0:70:E6S.wav
320,192,12204,1,0,0:0:0:0:
192,192,12482,1,0,0:0:0:70:B6S.wav
320,192,13038,1,0,0:0:0:70:B6S.wav
64,192,13315,1,0,0:0:0:70:B6S.wav
448,192,13315,1,0,0:0:0:0:
192,192,13593,1,0,0:0:0:70:C6S.wav
320,192,13871,1,0,0:0:0:70:C6S.wav
448,192,13871,1,0,0:0:0:0:
64,192,14149,1,0,0:0:0:0:
320,192,14426,1,0,0:0:0:0:
192,192,14704,1,0,0:0:0:0:
64,192,15538,1,0,0:0:0:0:
192,192,16093,1,0,0:0:0:70:E6S.wav
448,192,16093,1,0,0:0:0:0:
320,192,16371,1,0,0:0:0:70:C6S.wav
64,192,16649,1,0,0:0:0:0:
448,192,16926,1,0,0:0:0:70:E6S.wav
320,192,17204,1,0,0:0:0:70:C6S.wav
192,192,17760,1,0,0:0:0:70:B6S.wav
64,192,18315,1,0,0:0:0:70:G6S.wav
448,192,18315,1,0,0:0:0:0:
320,192,18454,1,0,0:0:0:70:A7S.wav
192,192,18593,1,0,0:0:0:70:G6S.wav
320,192,18871,1,0,0:0:0:0:
448,192,19149,1,0,0:0:0:70:E6S.wav
64,192,19426,1,0,0:0:0:70:D6S.wav
320,192,19704,1,0,0:0:0:70:E6S.wav
192,192,19982,1,0,0:0:0:0:
320,192,20260,1,0,0:0:0:70:D6S.wav
64,192,20538,1,0,0:0:0:70:G6S.wav
448,192,20538,1,0,0:0:0:0:
192,192,20676,1,0,0:0:0:70:A7S.wav
320,192,20815,1,0,0:0:0:70:G6S.wav
448,192,21371,1,0,0:0:0:70:E6S.wav
64,192,21649,1,0,0:0:0:70:D6S.wav
192,192,21649,1,0,0:0:0:0:
320,192,21926,1,0,0:0:0:70:G6S.wav
64,192,22204,1,0,0:0:0:0:
192,192,22482,1,0,0:0:0:70:E6S.wav
320,192,22760,1,0,0:0:0:70:G6S.wav
448,192,22760,1,0,0:0:0:0:
192,192,22899,1,0,0:0:0:70:A7S.wav
64,192,23038,1,0,0:0:0:70:G6S.wav
320,192,23593,1,0,0:0:0:70:E6S.wav
192,192,23871,1,0,0:0:0:70:D6S.wav
448,192,23871,1,0,0:0:0:0:
64,192,24149,1,0,0:0:0:70:G6S.wav
320,192,24426,1,0,0:0:0:70:G6S.wav
448,192,24426,1,0,0:0:0:0:
192,192,24704,1,0,0:0:0:70:D6S.wav
64,192,24982,1,0,0:0:0:70:E6S.wav
448,192,24982,1,0,0:0:0:0:
320,192,26093,1,0,0:0:0:70:C7S.wav
448,192,26371,1,0,0:0:0:70:B7S.wav
320,192,26649,1,0,0:0:0:70:A7S.wav
192,192,26926,1,0,0:0:0:70:E6S.wav
64,192,27204,1,0,0:0:0:70:G6S.wav
448,192,27204,1,0,0:0:0:0:
320,192,27343,1,0,0:0:0:70:A7S.wav
192,192,27482,1,0,0:0:0:70:G6S.wav
64,192,28038,1,0,0:0:0:70:E6S.wav
192,192,28315,1,0,0:0:0:70:D6S.wav
448,192,28315,1,0,0:0:0:0:
320,192,28593,1,0,0:0:0:70:E6S.wav
64,192,28871,1,0,0:0:0:0:
448,192,29149,1,0,0:0:0:70:D6S.wav
64,192,29426,1,0,0:0:0:70:G6S.wav
192,192,29426,1,0,0:0:0:0:
320,192,29565,1,0,0:0:0:70:A7S.wav
448,192,29704,1,0,0:0:0:70:G6S.wav
192,192,30260,1,0,0:0:0:70:E6S.wav
448,192,30538,1,0,0:0:0:70:D6S.wav
64,192,30815,1,0,0:0:0:70:E6S.wav
320,192,31093,1,0,0:0:0:0:
192,192,31371,1,0,0:0:0:70:E6S.wav
64,192,31649,1,0,0:0:0:70:G6S.wav
448,192,31649,1,0,0:0:0:0:
320,192,31788,1,0,0:0:0:70:A7S.wav
192,192,31926,1,0,0:0:0:70:G6S.wav
320,192,32482,1,0,0:0:0:70:E6S.wav
64,192,32760,1,0,0:0:0:70:D6S.wav
192,192,32760,1,0,0:0:0:0:
448,192,33038,1,0,0:0:0:70:C6S.wav
64,192,33315,1,0,0:0:0:70:D6S.wav
320,192,33315,1,0,0:0:0:0:
192,192,33593,1,0,0:0:0:70:G6S.wav
320,192,33871,1,2,2:0:0:0:
448,192,33871,1,0,0:0:0:70:E6S.wav
64,192,34149,1,0,0:0:0:0:
320,192,34426,1,2,2:0:0:0:
448,192,34426,1,0,0:0:0:0:
192,192,34704,1,0,0:0:0:0:
64,192,34982,1,2,2:0:0:0:
320,192,34982,1,0,0:0:0:70:G6S.wav
320,192,35538,1,2,2:0:0:0:
448,192,35538,1,0,0:0:0:70:D6S.wav
64,192,35815,1,2,2:0:0:0:
192,192,35815,1,0,0:0:0:70:E6S.wav
64,192,36093,1,2,2:0:0:0:
448,192,36093,128,0,36649:0:0:0:70:A7S.wav
320,192,36371,1,0,0:0:0:0:
64,192,36649,1,8,2:0:0:0:
192,192,36649,1,0,0:0:0:0:
320,192,36926,1,0,0:0:0:0:
192,192,37065,1,2,2:0:0:0:
448,192,37065,1,0,0:0:0:0:
64,192,37204,1,0,0:0:0:70:D6S.wav
320,192,37482,1,2,2:0:0:0:
448,192,37482,1,0,0:0:0:0:
64,192,37760,1,8,2:0:0:0:
192,192,37760,1,0,0:0:0:70:C7S.wav
320,192,38038,1,0,0:0:0:70:B7S.wav
64,192,38315,1,2,2:0:0:0:
448,192,38315,1,0,0:0:0:0:
192,192,38593,1,0,0:0:0:70:C7S.wav
320,192,38871,1,8,2:0:0:0:
448,192,38871,1,0,0:0:0:70:B7S.wav
64,192,39149,1,0,0:0:0:0:
320,192,39288,1,2,2:0:0:0:
448,192,39288,1,0,0:0:0:0:
64,192,39426,1,2,2:0:0:0:
192,192,39426,1,0,0:0:0:70:D6S.wav
320,192,39704,1,2,2:0:0:0:
448,192,39704,1,0,0:0:0:0:
64,192,39982,1,8,2:0:0:0:
448,192,39982,1,0,0:0:0:70:D7S.wav
192,192,40260,1,0,0:0:0:70:C7S.wav
320,192,40538,1,2,2:0:0:0:
448,192,40538,1,0,0:0:0:0:
64,192,40815,1,0,0:0:0:70:B7S.wav
192,192,41093,1,8,2:0:0:0:
448,192,41093,1,0,0:0:0:70:B7S.wav
320,192,41371,1,0,0:0:0:70:C7S.wav
192,192,41510,1,2,2:0:0:0:
448,192,41510,1,0,0:0:0:0:
64,192,41649,1,0,0:0:0:70:B7S.wav
192,192,41926,1,2,2:0:0:0:
448,192,41926,1,0,0:0:0:0:
64,192,42204,1,8,2:0:0:0:
320,192,42204,1,0,0:0:0:0:
448,192,42482,1,0,0:0:0:70:B7S.wav
64,192,42760,1,2,2:0:0:0:
192,192,42760,1,0,0:0:0:70:C7S.wav
448,192,43038,1,0,0:0:0:70:B7S.wav
192,192,43315,1,8,2:0:0:0:
320,192,43315,1,0,0:0:0:0:
448,192,43593,1,0,0:0:0:70:B7S.wav
64,192,43732,1,2,2:0:0:0:
192,192,43732,1,0,0:0:0:0:
320,192,43871,1,2,2:0:0:0:
448,192,43871,1,0,0:0:0:70:C7S.wav
64,192,44149,1,2,2:0:0:0:
192,192,44149,1,0,0:0:0:70:B7S.wav
64,192,44426,1,8,2:0:0:0:
448,192,44426,1,0,0:0:0:70:A7S.wav
320,192,44704,1,0,0:0:0:70:G6S.wav
64,192,44982,128,2,45538:2:0:0:0:
192,192,44982,1,0,0:0:0:70:A7S.wav
448,192,45260,1,0,0:0:0:0:
192,192,45538,1,8,2:0:0:0:
320,192,45538,1,0,0:0:0:70:A7S.wav
448,192,45815,1,0,0:0:0:0:
64,192,45954,1,2,2:0:0:0:
320,192,45954,1,0,0:0:0:0:
192,192,46093,1,0,0:0:0:70:D6S.wav
64,192,46371,1,2,2:0:0:0:
320,192,46371,1,0,0:0:0:0:
192,192,46649,1,8,2:0:0:0:
448,192,46649,1,0,0:0:0:70:C7S.wav
64,192,46926,1,0,0:0:0:70:B7S.wav
320,192,47204,1,2,2:0:0:0:
448,192,47204,1,0,0:0:0:0:
192,192,47482,1,0,0:0:0:70:C7S.wav
64,192,47760,1,8,2:0:0:0:
320,192,47760,1,0,0:0:0:70:B7S.wav
448,192,48038,1,0,0:0:0:0:
64,192,48176,1,2,2:0:0:0:
192,192,48176,1,0,0:0:0:0:
320,192,48315,1,2,2:0:0:0:
448,192,48315,1,0,0:0:0:70:D6S.wav
64,192,48593,1,2,2:0:0:0:
192,192,48593,1,0,0:0:0:0:
192,192,48871,1,8,2:0:0:0:
448,192,48871,1,0,0:0:0:70:D7S.wav
320,192,49149,1,0,0:0:0:70:C7S.wav
64,192,49426,1,2,2:0:0:0:
448,192,49426,1,0,0:0:0:0:
192,192,49704,1,0,0:0:0:70:B7S.wav
320,192,49982,1,8,2:0:0:0:
448,192,49982,1,0,0:0:0:70:B7S.wav
64,192,50260,1,0,0:0:0:70:C7S.wav
192,192,50399,1,2,2:0:0:0:
448,192,50399,1,0,0:0:0:0:
320,192,50538,1,0,0:0:0:70:B7S.wav
64,192,50815,1,2,2:0:0:0:
192,192,50815,1,0,0:0:0:0:
320,192,51093,1,8,2:0:0:0:
448,192,51093,1,0,0:0:0:0:
64,192,51371,1,0,0:0:0:70:B7S.wav
192,192,51649,1,2,2:0:0:0:
448,192,51649,1,0,0:0:0:70:C7S.wav
320,192,51926,1,0,0:0:0:70:B7S.wav
192,192,52204,1,8,2:0:0:0:
448,192,52204,1,0,0:0:0:0:
64,192,52482,1,0,0:0:0:70:B7S.wav
320,192,52621,1,2,2:0:0:0:
448,192,52621,1,0,0:0:0:0:
64,192,52760,1,2,2:0:0:0:
192,192,52760,1,0,0:0:0:70:C7S.wav
320,192,53038,1,2,2:0:0:0:
448,192,53038,1,0,0:0:0:70:B7S.wav
64,192,53315,1,8,2:0:0:0:
448,192,53315,1,0,0:0:0:70:G6S.wav
192,192,53593,1,0,0:0:0:0:
320,192,53871,1,2,2:0:0:0:
448,192,53871,1,0,0:0:0:70:C7S.wav
64,192,54149,1,0,0:0:0:70:B7S.wav
192,192,54426,1,8,2:0:0:0:
448,192,54426,1,0,0:0:0:0:
320,192,54704,1,0,0:0:0:70:A7S.wav
192,192,54843,1,2,2:0:0:0:
448,192,54843,1,0,0:0:0:0:
64,192,54982,1,0,0:0:0:0:
192,192,55260,1,2,2:0:0:0:
320,192,55260,1,0,0:0:0:70:B7S.wav
64,192,55538,1,8,2:0:0:0:
448,192,55538,1,0,0:0:0:70:A7S.wav
320,192,55815,1,0,0:0:0:70:B7S.wav
64,192,56093,1,2,2:0:0:0:
192,192,56093,1,0,0:0:0:70:C7S.wav
448,192,56371,1,0,0:0:0:70:B7S.wav
192,192,56649,1,8,2:0:0:0:
320,192,56649,1,0,0:0:0:0:
64,192,56926,1,0,0:0:0:70:A7S.wav
320,192,57065,1,2,2:0:0:0:
448,192,57065,1,0,0:0:0:0:
64,192,57204,1,2,2:0:0:0:
192,192,57204,1,0,0:0:0:0:
320,192,57482,1,2,2:0:0:0:
448,192,57482,1,0,0:0:0:70:B7S.wav
192,192,57760,1,8,2:0:0:0:
320,192,57760,1,0,0:0:0:70:A7S.wav
64,192,58038,1,0,0:0:0:70:B7S.wav
320,192,58315,1,2,2:0:0:0:
448,192,58315,1,0,0:0:0:70:C7S.wav
192,192,58593,1,0,0:0:0:70:B7S.wav
64,192,58871,1,8,2:0:0:0:
320,192,58871,1,0,0:0:0:0:
448,192,59149,1,0,0:0:0:70:A7S.wav
64,192,59288,1,2,2:0:0:0:
320,192,59288,1,0,0:0:0:0:
192,192,59426,1,0,0:0:0:0:
64,192,59704,1,2,2:0:0:0:
320,192,59704,1,0,0:0:0:70:G6S.wav
192,192,59982,1,8,2:0:0:0:
448,192,59982,1,0,0:0:0:70:A7S.wav
320,192,60260,1,0,0:0:0:0:
64,192,60538,1,2,2:0:0:0:
448,192,60538,1,0,0:0:0:70:C7S.wav
192,192,60815,1,0,0:0:0:70:B7S.wav
320,192,61093,1,8,2:0:0:0:
448,192,61093,1,0,0:0:0:0:
64,192,61371,1,0,0:0:0:70:A7S.wav
320,192,61510,1,2,2:0:0:0:
448,192,61510,1,0,0:0:0:0:
64,192,61649,1,2,2:0:0:0:
192,192,61649,1,0,0:0:0:0:
320,192,61926,1,2,2:0:0:0:
448,192,61926,1,0,0:0:0:70:G6S.wav
64,192,62204,1,8,2:0:0:0:
320,192,62204,1,0,0:0:0:70:A7S.wav
192,192,62482,1,0,0:0:0:0:
64,192,62760,1,2,2:0:0:0:
448,192,62760,1,0,0:0:0:70:C7S.wav
320,192,63038,1,0,0:0:0:70:B7S.wav
64,192,63315,1,8,2:0:0:0:
192,192,63315,1,0,0:0:0:0:
448,192,63593,1,0,0:0:0:70:A7S.wav
64,192,63732,1,2,2:0:0:0:
320,192,63732,1,0,0:0:0:0:
192,192,63871,1,0,0:0:0:0:
320,192,64149,1,2,2:0:0:0:
448,192,64149,1,0,0:0:0:70:B7S.wav
64,192,64426,1,8,2:0:0:0:
192,192,64426,1,0,0:0:0:70:A7S.wav
320,192,64704,1,0,0:0:0:70:B7S.wav
64,192,64982,1,2,2:0:0:0:
448,192,64982,1,0,0:0:0:70:C7S.wav
320,192,65260,1,0,0:0:0:70:B7S.wav
64,192,65538,1,8,2:0:0:0:
192,192,65538,1,0,0:0:0:0:
448,192,65815,1,0,0:0:0:70:A7S.wav
64,192,65954,1,2,2:0:0:0:
192,192,65954,1,0,0:0:0:0:
320,192,66093,1,2,2:0:0:0:
448,192,66093,1,0,0:0:0:0:
64,192,66371,1,2,2:0:0:0:
192,192,66371,1,0,0:0:0:70:B7S.wav
64,192,66649,1,8,2:0:0:0:
448,192,66649,1,0,0:0:0:70:A7S.wav
320,192,66926,1,0,0:0:0:70:B7S.wav
64,192,67204,1,2,2:0:0:0:
192,192,67204,1,0,0:0:0:70:C7S.wav
320,192,67482,1,0,0:0:0:70:B7S.wav
192,192,67760,1,8,2:0:0:0:
448,192,67760,1,0,0:0:0:0:
64,192,68038,1,0,0:0:0:70:A7S.wav
192,192,68176,1,2,2:0:0:0:
448,192,68176,1,0,0:0:0:0:
320,192,68315,1,0,0:0:0:0:
192,192,68593,1,2,2:0:0:0:
448,192,68593,1,0,0:0:0:70:G6S.wav
64,192,68871,1,8,2:0:0:0:
320,192,68871,1,0,0:0:0:70:A7S.wav
192,192,69149,1,0,0:0:0:0:
448,192,69426,1,0,0:0:0:70:C7S.wav
320,192,69704,1,0,0:0:0:70:B7S.wav
192,192,69982,1,0,0:0:0:0:
64,192,70260,1,0,0:0:0:70:A7S.wav
448,192,70538,128,0,71093:0:0:0:70:E7S.wav
320,192,70815,1,0,0:0:0:70:D7S.wav
192,192,71093,128,0,71649:0:0:0:70:C7S.wav
320,192,71371,1,0,0:0:0:70:B7S.wav
64,192,71649,1,6,2:0:0:0:
448,192,71649,1,0,0:0:0:70:C7S.wav
192,192,71788,1,0,0:0:0:70:C7S.wav
320,192,71926,1,0,0:0:0:70:B7S.wav
64,192,72204,1,8,2:0:0:0:
192,192,72204,1,0,0:0:0:70:C7S.wav
320,192,72343,1,0,0:0:0:70:B7S.wav
448,192,72482,1,0,0:0:0:70:C7S.wav
192,192,72621,1,2,2:0:0:0:
320,192,72621,1,0,0:0:0:70:D7S.wav
64,192,72760,1,0,0:0:0:70:C7S.wav
192,192,72899,1,0,0:0:0:70:C7S.wav
320,192,73038,1,2,2:0:0:0:
448,192,73038,1,0,0:0:0:70:B7S.wav
64,192,73315,1,8,2:0:0:0:
192,192,73315,1,0,0:0:0:70:B7S.wav
320,192,73593,1,0,0:0:0:70:C7S.wav
64,192,73871,1,2,2:0:0:0:
448,192,73871,1,0,0:0:0:70:C7S.wav
320,192,74010,1,0,0:0:0:70:C7S.wav
192,192,74149,1,0,0:0:0:70:B7S.wav
320,192,74426,1,8,2:0:0:0:
448,192,74426,1,0,0:0:0:70:C7S.wav
192,192,74565,1,0,0:0:0:70:B7S.wav
64,192,74704,1,0,0:0:0:70:C7S.wav
320,192,74843,1,2,2:0:0:0:
448,192,74843,1,0,0:0:0:70:D7S.wav
64,192,74982,1,2,2:0:0:0:
192,192,74982,1,0,0:0:0:70:C7S.wav
320,192,75121,1,0,0:0:0:70:C7S.wav
64,192,75260,1,2,2:0:0:0:
448,192,75260,1,0,0:0:0:70:B7S.wav
320,192,75538,1,8,2:0:0:0:
448,192,75538,1,0,0:0:0:70:E7S.wav
64,192,75815,1,0,0:0:0:70:C7S.wav
192,192,75815,1,0,0:0:0:0:
64,192,76093,1,2,2:0:0:0:
448,192,76093,1,0,0:0:0:70:C7S.wav
320,192,76232,1,0,0:0:0:70:C7S.wav
192,192,76371,1,0,0:0:0:70:B7S.wav
320,192,76649,1,8,2:0:0:0:
448,192,76649,1,0,0:0:0:70:C7S.wav
192,192,76788,1,0,0:0:0:70:B7S.wav
64,192,76926,1,0,0:0:0:70:C7S.wav
192,192,77065,1,2,2:0:0:0:
448,192,77065,1,0,0:0:0:70:D7S.wav
320,192,77204,1,0,0:0:0:70:C7S.wav
192,192,77343,1,0,0:0:0:70:D7S.wav
64,192,77482,1,2,2:0:0:0:
448,192,77482,1,0,0:0:0:70:E7S.wav
320,192,77760,1,8,2:0:0:0:
448,192,77760,1,0,0:0:0:70:G7S.wav
192,192,78038,1,0,0:0:0:70:E7S.wav
64,192,78315,1,2,2:0:0:0:
320,192,78315,1,0,0:0:0:70:D7S.wav
448,192,78593,1,0,0:0:0:0:
64,192,78871,1,8,2:0:0:0:
192,192,78871,1,0,0:0:0:70:E7S.wav
320,192,79149,1,0,0:0:0:0:
64,192,79288,1,2,2:0:0:0:
192,192,79288,1,0,0:0:0:0:
320,192,79426,1,2,2:0:0:0:
448,192,79426,1,0,0:0:0:70:G7S.wav
64,192,79704,1,2,2:0:0:0:
192,192,79704,1,0,0:0:0:0:
192,192,79982,1,8,2:0:0:0:
448,192,79982,1,0,0:0:0:70:D7S.wav
320,192,80260,1,0,0:0:0:0:
64,192,80538,1,2,2:0:0:0:
192,192,80538,1,0,0:0:0:70:C7S.wav
320,192,80676,1,0,0:0:0:70:C7S.wav
448,192,80815,1,0,0:0:0:70:B7S.wav
64,192,81093,1,8,2:0:0:0:
192,192,81093,1,0,0:0:0:70:C7S.wav
448,192,81232,1,0,0:0:0:70:B7S.wav
320,192,81371,1,0,0:0:0:70:C7S.wav
64,192,81510,1,2,2:0:0:0:
192,192,81510,1,0,0:0:0:70:D7S.wav
320,192,81649,1,0,0:0:0:70:C7S.wav
192,192,81788,1,0,0:0:0:70:C7S.wav
64,192,81926,1,2,2:0:0:0:
448,192,81926,1,0,0:0:0:70:B7S.wav
192,192,82204,1,8,2:0:0:0:
448,192,82204,1,0,0:0:0:70:B7S.wav
320,192,82482,1,0,0:0:0:70:C7S.wav
64,192,82760,1,2,2:0:0:0:
192,192,82760,1,0,0:0:0:70:C7S.wav
320,192,82899,1,0,0:0:0:70:C7S.wav
448,192,83038,1,0,0:0:0:70:B7S.wav
64,192,83315,1,8,2:0:0:0:
192,192,83315,1,0,0:0:0:70:C7S.wav
448,192,83454,1,0,0:0:0:70:B7S.wav
320,192,83593,1,0,0:0:0:70:C7S.wav
64,192,83732,1,2,2:0:0:0:
192,192,83732,1,0,0:0:0:70:D7S.wav
320,192,83871,1,2,2:0:0:0:
448,192,83871,1,0,0:0:0:70:C7S.wav
192,192,84010,1,0,0:0:0:70:C7S.wav
64,192,84149,1,2,2:0:0:0:
448,192,84149,1,0,0:0:0:70:B7S.wav
64,192,84426,1,8,2:0:0:0:
192,192,84426,1,0,0:0:0:70:E7S.wav
320,192,84704,1,0,0:0:0:70:C7S.wav
192,192,84982,1,2,2:0:0:0:
448,192,84982,1,0,0:0:0:70:C7S.wav
64,192,85121,1,0,0:0:0:70:C7S.wav
320,192,85260,1,0,0:0:0:70:B7S.wav
64,192,85538,1,8,2:0:0:0:
192,192,85538,1,0,0:0:0:70:C7S.wav
320,192,85676,1,0,0:0:0:70:B7S.wav
64,192,85815,1,0,0:0:0:70:C7S.wav
192,192,85954,1,2,2:0:0:0:
448,192,85954,1,0,0:0:0:70:D7S.wav
320,192,86093,1,0,0:0:0:70:C7S.wav
192,192,86232,1,0,0:0:0:70:D7S.wav
64,192,86371,1,2,2:0:0:0:
448,192,86371,1,0,0:0:0:70:E7S.wav
320,192,86649,1,8,2:0:0:0:
448,192,86649,1,0,0:0:0:70:G7S.wav
192,192,86926,1,0,0:0:0:70:E7S.wav
64,192,87204,1,2,2:0:0:0:
320,192,87204,1,0,0:0:0:70:D7S.wav
192,192,87482,1,0,0:0:0:0:
320,192,87760,1,8,2:0:0:0:
448,192,87760,1,0,0:0:0:70:E7S.wav
64,192,88038,1,0,0:0:0:0:
320,192,88176,1,2,2:0:0:0:
448,192,88176,1,0,0:0:0:0:
64,192,88315,1,2,2:0:0:0:
192,192,88315,1,0,0:0:0:70:G7S.wav
320,192,88593,1,2,2:0:0:0:
448,192,88593,1,0,0:0:0:0:
64,192,88871,1,8,2:0:0:0:
320,192,88871,1,0,0:0:0:70:D7S.wav
192,192,89149,1,0,0:0:0:70:C7S.wav
320,192,89426,1,2,2:0:0:0:
448,192,89426,1,0,0:0:0:70:A7S.wav
64,192,89565,1,0,0:0:0:70:A7S.wav
192,192,89704,1,0,0:0:0:70:G6S.wav
320,192,89843,1,0,0:0:0:70:A7S.wav
192,192,89982,1,8,2:0:0:0:
448,192,89982,1,0,0:0:0:70:A7S.wav
64,192,90260,1,0,0:0:0:70:G6S.wav
192,192,90399,1,2,2:0:0:0:
448,192,90399,1,0,0:0:0:70:E6S.wav
320,192,90538,1,0,0:0:0:70:E6S.wav
192,192,90815,1,2,2:0:0:0:
448,192,90815,1,0,0:0:0:70:G6S.wav
64,192,91093,1,8,2:0:0:0:
320,192,91093,1,0,0:0:0:70:D6S.wav
448,192,91371,1,0,0:0:0:70:E6S.wav
64,192,91649,1,2,2:0:0:0:
192,192,91649,1,0,0:0:0:70:A7S.wav
320,192,91788,1,0,0:0:0:70:A7S.wav
448,192,91926,1,0,0:0:0:70:G6S.wav
64,192,92065,1,0,0:0:0:70:A7S.wav
320,192,92204,1,8,2:0:0:0:
448,192,92204,1,0,0:0:0:70:A7S.wav
64,192,92482,1,0,0:0:0:70:G6S.wav
320,192,92621,1,2,2:0:0:0:
448,192,92621,1,0,0:0:0:70:E6S.wav
64,192,92760,1,2,2:0:0:0:
192,192,92760,1,0,0:0:0:70:E6S.wav
320,192,93038,1,2,2:0:0:0:
448,192,93038,1,0,0:0:0:70:G6S.wav
64,192,93315,1,8,2:0:0:0:
320,192,93315,1,0,0:0:0:70:D6S.wav
448,192,93593,1,0,0:0:0:70:E6S.wav
64,192,93871,1,2,2:0:0:0:
192,192,93871,1,0,0:0:0:70:A7S.wav
320,192,94010,1,0,0:0:0:70:A7S.wav
448,192,94149,1,0,0:0:0:70:G6S.wav
64,192,94288,1,0,0:0:0:70:A7S.wav
320,192,94426,1,8,2:0:0:0:
448,192,94426,1,0,0:0:0:70:A7S.wav
64,192,94704,1,0,0:0:0:0:
320,192,94843,1,2,2:0:0:0:
448,192,94843,1,0,0:0:0:0:
192,192,94982,1,0,0:0:0:70:A7S.wav
64,192,95121,1,0,0:0:0:70:A7S.wav
192,192,95260,1,2,2:0:0:0:
448,192,95260,1,0,0:0:0:70:G6S.wav
320,192,95399,1,0,0:0:0:70:A7S.wav
64,192,95538,1,8,2:0:0:0:
192,192,95538,1,0,0:0:0:70:A7S.wav
320,192,95815,1,0,0:0:0:0:
64,192,96093,1,2,2:0:0:0:
448,192,96093,1,0,0:0:0:70:A7S.wav
192,192,96232,1,0,0:0:0:70:A7S.wav
320,192,96371,1,0,0:0:0:70:G6S.wav
64,192,96510,1,0,0:0:0:70:A7S.wav
320,192,96649,1,8,2:0:0:0:
448,192,96649,1,0,0:0:0:70:A7S.wav
64,192,96926,1,0,0:0:0:70:A7S.wav
320,192,97065,1,2,2:0:0:0:
448,192,97065,1,0,0:0:0:70:A7S.wav
64,192,97204,1,2,2:0:0:0:
192,192,97204,1,0,0:0:0:70:A7S.wav
320,192,97343,1,0,0:0:0:70:A7S.wav
64,192,97482,1,2,2:0:0:0:
448,192,97482,1,0,0:0:0:70:G6S.wav
320,192,97760,1,8,2:0:0:0:
448,192,97760,1,0,0:0:0:70:C7S.wav
192,192,98038,1,0,0:0:0:70:B7S.wav
320,192,98315,1,2,2:0:0:0:
448,192,98315,1,0,0:0:0:70:A7S.wav
64,192,98454,1,0,0:0:0:70:A7S.wav
192,192,98593,1,0,0:0:0:70:G6S.wav
320,192,98732,1,0,0:0:0:70:A7S.wav
64,192,98871,1,8,2:0:0:0:
192,192,98871,1,0,0:0:0:70:A7S.wav
448,192,99149,1,0,0:0:0:70:G6S.wav
64,192,99288,1,2,2:0:0:0:
320,192,99288,1,0,0:0:0:70:E6S.wav
192,192,99426,1,0,0:0:0:70:E6S.wav
320,192,99704,1,2,2:0:0:0:
448,192,99704,1,0,0:0:0:70:G6S.wav
64,192,99982,1,8,2:0:0:0:
448,192,99982,1,0,0:0:0:70:E6S.wav
320,192,100260,1,0,0:0:0:70:G6S.wav
64,192,100538,1,2,2:0:0:0:
192,192,100538,1,0,0:0:0:70:A7S.wav
448,192,100676,1,0,0:0:0:70:A7S.wav
64,192,100815,1,0,0:0:0:70:G6S.wav
192,192,100954,1,0,0:0:0:70:A7S.wav
320,192,101093,1,8,2:0:0:0:
448,192,101093,1,0,0:0:0:70:A7S.wav
64,192,101371,1,0,0:0:0:70:G6S.wav
320,192,101510,1,2,2:0:0:0:
448,192,101510,1,0,0:0:0:70:E6S.wav
64,192,101649,1,2,2:0:0:0:
192,192,101649,1,0,0:0:0:70:E6S.wav
320,192,101926,1,2,2:0:0:0:
448,192,101926,1,0,0:0:0:70:G6S.wav
64,192,102204,1,8,2:0:0:0:
320,192,102204,1,0,0:0:0:70:D6S.wav
192,192,102482,1,0,0:0:0:70:E6S.wav
320,192,102760,1,2,2:0:0:0:
448,192,102760,1,0,0:0:0:70:A7S.wav
192,192,102899,1,0,0:0:0:70:A7S.wav
64,192,103038,1,0,0:0:0:70:G6S.wav
448,192,103176,1,0,0:0:0:70:A7S.wav
64,192,103315,1,8,2:0:0:0:
192,192,103315,1,0,0:0:0:70:A7S.wav
448,192,103593,1,0,0:0:0:0:
64,192,103732,1,2,2:0:0:0:
192,192,103732,1,0,0:0:0:0:
320,192,103871,1,0,0:0:0:70:A7S.wav
448,192,104010,1,0,0:0:0:70:A7S.wav
64,192,104149,1,2,2:0:0:0:
320,192,104149,1,0,0:0:0:70:G6S.wav
192,192,104288,1,0,0:0:0:70:A7S.wav
320,192,104426,1,8,2:0:0:0:
448,192,104426,1,0,0:0:0:70:A7S.wav
192,192,104704,1,0,0:0:0:0:
64,192,104982,1,2,2:0:0:0:
448,192,104982,1,0,0:0:0:70:A7S.wav
320,192,105121,1,0,0:0:0:70:A7S.wav
192,192,105260,1,0,0:0:0:70:G6S.wav
448,192,105399,1,0,0:0:0:70:A7S.wav
64,192,105538,1,8,2:0:0:0:
192,192,105538,1,0,0:0:0:70:A7S.wav
448,192,105815,1,0,0:0:0:70:A7S.wav
64,192,105954,1,2,2:0:0:0:
192,192,105954,1,0,0:0:0:70:A7S.wav
320,192,106093,1,2,2:0:0:0:
448,192,106093,1,0,0:0:0:70:A7S.wav
64,192,106232,1,0,0:0:0:70:A7S.wav
192,192,106371,1,2,2:0:0:0:
320,192,106371,1,0,0:0:0:70:G6S.wav
64,192,106649,1,8,2:0:0:0:
192,192,106649,1,0,0:0:0:70:C7S.wav
320,192,106926,1,0,0:0:0:0:
64,192,107204,1,2,2:0:0:0:
448,192,107204,128,0,108871:0:0:0:70:C7S.wav
320,192,107482,1,0,0:0:0:70:B7S.wav
64,192,107760,1,8,2:0:0:0:
192,192,107760,1,0,0:0:0:70:G6S.wav
320,192,108038,1,0,0:0:0:0:
192,192,108176,1,2,2:0:0:0:
64,192,108315,1,0,0:0:0:0:
64,192,108593,1,2,2:0:0:0:
192,192,108871,1,8,2:0:0:0:
320,192,108871,128,0,109426:0:0:0:70:E6S.wav
64,192,109149,1,0,0:0:0:70:G6S.wav
192,192,109426,128,2,111093:2:0:0:0:
448,192,109426,1,0,0:0:0:70:C7S.wav
320,192,109704,1,0,0:0:0:70:B7S.wav
64,192,109982,1,8,2:0:0:0:
448,192,109982,1,0,0:0:0:70:G6S.wav
320,192,110260,1,0,0:0:0:0:
64,192,110399,1,2,2:0:0:0:
448,192,110538,1,2,2:0:0:0:
448,192,110815,1,2,2:0:0:0:
64,192,111093,128,8,111649:2:0:0:0:
320,192,111093,1,0,0:0:0:70:E6S.wav
448,192,111371,1,0,0:0:0:70:G6S.wav
192,192,111649,1,2,2:0:0:0:
320,192,111649,128,0,113315:0:0:0:70:C7S.wav
448,192,111926,1,0,0:0:0:70:B7S.wav
64,192,112204,1,8,2:0:0:0:
192,192,112204,1,0,0:0:0:70:G6S.wav
448,192,112482,1,0,0:0:0:70:A7S.wav
64,192,112621,1,2,2:0:0:0:
192,192,112760,1,0,0:0:0:70:E6S.wav
64,192,113038,1,2,2:0:0:0:
192,192,113038,1,0,0:0:0:70:G6S.wav
64,192,113315,128,8,113871:2:0:0:0:
448,192,113315,1,0,0:0:0:70:D6S.wav
320,192,113593,1,0,0:0:0:70:E6S.wav
192,192,113871,128,2,115538:2:0:0:0:
448,192,113871,1,0,0:0:0:70:E6S.wav
64,192,114149,1,0,0:0:0:0:
320,192,114426,1,8,2:0:0:0:
448,192,114426,1,0,0:0:0:0:
448,192,114704,1,0,0:0:0:0:
64,192,114843,1,2,2:0:0:0:
320,192,114982,1,2,2:0:0:0:
320,192,115260,1,2,2:0:0:0:
64,192,115538,128,8,116093:2:0:0:0:
448,192,115538,1,0,0:0:0:70:E6S.wav
320,192,115815,1,0,0:0:0:0:
192,192,116093,128,2,117760:2:0:0:0:
448,192,116093,1,0,0:0:0:70:C7S.wav
64,192,116371,1,0,0:0:0:70:B7S.wav
320,192,116649,1,8,2:0:0:0:
448,192,116649,1,0,0:0:0:70:G6S.wav
320,192,116926,1,0,0:0:0:0:
64,192,117065,1,2,2:0:0:0:
448,192,117204,1,0,0:0:0:0:
448,192,117482,1,2,2:0:0:0:
64,192,117760,1,8,2:0:0:0:
320,192,117760,128,0,118315:0:0:0:70:E6S.wav
192,192,118038,1,0,0:0:0:70:G6S.wav
64,192,118315,1,2,2:0:0:0:
448,192,118315,128,0,119982:0:0:0:70:C7S.wav
320,192,118593,1,0,0:0:0:70:B7S.wav
64,192,118871,1,8,2:0:0:0:
192,192,118871,1,0,0:0:0:70:G6S.wav
64,192,119149,1,0,0:0:0:0:
192,192,119288,1,2,2:0:0:0:
320,192,119426,1,2,2:0:0:0:
320,192,119704,1,2,2:0:0:0:
64,192,119982,1,8,2:0:0:0:
192,192,119982,128,0,120538:0:0:0:70:E6S.wav
448,192,120260,1,0,0:0:0:70:G6S.wav
64,192,120538,1,2,2:0:0:0:
320,192,120538,128,0,122204:0:0:0:70:C7S.wav
192,192,120815,1,0,0:0:0:70:B7S.wav
64,192,121093,1,8,2:0:0:0:
448,192,121093,1,0,0:0:0:70:G6S.wav
192,192,121371,1,0,0:0:0:70:A7S.wav
64,192,121510,1,2,2:0:0:0:
448,192,121649,1,0,0:0:0:70:E6S.wav
64,192,121926,1,2,2:0:0:0:
448,192,121926,1,0,0:0:0:70:G6S.wav
64,192,122204,1,8,2:0:0:0:
192,192,122204,128,0,122760:0:0:0:70:D6S.wav
320,192,122482,1,0,0:0:0:70:E6S.wav
64,192,122760,128,2,124426:2:0:0:0:
448,192,122760,1,0,0:0:0:70:E6S.wav
320,192,123038,1,0,0:0:0:0:
192,192,123315,1,8,2:0:0:0:
320,192,123315,1,0,0:0:0:0:
448,192,123593,1,0,0:0:0:0:
320,192,123732,1,2,2:0:0:0:
192,192,123871,1,2,2:0:0:0:
448,192,123871,1,0,0:0:0:70:E6S.wav
192,192,124149,1,2,2:0:0:0:
320,192,124149,1,0,0:0:0:70:D6S.wav
320,192,124426,1,8,2:0:0:0:
448,192,124426,1,0,0:0:0:70:C6S.wav
192,192,124704,1,0,0:0:0:70:B6S.wav
64,192,124982,1,4,2:0:0:0:
448,192,124982,1,0,0:0:0:70:C6S.wav
320,192,125260,1,0,0:0:0:0:
64,192,125538,1,0,0:0:0:0:
192,192,125815,1,0,0:0:0:0:
448,192,126093,1,0,0:0:0:70:C6S.wav
64,192,126649,1,0,0:0:0:70:B6S.wav
192,192,126649,1,0,0:0:0:0:
320,192,126926,1,0,0:0:0:70:C6S.wav
192,192,127204,1,0,0:0:0:70:D6S.wav
448,192,127204,1,0,0:0:0:0:
64,192,127482,1,0,0:0:0:0:
320,192,128315,1,0,0:0:0:70:D6S.wav
192,192,128593,1,0,0:0:0:0:
64,192,128871,1,0,0:0:0:70:C6S.wav
192,192,129149,1,0,0:0:0:70:D6S.wav
320,192,129426,1,0,0:0:0:70:E6S.wav
448,192,129426,1,0,0:0:0:0:
64,192,129704,1,0,0:0:0:0:
320,192,129982,1,0,0:0:0:70:G6S.wav
64,192,130538,1,0,0:0:0:70:D6S.wav
192,192,130538,1,0,0:0:0:0:
448,192,131093,1,0,0:0:0:70:E6S.wav
64,192,131649,1,0,0:0:0:70:C6S.wav
320,192,131649,1,0,0:0:0:0:
448,192,131926,1,0,0:0:0:0:
192,192,132204,1,0,0:0:0:0:
64,192,132482,1,0,0:0:0:0:
320,192,132760,1,0,0:0:0:70:C6S.wav
192,192,133315,1,0,0:0:0:70:B6S.wav
64,192,133871,1,0,0:0:0:70:A6S.wav
448,192,133871,1,0,0:0:0:0:
192,192,134149,1,0,0:0:0:0:
320,192,134426,1,0,0:0:0:0:
64,192,134704,1,0,0:0:0:0:
192,192,134982,1,0,0:0:0:70:A6S.wav
320,192,135538,1,0,0:0:0:70:C6S.wav
448,192,135538,1,0,0:0:0:0:
64,192,136093,1,0,0:0:0:70:B6S.wav
192,192,136093,1,0,0:0:0:0:
448,192,136371,1,0,0:0:0:0:
320,192,136649,1,0,0:0:0:70:C6S.wav
64,192,136926,1,0,0:0:0:70:B6S.wav
192,192,136926,1,0,0:0:0:0:
448,192,137204,1,0,0:0:0:70:A6S.wav
64,192,137760,1,0,0:0:0:70:G5S.wav
192,192,137760,1,0,0:0:0:0:
192,192,138315,1,0,0:0:0:70:A6S.wav
448,192,138315,1,0,0:0:0:0:
64,192,138593,1,0,0:0:0:0:
192,192,138871,1,0,0:0:0:0:
320,192,139149,1,0,0:0:0:0:
64,192,139426,1,0,0:0:0:0:
192,192,139704,1,0,0:0:0:0:
320,192,139982,1,0,0:0:0:0:
448,192,140260,1,0,0:0:0:0:
