osu file format v14

[General]
AudioFilename: audio.mp3
AudioLeadIn: 0
PreviewTime: 79422
Countdown: 0
SampleSet: Soft
StackLeniency: 0.2
Mode: 0
LetterboxInBreaks: 0
WidescreenStoryboard: 0

[Editor]
DistanceSpacing: 1
BeatDivisor: 4
GridSize: 8
TimelineZoom: 1.7

[Metadata]
Title:Variable
TitleUnicode:Variable
Artist:Function Phantom
ArtistUnicode:Function Phantom
Creator:Anderzay
Version:Adaption
Source:
Tags:
BeatmapID:1589094
BeatmapSetID:754859

[Difficulty]
HPDrainRate:6
CircleSize:4.8
OverallDifficulty:7
ApproachRate:9.6
SliderMultiplier:3
SliderTickRate:2

[Events]
//Background and Video events
//Break Periods
//Storyboard Layer 0 (Background)
//Storyboard Layer 1 (Fail)
//Storyboard Layer 2 (Pass)
//Storyboard Layer 3 (Foreground)
//Storyboard Sound Samples

[TimingPoints]
364,352.941176470588,4,2,0,30,1,0
22952,-133.333333333333,4,2,0,30,0,0
23658,-100,4,2,0,30,0,0
24011,-200,4,2,0,30,0,0
24363,-100,4,2,0,30,0,0
25069,-80,4,2,0,30,0,0
25422,-50,4,2,0,30,0,0
25775,-100,4,2,0,30,0,0
26481,-66.6666666666667,4,2,0,30,0,0
27187,-100,4,2,0,30,0,0
27893,-133.333333333333,4,2,0,30,0,0
28599,-100,4,2,0,30,0,0
29305,-66.6666666666667,4,2,0,30,0,0
30011,-100,4,2,0,30,0,0
30716,-80,4,2,0,30,0,0
31069,-50,4,2,0,30,0,0
31422,-100,4,2,0,30,0,0
32128,-66.6666666666667,4,2,0,30,0,0
32834,-80,4,2,0,30,0,0
33187,-100,4,2,0,30,0,0
33540,-80,4,2,0,30,0,0
33805,-100,4,2,0,30,0,0
34069,-80,4,2,0,30,0,0
34246,-100,4,2,0,30,0,0
34599,-200,4,2,0,30,0,0
34952,-66.6666666666667,4,2,0,30,0,0
35658,-100,4,2,0,30,0,0
36011,-200,4,2,0,30,0,0
36452,-80,4,2,0,30,0,0
36716,-50,4,2,0,30,0,0
37069,-100,4,2,0,30,0,0
37422,-200,4,2,0,30,0,0
37952,-100,4,2,0,30,0,0
38834,-200,4,2,0,30,0,0
39540,-50,4,2,0,30,0,0

[Colours]
Combo1 : 44,149,211
Combo2 : 73,156,75

[HitObjects]
256,192,18716,12,0,22863,0:0:0:0:
355,117,22952,6,0,L|227:105,1,112.500004291535
242,107,23481,2,0,L|237:51,1,56.2500021457673
242,107,23658,6,0,B|248:131|248:131|278:131|304:110|304:110|324:169|405:174|433:118,1,225
414,54,24011,6,0,P|451:59|489:107,1,75
446,233,24363,6,0,B|402:230|373:268|373:268|360:217|296:189|242:230,1,225
235,246,24716,1,0,0:0:0:0:
77,166,24893,2,0,B|66:149|66:149|77:78,1,75
81,170,25069,6,0,P|171:124|118:227,1,281.25
49,311,25422,6,0,B|106:305|106:305|121:295|121:295|138:302|138:302|194:297,1,150
265,350,25599,2,0,B|207:355|207:355|192:365|192:365|175:358|175:358|119:363,1,150
45,307,25775,6,0,B|47:291|40:273|40:273|69:256|69:256|35:215|48:131|110:117,1,225
134,122,26128,1,0,0:0:0:0:
231,277,26305,2,0,L|224:197,1,75
227,273,26481,6,0,B|218:178|218:178|225:161|225:161|215:146|215:146|206:33,2,225.000008583069
417,197,27011,1,0,0:0:0:0:
417,197,27099,1,0,0:0:0:0:
411,248,27187,6,0,B|405:311|405:311|368:268|286:274|260:344,1,225
258,365,27540,1,0,0:0:0:0:
383,114,27716,2,0,B|394:97|394:97|383:26,1,75
307,113,27893,6,0,P|332:170|432:172,1,168.750006437302
457,120,28246,2,0,P|452:86|430:58,1,56.2500021457673
243,19,28422,2,0,P|247:52|269:80,1,56.2500021457673
457,120,28599,6,0,B|459:83|441:68|441:68|383:89|368:184|422:235,1,225
427,242,28952,1,0,0:0:0:0:
224,231,29129,2,0,L|143:224,1,75
220,227,29305,6,0,B|124:219|124:219|109:209|109:209|92:216|92:216|-20:206,2,225.000008583069
397,126,29834,1,0,0:0:0:0:
397,126,29922,1,0,0:0:0:0:
345,120,30011,6,0,B|304:118|281:147|281:147|332:176|347:242|304:297,1,225
289,307,30363,1,0,0:0:0:0:
498,162,30540,2,0,B|509:145|509:145|498:74,1,75
483,241,30716,6,0,P|414:167|428:282,1,281.25
457,373,31069,6,0,B|401:368|401:368|384:375|384:375|369:365|369:365|311:360,1,150
132,290,31246,2,0,B|188:295|188:295|205:288|205:288|220:298|220:298|277:304,1,150
466,264,31422,6,0,B|430:256|405:282|405:282|377:238|323:214|317:295|241:193,1,225
261,186,31775,1,0,0:0:0:0:
140,352,31952,2,0,L|147:272,1,75
136,348,32128,6,0,B|145:253|145:253|138:236|138:236|148:221|148:221|157:108,2,225.000008583069
278,210,32658,1,0,0:0:0:0:
278,210,32746,1,0,0:0:0:0:
284,261,32834,6,0,B|343:311|442:288|470:240|470:240|426:251|383:227,1,281.25
360,208,33187,6,0,P|332:140|435:24,1,225
487,87,33540,6,0,B|509:126|477:162|446:161|446:161|470:209|436:269,1,187.5
389,291,33805,6,0,P|333:294|267:209,1,150
241,323,34069,6,0,B|210:348|210:348|141:357,1,93.75
300,126,34246,6,0,B|331:102|362:117|362:117|365:182|313:227|247:234,1,225
179,209,34599,5,0,0:0:0:0:
179,172,34687,2,0,L|179:132,1,37.5
241,323,34863,1,0,0:0:0:0:
241,323,34952,6,0,B|201:319|201:319|185:310|185:310|169:316|169:316|129:313,1,112.500004291535
265,375,35128,2,0,B|225:371|225:371|209:362|209:362|193:368|193:368|153:365,1,112.500004291535
408,332,35305,1,0,0:0:0:0:
357,200,35482,1,0,0:0:0:0:
357,200,35570,1,0,0:0:0:0:
351,251,35658,6,0,B|332:257|318:273|318:273|300:251|300:251|261:278|184:271|159:215,1,225
142,131,36011,5,0,0:0:0:0:
142,94,36099,2,0,L|142:54,2,37.5
165,312,36363,1,0,0:0:0:0:
165,312,36452,6,0,P|168:354|234:297,1,187.5
259,241,36716,6,0,B|264:185|264:185|257:168|257:168|267:153|267:153|272:95,1,150
345,183,36893,2,0,B|340:239|340:239|347:256|347:256|337:271|337:271|331:328,1,150
259,241,37069,6,0,B|264:186|264:186|227:238|130:247|96:178,1,225
52,77,37422,5,0,0:0:0:0:
52,40,37510,2,0,L|52:0,1,37.5
181,122,37687,2,0,L|181:82,1,37.5
300,254,37863,2,0,L|300:214,2,37.5
343,165,38128,5,0,0:0:0:0:
239,82,38305,1,0,0:0:0:0:
239,82,38393,1,0,0:0:0:0:
233,133,38481,6,0,B|238:164|265:177|265:177|222:197|205:273|268:314|315:300,1,225
342,268,38834,5,0,0:0:0:0:
371,245,38922,1,0,0:0:0:0:
408,244,39010,1,0,0:0:0:0:
440,264,39099,2,0,L|440:216,1,37.5
294,166,39275,2,0,L|294:118,1,37.5
115,202,39452,1,0,0:0:0:0:
115,202,39540,6,0,B|120:258|120:258|113:275|113:275|123:290|123:290|128:348,1,150
206,260,39717,2,0,B|201:204|201:204|208:187|208:187|198:172|198:172|192:115,1,150
