osu file format v14

[General]
AudioFilename: audio.mp3
AudioLeadIn: 0
PreviewTime: 141699
Countdown: 1
SampleSet: Normal
StackLeniency: 0.7
Mode: 1
LetterboxInBreaks: 0
WidescreenStoryboard: 1

[Editor]
Bookmarks: 11869,33564,44411,55259,76954,82377,87801,93225,98649,109496,120344,131106
DistanceSpacing: 0.7
BeatDivisor: 4
GridSize: 32
TimelineZoom: 0.9999999

[Metadata]
Title:Neuronecia
TitleUnicode:Neuronecia
Artist:Function Phantom
ArtistUnicode:Function Phantom
Creator:tasuke912
Version:Quadratic
Source:
Tags:Electronic Nardoxyribonucleic -Kazu-
BeatmapID:1773128
BeatmapSetID:827822

[Difficulty]
HPDrainRate:7
CircleSize:2
OverallDifficulty:4
ApproachRate:5
SliderMultiplier:1.4
SliderTickRate:1

[Events]
//Background and Video events
0,0,"bg.jpg",0,0
//Break Periods
2,120544,129991
//Storyboard Layer 0 (Background)
//Storyboard Layer 1 (Fail)
//Storyboard Layer 2 (Pass)
//Storyboard Layer 3 (Foreground)
//Storyboard Sound Samples

[TimingPoints]
1022,338.983050847458,4,1,0,20,1,0
1022,-133.333333333333,4,1,0,20,0,0
22632,-100,4,1,0,40,0,0
22886,-100,4,1,0,5,0,0
33479,-100,4,1,0,65,0,0
55344,-133.333333333333,4,1,0,65,0,0
72886,-181.818181818181,4,1,0,65,0,0
74157,-263.157894736842,4,1,0,20,0,0
75598,-333.333333333333,4,1,0,20,0,0
76869,-100,4,1,0,65,0,0
98649,-133.333333333333,4,1,0,65,0,0
98818,-133.333333333333,4,1,0,30,0,0
117801,-133.333333333333,4,1,0,5,0,0
120259,-100,4,1,0,65,0,0
120428,-100,4,1,0,40,0,0
131106,-100,4,1,0,55,0,0
136615,-100,4,1,0,60,0,0
140767,-100,4,1,0,40,0,0
141954,-100,4,1,0,60,0,0
142038,-100,4,1,0,65,0,1
185428,-100,4,1,0,65,0,0

[HitObjects]
256,192,1022,5,4,0:0:0:0:
256,192,2377,1,2,0:0:0:0:
256,192,3733,1,2,0:0:0:0:
256,192,6445,1,2,0:0:0:0:
256,192,7801,1,2,0:0:0:0:
256,192,9157,1,2,0:0:0:0:
256,192,10513,1,2,0:0:0:0:
256,192,11022,1,2,0:0:0:0:
256,192,11360,1,2,0:0:0:0:
256,192,11869,1,0,0:0:0:0:
256,192,13225,1,2,0:0:0:0:
256,192,14581,1,2,0:0:0:0:
256,192,17293,1,2,0:0:0:0:
256,192,18649,1,2,0:0:0:0:
256,192,20005,1,2,0:0:0:0:
256,192,22716,1,4,0:0:0:0:
256,192,22886,12,0,32886,0:0:0:0:
256,192,33564,5,4,0:0:0:0:
256,192,34072,1,0,0:0:0:0:
256,192,34581,1,2,0:0:0:0:
256,192,34920,1,0,0:0:0:0:
256,192,35598,1,0,0:0:0:0:
256,192,35767,1,0,0:0:0:0:
256,192,35937,1,2,0:0:0:0:
256,192,36276,1,0,0:0:0:0:
256,192,36784,1,0,0:0:0:0:
256,192,37293,1,2,0:0:0:0:
256,192,37632,1,0,0:0:0:0:
256,192,38310,1,0,0:0:0:0:
256,192,38479,1,0,0:0:0:0:
256,192,38649,1,2,0:0:0:0:
256,192,38818,1,2,0:0:0:0:
256,192,38988,1,0,0:0:0:0:
256,192,39496,1,0,0:0:0:0:
256,192,40005,1,2,0:0:0:0:
256,192,40344,1,0,0:0:0:0:
256,192,41022,1,0,0:0:0:0:
256,192,41191,1,2,0:0:0:0:
256,192,41360,1,2,0:0:0:0:
256,192,41699,1,0,0:0:0:0:
256,192,42208,1,0,0:0:0:0:
256,192,42716,1,2,0:0:0:0:
256,192,43055,1,0,0:0:0:0:
256,192,43225,1,2,0:0:0:0:
256,192,43564,1,0,0:0:0:0:
256,192,44072,1,2,0:0:0:0:
256,192,44411,1,0,0:0:0:0:
256,192,44750,1,2,0:0:0:0:
256,192,45428,1,2,0:0:0:0:
256,192,45767,1,0,0:0:0:0:
256,192,46106,1,2,0:0:0:0:
256,192,46445,1,0,0:0:0:0:
256,192,46784,1,0,0:0:0:0:
256,192,46954,1,2,0:0:0:0:
256,192,47123,1,0,0:0:0:0:
256,192,47462,1,2,0:0:0:0:
256,192,48140,1,2,0:0:0:0:
256,192,48479,1,0,0:0:0:0:
256,192,48818,1,2,0:0:0:0:
256,192,49157,1,0,0:0:0:0:
256,192,49327,1,0,0:0:0:0:
256,192,49496,1,2,0:0:0:0:
256,192,49666,1,2,0:0:0:0:
256,192,49835,1,0,0:0:0:0:
256,192,50174,1,2,0:0:0:0:
256,192,50852,1,2,0:0:0:0:
256,192,51191,1,0,0:0:0:0:
256,192,51530,1,2,0:0:0:0:
256,192,51869,1,2,0:0:0:0:
256,192,52208,1,0,0:0:0:0:
256,192,52377,1,2,0:0:0:0:
256,192,52547,1,0,0:0:0:0:
256,192,52886,1,2,0:0:0:0:
256,192,53564,1,2,0:0:0:0:
256,192,53903,1,0,0:0:0:0:
256,192,54581,1,2,0:0:0:0:
256,192,54750,1,2,0:0:0:0:
256,192,54920,1,2,0:0:0:0:
256,192,55259,1,4,0:0:0:0:
256,192,55937,1,2,0:0:0:0:
256,192,56445,1,0,0:0:0:0:
256,192,57293,1,2,0:0:0:0:
256,192,57462,1,2,0:0:0:0:
256,192,57632,1,2,0:0:0:0:
256,192,57971,1,0,0:0:0:0:
256,192,58649,1,2,0:0:0:0:
256,192,59157,1,0,0:0:0:0:
256,192,59496,1,2,0:0:0:0:
256,192,59835,1,0,0:0:0:0:
256,192,60005,1,2,0:0:0:0:
256,192,60344,1,2,0:0:0:0:
256,192,60683,1,4,0:0:0:0:
256,192,61360,1,2,0:0:0:0:
256,192,61869,1,0,0:0:0:0:
256,192,62716,1,2,0:0:0:0:
256,192,62886,1,2,0:0:0:0:
256,192,63055,1,2,0:0:0:0:
256,192,63394,1,0,0:0:0:0:
256,192,64072,1,2,0:0:0:0:
256,192,64750,1,2,0:0:0:0:
256,192,65089,1,0,0:0:0:0:
256,192,65428,1,2,0:0:0:0:
256,192,65598,1,2,0:0:0:0:
256,192,65767,1,2,0:0:0:0:
256,192,66106,1,4,0:0:0:0:
256,192,66784,1,2,0:0:0:0:
256,192,67293,1,0,0:0:0:0:
256,192,68140,1,2,0:0:0:0:
256,192,68310,1,2,0:0:0:0:
256,192,68479,1,2,0:0:0:0:
256,192,68818,1,0,0:0:0:0:
256,192,69496,1,2,0:0:0:0:
256,192,70005,1,0,0:0:0:0:
256,192,70344,1,2,0:0:0:0:
256,192,70683,1,0,0:0:0:0:
256,192,70852,1,2,0:0:0:0:
256,192,71191,1,2,0:0:0:0:
256,192,71530,1,4,0:0:0:0:
256,192,74242,12,0,76276,0:0:0:0:
256,192,76954,5,4,0:0:0:0:
256,192,77462,1,0,0:0:0:0:
256,192,77971,1,2,0:0:0:0:
256,192,78310,1,0,0:0:0:0:
256,192,78988,1,0,0:0:0:0:
256,192,79157,1,0,0:0:0:0:
256,192,79327,1,2,0:0:0:0:
256,192,79666,1,0,0:0:0:0:
256,192,80174,1,0,0:0:0:0:
256,192,80683,1,2,0:0:0:0:
256,192,81022,1,0,0:0:0:0:
256,192,81699,1,0,0:0:0:0:
256,192,81869,1,0,0:0:0:0:
256,192,82038,1,2,0:0:0:0:
256,192,82208,1,2,0:0:0:0:
256,192,82377,1,0,0:0:0:0:
256,192,82886,1,0,0:0:0:0:
256,192,83394,1,2,0:0:0:0:
256,192,83733,1,0,0:0:0:0:
256,192,84411,1,0,0:0:0:0:
256,192,84581,1,2,0:0:0:0:
256,192,84750,1,2,0:0:0:0:
256,192,85089,1,0,0:0:0:0:
256,192,85598,1,0,0:0:0:0:
256,192,86106,1,2,0:0:0:0:
256,192,86445,1,0,0:0:0:0:
256,192,87801,1,4,0:0:0:0:
256,192,88140,1,2,0:0:0:0:
256,192,88818,1,2,0:0:0:0:
256,192,89157,1,0,0:0:0:0:
256,192,89496,1,2,0:0:0:0:
256,192,89835,1,0,0:0:0:0:
256,192,90005,1,0,0:0:0:0:
256,192,90174,1,2,0:0:0:0:
256,192,90513,1,0,0:0:0:0:
256,192,90852,1,2,0:0:0:0:
256,192,91530,1,2,0:0:0:0:
256,192,91869,1,0,0:0:0:0:
256,192,92208,1,2,0:0:0:0:
256,192,92547,1,2,0:0:0:0:
256,192,92716,1,0,0:0:0:0:
256,192,92886,1,2,0:0:0:0:
256,192,93225,1,0,0:0:0:0:
256,192,93564,1,2,0:0:0:0:
256,192,94242,1,2,0:0:0:0:
256,192,94581,1,0,0:0:0:0:
256,192,94920,1,2,0:0:0:0:
256,192,95259,1,0,0:0:0:0:
256,192,95428,1,0,0:0:0:0:
256,192,95598,1,2,0:0:0:0:
256,192,95937,1,0,0:0:0:0:
256,192,96276,1,2,0:0:0:0:
256,192,96954,1,2,0:0:0:0:
256,192,97293,1,0,0:0:0:0:
256,192,98649,1,4,0:0:0:0:
256,192,99327,1,2,0:0:0:0:
256,192,99666,1,2,0:0:0:0:
256,192,100005,1,2,0:0:0:0:
256,192,100513,1,2,0:0:0:0:
256,192,101022,1,2,0:0:0:0:
256,192,101360,1,2,0:0:0:0:
256,192,104072,1,0,0:0:0:0:
256,192,104750,1,2,0:0:0:0:
256,192,105089,1,2,0:0:0:0:
256,192,105428,1,2,0:0:0:0:
256,192,105937,1,2,0:0:0:0:
256,192,106445,1,2,0:0:0:0:
256,192,106784,1,2,0:0:0:0:
256,192,108140,1,2,0:0:0:0:
256,192,108649,1,2,0:0:0:0:
256,192,108988,1,2,0:0:0:0:
256,192,109496,1,6,0:0:0:0:
256,192,110174,1,2,0:0:0:0:
256,192,110513,1,2,0:0:0:0:
256,192,110852,1,2,0:0:0:0:
256,192,111360,1,2,0:0:0:0:
256,192,111869,1,2,0:0:0:0:
256,192,112208,1,2,0:0:0:0:
256,192,114920,1,0,0:0:0:0:
256,192,115598,1,2,0:0:0:0:
256,192,115937,1,2,0:0:0:0:
256,192,116276,1,2,0:0:0:0:
256,192,116784,1,2,0:0:0:0:
256,192,117293,1,2,0:0:0:0:
256,192,117632,1,2,0:0:0:0:
256,192,117801,12,0,119666,0:0:0:0:
256,192,120344,5,4,0:0:0:0:
256,192,131191,5,0,0:0:0:0:
256,192,131530,1,0,0:0:0:0:
256,192,131869,1,0,0:0:0:0:
256,192,132547,1,0,0:0:0:0:
256,192,132886,1,0,0:0:0:0:
256,192,133225,1,0,0:0:0:0:
256,192,133903,1,2,0:0:0:0:
256,192,134242,1,2,0:0:0:0:
256,192,134581,1,2,0:0:0:0:
256,192,135259,1,2,0:0:0:0:
256,192,135598,1,2,0:0:0:0:
256,192,135937,1,2,0:0:0:0:
256,192,136615,1,0,0:0:0:0:
256,192,136784,1,0,0:0:0:0:
256,192,136954,1,0,0:0:0:0:
256,192,137293,1,0,0:0:0:0:
256,192,137462,1,0,0:0:0:0:
256,192,137632,1,0,0:0:0:0:
256,192,137971,1,2,0:0:0:0:
256,192,138140,1,2,0:0:0:0:
256,192,138310,1,2,0:0:0:0:
256,192,138649,1,2,0:0:0:0:
256,192,138818,1,2,0:0:0:0:
256,192,138988,1,2,0:0:0:0:
14,193,139327,2,0,L|573:122,1,560
256,192,142038,1,4,0:0:0:0:
256,192,142377,1,2,0:0:0:0:
256,192,143055,1,2,0:0:0:0:
256,192,143394,1,0,0:0:0:0:
256,192,143733,1,2,0:0:0:0:
256,192,144072,1,0,0:0:0:0:
256,192,144750,1,0,0:0:0:0:
256,192,146106,1,0,0:0:0:0:
256,192,146445,1,2,0:0:0:0:
256,192,146784,1,0,0:0:0:0:
256,192,146954,1,0,0:0:0:0:
256,192,147123,1,2,0:0:0:0:
256,192,147462,1,0,0:0:0:0:
256,192,147801,1,2,0:0:0:0:
256,192,148479,1,2,0:0:0:0:
256,192,148818,1,0,0:0:0:0:
256,192,149157,1,0,0:0:0:0:
256,192,149496,1,2,0:0:0:0:
256,192,150174,1,2,0:0:0:0:
256,192,151530,1,2,0:0:0:0:
256,192,151869,1,0,0:0:0:0:
256,192,152208,1,2,0:0:0:0:
256,192,152547,1,2,0:0:0:0:
256,192,152716,1,2,0:0:0:0:
256,192,152886,1,0,0:0:0:0:
256,192,153225,1,2,0:0:0:0:
256,192,153903,1,2,0:0:0:0:
256,192,154242,1,0,0:0:0:0:
256,192,154581,1,2,0:0:0:0:
256,192,154920,1,0,0:0:0:0:
256,192,155598,1,0,0:0:0:0:
256,192,156954,1,0,0:0:0:0:
256,192,157293,1,2,0:0:0:0:
256,192,157632,1,0,0:0:0:0:
256,192,157886,1,2,0:0:0:0:
256,192,158140,1,0,0:0:0:0:
256,192,158310,1,0,0:0:0:0:
256,192,158649,1,2,0:0:0:0:
256,192,159327,1,2,0:0:0:0:
256,192,159666,1,0,0:0:0:0:
256,192,160005,1,0,0:0:0:0:
256,192,160344,1,2,0:0:0:0:
256,192,161022,1,2,0:0:0:0:
256,192,162377,1,2,0:0:0:0:
256,192,162632,1,2,0:0:0:0:
256,192,162886,1,2,0:0:0:0:
256,192,163055,1,0,0:0:0:0:
256,192,163310,1,0,0:0:0:0:
256,192,163564,1,0,0:0:0:0:
256,192,163733,1,2,0:0:0:0:
256,192,164411,1,0,0:0:0:0:
256,192,165089,1,2,0:0:0:0:
256,192,165428,1,0,0:0:0:0:
256,192,165598,1,2,0:0:0:0:
256,192,165937,1,2,0:0:0:0:
256,192,166276,1,2,0:0:0:0:
256,192,166445,1,0,0:0:0:0:
256,192,167123,1,2,0:0:0:0:
256,192,167801,1,0,0:0:0:0:
256,192,168140,1,0,0:0:0:0:
256,192,168310,1,2,0:0:0:0:
256,192,168649,1,2,0:0:0:0:
256,192,168988,1,0,0:0:0:0:
256,192,169157,1,2,0:0:0:0:
256,192,169835,1,0,0:0:0:0:
256,192,170513,1,2,0:0:0:0:
256,192,170852,1,0,0:0:0:0:
256,192,171022,1,2,0:0:0:0:
256,192,171360,1,2,0:0:0:0:
256,192,171699,1,2,0:0:0:0:
256,192,171869,1,0,0:0:0:0:
256,192,172547,1,2,0:0:0:0:
256,192,173225,1,0,0:0:0:0:
256,192,173564,1,2,0:0:0:0:
256,192,173903,1,0,0:0:0:0:
256,192,174242,1,2,0:0:0:0:
256,192,174411,1,2,0:0:0:0:
256,192,174581,1,0,0:0:0:0:
256,192,175259,1,2,0:0:0:0:
256,192,175937,1,0,0:0:0:0:
256,192,176276,1,0,0:0:0:0:
256,192,176445,1,2,0:0:0:0:
256,192,176784,1,2,0:0:0:0:
256,192,177123,1,0,0:0:0:0:
256,192,177293,1,2,0:0:0:0:
256,192,177971,1,0,0:0:0:0:
256,192,178649,1,0,0:0:0:0:
256,192,178988,1,2,0:0:0:0:
256,192,179157,1,2,0:0:0:0:
256,192,179496,1,0,0:0:0:0:
256,192,179835,1,2,0:0:0:0:
256,192,180005,1,0,0:0:0:0:
256,192,180344,1,2,0:0:0:0:
256,192,180513,1,0,0:0:0:0:
256,192,180683,1,0,0:0:0:0:
256,192,181022,1,2,0:0:0:0:
256,192,181360,1,0,0:0:0:0:
256,192,181699,1,2,0:0:0:0:
256,192,181869,1,0,0:0:0:0:
256,192,182038,1,0,0:0:0:0:
256,192,182377,1,2,0:0:0:0:
8,189,182716,2,0,L|596:128,1,560
256,192,185428,1,4,0:0:0:0:
256,192,185937,1,0,0:0:0:0:
256,192,186445,1,2,0:0:0:0:
256,192,186784,1,0,0:0:0:0:
256,192,187462,1,0,0:0:0:0:
256,192,187632,1,0,0:0:0:0:
256,192,187801,1,2,0:0:0:0:
256,192,188140,1,0,0:0:0:0:
256,192,188649,1,0,0:0:0:0:
256,192,189157,1,2,0:0:0:0:
256,192,189496,1,0,0:0:0:0:
256,192,190174,1,0,0:0:0:0:
256,192,190344,1,0,0:0:0:0:
256,192,190513,1,2,0:0:0:0:
256,192,190683,1,2,0:0:0:0:
256,192,190852,1,0,0:0:0:0:
256,192,191360,1,0,0:0:0:0:
256,192,191869,1,2,0:0:0:0:
256,192,192208,1,0,0:0:0:0:
256,192,192886,1,0,0:0:0:0:
256,192,193055,1,2,0:0:0:0:
256,192,193225,1,2,0:0:0:0:
256,192,193564,1,0,0:0:0:0:
256,192,194072,1,0,0:0:0:0:
256,192,194581,1,2,0:0:0:0:
256,192,194920,1,0,0:0:0:0:
256,192,195089,1,2,0:0:0:0:
256,192,195428,1,0,0:0:0:0:
256,192,195937,1,2,0:0:0:0:
256,192,196276,1,0,0:0:0:0:
256,192,196785,1,0,0:0:0:0:
256,192,197293,1,2,0:0:0:0:
256,192,197632,1,0,0:0:0:0:
256,192,198310,1,0,0:0:0:0:
256,192,198480,1,0,0:0:0:0:
256,192,198649,1,2,0:0:0:0:
256,192,198988,1,0,0:0:0:0:
256,192,199497,1,0,0:0:0:0:
256,192,200005,1,2,0:0:0:0:
256,192,200344,1,0,0:0:0:0:
256,192,201022,1,0,0:0:0:0:
256,192,201192,1,0,0:0:0:0:
256,192,201361,1,2,0:0:0:0:
256,192,201531,1,2,0:0:0:0:
256,192,201700,1,0,0:0:0:0:
256,192,202208,1,0,0:0:0:0:
256,192,202717,1,2,0:0:0:0:
256,192,203056,1,0,0:0:0:0:
256,192,203734,1,0,0:0:0:0:
256,192,203903,1,2,0:0:0:0:
256,192,204073,1,2,0:0:0:0:
256,192,204412,1,0,0:0:0:0:
256,192,204920,1,0,0:0:0:0:
256,192,205429,1,2,0:0:0:0:
256,192,205768,1,2,0:0:0:0:
256,192,205937,1,0,0:0:0:0:
256,192,206276,1,0,0:0:0:0:
256,192,206615,1,4,0:0:0:0:
