osu file format v14

[General]
AudioFilename: audio.mp3
AudioLeadIn: 0
PreviewTime: -1
Countdown: 1
SampleSet: Soft
StackLeniency: 0.7
Mode: 0
LetterboxInBreaks: 0
WidescreenStoryboard: 0

[Editor]
Bookmarks: 22763,33611,44458,55306,71577,77001,86492,87848,93272,97340,98696,109543,120391,131238,142085,163780,182763,185475,205814
DistanceSpacing: 1
BeatDivisor: 4
GridSize: 32
TimelineZoom: 1.8

[Metadata]
Title:Neuronecia
TitleUnicode:Neuronecia
Artist:Function Phantom
ArtistUnicode:Function Phantom
Creator:ksg
Version:play skystar map instead
Source:
Tags:
BeatmapID:2068252
BeatmapSetID:988747

[Difficulty]
HPDrainRate:5
CircleSize:5
OverallDifficulty:9
ApproachRate:9.4
SliderMultiplier:2
SliderTickRate:1

[Events]
//Background and Video events
//Break Periods
2,22963,27587
//Storyboard Layer 0 (Background)
//Storyboard Layer 1 (Fail)
//Storyboard Layer 2 (Pass)
//Storyboard Layer 3 (Foreground)
//Storyboard Sound Samples

[TimingPoints]
1069,338.983050847458,4,2,0,60,1,0
1069,-333.333333333333,4,2,0,60,0,0
3441,-166.666666666667,4,2,0,60,0,0
4967,-200,4,2,0,60,0,0
6492,-333.333333333333,4,2,0,60,0,0
7848,-250,4,2,0,60,0,0
8865,-125,4,2,0,60,0,0
10560,-166.666666666667,4,2,0,60,0,0
11916,-250.000000000001,4,2,0,60,0,0
13272,-166.666666666667,4,2,0,60,0,0
14289,-83.3333333333333,4,2,0,60,0,0
14628,-166.666666666667,4,2,0,60,0,0
17340,-200,4,2,0,60,0,0
18696,-166.666666666667,4,2,0,60,0,0
22424,-333.333333333334,4,2,0,60,0,0
33611,-66.6666666666667,4,2,0,60,0,0
34119,-100,4,2,0,60,0,0
34289,-66.6666666666667,4,2,0,60,0,0
34628,-76.9230769230769,4,2,0,60,0,0
34797,-71.4285714285714,4,2,0,60,0,0
34967,-66.6666666666667,4,2,0,60,0,0
35475,-83.3333333333333,4,2,0,60,0,0
35645,-166.666666666667,4,2,0,60,0,0
36323,-66.6666666666667,4,2,0,60,0,0
36831,-100,4,2,0,60,0,0
37001,-83.3333333333333,4,2,0,60,0,0
37340,-66.6666666666667,4,2,0,60,0,0
38187,-100,4,2,0,60,0,0
38696,-66.6666666666667,4,2,0,60,0,0
39543,-83.3333333333333,4,2,0,60,0,0
40052,-100,4,2,0,60,0,0
40560,-66.6666666666667,4,2,0,60,0,0
40899,-100,4,2,0,60,0,0
41407,-83.3333333333333,4,2,0,60,0,0
41577,-66.6666666666667,4,2,0,60,0,0
42085,-100,4,2,0,60,0,0
42255,-66.6666666666667,4,2,0,60,0,0
42594,-100,4,2,0,60,0,0
42763,-83.3333333333333,4,2,0,60,0,0
43102,-66.6666666666667,4,2,0,60,0,0
43611,-66.6666666666667,4,2,0,60,0,0
44119,-58.8235294117647,4,2,0,60,0,0
44458,-66.6666666666667,4,2,0,60,0,0
44967,-100,4,2,0,60,0,0
45475,-66.6666666666667,4,2,0,60,0,0
46662,-100,4,2,0,60,0,0
47170,-66.6666666666667,4,2,0,60,0,0
47509,-100,4,2,0,60,0,0
48187,-133.333333333333,4,2,0,60,0,0
48696,-100,4,2,0,60,0,0
49035,-66.6666666666667,4,2,0,60,0,0
49374,-100,4,2,0,60,0,0
49543,-66.6666666666667,4,2,0,60,0,0
50391,-100,4,2,0,60,0,0
50899,-66.6666666666667,4,2,0,60,0,0
51238,-83.3333333333333,4,2,0,60,0,0
51746,-66.6666666666667,4,2,0,60,0,0
52085,-100,4,2,0,60,0,0
52255,-76.9230769230769,4,2,0,60,0,0
52594,-66.6666666666667,4,2,0,60,0,0
53102,-76.9230769230769,4,2,0,60,0,0
53611,-66.6666666666667,4,2,0,60,0,0
53780,-58.8235294117647,4,2,0,60,0,0
53950,-100,4,2,0,60,0,0
54458,-66.6666666666667,4,2,0,60,0,0
55306,-166.666666666667,4,2,0,60,0,0
55984,-250.000000000001,4,2,0,60,0,0
56492,-666.666666666667,4,2,0,60,0,0
57340,-100,4,2,0,60,0,0
59204,-166.666666666667,4,2,0,60,0,0
60391,-125,4,2,0,60,0,0
60730,-166.666666666667,4,2,0,60,0,0
61407,-250,4,2,0,60,0,0
61916,-666.666666666667,4,2,0,60,0,0
62763,-100,4,2,0,60,0,0
63441,-66.6666666666667,4,2,0,60,0,0
65136,-100,4,2,0,60,0,0
66153,-166.666666666667,4,2,0,60,0,0
66831,-250,4,2,0,60,0,0
67340,-666.666666666667,4,2,0,60,0,0
68187,-100,4,2,0,60,0,0
70052,-166.666666666667,4,2,0,60,0,0
71238,-100,4,2,0,60,0,0
71577,-333.333333333333,4,2,0,60,0,0
74289,-333.333333333333,4,2,0,60,0,0
74374,-333.333333333333,4,2,0,30,0,0
74458,-333.333333333333,4,2,0,60,0,0
74713,-333.333333333333,4,2,0,30,0,0
74797,-333.333333333333,4,2,0,60,0,0
75052,-333.333333333333,4,2,0,30,0,0
75136,-333.333333333333,4,2,0,60,0,0
75306,-333.333333333333,4,2,0,30,0,0
75391,-333.333333333333,4,2,0,60,0,0
75560,-333.333333333333,4,2,0,30,0,0
75645,-333.333333333333,4,2,0,60,0,0
75730,-333.333333333333,4,2,0,30,0,0
75814,-333.333333333333,4,2,0,60,0,0
76492,-333.333333333333,4,2,0,5,0,0
76577,-333.333333333333,4,2,0,60,0,0
76662,-333.333333333333,4,2,0,5,0,0
76746,-333.333333333333,4,2,0,60,0,0
77170,-66.6666666666667,4,2,0,60,0,0
77848,-100,4,2,0,60,0,0
78018,-66.6666666666667,4,2,0,60,0,0
78357,-100,4,2,0,60,0,0
78526,-83.3333333333333,4,2,0,60,0,0
78865,-66.6666666666667,4,2,0,60,0,0
79204,-100,4,2,0,60,0,0
79713,-66.6666666666667,4,2,0,60,0,0
80221,-100,4,2,0,60,0,0
80730,-66.6666666666667,4,2,0,60,0,0
81577,-83.3333333333333,4,2,0,60,0,0
82085,-66.6666666666667,4,2,0,60,0,0
82933,-100,4,2,0,60,0,0
83441,-66.6666666666667,4,2,0,60,0,0
83780,-100,4,2,0,60,0,0
84289,-66.6666666666667,4,2,0,60,0,0
84458,-100,4,2,0,60,0,0
84797,-66.6666666666667,4,2,0,60,0,0
85475,-100,4,2,0,60,0,0
85645,-66.6666666666667,4,2,0,60,0,0
86153,-83.3333333333333,4,2,0,60,0,0
86492,-125,4,2,0,60,0,0
86746,-83.3333333333333,4,2,0,60,0,0
87001,-62.5,4,2,0,60,0,0
87340,-100,4,2,0,60,0,0
87509,-66.6666666666667,4,2,0,60,0,0
87848,-100,4,2,0,60,0,0
88526,-66.6666666666667,4,2,0,60,0,0
88865,-100,4,2,0,60,0,0
89882,-66.6666666666667,4,2,0,60,0,0
90560,-100,4,2,0,60,0,0
92424,-66.6666666666667,4,2,0,60,0,0
92594,-100,4,2,0,60,0,0
92933,-66.6666666666667,4,2,0,60,0,0
93780,-100,4,2,0,60,0,0
94289,-66.6666666666667,4,2,0,60,0,0
94628,-100,4,2,0,60,0,0
95136,-66.6666666666667,4,2,0,60,0,0
95306,-100,4,2,0,60,0,0
95645,-66.6666666666667,4,2,0,60,0,0
96662,-100,4,2,0,60,0,0
97001,-66.6666666666667,4,2,0,60,0,0
97340,-100,4,2,0,60,0,0
97594,-83.3333333333333,4,2,0,60,0,0
97848,-71.4285714285714,4,2,0,60,0,0
98102,-62.5,4,2,0,60,0,0

[HitObjects]
155,52,1069,6,0,L|152:84,1,29.9999990844727
186,146,1323,1,0,0:0:0:0:
195,163,1407,2,0,L|192:195,1,29.9999990844727
177,304,1746,6,0,L|174:336,1,29.9999990844727
289,225,2085,6,0,L|277:255,1,29.9999990844727
438,250,2424,6,0,P|398:244|380:226,1,59.9999981689454
354,109,2933,2,0,P|368:146|362:171,1,59.9999981689454
321,216,3441,6,0,P|294:228|279:254,1,59.9999981689454
291,334,3780,5,0,0:0:0:0:
220,203,3950,1,0,0:0:0:0:
283,352,4119,1,0,0:0:0:0:
275,370,4289,1,0,0:0:0:0:
394,290,4458,6,0,L|383:230,1,59.9999981689454
367,136,4797,1,0,0:0:0:0:
360,148,4967,6,0,L|351:98,1,50
220,203,5306,1,0,0:0:0:0:
213,215,5476,6,0,L|204:165,1,50
140,81,5814,5,0,0:0:0:0:
244,66,5984,1,0,0:0:0:0:
140,81,6153,1,0,0:0:0:0:
244,66,6323,1,0,0:0:0:0:
140,81,6492,6,0,L|145:112,1,29.9999990844727
115,176,6746,1,0,0:0:0:0:
107,194,6831,2,0,L|112:225,1,29.9999990844727
135,332,7170,2,0,L|140:363,1,29.9999990844727
232,288,7509,2,0,L|228:319,1,29.9999990844727
343,324,7848,6,0,P|331:299|355:238,1,80
227,209,8357,2,0,P|242:186|307:176,1,80
332,87,8865,6,0,P|306:57|268:51,1,80
156,90,9204,5,0,0:0:0:0:
132,223,9374,1,0,0:0:0:0:
146,78,9543,1,0,0:0:0:0:
136,66,9713,1,0,0:0:0:0:
25,152,9882,6,0,L|41:249,1,80
59,339,10221,1,0,0:0:0:0:
63,355,10391,1,0,0:0:0:0:
160,315,10560,6,0,P|136:293|95:286,2,59.9999981689454
251,220,11069,2,0,P|227:242|186:249,1,59.9999981689454
286,343,11407,1,0,0:0:0:0:
262,328,11577,1,0,0:0:0:0:
285,314,11746,1,0,0:0:0:0:
436,276,11916,6,0,L|430:315,1,40
361,256,12170,1,0,0:0:0:0:
353,246,12255,2,0,L|358:206,1,40
378,66,12594,2,0,L|391:103,1,40
279,104,12933,2,0,L|281:143,1,40
167,84,13272,6,0,P|117:116|129:189,1,119.999996337891
243,280,13780,6,0,P|240:220|171:194,1,119.999996337891
136,245,14289,6,0,P|85:274|35:247,1,119.999996337891
92,26,14628,6,0,L|84:106,1,59.9999981689454
86,85,14967,1,0,0:0:0:0:
192,192,15136,6,0,L|184:112,1,59.9999981689454
186,133,15475,1,0,0:0:0:0:
282,41,15645,5,0,0:0:0:0:
276,99,15815,2,0,L|281:39,1,59.9999981689454
371,148,16153,5,0,0:0:0:0:
376,206,16323,2,0,L|370:146,1,59.9999981689454
465,73,16662,5,0,0:0:0:0:
458,136,16831,1,0,0:0:0:0:
457,150,16916,1,0,0:0:0:0:
456,164,17001,1,0,0:0:0:0:
449,227,17170,1,0,0:0:0:0:
465,73,17340,6,0,B|439:66|439:66|408:69|408:69|383:66,1,75
326,107,17679,2,0,L|261:97,1,50
127,79,18018,6,0,L|176:86,1,50
140,175,18357,2,0,P|170:186|185:195,1,50
127,271,18696,6,0,P|153:299|138:380,1,119.999996337891
224,308,19204,2,0,P|167:321|142:374,1,119.999996337891
125,269,19628,5,0,0:0:0:0:
125,269,19713,2,0,P|166:311|224:308,1,119.999996337891
302,245,20221,1,0,0:0:0:0:
212,219,20391,1,0,0:0:0:0:
302,245,20560,1,0,0:0:0:0:
340,168,20730,5,0,0:0:0:0:
271,180,20899,1,0,0:0:0:0:
340,168,21069,1,0,0:0:0:0:
245,110,21238,5,0,0:0:0:0:
295,114,21407,1,0,0:0:0:0:
245,110,21577,1,0,0:0:0:0:
297,50,21746,5,0,0:0:0:0:
276,54,21916,1,0,0:0:0:0:
218,0,22085,5,0,0:0:0:0:
239,4,22255,1,0,0:0:0:0:
389,36,22424,6,0,L|349:29,1,29.9999990844727
105,77,22763,5,0,0:0:0:0:
256,192,28187,12,0,33272,0:0:0:0:
251,181,33611,6,0,B|173:196|143:263|143:263|159:219|146:180,1,225.000008583069
100,132,33950,1,0,0:0:0:0:
235,260,34119,2,0,P|212:280|207:310,1,50
186,131,34289,6,0,B|165:75|102:62|102:62|130:58|150:43,1,150.000005722046
250,42,34543,1,0,0:0:0:0:
270,43,34628,6,0,L|352:51,1,64.9999970245363
349,168,34797,6,0,L|431:176,1,69.9999978637696
501,85,34967,6,0,P|488:39|457:103,1,150.000005722046
500,195,35221,1,0,0:0:0:0:
490,208,35306,1,0,0:0:0:0:
382,316,35475,2,0,L|364:232,1,59.9999981689454
469,318,35645,6,0,L|464:347,1,29.9999990844727
302,350,35814,2,0,L|319:377,1,29.9999990844727
204,228,35984,5,0,0:0:0:0:
369,257,36153,1,0,0:0:0:0:
149,381,36323,6,0,B|98:340|19:353|19:353|69:316|70:267,1,225.000008583069
53,203,36662,1,0,0:0:0:0:
152,305,36831,2,0,L|221:292,1,50
271,203,37001,6,0,P|212:204|169:164,1,119.999996337891
171,45,37255,1,0,0:0:0:0:
244,82,37340,6,0,P|260:107|228:143,1,75.0000028610231
104,157,37509,2,0,P|81:129|97:97,1,75.0000028610231
208,221,37679,6,0,L|199:315,1,75.0000028610231
193,364,37848,1,0,0:0:0:0:
215,152,38018,5,0,0:0:0:0:
276,305,38187,6,0,B|227:287|227:287|179:299|179:299|123:279,1,150
7,239,38526,2,0,L|54:255,1,50
22,362,38696,6,0,P|43:331|77:317,1,75.0000028610231
111,221,38865,2,0,P|93:189|97:153,1,75.0000028610231
22,93,39035,6,0,B|85:91|117:26|117:26|118:56|151:78,1,150.000005722046
223,134,39289,1,0,0:0:0:0:
215,152,39374,1,0,0:0:0:0:
303,54,39543,6,0,B|238:44|186:81|186:81|196:51|177:11,1,179.999994506836
122,132,39882,1,0,0:0:0:0:
128,154,39967,1,0,0:0:0:0:
134,176,40052,6,0,B|135:186|135:186|141:196|141:196|138:208|138:208|146:219|146:219|144:230|144:230|151:243|151:243|153:258|153:258|156:264|156:264|156:272|156:272|156:281|156:281|162:289|162:289|162:301|162:301|165:309|165:309|166:317|166:317|169:340,1,150
165,315,40391,5,0,0:0:0:0:
347,302,40560,2,0,B|314:281|314:281|280:292,1,75.0000028610231
146,329,40730,5,0,0:0:0:0:
336,310,40899,2,0,L|286:303,1,50
218,256,41069,5,0,0:0:0:0:
225,229,41153,1,0,0:0:0:0:
218,205,41238,5,0,0:0:0:0:
226,178,41322,1,0,0:0:0:0:
272,127,41407,6,0,P|289:151|315:165,1,59.9999981689454
154,231,41577,6,0,P|118:252|62:239,1,75.0000028610231
190,26,41746,6,0,B|157:86|167:161|167:161|148:113|89:111,1,225.000008583069
46,220,42085,6,0,P|67:241|94:253,1,50
217,309,42255,2,0,B|156:302|114:351|114:351|117:334|111:311,1,150.000005722046
154,231,42509,5,0,0:0:0:0:
166,210,42594,2,0,P|170:186|166:161,1,50
90,26,42763,6,0,B|78:60|93:88|93:88|122:127|85:172|31:157|26:105,1,179.999994506836
158,54,43102,6,0,L|267:79,1,75.0000028610231
374,105,43272,1,0,0:0:0:0:
374,105,43611,6,0,B|392:105|392:105|409:114|409:114|390:113|390:113|374:104|374:104|352:104|352:104|330:95|330:95|307:95|307:95|284:85|284:85|256:83|256:83|231:71,1,225.000008583069
158,54,43950,1,0,0:0:0:0:
409,114,44119,6,0,P|305:67|128:97,1,255.000004863739
38,188,44458,6,0,B|25:247|70:285|70:285|76:264|97:243,1,150.000005722046
159,215,44712,1,0,0:0:0:0:
168,236,44797,1,0,0:0:0:0:
299,328,44967,6,0,B|247:336|247:336|187:312,1,100
223,190,45221,1,0,0:0:0:0:
236,217,45306,2,0,L|260:275,1,50
198,127,45475,6,0,P|247:52|276:137,1,225.000008583069
177,258,45814,1,0,0:0:0:0:
336,181,45984,6,0,P|322:220|341:271,1,75.0000028610231
375,303,46153,2,0,P|414:317|465:298,1,75.0000028610231
497,264,46323,2,0,B|513:247|517:220|509:187|485:164|485:164|482:191|472:209,1,150.000005722046
412,162,46577,1,0,0:0:0:0:
408,148,46662,2,0,L|396:98,1,50
379,32,46831,5,0,0:0:0:0:
256,192,47001,5,0,0:0:0:0:
492,269,47170,6,0,P|493:223|360:200,1,150.000005722046
345,263,47424,1,0,0:0:0:0:
359,285,47509,2,0,L|393:338,1,50
502,193,47679,6,0,B|472:151|422:151|422:151|436:118|404:73,1,150
379,32,48018,1,0,0:0:0:0:
329,28,48102,1,0,0:0:0:0:
305,68,48187,6,0,L|342:64,1,37.5000014305115
208,12,48357,2,0,L|245:15,1,37.5000014305115
127,93,48526,5,0,0:0:0:0:
151,278,48696,2,0,L|139:208,1,50
131,109,48865,1,0,0:0:0:0:
150,326,49035,6,0,B|141:283|141:283|156:225|156:225|146:172,1,150.000005722046
131,109,49289,1,0,0:0:0:0:
127,93,49374,6,0,L|115:30,1,50
12,128,49543,6,0,P|38:155|74:166,1,75.0000028610231
201,140,49713,2,0,P|227:120|246:73,1,75.0000028610231
73,241,49882,6,0,B|21:273|32:335|32:335|59:348|92:319,1,150.000005722046
157,221,50136,1,0,0:0:0:0:
153,205,50221,1,0,0:0:0:0:
235,301,50391,6,0,P|275:328|324:324,1,100
351,217,50645,1,0,0:0:0:0:
341,231,50730,2,0,L|296:253,1,50
406,292,50899,6,0,B|430:268|442:234|432:184|391:157|391:157|436:166|466:141,1,225.000008583069
328,115,51238,6,0,B|298:76|315:27|315:27|322:55|336:65,1,119.999996337891
416,87,51492,1,0,0:0:0:0:
434,72,51577,2,0,P|443:39|436:9,1,59.9999981689454
216,57,51746,6,0,P|253:162|341:231,1,225.000008583069
484,238,52085,2,0,P|449:245|419:246,1,50
353,136,52255,6,0,B|339:135|339:135|356:155|385:157,1,64.9999970245363
339,328,52424,2,0,B|368:325|385:305|385:305|371:306,1,64.9999970245363
226,247,52594,6,0,B|179:225|171:173|171:173|172:204|152:226,1,150.000005722046
170,328,52848,1,0,0:0:0:0:
176,349,52933,1,0,0:0:0:0:
99,175,53102,6,0,P|154:103|237:139,1,194.999991073609
339,230,53441,6,0,P|306:225|281:193,1,64.9999970245363
452,152,53611,6,0,B|469:116|504:118|504:118|496:131,1,75.0000028610231
463,288,53780,6,0,B|485:320|466:350|466:350|456:342|451:330,1,85.0000016212464
279,252,53950,6,0,L|284:201,1,50
299,45,54119,1,0,0:0:0:0:
299,45,54458,6,0,B|293:13|293:13|308:-16|308:-16|315:16|315:16|299:45|299:45|303:73|303:73|290:108|290:108|294:139,1,225.000008583069
277,273,54797,1,0,0:0:0:0:
299,45,54967,5,0,0:0:0:0:
286,180,55306,6,0,P|271:142|140:137,1,179.999994506836
170,197,55984,2,0,P|146:230|150:278,1,80
223,278,56492,6,0,P|257:290|285:283,1,59.9999981689454
382,60,57340,6,0,L|373:120,1,50
261,65,57509,2,0,L|268:15,1,50
364,121,57679,6,0,L|371:71,1,50
279,4,57848,2,0,L|271:53,1,50
258,154,58018,5,0,0:0:0:0:
185,170,58187,1,0,0:0:0:0:
55,131,58357,5,0,0:0:0:0:
128,115,58526,1,0,0:0:0:0:
240,227,58696,5,0,0:0:0:0:
167,243,58865,1,0,0:0:0:0:
147,47,59035,1,0,0:0:0:0:
253,241,59204,6,0,L|242:318,1,59.9999981689454
407,187,59543,1,0,0:0:0:0:
467,237,59713,5,0,0:0:0:0:
420,109,59882,1,0,0:0:0:0:
332,216,60052,5,0,0:0:0:0:
407,187,60221,1,0,0:0:0:0:
309,115,60391,6,0,B|235:66|235:66|298:71,1,120
211,139,60730,6,0,P|160:44|214:-7,1,179.999994506836
275,181,61407,6,0,P|248:206|201:216,1,80
343,149,61916,6,0,P|352:183|346:220,1,59.9999981689454
269,345,62763,6,0,L|259:281,1,50
367,263,62933,2,0,L|374:312,1,50
250,286,63102,6,0,L|258:336,1,50
385,321,63272,2,0,L|378:272,1,50
354,134,63441,6,0,B|331:111|296:98|256:102|225:124|225:124|234:164|275:176,1,200.000007629395
396,204,63780,6,0,P|432:156|423:91,1,100.000003814697
376,59,64006,1,0,0:0:0:0:
297,79,64119,6,0,B|247:70|206:104|206:104|152:81|148:25,1,200.000007629395
308,0,64458,2,0,P|352:15|375:58,1,100.000003814697
354,134,64684,1,0,0:0:0:0:
272,156,64797,6,0,B|236:140|236:140|217:109,1,75.0000028610231
396,204,64967,2,0,B|431:219|431:219|450:250,1,75.0000028610231
284,257,65136,6,0,L|225:267,1,50
396,308,65306,2,0,L|445:316,1,50
294,355,65475,5,0,0:0:0:0:
116,281,65645,1,0,0:0:0:0:
95,212,65814,5,0,0:0:0:0:
224,349,65984,1,0,0:0:0:0:
396,308,66153,6,0,P|421:269|346:183,1,179.999994506836
273,64,66831,6,0,P|268:114|296:144,1,80
237,251,67340,6,0,P|261:238|280:209,1,59.9999981689454
53,98,68187,6,0,L|113:108,1,50
140,221,68357,2,0,L|90:212,1,50
119,90,68526,6,0,L|69:81,1,50
74,229,68696,2,0,L|123:237,1,50
258,265,68865,5,0,0:0:0:0:
326,279,69035,1,0,0:0:0:0:
444,218,69204,5,0,0:0:0:0:
376,204,69374,1,0,0:0:0:0:
471,303,69543,5,0,0:0:0:0:
425,144,69713,1,0,0:0:0:0:
277,354,69882,1,0,0:0:0:0:
391,336,70052,6,0,L|403:272,1,59.9999981689454
324,145,70391,1,0,0:0:0:0:
306,218,70560,5,0,0:0:0:0:
236,208,70730,1,0,0:0:0:0:
128,77,70899,5,0,0:0:0:0:
144,266,71069,1,0,0:0:0:0:
134,100,71238,6,0,B|142:148|142:148|124:196|124:196|136:244,1,150
171,365,71577,6,0,B|217:373|272:357|299:317|298:258|298:258|286:278|260:289,1,239.999992675781
144,266,74289,6,0,L|137:245,1,14.9999995422363
137,186,74458,1,0,0:0:0:0:
138,172,74543,1,0,0:0:0:0:
143,158,74628,6,0,L|147:143,1,14.9999995422363
185,90,74797,1,0,0:0:0:0:
195,79,74882,1,0,0:0:0:0:
209,71,74967,6,0,L|232:58,1,14.9999995422363
285,46,75136,1,0,0:0:0:0:
300,46,75221,6,0,L|327:48,1,14.9999995422363
378,67,75390,1,0,0:0:0:0:
391,76,75475,6,0,L|414:92,1,14.9999995422363
445,138,75645,6,0,L|455:155,1,14.9999995422363
463,228,75814,5,0,0:0:0:0:
438,255,75899,1,0,0:0:0:0:
462,275,75983,1,0,0:0:0:0:
442,301,76068,1,0,0:0:0:0:
460,321,76153,1,0,0:0:0:0:
446,346,76238,1,0,0:0:0:0:
456,367,76323,6,0,L|454:344,6,14.9999995422363
434,210,77001,5,0,0:0:0:0:
237,297,77170,2,0,B|176:308|144:263|144:263|162:249|187:252,1,150.000005722046
297,265,77424,1,0,0:0:0:0:
302,333,77509,6,0,B|332:386|387:382|387:382|386:359|368:342,1,150.000005722046
290,243,77763,1,0,0:0:0:0:
283,221,77848,2,0,L|263:159,1,50
226,32,78018,6,0,B|209:7|212:-26|212:-26|160:56|247:114,1,225.000008583069
323,11,78357,6,0,P|296:-8|254:-6,1,50
125,170,78526,2,0,P|148:152|178:148,1,59.9999981689454
334,174,78696,1,0,0:0:0:0:
148,142,78865,6,0,B|116:148|102:176|102:176|137:220|182:210,1,150.000005722046
176,72,79119,1,0,0:0:0:0:
104,79,79204,2,0,P|81:88|61:104,1,50
58,243,79374,5,0,0:0:0:0:
0,5,79543,5,0,0:0:0:0:
253,65,79713,6,0,B|317:78|360:32|360:32|351:46|349:70,1,150.000005722046
431,121,79967,1,0,0:0:0:0:
429,140,80052,1,0,0:0:0:0:
324,244,80221,6,0,L|334:172,1,50
462,285,80391,2,0,L|455:334,1,50
313,274,80560,5,0,0:0:0:0:
309,263,80645,1,0,0:0:0:0:
307,253,80730,6,0,B|303:215|303:215|319:181,1,75.0000028610231
476,276,80899,2,0,B|480:314|480:314|463:347,1,75.0000028610231
273,349,81069,6,0,L|195:339,1,75.0000028610231
51,317,81238,1,0,0:0:0:0:
51,317,81323,1,0,0:0:0:0:
51,317,81407,1,0,0:0:0:0:
217,192,81577,6,0,B|190:174|190:141|190:141|185:213|129:245,1,179.999994506836
14,188,81916,2,0,L|96:200,1,59.9999981689454
188,130,82085,6,0,P|153:117|113:119,1,75.0000028610231
350,23,82255,2,0,P|321:46|302:82,1,75.0000028610231
307,222,82424,6,0,B|289:211|288:171|288:171|379:212|371:302,1,225.000008583069
231,275,82763,1,0,0:0:0:0:
417,130,82933,2,0,B|422:156|407:184|407:184|435:222|438:273,1,150
422,340,83272,1,0,0:0:0:0:
418,357,83357,1,0,0:0:0:0:
413,374,83441,6,0,P|446:312|333:290,1,225.000008583069
250,360,83780,6,0,B|178:346|178:346|218:330,1,100
237,237,84035,1,0,0:0:0:0:
227,207,84119,1,0,0:0:0:0:
187,78,84289,2,0,L|171:172,1,75.0000028610231
73,260,84458,6,0,L|62:192,1,50
155,277,84628,2,0,L|144:209,1,50
88,138,84797,6,0,B|49:134|49:134|18:150,1,75.0000028610231
132,348,84967,2,0,B|171:352|171:352|201:335,1,75.0000028610231
319,206,85136,6,0,B|307:157|324:92|324:92|313:114|288:125,1,150.000005722046
227,207,85391,1,0,0:0:0:0:
237,237,85475,2,0,P|241:203|232:171,1,50
175,61,85645,6,0,B|164:30|170:-5|170:-5|157:83|70:107,1,225.000008583069
253,25,85984,1,0,0:0:0:0:
277,29,86068,1,0,0:0:0:0:
307,34,86153,6,0,B|383:18|430:58|430:58|393:46|356:55,1,179.999994506836
345,169,86492,6,0,P|382:160|397:124,1,80
320,257,86746,2,0,B|341:300|385:280|385:280|378:255|352:247,1,119.999996337891
230,281,87001,6,0,B|203:322|243:348|243:348|272:315|241:267|241:267|214:219|236:178,1,240
280,116,87340,1,0,0:0:0:0:
218,268,87509,6,0,P|228:367|314:316,1,225.000008583069
156,219,87848,5,0,0:0:0:0:
101,337,88018,2,0,L|91:260,1,50
83,207,88187,6,0,L|73:130,1,50
174,347,88357,1,0,0:0:0:0:
228,196,88526,6,0,B|232:144|184:99|184:99|176:125|185:141,1,150.000005722046
324,180,88780,1,0,0:0:0:0:
331,152,88865,2,0,P|313:124|289:110,1,50
306,35,89035,2,0,P|273:36|249:50,1,50,0|0,0:3|0:3,0:3:0:0:
184,139,89204,5,0,0:0:0:0:
383,100,89374,2,0,L|433:105,1,50
169,121,89543,6,0,L|119:116,1,50
289,138,89713,2,0,P|274:173|243:191,1,50
435,241,89882,6,0,B|383:236|383:236|341:259|341:259|267:252,1,150.000005722046
228,247,90136,1,0,0:0:0:0:
163,239,90221,5,0,0:0:0:0:
398,308,90391,5,0,0:0:0:0:
98,231,90560,6,0,L|41:224,1,50
203,183,90730,2,0,L|237:137,1,50
211,343,90899,5,0,0:0:0:0:
211,343,90984,1,0,0:0:0:0:
211,343,91069,2,0,L|192:297,1,50
291,254,91238,2,0,L|325:208,1,50
456,284,91407,5,0,0:0:0:0:
456,284,91492,1,0,0:0:0:0:
456,284,91577,2,0,P|429:286|407:278,1,50
337,146,91746,2,0,P|309:144|287:152,1,50
135,208,91916,6,0,L|126:268,1,50
148,137,92085,1,0,0:0:0:0:
123,283,92255,5,0,0:0:0:0:
153,114,92424,2,0,B|163:58|163:58|134:95,1,75.0000028610231
204,271,92594,6,0,L|265:259,1,50
327,244,92763,2,0,L|388:232,1,50
462,195,92933,6,0,L|388:209,1,75.0000028610231
276,334,93102,2,0,L|202:348,1,75.0000028610231
252,178,93272,6,0,B|232:125|266:75|266:75|263:107|276:134,1,150.000005722046
327,244,93526,1,0,0:0:0:0:
314,266,93611,1,0,0:0:0:0:
127,297,93780,6,0,L|188:282,1,50
37,205,93950,2,0,L|80:250,1,50
71,81,94119,2,0,L|53:141,1,50
121,314,94289,6,0,B|163:324|196:298|196:298|233:295|268:314|268:314|240:279|252:245,1,225.000008583069
365,175,94628,6,0,L|337:232,1,50
381,363,94797,2,0,L|345:310,1,50
500,253,94967,5,0,0:0:0:0:
483,255,95051,1,0,0:0:0:0:
466,257,95136,2,0,L|392:267,1,75.0000028610231
222,283,95306,6,0,P|220:258|226:233,1,50
189,149,95475,2,0,P|209:135|233:128,1,50
415,139,95645,6,0,B|424:117|419:90|419:90|413:111|391:131,1,75.0000028610231
328,81,95814,2,0,B|313:62|287:53|287:53|302:69|308:98,1,75.0000028610231
335,238,95984,5,0,0:0:0:0:
95,306,96153,2,0,P|118:272|171:243,1,75.0000028610231
326,258,96323,5,0,0:0:0:0:
317,278,96407,1,0,0:0:0:0:
308,298,96492,1,0,0:0:0:0:
65,166,96662,6,0,L|72:215,1,50
177,67,96831,5,0,0:0:0:0:
179,83,96915,1,0,0:0:0:0:
181,99,97001,2,0,B|186:136|186:136|174:170,1,75.0000028610231
20,276,97170,2,0,B|14:313|14:313|26:347,1,75.0000028610231
210,305,97340,6,0,B|221:238|221:238|201:263,1,100
356,321,97594,6,0,B|293:269|293:269|308:304,1,119.999996337891
440,188,97848,6,0,B|351:221|351:221|395:226,1,139.999995727539
345,46,98102,6,0,B|327:152|327:152|357:111,1,160
244,145,98357,5,0,0:0:0:0:
210,166,98441,1,0,0:0:0:0:
201,204,98526,1,0,0:0:0:0:
221,238,98611,1,0,0:0:0:0:
289,204,98695,5,0,0:0:0:0:
