osu file format v14

[General]
AudioFilename: audio.mp3
AudioLeadIn: 0
PreviewTime: -1
Countdown: 1
SampleSet: Normal
StackLeniency: 0.7
Mode: 0
LetterboxInBreaks: 0
WidescreenStoryboard: 1

[Editor]
Bookmarks: 95899
DistanceSpacing: 1.6
BeatDivisor: 4
GridSize: 16
TimelineZoom: 1.8

[Metadata]
Title:Neuronecia
TitleUnicode:Neuronecia
Artist:Function Phantom
ArtistUnicode:Function Phantom
Creator:Egotrip
Version:Insane
Source:
Tags:
BeatmapID:1567498
BeatmapSetID:742060

[Difficulty]
HPDrainRate:5
CircleSize:4
OverallDifficulty:6
ApproachRate:8.8
SliderMultiplier:1.55
SliderTickRate:1

[Events]
//Background and Video events
0,0,"BACKGROUND.jpg",0,0
//Break Periods
2,22963,27558
2,98896,107558
2,109743,114338
//Storyboard Layer 0 (Background)
//Storyboard Layer 1 (Fail)
//Storyboard Layer 2 (Pass)
//Storyboard Layer 3 (Foreground)
//Storyboard Sound Samples

[TimingPoints]
1069,338.983050847458,4,2,1,90,1,0
1069,-200,4,2,1,90,0,0
1111,-200,4,2,3,40,0,0
11916,-142.857142857143,4,2,3,50,0,0
14628,-200,4,2,3,40,0,0
17255,-200,4,2,3,5,0,0
17340,-142.857142857143,4,2,3,50,0,0
20052,-200,4,2,3,40,0,0
21407,-142.857142857143,4,2,3,40,0,0
22763,-142.857142857143,4,2,1,90,0,0
33611,-83.3333333333333,4,1,1,80,0,0
35136,-166.666666666667,4,1,1,80,0,0
35475,-83.3333333333333,4,1,1,80,0,0
36492,-166.666666666667,4,1,1,80,0,0
37001,-83.3333333333333,4,1,1,80,0,0
39204,-166.666666666667,4,1,1,80,0,0
39713,-83.3333333333333,4,1,1,80,0,0
40560,-166.666666666667,4,1,1,80,0,0
40899,-83.3333333333333,4,1,1,80,0,0
41916,-166.666666666667,4,1,1,80,0,0
42763,-83.3333333333333,4,1,1,80,0,0
43611,-142.857142857143,4,2,1,80,0,0
44119,-66.6666666666667,4,1,1,80,0,0
44458,-76.9230769230769,4,1,1,80,0,0
44628,-76.9230769230769,4,1,2,80,0,0
49543,-76.9230769230769,4,1,1,80,0,0
49882,-76.9230769230769,4,1,2,80,0,0
54119,-76.9230769230769,4,2,1,80,0,0
54458,-76.9230769230769,4,1,1,80,0,0
55306,-200,4,1,1,80,0,0
57509,-66.6666666666667,4,1,1,70,0,0
58018,-125,4,1,1,80,0,0
58187,-125,4,2,20,70,0,0
58526,-125,4,1,1,80,0,0
59374,-125,4,2,20,70,0,0
59882,-125,4,1,1,80,0,0
60730,-200,4,1,1,80,0,0
62933,-66.6666666666667,4,1,1,80,0,0
63441,-76.9230769230769,4,1,1,80,0,0
63780,-100,4,1,1,80,0,0
64119,-76.9230769230769,4,1,1,80,0,0
64458,-100,4,1,1,80,0,0
64797,-66.6666666666667,4,1,1,80,0,0
65475,-100,4,1,1,80,0,0
66153,-200,4,1,1,80,0,0
68187,-100,4,1,1,80,0,0
68357,-66.6666666666667,4,1,1,80,0,0
68865,-125,4,1,1,80,0,0
69035,-125,4,2,20,70,0,0
69374,-125,4,1,1,80,0,0
70221,-125,4,2,20,70,0,0
70730,-125,4,1,1,80,0,0
71577,-200,4,1,1,80,0,0
72255,-200,4,1,1,70,0,0
74289,-100,4,2,21,40,0,0
76323,-200,4,1,1,70,0,0
77001,-83.3333333333333,4,1,1,80,0,0
78526,-166.666666666667,4,1,1,80,0,0
78865,-83.3333333333333,4,1,1,80,0,0
79882,-166.666666666667,4,1,1,80,0,0
80391,-83.3333333333333,4,1,1,80,0,0
81407,-83.3333333333333,4,1,1,80,0,0
82594,-166.666666666667,4,1,1,80,0,0
83102,-83.3333333333333,4,1,1,80,0,0
83950,-166.666666666667,4,1,1,80,0,0
84458,-83.3333333333333,4,1,1,80,0,0
85306,-166.666666666667,4,1,1,80,0,0
85814,-83.3333333333333,4,1,1,80,0,0
86492,-71.4285714285714,4,1,1,80,0,0
87509,-66.6666666666667,4,1,1,80,0,0
87848,-83.3333333333333,4,1,1,80,0,0
88018,-83.3333333333333,4,1,2,80,0,0
89374,-166.666666666667,4,1,2,80,0,0
89628,-83.3333333333333,4,1,2,80,0,0
90730,-166.666666666667,4,1,2,80,0,0
90984,-83.3333333333333,4,1,2,80,0,0
92933,-83.3333333333333,4,1,1,80,0,0
93272,-83.3333333333333,4,1,2,80,0,0
93441,-166.666666666667,4,1,2,80,0,0
93696,-83.3333333333333,4,1,2,80,0,0
94797,-166.666666666667,4,1,2,80,0,0
95052,-83.3333333333333,4,1,2,80,0,0
96153,-166.666666666667,4,1,2,80,0,0
96407,-83.3333333333333,4,1,2,80,0,0
97255,-71.4285714285714,4,1,1,80,0,0
98696,-200,4,2,1,80,0,0
120391,-200,4,2,1,60,0,0
131238,-100,4,2,3,60,0,0
131577,-100,4,2,3,40,0,0
133950,-100,4,2,3,45,0,0
135645,-100,4,2,3,50,0,0
136662,-100,4,1,1,55,0,0
138018,-100,4,1,1,60,0,0
139374,-100,4,1,1,65,0,0
140730,-100,4,1,20,100,0,0
140899,-100,4,2,3,60,0,0
141662,-200,4,2,3,60,0,0
142085,-66.6666666666667,4,1,1,100,0,1
162424,-50,4,1,1,100,0,0
162933,-66.6666666666667,4,1,1,100,0,1
184035,-100,4,1,1,80,0,0
184119,-100,4,1,1,80,0,1
184204,-100,4,1,1,80,0,0

[Colours]
Combo1 : 137,157,203
Combo2 : 51,143,247
Combo3 : 173,207,233
Combo4 : 122,52,239
Combo5 : 168,128,234
Combo6 : 195,195,195
Combo7 : 66,206,236
Combo8 : 28,57,113

[HitObjects]
11,196,1069,6,0,B|43:189|43:189|99:205,1,77.5
259,165,1746,2,0,P|270:133|259:88,1,77.5
140,27,2424,2,0,L|11:36,2,116.25
260,91,3780,6,0,L|348:86,1,77.5
451,153,4289,1,0,0:0:0:0:
505,102,4458,2,0,P|514:79|494:18,1,77.5
451,153,4967,2,0,P|442:176|462:237,1,77.5
377,349,5475,1,0,0:0:0:0:
370,334,5814,1,0,0:0:0:0:
305,291,5984,2,0,L|215:298,1,77.5
82,185,6492,6,0,P|78:158|87:131,1,38.75
80,146,6746,1,0,0:0:0:0:
80,147,6831,1,0,0:0:0:0:
296,81,7001,1,0,0:0:0:0:
242,138,7170,2,0,L|152:145,1,77.5
296,81,7848,2,0,P|350:61|408:97,2,116.25
237,138,9204,6,0,B|234:165|234:165|250:231,1,77.5
209,288,9713,1,0,0:0:0:0:
198,302,9882,1,0,0:0:0:0:
88,373,10221,1,0,0:0:0:0:
76,359,10391,1,0,0:0:0:0:
198,302,10560,6,0,P|248:277|305:306,1,116.25
361,351,11407,2,0,B|377:355|377:355|453:344,1,77.5
481,197,11916,6,0,L|458:73,1,108.499996688843
503,28,12594,1,0,0:0:0:0:
375,146,12933,1,0,0:0:0:0:
253,41,13272,2,0,B|214:25|214:25|88:47,2,162.749995033264
350,48,14628,6,0,P|362:86|350:124,1,77.5
156,129,15136,1,0,0:0:0:0:
210,81,15306,2,0,L|296:90,1,77.5
156,129,15814,2,0,L|70:138,1,77.5
13,90,16323,1,0,0:0:0:0:
29,79,16662,5,0,0:0:0:0:
140,215,16831,2,0,L|134:308,1,77.5
252,373,17340,6,0,L|342:366,1,81.3749975166321
347,363,17679,2,0,L|443:373,1,81.3749975166321
449,375,18018,1,0,0:0:0:0:
343,109,18357,1,0,0:0:0:0:
280,155,18696,6,0,B|268:179|268:179|279:268,1,108.499996688843
343,109,19204,2,0,B|355:85|355:85|344:-4,1,108.499996688843
210,80,19713,2,0,L|278:76,1,54.2499983444214
420,106,20052,6,0,L|330:109,1,77.5
210,80,20560,1,0,0:0:0:0:
144,49,20730,2,0,P|133:24|151:-29,1,77.5
210,80,21238,2,0,P|221:105|203:158,1,77.5
106,203,21746,2,0,L|-8:192,1,108.499996688843
139,280,22255,2,0,L|253:269,1,108.499996688843
327,193,22763,5,0,0:0:0:0:
256,192,28187,12,0,30899,0:0:0:0:
168,192,33611,5,4,0:0:0:0:
116,132,33780,2,0,P|80:120|24:140,1,92.9999971618653,2|8,0:0|0:0,0:0:0:0:
232,236,34119,1,4,0:0:0:0:
292,192,34289,2,0,L|400:200,1,92.9999971618653,6|0,0:0|0:0,0:0:0:0:
376,188,34543,1,4,0:0:0:0:
368,176,34628,1,8,0:0:0:0:
296,291,34797,1,6,0:0:0:0:
440,344,34967,1,4,0:0:0:0:
384,288,35136,6,0,P|348:276|292:296,1,92.9999971618653,6|4,0:0|0:0,0:0:0:0:
248,360,35645,2,0,P|212:372|156:352,1,92.9999971618653,2|0,0:0|0:0,0:0:0:0:
84,304,35899,1,4,0:0:0:0:
76,292,35984,2,0,B|68:248|68:248|84:176,1,92.9999971618653,8|2,0:0|0:0,0:0:0:0:
204,88,36323,1,4,0:0:0:0:
70,26,36492,6,0,P|113:12|156:28,1,92.9999971618653,2|0,0:0|0:0,0:0:0:0:
204,88,37001,2,0,L|308:80,1,92.9999971618653,6|0,0:0|0:0,0:0:0:0:
312,76,37255,1,4,0:0:0:0:
324,72,37340,2,0,P|332:108|328:136,1,46.4999985809327,10|0,0:0|0:0,0:0:0:0:
404,148,37509,2,0,P|384:179|361:196,1,46.4999985809327,6|0,0:0|0:0,0:0:0:0:
280,212,37679,6,0,L|100:224,1,139.499995742798,6|0,0:0|0:0,0:0:0:0:
124,224,38018,1,6,0:0:0:0:
28,348,38187,2,0,P|76:320|156:356,1,139.499995742798,2|0,0:0|0:0,0:0:0:0:
160,360,38526,1,6,0:0:0:0:
287,256,38696,2,0,P|279:216|295:180,1,46.4999985809327,2|0,0:0|0:0,0:0:0:0:
208,184,38865,2,0,P|230:150|267:135,1,46.4999985809327,2|0,0:0|0:0,0:0:0:0:
372,250,39035,1,4,0:0:0:0:
484,180,39204,6,0,P|435:162|384:188,1,92.9999971618653,2|0,0:0|0:0,0:0:0:0:
372,250,39713,2,0,P|323:268|272:242,1,92.9999971618653,2|0,0:0|0:0,0:0:0:0:
208,184,39967,1,4,0:0:0:0:
192,176,40052,2,0,L|88:188,1,92.9999971618653,8|0,0:0|0:0,0:0:0:0:
168,96,40391,1,4,0:0:0:0:
32,36,40560,6,0,P|80:20|120:32,1,92.9999971618653,2|0,0:0|0:0,0:0:0:0:
168,96,41069,2,0,L|260:85,1,92.9999971618653,2|0,0:0|0:0,0:0:0:0:
328,40,41323,1,4,0:0:0:0:
336,32,41407,2,0,L|428:43,1,92.9999971618653,8|6,0:0|0:0,0:0:0:0:
348,157,41746,1,4,0:0:0:0:
420,129,41916,6,0,P|436:101|424:37,1,92.9999971618653,2|0,0:0|0:0,0:0:0:0:
436,144,42424,2,0,P|424:184|432:216,1,69.749997871399,2|0,0:0|0:0,0:0:0:0:
440,224,42763,2,0,P|468:228|492:224,2,46.4999985809327,8|4|4,0:0|0:0|0:0,0:0:0:0:
352,152,43102,1,4,0:0:0:0:
264,256,43272,6,0,P|176:260|112:264,1,139.499995742798,8|0,0:0|0:0,0:0:0:0:
112,256,43611,2,0,P|100:296|112:348,1,81.3749975166321,8|0,0:0|0:0,0:0:0:0:
116,344,43950,1,8,0:0:0:0:
196,232,44119,2,2,B|184:168|184:168|192:128|192:128|184:56,1,174.375006651879,6|0,0:0|0:0,0:0:0:0:
188,44,44458,6,0,P|236:32|280:56,1,100.749995388031,4|0,0:0|0:0,0:0:0:0:
316,124,44713,2,0,P|272:100|224:112,1,100.749995388031,6|0,0:0|0:0,0:0:0:0:
260,175,44967,2,0,P|304:151|352:164,1,100.749995388031,6|0,0:0|0:0,0:0:0:0:
372,176,45221,2,0,B|380:220|380:220|368:292,1,100.749995388031,6|0,0:0|0:0,0:0:0:0:
368,292,45475,6,0,L|472:288,1,100.749995388031,14|0,0:0|0:0,0:0:0:0:
476,272,45730,2,0,B|466:216|466:216|474:172,1,100.749995388031,6|0,0:0|0:0,0:0:0:0:
480,160,45984,2,0,B|489:104|489:104|481:60,1,100.749995388031,6|0,0:0|0:0,0:0:0:0:
472,48,46238,2,0,L|371:51,1,100.749995388031,6|0,0:0|0:0,0:0:0:0:
364,64,46492,6,0,B|356:108|356:108|365:163,1,100.749995388031,6|0,0:0|0:0,0:0:0:0:
324,232,46746,1,4,0:0:0:0:
312,228,46831,2,0,L|211:231,1,100.749995388031,12|2,0:0|0:0,0:0:0:0:
156,288,47170,5,4,0:0:0:0:
40,200,47340,1,0,0:0:0:0:
40,200,47424,1,0,0:0:0:0:
36,196,47509,2,0,P|20:144|52:92,1,100.749995388031,6|0,0:0|0:0,0:0:0:0:
48,96,47763,2,0,B|96:80|96:80|172:104,1,100.749995388031,6|0,0:0|0:0,0:0:0:0:
152,104,48018,1,6,0:0:0:0:
280,132,48187,6,0,P|292:100|276:60,1,50.3749976940156,8|0,0:0|0:0,0:0:0:0:
364,64,48357,2,0,P|347:30|307:13,1,50.3749976940156,4|0,0:0|0:0,0:0:0:0:
204,36,48526,6,0,L|92:4,1,100.749995388031,6|4,0:0|0:0,0:0:0:0:
107,8,48780,1,6,0:0:0:0:
107,8,48865,1,4,0:0:0:0:
160,192,49035,2,0,B|252:176|216:236|324:208,1,151.124993082047,6|2,0:0|0:0,0:0:0:0:
324,204,49374,1,10,0:0:0:0:
188,268,49543,6,0,P|180:308|204:344,1,50.3749976940156,2|0,0:0|0:0,0:0:0:0:
112,344,49713,2,0,P|134:377|177:386,1,50.3749976940156,2|0,0:0|0:0,0:0:0:0:
264,356,49882,6,0,L|384:344,1,100.749995388031,6|0,0:0|0:0,0:0:0:0:
368,336,50136,2,0,L|468:346,1,100.749995388031,6|0,0:0|0:0,0:0:0:0:
485,347,50391,2,0,P|492:297|472:252,1,100.749995388031,6|0,0:0|0:0,0:0:0:0:
463,249,50645,2,0,P|456:199|479:155,1,100.749995388031,6|0,0:0|0:0,0:0:0:0:
480,156,50899,6,0,L|360:144,1,100.749995388031,14|0,0:0|0:0,0:0:0:0:
376,136,51153,2,0,L|275:146,1,100.749995388031,6|0,0:0|0:0,0:0:0:0:
267,153,51407,2,0,P|260:202|280:248,1,100.749995388031,6|0,0:0|0:0,0:0:0:0:
288,250,51661,2,0,P|294:300|272:344,1,100.749995388031,6|0,0:0|0:0,0:0:0:0:
264,356,51916,5,4,0:0:0:0:
80,288,52085,1,4,0:0:0:0:
80,288,52170,1,4,0:0:0:0:
80,288,52255,6,0,P|72:256|84:204,1,50.3749976940156,8|0,0:0|0:0,0:0:0:0:
0,212,52424,2,0,P|16:183|64:160,1,50.3749976940156,4|0,0:0|0:0,0:0:0:0:
175,136,52594,6,0,L|275:146,1,100.749995388031,6|0,0:0|0:0,0:0:0:0:
376,124,52848,1,4,0:0:0:0:
384,116,52933,2,0,P|400:60|384:16,1,100.749995388031,14|0,0:0|0:0,0:0:0:0:
380,28,53187,2,0,L|279:17,1,100.749995388031,6|0,0:0|0:0,0:0:0:0:
276,28,53441,2,0,P|260:84|276:128,1,100.749995388031,6|8,0:0|0:0,0:0:0:0:
272,122,53780,1,4,0:0:0:0:
288,248,53950,6,0,L|220:240,1,50.3749976940156,4|0,0:0|0:0,0:0:0:0:
175,136,54119,6,0,L|20:148,1,151.124993082047,8|0,0:0|0:0,0:0:0:0:
8,152,54458,2,0,P|-12:76|12:0,1,151.124993082047,4|0,0:0|0:0,0:0:0:0:
24,0,54797,1,4,0:0:0:0:
116,188,54967,2,0,L|96:340,1,151.124993082047,8|0,0:0|0:0,0:0:0:0:
96,356,55306,6,0,P|144:384|212:324,1,155,4|8,0:0|0:0,0:0:0:0:
211,327,56153,1,4,0:0:0:0:
288,248,56492,2,0,B|340:252|340:252|384:248|384:248|448:256,1,155,4|4,0:0|0:0,0:0:0:0:
392,320,57340,1,8,0:0:0:0:
368,236,57509,2,0,L|380:120,1,116.250004434586,2|2,0:0|0:0,0:0:0:0:
392,44,57848,1,2,0:0:0:0:
480,160,58018,6,0,P|448:156|400:180,1,62
419,164,58272,1,0,0:0:0:0:
419,164,58357,1,0,0:0:0:0:
288,248,58526,1,0,0:0:0:0:
288,248,58696,6,0,P|256:252|208:228,1,62
12,216,59035,1,0,0:0:0:0:
40,144,59204,2,0,P|69:135|100:139,1,62
168,184,59543,1,0,0:0:0:0:
227,243,59713,2,0,L|215:331,1,62
335,231,60052,6,0,P|331:203|319:179,2,41.3333333333333,8|4|4,0:0|0:0|0:0,0:0:0:0:
348,112,60391,2,0,P|366:122|383:135,2,41.3333333333333,8|4|4,0:0|0:0|0:0,0:0:0:0:
172,184,60730,6,0,L|336:192,1,155,4|8,0:0|0:0,0:0:0:0:
326,191,61577,1,4,0:0:0:0:
432,384,61916,2,0,P|464:348|432:256,1,155,4|4,0:0|0:0,0:0:0:0:
352,303,62763,1,8,0:0:0:0:
352,303,62933,2,0,L|234:311,1,116.250004434586,2|2,0:0|0:0,0:0:0:0:
150,315,63272,1,2,0:0:0:0:
32,112,63441,6,0,P|68:51|139:64,1,151.124993082047
151,72,63780,2,0,P|163:108|151:140,2,51.6666666666667
298,148,64119,6,0,P|262:209|191:196,1,151.124993082047
179,188,64458,2,0,P|167:152|179:120,2,51.6666666666667
198,292,64797,6,0,L|82:296,2,116.250004434586
276,272,65306,1,0,0:0:0:0:
352,304,65475,2,0,P|360:356|336:396,1,77.5,8|4,0:0|0:0,0:0:0:0:
431,264,65814,2,0,P|413:231|380:212,1,77.5,8|4,0:0|0:0,0:0:0:0:
198,292,66153,6,0,B|246:292|246:292|282:304|282:304|354:304,1,155,4|8,0:0|0:0,0:0:0:0:
351,304,67001,1,4,0:0:0:0:
440,156,67340,2,0,P|380:132|304:184,1,155
153,231,68187,1,0,0:0:0:0:
205,175,68357,2,0,L|197:307,1,116.250004434586
232,364,68696,1,0,0:0:0:0:
153,231,68865,6,0,P|104:228|72:240,1,62,4|0,0:0|0:0,0:0:0:0:
91,231,69119,1,0,0:0:0:0:
91,231,69204,1,0,0:0:0:0:
16,136,69374,1,4,0:0:0:0:
80,88,69543,6,0,P|110:83|141:87,1,62,8|0,0:0|0:0,0:0:0:0:
205,175,69882,1,4,0:0:0:0:
264,120,70052,2,0,L|260:48,1,62,4|0,0:0|0:0,0:0:0:0:
312,0,70391,1,2,0:0:0:0:
419,64,70560,2,0,P|390:75|360:72,1,62,4|0,0:0|0:0,0:0:0:0:
276,200,70899,6,0,P|300:196|332:208,2,41.3333333333333,8|4|4,0:0|0:0|0:0,0:0:0:0:
292,276,71238,2,0,P|311:290|325:321,2,41.3333333333333,8|4|4,0:0|0:0|0:0,0:0:0:0:
252,344,71577,1,4,0:0:0:0:
256,192,74289,12,0,76153,0:0:0:0:
88,100,76323,6,8,L|220:108,1,116.25,8|0,0:0|0:0,0:0:0:0:
372,160,77001,5,4,0:0:0:0:
432,112,77170,2,0,P|440:60|420:16,1,92.9999971618653,2|8,0:0|0:0,0:0:0:0:
340,232,77509,1,4,0:0:0:0:
400,276,77679,2,0,L|492:283,1,92.9999971618653,2|0,0:0|0:0,0:0:0:0:
484,276,77933,1,4,0:0:0:0:
472,268,78018,1,8,0:0:0:0:
372,380,78187,1,2,0:0:0:0:
279,103,78357,1,4,0:0:0:0:
144,160,78526,6,0,P|188:176|240:156,1,92.9999971618653,2|0,0:0|0:0,0:0:0:0:
279,103,79035,2,0,P|323:87|375:107,1,92.9999971618653,2|0,0:0|0:0,0:0:0:0:
439,135,79289,1,4,0:0:0:0:
447,147,79374,6,0,P|447:175|435:207,1,46.4999985809327,8|0,0:0|0:0,0:0:0:0:
507,239,79543,2,0,P|487:258|456:272,1,46.4999985809327,4|0,0:0|0:0,0:0:0:0:
264,320,79713,1,4,0:0:0:0:
308,252,79882,6,0,P|344:236|400:264,1,92.9999971618653,2|0,0:0|0:0,0:0:0:0:
264,320,80391,2,0,P|228:336|172:308,1,92.9999971618653,2|0,0:0|0:0,0:0:0:0:
116,256,80645,1,4,0:0:0:0:
108,244,80730,6,0,P|108:216|124:188,1,46.4999985809327,8|0,0:0|0:0,0:0:0:0:
52,152,80899,2,0,P|71:132|102:123,1,46.4999985809327,4|0,0:0|0:0,0:0:0:0:
228,160,81069,6,0,L|372:172,1,139.499995742798,4|0,0:0|0:0,0:0:0:0:
381,172,81407,1,8,0:0:0:0:
488,75,81577,6,0,P|463:25|379:66,1,139.499995742798,4|0,0:0|0:0,0:0:0:0:
388,49,81916,1,8,0:0:0:0:
308,252,82085,6,0,P|312:287|332:312,1,46.4999985809327,2|0,0:0|0:0,0:0:0:0:
261,348,82255,2,2,P|288:369|320:373,1,46.4999985809327
468,276,82424,1,4,0:0:0:0:
400,244,82594,6,0,L|287:253,1,92.9999971618653,2|0,0:0|0:0,0:0:0:0:
261,348,83102,2,0,L|110:338,1,139.499995742798,2|4,0:0|0:0,0:0:0:0:
108,343,83441,2,0,P|87:294|119:208,1,139.499995742798,8|0,0:0|0:0,0:0:0:0:
125,210,83780,1,4,0:0:0:0:
255,147,83950,6,0,P|211:132|163:149,1,92.9999971618653,2|0,0:0|0:0,0:0:0:0:
307,251,84458,2,0,P|351:266|399:249,1,92.9999971618653,2|0,0:0|0:0,0:0:0:0:
452,195,84713,1,4,0:0:0:0:
461,185,84797,2,8,P|459:152|436:122,1,46.4999985809327
512,90,84967,2,0,P|487:68|449:63,1,46.4999985809327,4|0,0:0|0:0,0:0:0:0:
210,83,85136,1,4,0:0:0:0:
257,145,85306,6,0,L|368:136,1,92.9999971618653,2|0,0:0|0:0,0:0:0:0:
210,83,85814,2,0,P|169:68|106:102,1,92.9999971618653,2|0,0:0|0:0,0:0:0:0:
61,147,86069,1,4,0:0:0:0:
54,163,86153,2,0,P|54:194|79:230,1,46.4999985809327,8|0,0:0|0:0,0:0:0:0:
3,255,86323,2,0,P|24:276|68:284,1,46.4999985809327,4|0,0:0|0:0,0:0:0:0:
213,277,86492,6,0,P|161:252|100:280,1,108.499996688843,4|0,0:0|0:0,0:0:0:0:
157,330,86746,2,0,P|209:305|270:333,1,108.499996688843,4|0,0:0|0:0,0:0:0:0:
268,328,87001,2,0,P|320:353|298:244,1,216.999993377686,4|4,0:0|0:0,0:0:0:0:
195,207,87509,2,0,L|19:247,1,174.375006651879,8|0,0:0|0:0,0:0:0:0:
4,252,87848,6,0,P|-16:208|-4:160,1,92.9999971618653,4|2,0:0|0:0,0:0:0:0:
108,312,88187,1,8,0:0:0:0:
108,312,88272,1,2,0:0:0:0:
108,312,88357,1,4,0:0:0:0:
195,207,88526,6,0,P|203:175|187:135,1,46.4999985809327,2|0,0:0|0:0,0:0:0:0:
271,127,88696,2,0,P|254:98|214:81,1,46.4999985809327,6|0,0:0|0:0,0:0:0:0:
72,96,88865,2,0,L|176:88,1,92.9999971618653,6|0,0:0|0:0,0:0:0:0:
276,212,89204,6,0,L|380:220,1,92.9999971618653,4|2,0:0|0:0,0:0:0:0:
280,136,89543,1,8,0:0:0:0:
280,136,89628,1,2,0:0:0:0:
280,136,89713,1,4,0:0:0:0:
195,207,89882,6,0,P|199:239|223:271,1,46.4999985809327,2|0,0:0|0:0,0:0:0:0:
148,304,90052,2,0,P|173:323|213:329,1,46.4999985809327,6|0,0:0|0:0,0:0:0:0:
275,311,90221,2,0,L|368:304,1,92.9999971618653,10|0,0:0|0:0,0:0:0:0:
420,164,90560,6,0,L|512:171,1,92.9999971618653,4|0,0:0|0:0,0:0:0:0:
456,76,90899,1,8,0:0:0:0:
456,76,90984,1,2,0:0:0:0:
456,76,91069,1,4,0:0:0:0:
369,224,91238,5,2,0:0:0:0:
289,133,91407,1,6,0:0:0:0:
200,200,91577,2,0,P|204:232|228:264,1,46.4999985809327,8|0,0:0|0:0,0:0:0:0:
153,297,91746,2,0,P|178:316|218:322,1,46.4999985809327,4|0,0:0|0:0,0:0:0:0:
289,133,91916,6,0,L|109:145,1,139.499995742798,4|0,0:0|0:0,0:0:0:0:
133,145,92255,1,8,0:0:0:0:
21,285,92424,6,0,P|69:257|149:293,1,139.499995742798,4|0,0:0|0:0,0:0:0:0:
153,297,92763,1,8,0:0:0:0:
304,324,92933,6,0,P|316:292|300:248,1,46.4999985809327,6|0,0:0|0:0,0:0:0:0:
392,264,93102,2,0,P|377:232|335:213,1,46.4999985809327,6|0,0:0|0:0,0:0:0:0:
200,200,93272,6,0,L|304:208,1,92.9999971618653,4|2,0:0|0:0,0:0:0:0:
224,48,93611,1,8,0:0:0:0:
224,48,93696,1,2,0:0:0:0:
224,48,93780,1,2,0:0:0:0:
80,196,93950,6,0,P|72:160|80:132,1,46.4999985809327,2|2,0:0|0:0,0:0:0:0:
0,120,94119,2,2,P|19:88|45:74,1,46.4999985809327,6|2,0:0|0:0,0:0:0:0:
131,40,94289,2,0,L|235:48,1,92.9999971618653,10|4,0:0|0:0,0:0:0:0:
352,152,94628,6,0,L|444:144,1,92.9999971618653,4|2,0:0|0:0,0:0:0:0:
368,48,94967,1,8,0:0:0:0:
368,48,95052,1,2,0:0:0:0:
368,48,95136,1,2,0:0:0:0:
279,223,95306,6,0,L|186:215,1,92.9999971618653,2|4,0:0|0:0,0:0:0:0:
107,210,95560,1,4,0:0:0:0:
101,200,95645,6,0,P|93:164|101:136,1,46.4999985809327,10|0,0:0|0:0,0:0:0:0:
21,124,95814,2,0,P|40:92|66:78,1,46.4999985809327,6|0,0:0|0:0,0:0:0:0:
131,40,95984,6,0,L|235:48,1,92.9999971618653,4|0,0:0|0:0,0:0:0:0:
368,48,96323,1,8,0:0:0:0:
368,48,96407,1,2,0:0:0:0:
368,48,96492,1,4,0:0:0:0:
440,144,96662,6,0,P|436:184|408:216,1,46.4999985809327,2|0,0:0|0:0,0:0:0:0:
496,232,96831,2,0,P|464:257|422:260,1,46.4999985809327,4|0,0:0|0:0,0:0:0:0:
292,208,97001,2,0,L|199:200,1,92.9999971618653,8|4,0:0|0:0,0:0:0:0:
52,207,97340,6,0,P|28:263|60:311,1,108.499996688843,4|0,0:0|0:0,0:0:0:0:
56,307,97594,2,0,L|172:291,1,108.499996688843,4|0,0:0|0:0,0:0:0:0:
176,291,97848,2,0,L|283:305,1,108.499996688843,4|0,0:0|0:0,0:0:0:0:
295,302,98102,2,0,P|315:253|290:206,1,108.499996688843,4|0,0:0|0:0,0:0:0:0:
248,144,98357,6,0,P|244:116|256:80,3,54.2499983444214,4|4|4|4,0:0|0:0|0:0|0:0,0:0:0:0:
312,48,98696,1,4,0:0:0:0:
100,192,108187,6,0,P|140:168|216:184,1,116.25,2|0,0:0|0:0,0:0:0:0:
264,232,109035,1,2,0:0:0:0:
452,144,109374,1,0,0:0:0:0:
404,84,109543,1,4,0:0:0:0:
256,192,114967,12,0,120052,0:0:0:0:
24,276,120391,6,0,L|88:284,1,58.125,2|0,0:0|0:0,0:0:0:0:
100,284,120899,2,0,L|157:276,1,58.125,2|0,0:0|0:0,0:0:0:0:
176,280,121407,2,0,L|240:288,1,58.125,2|0,0:0|0:0,0:0:0:0:
252,288,121916,2,0,L|309:280,1,58.125,2|0,0:0|0:0,0:0:0:0:
328,280,122424,2,0,L|392:288,1,58.125,2|0,0:0|0:0,0:0:0:0:
500,228,122933,1,2,0:0:0:0:
460,160,123102,6,0,P|432:152|392:160,1,58.125,2|0,0:0|0:0,0:0:0:0:
388,164,123611,2,0,P|360:172|320:164,1,58.125,2|0,0:0|0:0,0:0:0:0:
316,160,124119,2,0,P|288:152|248:160,1,58.125,2|0,0:0|0:0,0:0:0:0:
244,164,124628,2,0,P|216:172|176:164,1,58.125,2|0,0:0|0:0,0:0:0:0:
172,160,125136,2,0,P|144:152|104:160,1,58.125,2|0,0:0|0:0,0:0:0:0:
16,88,125645,1,2,0:0:0:0:
80,48,125814,6,0,P|108:56|148:48,1,58.125,2|0,0:0|0:0,0:0:0:0:
152,44,126323,2,0,P|180:36|220:44,1,58.125,2|0,0:0|0:0,0:0:0:0:
224,48,126831,2,0,P|252:56|292:48,1,58.125,2|0,0:0|0:0,0:0:0:0:
296,44,127340,2,0,P|324:36|364:44,1,58.125,2|0,0:0|0:0,0:0:0:0:
368,48,127848,2,2,P|396:56|436:48,1,58.125
508,160,128357,1,2,0:0:0:0:
444,204,128526,6,0,L|380:200,1,58.125,2|0,0:0|0:0,0:0:0:0:
368,200,129035,2,0,L|304:204,1,58.125,2|0,0:0|0:0,0:0:0:0:
292,204,129543,2,0,L|228:200,1,58.125,2|0,0:0|0:0,0:0:0:0:
256,192,129882,12,0,131069,0:0:0:0:
32,192,131238,5,4,0:0:0:0:
108,84,131577,1,8,0:0:0:0:
168,268,131916,5,2,0:0:0:0:
296,160,132255,1,8,0:0:0:0:
416,356,132594,5,2,0:0:0:0:
328,224,132933,1,8,0:0:0:0:
460,92,133272,5,2,0:0:0:0:
328,224,133611,1,8,0:0:0:0:
280,160,133780,1,8,0:0:0:0:
356,148,133950,5,2,0:0:0:0:
248,336,134289,1,8,0:0:0:0:
220,36,134628,5,2,0:0:0:0:
328,224,134967,1,8,0:0:0:0:
376,48,135306,5,2,0:0:0:0:
252,232,135645,1,8,0:0:0:0:
149,85,135984,5,2,0:0:0:0:
312,292,136323,1,8,0:0:0:0:
240,312,136492,1,8,0:0:0:0:
252,232,136662,5,6,0:0:0:0:
252,232,136831,1,4,0:0:0:0:
180,272,137001,2,0,L|80:264,1,77.5,4|4,0:0|0:0,0:0:0:0:
0,52,137340,5,6,0:0:0:0:
0,52,137509,1,4,0:0:0:0:
72,92,137679,2,0,L|172:84,1,77.5,0|4,0:0|0:0,0:0:0:0:
396,200,138018,5,2,0:0:0:0:
396,200,138187,1,0,0:0:0:0:
324,240,138357,2,0,L|224:232,1,77.5,4|4,0:0|0:0,0:0:0:0:
328,72,138696,5,6,0:0:0:0:
328,72,138866,1,4,0:0:0:0:
400,112,139036,2,0,L|500:104,1,77.5,4|4,0:0|0:0,0:0:0:0:
246,233,139374,6,0,P|232:208|238:169,3,38.75,6|4|4|4,0:0|0:0|0:0|0:0,0:0:0:0:
168,148,139713,2,0,P|157:164|154:183,3,38.75,6|4|4|4,0:0|0:0|0:0|0:0,0:0:0:0:
92,224,140052,2,0,P|78:199|84:160,3,38.75,6|4|4|4,0:0|0:0|0:0|0:0,0:0:0:0:
14,139,140391,2,0,P|3:155|0:174,3,38.75,6|4|4|4,0:0|0:0|0:0|0:0,0:0:0:0:
256,192,140730,12,4,141916,0:0:0:0:
29,109,142085,6,0,P|99:113|162:138,1,116.250004434586,6|0,0:0|0:0,0:0:0:0:
142,127,142340,1,0,0:0:0:0:
142,127,142424,1,8,0:0:0:0:
316,110,142594,2,0,B|354:82|322:1|254:15|205:64|220:157|255:178|311:189,1,290.625011086464,4|0,0:0|0:0,0:0:0:0:
313,190,143102,2,0,L|390:178,1,58.1250022172929,8|0,0:0|0:0,0:0:0:0:
467,351,143272,2,0,L|393:340,1,58.1250022172929,4|0,0:0|0:0,0:0:0:0:
346,293,143441,6,0,L|98:338,1,232.500008869171,6|8,0:0|0:0,0:0:0:0:
117,334,143865,1,0,0:0:0:0:
117,334,143950,1,4,0:0:0:0:
20,228,144119,6,0,P|-9:188|88:188,1,174.375006651879,6|0,0:0|0:0,0:0:0:0:
85,170,144458,2,0,P|128:184|174:148,1,58.1250022172929,8|0,0:0|0:0,0:0:0:0:
198,119,144628,2,0,P|245:115|287:141,1,58.1250022172929,4|0,0:0|0:0,0:0:0:0:
458,203,144797,6,0,P|471:161|380:185,1,174.375006651879,6|0,0:0|0:0,0:0:0:0:
370,181,145136,2,0,P|368:215|388:255,1,58.1250022172929,8|0,0:0|0:0,0:0:0:0:
409,342,145306,2,0,B|437:380|518:348|504:280|455:231|362:246|341:281|330:337,1,290.625011086464,4|4,0:0|0:0,0:0:0:0:
325,340,145814,2,0,L|245:328,1,58.1250022172929,8|0,0:0|0:0,0:0:0:0:
187,279,145984,2,0,L|107:291,1,58.1250022172929,4|0,0:0|0:0,0:0:0:0:
23,231,146153,6,0,P|0:177|83:118,1,174.375006651879,6|6,0:0|0:0,0:0:0:0:
221,157,146662,1,6,0:0:0:0:
292,123,146831,6,0,P|315:69|232:10,1,174.375006651879,6|10,0:0|0:0,0:0:0:0:
142,169,147340,1,6,0:0:0:0:
221,157,147509,6,0,B|317:145|277:227|399:195,1,174.375006651879,6|0,0:0|0:0,0:0:0:0:
406,198,147848,2,0,P|427:153|414:102,1,58.1250022172929,8|0,0:0|0:0,0:0:0:0:
239,234,148018,2,0,P|190:256|302:319,1,290.625011086464,4|0,0:0|0:0,0:0:0:0:
314,305,148526,6,0,L|309:235,1,58.1250022172929,8|0,0:0|0:0,0:0:0:0:
355,124,148696,2,0,L|359:66,1,58.1250022172929,4|0,0:0|0:0,0:0:0:0:
296,14,148865,6,0,P|232:-8|214:143,1,232.500008869171,6|0,0:0|0:0,0:0:0:0:
177,115,149289,1,0,0:0:0:0:
177,115,149374,1,4,0:0:0:0:
241,271,149543,6,0,L|29:239,1,174.375006651879,6|0,0:0|0:0,0:0:0:0:
51,244,149882,2,0,P|52:210|78:177,1,58.1250022172929,8|0,0:0|0:0,0:0:0:0:
2,143,150052,2,0,P|26:119|68:114,1,58.1250022172929,4|0,0:0|0:0,0:0:0:0:
185,122,150221,6,0,B|290:102|259:172|355:147,1,174.375006651879,6|0,0:0|0:0,0:0:0:0:
368,146,150560,2,0,P|377:108|352:52,1,58.1250022172929,8|0,0:0|0:0,0:0:0:0:
221,202,150730,2,0,P|169:257|312:260,1,290.625011086464,4|0,0:0|0:0,0:0:0:0:
318,284,151238,2,0,P|320:255|302:219,3,58.1250022172929,4|0|4|0,0:0|0:0|0:0|0:0,0:0:0:0:
242,271,151577,6,0,B|197:266|197:266|177:269|177:269|100:262|100:262|143:286,2,174.375006651879,6|6|6,0:0|0:0|0:0,0:0:0:0:
287,360,152255,2,0,B|332:365|332:365|351:361|351:361|429:369|429:369|386:345,2,174.375006651879,6|6|6,0:0|0:0|0:0,0:0:0:0:
149,230,152933,6,4,P|135:188|155:113,1,116.250004434586,6|0,0:0|0:0,0:0:0:0:
150,119,153187,1,0,0:0:0:0:
150,119,153272,1,8,0:0:0:0:
366,173,153441,2,0,P|432:146|315:108,1,290.625011086464,4|4,0:0|0:0,0:0:0:0:
315,104,153950,2,0,L|242:95,1,58.1250022172929,8|0,0:0|0:0,0:0:0:0:
157,126,154119,2,0,L|84:135,1,58.1250022172929,4|0,0:0|0:0,0:0:0:0:
82,53,154289,6,0,B|68:19|125:-34|192:-1|210:62|181:109|120:166,1,232.500008869171,6|8,0:0|0:0,0:0:0:0:
156,125,154713,1,0,0:0:0:0:
156,125,154797,1,4,0:0:0:0:
33,258,154967,6,0,P|1:330|72:366,1,174.375006651879,6|0,0:0|0:0,0:0:0:0:
88,359,155306,2,0,L|155:352,1,58.1250022172929,8|0,0:0|0:0,0:0:0:0:
225,303,155475,2,0,L|292:310,1,58.1250022172929,4|0,0:0|0:0,0:0:0:0:
479,258,155645,6,0,P|511:330|440:366,1,174.375006651879,6|0,0:0|0:0,0:0:0:0:
424,359,155984,2,0,L|366:352,1,58.1250022172929,8|0,0:0|0:0,0:0:0:0:
225,303,156153,2,0,P|170:280|292:217,1,290.625011086464,4|0,0:0|0:0,0:0:0:0:
291,200,156662,2,0,P|327:206|374:173,1,58.1250022172929,8|0,0:0|0:0,0:0:0:0:
403,251,156831,2,0,P|423:220|413:164,1,58.1250022172929,4|0,0:0|0:0,0:0:0:0:
323,115,157001,6,0,B|208:96|256:176|128:144,1,174.375006651879,6|6,0:0|0:0,0:0:0:0:
46,276,157509,1,6,0:0:0:0:
11,199,157679,6,0,B|126:180|78:260|206:228,1,174.375006651879,6|10,0:0|0:0,0:0:0:0:
290,354,158187,1,6,0:0:0:0:
321,282,158357,6,0,B|206:263|254:343|126:311,1,174.375006651879,6|0,0:0|0:0,0:0:0:0:
139,313,158696,2,0,P|138:271|151:244,1,58.1250022172929,8|0,0:0|0:0,0:0:0:0:
292,198,158865,2,0,P|335:84|213:144,1,290.625011086464,4|4,0:0|0:0,0:0:0:0:
212,118,159374,2,0,P|174:126|126:88,1,58.1250022172929,8|0,0:0|0:0,0:0:0:0:
113,183,159543,2,0,P|84:156|88:95,1,58.1250022172929,4|0,0:0|0:0,0:0:0:0:
188,52,159713,6,0,P|270:11|385:77,1,232.500008869171,6|8,0:0|0:0,0:0:0:0:
383,75,160136,1,0,0:0:0:0:
383,75,160221,1,4,0:0:0:0:
464,210,160391,6,0,B|377:201|377:201|371:204|371:204|277:196,1,174.375006651879,6|4,0:0|0:0,0:0:0:0:
273,194,160730,2,0,P|256:233|279:289,1,58.1250022172929,8|0,0:0|0:0,0:0:0:0:
179,260,160899,2,0,P|194:299|250:322,1,58.1250022172929,4|0,0:0|0:0,0:0:0:0:
285,367,161069,6,0,L|272:183,1,174.375006651879,6|0,0:0|0:0,0:0:0:0:
267,176,161407,2,0,L|261:104,1,58.1250022172929,8|0,0:0|0:0,0:0:0:0:
464,210,161577,2,0,P|523:249|388:294,1,290.625011086464,4|4,0:0|0:0,0:0:0:0:
386,310,162085,2,0,P|352:301|301:323,3,58.1250022172929,4|0|4|0,0:0|0:0|0:0|0:0,0:0:0:0:
282,364,162424,6,0,L|119:355,1,155,6|0,0:0|0:0,0:0:0:0:
103,354,162679,1,6,0:0:0:0:
38,182,162933,5,6,0:0:0:0:
115,188,163102,2,0,L|259:195,1,116.250004434586,6|0,0:0|0:0,0:0:0:0:
304,203,163357,1,6,0:0:0:0:
323,206,163441,2,4,P|336:174|321:138,3,58.1250022172929
270,102,163780,6,0,P|250:41|377:40,1,232.500008869171,6|8,0:0|0:0,0:0:0:0:
496,217,164289,1,6,0:0:0:0:
496,217,164374,1,6,0:0:0:0:
496,217,164458,6,0,L|302:204,1,174.375006651879,6|0,0:0|0:0,0:0:0:0:
304,203,164797,2,0,P|297:235|306:284,1,58.1250022172929,8|0,0:0|0:0,0:0:0:0:
229,350,164967,2,0,P|230:321|223:292,1,58.1250022172929,4|0,0:0|0:0,0:0:0:0:
199,199,165136,6,0,L|5:212,1,174.375006651879,6|0,0:0|0:0,0:0:0:0:
7,213,165475,2,0,P|0:181|9:132,1,58.1250022172929,10|0,0:0|0:0,0:0:0:0:
96,11,165645,2,0,P|174:45|57:90,1,290.625011086464,6|4,0:0|0:0,0:0:0:0:
38,86,166153,2,0,P|5:79|-40:88,1,58.1250022172929,8|0,0:0|0:0,0:0:0:0:
78,247,166323,2,0,P|106:248|135:242,1,58.1250022172929,4|0,0:0|0:0,0:0:0:0:
239,134,166492,6,0,L|475:160,1,232.500008869171,6|8,0:0|0:0,0:0:0:0:
276,53,167001,1,6,0:0:0:0:
276,53,167085,1,6,0:0:0:0:
276,53,167170,6,0,B|158:28|208:107|84:69,1,174.375006651879,6|0,0:0|0:0,0:0:0:0:
91,75,167509,2,0,P|77:41|99:-14,1,58.1250022172929,8|0,0:0|0:0,0:0:0:0:
239,134,167679,2,0,P|238:162|226:188,1,58.1250022172929,4|0,0:0|0:0,0:0:0:0:
33,258,167848,6,0,P|1:330|72:366,1,174.375006651879,6|0,0:0|0:0,0:0:0:0:
88,359,168187,2,0,L|155:352,1,58.1250022172929,8|0,0:0|0:0,0:0:0:0:
479,258,168526,6,0,P|511:330|440:366,1,174.375006651879,6|0,0:0|0:0,0:0:0:0:
424,359,168865,2,0,L|281:335,1,116.250004434586,8|0,0:0|0:0,0:0:0:0:
282,331,169119,1,8,0:0:0:0:
255,312,169204,6,0,B|221:190|320:240|272:64,1,232.500008869171,6|8,0:0|0:0,0:0:0:0:
108,117,169713,1,6,0:0:0:0:
108,117,169797,1,6,0:0:0:0:
108,117,169882,6,0,P|184:101|193:178,1,174.375006651879,6|0,0:0|0:0,0:0:0:0:
166,193,170221,2,0,P|123:202|89:184,1,58.1250022172929,8|0,0:0|0:0,0:0:0:0:
278,88,170391,2,0,P|321:79|355:97,1,58.1250022172929,4|0,0:0|0:0,0:0:0:0:
494,186,170560,6,0,P|507:157|432:186,1,174.375006651879,6|0,0:0|0:0,0:0:0:0:
409,189,170899,2,0,P|409:217|450:282,1,58.1250022172929,8|0,0:0|0:0,0:0:0:0:
412,329,171069,2,0,P|517:311|406:262,1,290.625011086464,6|4,0:0|0:0,0:0:0:0:
401,247,171577,2,0,L|308:266,1,58.1250022172929,8|0,0:0|0:0,0:0:0:0:
261,362,171746,2,0,L|168:343,1,58.1250022172929,4|0,0:0|0:0,0:0:0:0:
70,266,171916,6,0,B|47:249|41:214|41:214|-37:248|-29:306|27:370|88:338,1,232.500008869171,6|8,0:0|0:0,0:0:0:0:
314,217,172424,1,2,0:0:0:0:
314,217,172509,1,2,0:0:0:0:
314,217,172594,6,0,L|127:203,1,174.375006651879,6|0,0:0|0:0,0:0:0:0:
121,210,172933,2,0,P|114:177|135:134,3,58.1250022172929,4|0|4|0,0:0|0:0|0:0|0:0,0:0:0:0:
188,128,173272,6,0,P|240:85|113:40,1,232.500008869171,6|10,0:0|0:0,0:0:0:0:
74,101,173950,6,0,B|26:128|26:128|81:142|81:142|126:111|126:111|159:142|223:119,1,232.500008869171,6|8,0:0|0:0,0:0:0:0:
260,62,174458,1,4,0:0:0:0:
260,62,174543,1,4,0:0:0:0:
260,62,174628,6,0,P|330:11|342:139,1,232.500008869171,6|8,0:0|0:0,0:0:0:0:
131,213,175136,1,6,0:0:0:0:
131,213,175221,1,6,0:0:0:0:
130,213,175306,6,0,B|181:226|214:209|214:209|258:228|258:228|339:224,1,174.375006651879,6|0,0:0|0:0,0:0:0:0:
315,228,175645,2,0,L|400:220,1,58.1250022172929,8|0,0:0|0:0,0:0:0:0:
466,376,175814,2,0,L|381:368,1,58.1250022172929,4|0,0:0|0:0,0:0:0:0:
340,331,175984,6,0,L|164:344,1,174.375006651879,6|0,0:0|0:0,0:0:0:0:
149,348,176323,2,0,P|136:315|165:277,1,58.1250022172929,8|0,0:0|0:0,0:0:0:0:
377,115,176492,2,0,P|440:160|304:204,1,290.625011086464,6|4,0:0|0:0,0:0:0:0:
303,213,177001,2,0,P|294:177|319:128,1,58.1250022172929,8|0,0:0|0:0,0:0:0:0:
192,38,177170,2,0,P|201:74|176:123,1,58.1250022172929,4|0,0:0|0:0,0:0:0:0:
122,212,177340,6,0,P|29:206|117:127,1,232.500008869171,6|8,0:0|0:0,0:0:0:0:
203,101,177848,1,6,0:0:0:0:
203,101,177933,1,6,0:0:0:0:
203,101,178018,2,0,L|383:115,1,174.375006651879,6|0,0:0|0:0,0:0:0:0:
393,119,178357,2,0,P|403:84|391:40,1,58.1250022172929,8|0,0:0|0:0,0:0:0:0:
303,213,178526,2,0,P|301:241|310:269,1,58.1250022172929,4|0,0:0|0:0,0:0:0:0:
406,334,178696,6,0,P|469:298|358:264,1,232.500008869171,6|10,0:0|0:0,0:0:0:0:
204,310,179374,2,0,L|77:328,1,116.250004434586,6|0,0:0|0:0,0:0:0:0:
78,331,179628,5,8,0:0:0:0:
210,142,179882,1,8,0:0:0:0:
114,34,180052,5,4,0:0:0:0:
114,34,180221,1,4,0:0:0:0:
210,142,180391,2,0,L|332:129,1,116.250004434586,8|4,0:0|0:0,0:0:0:0:
264,16,180730,5,4,0:0:0:0:
264,16,180899,1,4,0:0:0:0:
259,215,181069,2,0,L|275:339,1,116.250004434586,8|4,0:0|0:0,0:0:0:0:
41,199,181407,5,4,0:0:0:0:
41,199,181577,1,4,0:0:0:0:
210,142,181746,2,0,L|332:129,1,116.250004434586,8|4,0:0|0:0,0:0:0:0:
466,236,182085,5,4,0:0:0:0:
466,236,182255,1,4,0:0:0:0:
273,330,182424,2,0,L|151:317,1,116.250004434586,8|4,0:0|0:0,0:0:0:0:
36,198,182763,6,4,P|29:167|49:122,3,58.1250022172929,12|4|4|4,0:0|0:0|0:0|0:0,0:0:0:0:
99,29,183102,6,0,P|105:58|98:86,3,58.1250022172929,12|4|4|4,0:0|0:0|0:0|0:0,0:0:0:0:
183,225,183441,6,4,P|176:194|196:149,3,58.1250022172929,12|4|4|4,0:0|0:0|0:0|0:0,0:0:0:0:
246,56,183780,6,0,P|251:84|244:112,3,58.1250022172929,12|4|4|4,0:0|0:0|0:0|0:0,0:0:0:0:
175,82,184119,5,6,0:0:0:0:
256,192,184204,12,0,185306,0:0:0:0:
254,190,185475,5,4,0:0:0:0:
