osu file format v14

[General]
AudioFilename: audio.mp3
AudioLeadIn: 0
PreviewTime: -1
Countdown: 1
SampleSet: Normal
StackLeniency: 0.7
Mode: 0
LetterboxInBreaks: 0
WidescreenStoryboard: 1

[Editor]
Bookmarks: 95899
DistanceSpacing: 1.1
BeatDivisor: 4
GridSize: 32
TimelineZoom: 1.8

[Metadata]
Title:Neuronecia
TitleUnicode:Neuronecia
Artist:Function Phantom
ArtistUnicode:Function Phantom
Creator:Egotrip
Version:Hard
Source:
Tags:
BeatmapID:1744926
BeatmapSetID:742060

[Difficulty]
HPDrainRate:5
CircleSize:3.5
OverallDifficulty:6
ApproachRate:8
SliderMultiplier:1.35
SliderTickRate:1

[Events]
//Background and Video events
0,0,"BACKGROUND.jpg",0,0
//Break Periods
2,22963,26387
2,98896,107437
2,109743,129132
//Storyboard Layer 0 (Background)
//Storyboard Layer 1 (Fail)
//Storyboard Layer 2 (Pass)
//Storyboard Layer 3 (Foreground)
//Storyboard Sound Samples

[TimingPoints]
1069,338.983050847458,4,2,1,90,1,0
1069,-200,4,2,1,90,0,0
1111,-200,4,2,3,40,0,0
11916,-142.857142857143,4,2,3,50,0,0
14628,-200,4,2,3,40,0,0
17255,-200,4,2,3,5,0,0
17340,-142.857142857143,4,2,3,50,0,0
20052,-200,4,2,3,40,0,0
22763,-142.857142857143,4,2,1,90,0,0
33611,-83.3333333333333,4,1,1,80,0,0
35136,-166.666666666667,4,1,1,80,0,0
35475,-83.3333333333333,4,1,1,80,0,0
37001,-83.3333333333333,4,1,1,80,0,0
40560,-166.666666666667,4,1,1,80,0,0
40899,-83.3333333333333,4,1,1,80,0,0
42763,-83.3333333333333,4,1,1,80,0,0
43611,-142.857142857143,4,2,1,80,0,0
44119,-66.6666666666667,4,1,1,80,0,0
44458,-100,4,1,2,80,0,0
49543,-76.9230769230769,4,1,1,80,0,0
49882,-76.9230769230769,4,1,2,80,0,0
54119,-76.9230769230769,4,2,1,80,0,0
54458,-76.9230769230769,4,1,1,80,0,0
55306,-200,4,1,1,80,0,0
57509,-76.9230769230769,4,1,1,70,0,0
60730,-200,4,1,1,80,0,0
62933,-66.6666666666667,4,1,1,80,0,0
63441,-76.9230769230769,4,1,1,80,0,0
63780,-100,4,1,1,80,0,0
64119,-76.9230769230769,4,1,1,80,0,0
64458,-100,4,1,1,80,0,0
64797,-66.6666666666667,4,1,1,80,0,0
65475,-100,4,1,1,80,0,0
66153,-200,4,1,1,80,0,0
68187,-100,4,1,1,80,0,0
68357,-66.6666666666667,4,1,1,80,0,0
68865,-125,4,1,1,80,0,0
69035,-125,4,2,20,70,0,0
69374,-125,4,1,1,80,0,0
70221,-125,4,2,20,70,0,0
70730,-125,4,1,1,80,0,0
71577,-200,4,1,1,80,0,0
74289,-100,4,2,21,40,0,0
76323,-200,4,1,1,70,0,0
77001,-83.3333333333333,4,1,1,80,0,0
78526,-166.666666666667,4,1,1,80,0,0
78865,-83.3333333333333,4,1,1,80,0,0
80391,-83.3333333333333,4,1,1,80,0,0
81407,-83.3333333333333,4,1,1,80,0,0
83102,-83.3333333333333,4,1,1,80,0,0
84458,-83.3333333333333,4,1,1,80,0,0
85814,-83.3333333333333,4,1,1,80,0,0
86492,-71.4285714285714,4,1,1,80,0,0
87509,-66.6666666666667,4,1,1,80,0,0
87848,-83.3333333333333,4,1,1,80,0,0
88018,-83.3333333333333,4,1,2,80,0,0
89374,-166.666666666667,4,1,2,80,0,0
89628,-83.3333333333333,4,1,2,80,0,0
90730,-166.666666666667,4,1,2,80,0,0
90984,-83.3333333333333,4,1,2,80,0,0
92933,-83.3333333333333,4,1,1,80,0,0
93272,-83.3333333333333,4,1,2,80,0,0
93441,-166.666666666667,4,1,2,80,0,0
93696,-83.3333333333333,4,1,2,80,0,0
94797,-166.666666666667,4,1,2,80,0,0
95052,-83.3333333333333,4,1,2,80,0,0
96153,-166.666666666667,4,1,2,80,0,0
96407,-83.3333333333333,4,1,2,80,0,0
97255,-71.4285714285714,4,1,1,80,0,0
98696,-200,4,2,1,80,0,0
131238,-100,4,2,3,60,0,0
131577,-100,4,2,3,40,0,0
133950,-100,4,2,3,45,0,0
135645,-100,4,2,3,50,0,0
136662,-100,4,1,1,55,0,0
138018,-100,4,1,1,60,0,0
139374,-100,4,1,1,65,0,0
140730,-100,4,1,20,100,0,0
140899,-100,4,2,3,60,0,0
141662,-200,4,2,3,60,0,0
142085,-66.6666666666667,4,1,1,100,0,1
162424,-66.6666666666667,4,1,1,100,0,0
162933,-66.6666666666667,4,1,1,100,0,1
184035,-100,4,1,1,80,0,0
184119,-100,4,1,1,80,0,1
184204,-100,4,1,1,80,0,0

[Colours]
Combo1 : 137,157,203
Combo2 : 51,143,247
Combo3 : 173,207,233
Combo4 : 122,52,239
Combo5 : 168,128,234
Combo6 : 195,195,195
Combo7 : 66,206,236
Combo8 : 28,57,113

[HitObjects]
26,124,1069,6,0,P|56:115|94:127,1,67.5
178,174,1746,2,0,P|208:183|246:171,1,67.5
329,121,2424,2,0,B|336:105|336:105|325:17,1,101.25,2|2,0:0|0:0,0:0:0:0:
228,76,3441,1,0,0:0:0:0:
243,175,3780,6,0,B|236:191|236:191|245:255,1,67.5,2|0,0:0|0:0,0:0:0:0:
306,292,4289,1,0,0:0:0:0:
230,320,4458,2,0,L|148:311,1,67.5
76,263,4967,2,0,L|-6:272,1,67.5
4,351,5475,2,0,L|86:360,1,67.5
162,312,5984,2,0,B|156:233,1,67.5
196,173,6492,5,2,0:0:0:0:
143,111,6662,2,0,L|115:108,2,16.875
204,58,7001,1,0,0:0:0:0:
280,84,7170,2,0,B|296:90|296:90|352:74,1,67.5
485,107,7848,2,0,L|491:6,1,101.25,2|2,0:0|0:0,0:0:0:0:
395,62,8865,1,0,0:0:0:0:
305,171,9204,6,0,B|295:203|295:203|302:246,1,67.5,2|2,0:0|0:0,0:0:0:0:
237,288,9713,1,0,0:0:0:0:
295,343,9882,2,0,B|326:345|326:345|330:341|330:341|373:345,1,67.5
438,368,10391,1,0,0:0:0:0:
493,308,10560,2,0,B|504:282|504:282|490:198,1,101.25,2|2,0:0|0:0,0:0:0:0:
388,85,11407,6,0,P|422:73|458:79,1,67.5,2|2,0:0|0:0,0:0:0:0:
428,154,11916,2,0,B|388:165|388:165|320:145,1,94.4999971160889,2|2,0:0|0:0,0:0:0:0:
269,84,12594,2,0,B|229:73|229:73|161:93,1,94.4999971160889
89,142,13272,2,0,B|81:85|81:85|86:81|86:81|77:-2,1,141.749995674133,2|2,0:0|0:0,0:0:0:0:
1,139,14289,1,0,0:0:0:0:
173,192,14628,6,0,B|178:217|178:217|169:271,1,67.5,2|0,0:0|0:0,0:0:0:0:
121,318,15136,1,0,0:0:0:0:
184,362,15306,2,0,L|254:356,1,67.5
322,324,15814,2,0,L|392:330,1,67.5
463,305,16323,2,0,B|469:291|469:291|464:228,1,67.5
406,187,16831,2,0,B|400:173|400:173|405:110,1,67.5
355,22,17340,6,0,L|463:28,2,94.4999971160889
258,102,18357,1,0,0:0:0:0:
122,87,18696,6,0,P|111:43|142:-10,1,94.4999971160889,2|0,0:0|0:0,0:0:0:0:
196,48,19204,2,0,B|210:84|210:84|187:154,1,94.4999971160889
238,203,19713,1,0,0:0:0:0:
147,259,20052,6,0,L|65:253,1,67.5,2|0,0:0|0:0,0:0:0:0:
11,292,20560,1,0,0:0:0:0:
75,335,20730,2,0,L|157:341,1,67.5
213,307,21238,2,0,L|295:301,1,67.5
350,268,21746,2,0,L|432:274,1,67.5
488,240,22255,2,0,B|494:215|494:215|485:145,1,84.375
492,135,22763,5,6,0:0:0:0:
256,192,28187,12,0,30899,0:0:0:0:
23,297,33611,102,0,B|62:285|62:285|113:303,1,80.9999975280763,6|0,0:0|0:0,0:0:0:0:
166,345,33950,1,8,0:0:0:0:
235,303,34119,2,0,B|246:283|246:283|235:130,1,161.999995056153,6|0,0:0|0:0,0:0:0:0:
297,188,34628,2,0,P|314:219|289:266,1,80.9999975280763,10|0,0:0|0:0,0:0:0:0:
227,224,34967,54,0,L|147:215,2,80.9999975280763,6|4|8,0:0|0:0|0:0,0:0:0:0:
298,259,35475,2,0,L|461:277,1,161.999995056153,6|4,0:0|0:0,0:0:0:0:
474,281,35899,1,4,0:0:0:0:
490,282,35984,2,0,B|504:251|504:251|493:182,1,80.9999975280763,10|2,0:0|0:0,0:0:0:0:
482,124,36323,6,0,L|381:113,1,80.9999975280763,6|0,0:0|0:0,0:0:0:0:
331,73,36662,1,8,0:0:0:0:
255,101,36831,2,0,L|83:122,1,161.999995056153,6|4,0:0|0:0,0:0:0:0:
143,55,37340,2,0,P|171:93|172:141,1,80.9999975280763,8|4,0:0|0:0,0:0:0:0:
111,200,37679,6,0,P|61:195|14:100,1,161.999995056153,6|8,0:0|0:0,0:0:0:0:
94,120,38187,2,0,B|85:189|85:189|86:196|86:196|77:289,1,161.999995056153,6|10,0:0|0:0,0:0:0:0:
25,343,38696,2,0,P|3:318|-2:253,1,80.9999975280763,2|10,0:0|0:0,0:0:0:0:
77,280,39035,6,0,L|161:287,1,80.9999975280763,6|0,0:0|0:0,0:0:0:0:
223,334,39374,1,8,0:0:0:0:
288,286,39543,2,0,B|350:278|350:278|357:280|357:280|456:269,1,161.999995056153,6|0,0:0|0:0,0:0:0:0:
384,319,40052,2,0,P|365:271|378:224,1,80.9999975280763,10|0,0:0|0:0,0:0:0:0:
430,189,40391,6,0,L|517:192,2,80.9999975280763,6|4|8,0:0|0:0|0:0,0:0:0:0:
352,163,40899,2,0,B|340:141|340:141|369:5,1,161.999995056153,6|4,0:0|0:0,0:0:0:0:
376,21,41323,1,4,0:0:0:0:
366,33,41407,2,0,L|246:25,1,80.9999975280763,10|6,0:0|0:0,0:0:0:0:
197,9,41746,6,0,B|185:37|185:37|198:104,1,80.9999975280763,6|0,0:0|0:0,0:0:0:0:
262,131,42085,1,8,0:0:0:0:
199,182,42255,2,0,L|34:162,1,161.999995056153,6|4,0:0|0:0,0:0:0:0:
38,80,42763,6,0,L|126:93,1,80.9999975280763,8|4,0:0|0:0,0:0:0:0:
194,86,43102,1,4,0:0:0:0:
262,131,43272,2,0,B|283:172|283:172|258:273,1,121.499996292114,8|0,0:0|0:0,0:0:0:0:
259,265,43611,2,0,L|327:260,1,47.2499985580445,10|0,0:0|0:0,0:0:0:0:
375,302,43950,1,8,0:0:0:0:
433,246,44119,6,0,B|412:205|412:205|442:85,1,151.875005793572,10|0,0:0|0:0,0:0:0:0:
454,81,44458,6,0,B|469:18|469:18|449:-22,1,101.25,6|2,0:0|0:0,0:0:0:0:
368,41,44967,2,0,L|257:29,1,101.25,6|2,0:0|0:0,0:0:0:0:
207,111,45475,2,0,L|96:123,1,101.25,10|0,0:0|0:0,0:0:0:0:
16,95,45984,2,0,L|28:-10,1,101.25,6|2,0:0|0:0,0:0:0:0:
106,121,46492,6,0,L|112:188,1,67.5,6|0,0:0|0:0,0:0:0:0:
115,208,46746,1,4,0:0:0:0:
119,227,46831,2,0,L|125:294,1,67.5,8|4,0:0|0:0,0:0:0:0:
95,377,47170,6,0,P|130:382|174:367,1,67.5,6|0,0:0|0:0,0:0:0:0:
239,353,47509,1,10,0:0:0:0:
296,300,47679,2,0,B|354:305|354:305|361:303|361:303|440:312,1,135,6|0,0:0|0:0,0:0:0:0:
446,312,48102,1,4,0:0:0:0:
462,313,48187,2,0,B|468:293|468:293|463:229,1,67.5,8|6,0:0|0:0,0:0:0:0:
397,191,48526,6,0,L|413:57,1,135,6|10,0:0|0:0,0:0:0:0:
475,10,49035,2,0,P|490:67|446:126,1,135,2|6,0:0|0:0,0:0:0:0:
370,119,49543,2,0,B|346:110|346:110|268:124,1,87.749995983124,6|2,0:0|0:0,0:0:0:0:
222,170,49882,6,0,B|198:179|198:179|79:161,1,131.624993974686,6|2,0:0|0:0,0:0:0:0:
40,298,50391,2,0,B|64:307|64:307|183:289,1,131.624993974686,6|6,0:0|0:0,0:0:0:0:
303,238,50899,2,0,B|324:272|324:272|303:378,1,131.624993974686,10|6,0:0|0:0,0:0:0:0:
451,248,51407,2,0,B|430:214|430:214|447:124,1,131.624993974686,6|6,0:0|0:0,0:0:0:0:
350,39,51916,2,0,B|332:30|332:30|239:41,1,87.749995983124,6|0,0:0|0:0,0:0:0:0:
243,43,52170,1,4,0:0:0:0:
221,47,52255,2,0,L|121:39,1,87.749995983124,8|4,0:0|0:0,0:0:0:0:
52,21,52594,6,0,B|40:46|40:46|50:109,1,87.749995983124,4|2,0:0|0:0,0:0:0:0:
66,184,52933,1,10,0:0:0:0:
146,226,53102,2,0,P|53:210|-1:275,1,175.499991966248,4|6,0:0|0:0,0:0:0:0:
20,344,53611,2,0,B|47:360|47:360|128:344,1,87.749995983124,8|6,0:0|0:0,0:0:0:0:
171,310,53950,1,6,0:0:0:0:
232,258,54119,6,0,L|408:277,1,175.499991966248,8|4,0:0|0:0,0:0:0:0:
337,235,54797,1,0,0:0:0:0:
406,276,54967,2,0,B|424:241|424:241|416:125,1,131.624993974686,8|0,0:0|0:0,0:0:0:0:
415,132,55306,6,0,L|493:140,1,67.5,4|0,0:0|0:0,0:0:0:0:
332,134,55984,2,0,L|254:142,1,67.5,10|0,0:0|0:0,0:0:0:0:
188,137,56492,2,0,P|153:88|233:81,1,168.75,6|8,0:0|0:0,0:0:0:0:
264,142,57509,5,2,0:0:0:0:
210,220,57679,2,0,L|112:212,1,87.749995983124,2|2,0:0|0:0,0:0:0:0:
47,243,58018,6,0,B|31:284|31:284|45:332,1,87.749995983124,4|0,0:0|0:0,0:0:0:0:
119,353,58357,2,0,L|206:345,1,87.749995983124,0|4,0:0|0:0,0:0:0:0:
222,345,58611,1,4,0:0:0:0:
238,345,58696,2,0,L|325:352,1,87.749995983124,8|0,0:0|0:0,0:0:0:0:
391,308,59035,1,4,0:0:0:0:
449,360,59204,2,0,B|426:313|426:313|442:183,1,175.499991966248,4|4,0:0|0:0,0:0:0:0:
499,133,59713,2,0,B|505:108|505:108|489:32,1,87.749995983124,4|0,0:0|0:0,0:0:0:0:
416,2,60052,6,0,L|345:9,2,58.4999973220826,8|4|4,0:0|0:0|0:0,0:0:0:0:
347,19,60391,2,0,L|276:26,2,58.4999973220826,8|4|4,0:0|0:0|0:0,0:0:0:0:
275,37,60730,6,0,L|198:43,1,67.5,4|0,0:0|0:0,0:0:0:0:
13,145,61407,2,0,L|81:151,1,67.5,10|0,0:0|0:0,0:0:0:0:
141,95,61916,2,0,B|164:126|164:126|150:262,1,168.75,6|8,0:0|0:0,0:0:0:0:
86,305,62933,1,2,0:0:0:0:
159,338,63102,2,0,L|273:319,1,101.250003862381,2|2,0:0|0:0,0:0:0:0:
333,367,63441,6,0,B|310:336|310:336|323:217,1,131.624993974686,4|0,0:0|0:0,0:0:0:0:
319,216,63780,2,0,L|244:221,2,45,4|0|0,0:0|0:0|0:0,0:0:0:0:
384,166,64119,6,0,B|407:135|407:135|394:16,1,131.624993974686,8|0,0:0|0:0,0:0:0:0:
398,15,64458,2,0,L|473:20,2,45,4|4|4,0:0|0:0|0:0,0:0:0:0:
320,41,64797,6,0,L|196:32,1,101.250003862381,4|4,0:0|0:0,0:0:0:0:
138,23,65136,2,0,B|119:50|119:50|128:160,1,101.250003862381,4|4,0:0|0:0,0:0:0:0:
106,197,65475,2,0,L|11:183,1,67.5,8|4,0:0|0:0,0:0:0:0:
37,288,65814,2,0,L|132:274,1,67.5,8|0,0:0|0:0,0:0:0:0:
205,242,66153,6,0,B|216:258|216:258|205:321,1,67.5,4|0,0:0|0:0,0:0:0:0:
323,234,66831,2,0,B|312:218|312:218|320:170,1,67.5,10|0,0:0|0:0,0:0:0:0:
319,90,67340,2,0,B|373:96|373:96|377:98|377:98|456:106,1,135,6|4,0:0|0:0,0:0:0:0:
393,49,68187,1,8,0:0:0:0:
319,90,68357,2,0,L|215:102,1,101.250003862381,2|0,0:0|0:0,0:0:0:0:
149,58,68696,1,2,0:0:0:0:
65,120,68865,6,0,L|72:183,1,54,4|0,0:0|0:0,0:0:0:0:
136,226,69204,2,0,L|129:289,1,54
76,348,69543,2,0,L|1:337,2,54,8|0|4,0:0|0:0|0:0,0:0:0:0:
162,360,70052,2,0,L|286:371,1,108,4|0,0:0|0:0,0:0:0:0:
333,319,70560,6,0,B|339:303|339:303|326:256,1,54
305,189,70899,6,8,L|241:183,2,36,8|4|4,0:0|0:0|0:0,0:0:0:0:
323,182,71238,2,0,L|359:186,2,36,8|4|4,0:0|0:0|0:0,0:0:0:0:
306,161,71577,1,6,0:0:0:0:
256,192,74289,12,0,76323,0:0:0:0:
461,180,77001,6,0,B|476:155|476:155|465:97,1,80.9999975280763,6|0,0:0|0:0,0:0:0:0:
492,28,77340,1,8,0:0:0:0:
415,44,77509,2,0,B|370:59|370:59|255:38,1,161.999995056153,6|0,0:0|0:0,0:0:0:0:
180,10,78018,2,0,L|90:20,1,80.9999975280763,10|0,0:0|0:0,0:0:0:0:
38,72,78357,6,0,P|19:38|23:-4,2,80.9999975280763,6|4|8,0:0|0:0|0:0,0:0:0:0:
115,99,78865,2,0,B|127:126|127:126|108:257,1,161.999995056153,6|0,0:0|0:0,0:0:0:0:
98,243,79289,1,4,0:0:0:0:
104,228,79374,2,0,L|216:240,1,80.9999975280763,10|2,0:0|0:0,0:0:0:0:
257,287,79713,6,0,L|337:278,1,80.9999975280763,6|0,0:0|0:0,0:0:0:0:
410,313,80052,1,8,0:0:0:0:
474,264,80221,2,0,B|465:178|465:178|469:177|469:177|460:79,1,161.999995056153,6|4,0:0|0:0,0:0:0:0:
433,29,80730,2,0,B|453:24|453:24|518:37,1,80.9999975280763,10|0,0:0|0:0,0:0:0:0:
462,105,81069,6,0,B|442:110|442:110|301:86,1,161.999995056153,6|8,0:0|0:0,0:0:0:0:
227,117,81577,2,0,P|176:102|245:66,1,161.999995056153,6|8,0:0|0:0,0:0:0:0:
304,86,82085,6,0,B|311:109|311:109|302:188,1,80.9999975280763,6|10,0:0|0:0,0:0:0:0:
359,225,82424,2,0,L|451:242,1,80.9999975280763,6|0,0:0|0:0,0:0:0:0:
511,275,82763,1,8,0:0:0:0:
443,320,82933,2,0,L|259:284,1,161.999995056153,6|0,0:0|0:0,0:0:0:0:
217,242,83441,2,0,L|117:260,1,80.9999975280763,10|0,0:0|0:0,0:0:0:0:
62,224,83780,6,0,B|50:255|50:255|65:309,2,80.9999975280763,6|4|8,0:0|0:0|0:0,0:0:0:0:
126,174,84289,2,0,B|133:140|133:140|113:14,1,161.999995056153,6|4,0:0|0:0,0:0:0:0:
104,28,84713,1,4,0:0:0:0:
112,41,84797,2,0,L|205:31,1,80.9999975280763,10|6,0:0|0:0,0:0:0:0:
270,10,85136,6,0,L|363:20,1,80.9999975280763,6|0,0:0|0:0,0:0:0:0:
425,11,85475,1,8,0:0:0:0:
494,33,85645,2,0,B|507:58|507:58|478:191,1,161.999995056153,6|0,0:0|0:0,0:0:0:0:
410,233,86153,2,0,P|442:262|496:264,1,80.9999975280763,10|4,0:0|0:0,0:0:0:0:
478,188,86492,6,0,L|293:212,1,141.749995674133,4|4,0:0|0:0,0:0:0:0:
183,182,87001,2,0,P|162:116|245:136,1,188.999994232178,4|4,0:0|0:0,0:0:0:0:
257,217,87509,2,0,L|75:238,1,151.875005793572,8|0,0:0|0:0,0:0:0:0:
85,239,87848,6,0,B|70:271|70:271|88:370,1,121.499996292114,4|0,0:0|0:0,0:0:0:0:
67,359,88187,1,10,0:0:0:0:
139,307,88357,2,0,L|306:286,1,161.999995056153,4|2,0:0|0:0,0:0:0:0:
379,283,88865,2,0,B|368:377,1,80.9999975280763,2|2,0:0|0:0,0:0:0:0:
299,286,89204,6,0,P|262:261|333:221,1,161.999995056153,4|8,0:0|0:0,0:0:0:0:
405,204,89713,2,0,B|418:175|418:175|396:39,1,161.999995056153,4|6,0:0|0:0,0:0:0:0:
510,122,90221,2,0,L|422:116,1,80.9999975280763,2|2,0:0|0:0,0:0:0:0:
351,111,90560,6,0,L|186:131,1,161.999995056153,4|8,0:0|0:0,0:0:0:0:
122,99,91069,2,0,P|106:48|184:73,1,161.999995056153,4|6,0:0|0:0,0:0:0:0:
190,130,91577,2,0,B|201:158|201:158|186:218,1,80.9999975280763,2|2,0:0|0:0,0:0:0:0:
127,259,91916,6,0,L|287:239,1,161.999995056153,4|8,0:0|0:0,0:0:0:0:
353,194,92424,2,0,B|372:226|372:226|351:356,1,161.999995056153,4|4,0:0|0:0,0:0:0:0:
426,380,92933,2,0,P|467:363|494:325,1,80.9999975280763,2|8,0:0|0:0,0:0:0:0:
413,298,93272,6,0,P|370:268|272:337,1,161.999995056153,4|8,0:0|0:0,0:0:0:0:
205,343,93780,2,0,P|162:373|64:304,1,161.999995056153,4|6,0:0|0:0,0:0:0:0:
65,315,94204,1,4,0:0:0:0:
68,299,94289,2,0,B|76:275|76:275|68:194,1,80.9999975280763,2|2,0:0|0:0,0:0:0:0:
23,153,94628,6,0,P|-5:90|65:40,1,161.999995056153,4|8,0:0|0:0,0:0:0:0:
119,90,95136,2,0,B|155:99|155:99|277:68,1,161.999995056153,4|2,0:0|0:0,0:0:0:0:
292,65,95560,1,4,0:0:0:0:
307,59,95645,2,0,L|406:66,1,80.9999975280763,2|2,0:0|0:0,0:0:0:0:
464,88,95984,6,0,P|506:68|446:11,1,161.999995056153,4|0,0:0|0:0,0:0:0:0:
387,64,96492,2,0,L|400:240,1,161.999995056153,4|6,0:0|0:0,0:0:0:0:
401,303,97001,2,0,B|422:308|422:308|485:283,1,80.9999975280763,10|6,0:0|0:0,0:0:0:0:
398,225,97340,6,0,P|353:237|325:332,1,141.749995674133
203,375,97848,2,0,B|214:350|214:350|185:238,1,141.749995674133
230,124,98357,2,0,L|291:129,3,47.2499985580445
304,129,98696,5,0,0:0:0:0:
63,163,108187,6,0,L|137:175,1,67.5
207,153,108696,2,0,P|217:126|212:81,2,67.5
184,229,109543,5,0,0:0:0:0:
256,192,129882,12,0,130899,0:0:0:0:
162,340,131238,6,0,L|79:349,1,67.5
35,292,131577,2,0,L|46:213,1,67.5
101,167,131916,2,0,L|90:88,1,67.5
141,35,132255,2,0,L|208:42,1,67.5
274,89,132594,2,0,L|341:81,1,67.5
399,25,132933,2,0,L|466:32,1,67.5
505,103,133272,2,0,L|495:169,1,67.5
443,232,133611,2,0,L|452:298,1,67.5
402,363,133950,6,0,B|379:368|379:368|313:358,1,67.5
277,304,134289,2,0,B|254:299|254:299|188:309,1,67.5
132,284,134628,2,0,L|137:210,1,67.5
191,156,134967,2,0,L|186:82,1,67.5
229,20,135306,2,0,B|252:15|252:15|318:25,1,67.5
354,79,135645,2,0,B|377:84|377:84|443:74,1,67.5
491,38,135984,2,0,P|500:79|492:112,1,67.5
434,157,136323,2,0,P|425:198|433:231,1,67.5
485,281,136662,5,0,0:0:0:0:
485,281,136831,1,0,0:0:0:0:
425,336,137001,2,0,L|345:329,1,67.5
285,366,137340,5,0,0:0:0:0:
285,366,137509,1,0,0:0:0:0:
213,328,137679,2,0,L|145:333,1,67.5
72,368,138018,5,0,0:0:0:0:
72,368,138187,1,0,0:0:0:0:
9,315,138357,2,0,P|2:280|17:239,1,67.5
74,200,138696,1,0,0:0:0:0:
74,200,138865,1,0,0:0:0:0:
126,137,139035,2,0,P|133:102|118:61,1,67.5
256,192,139374,12,4,140730,0:0:0:0:
26,74,142085,6,0,P|76:42|180:82,1,151.875005793572,4|0,0:0|0:0,0:0:0:0:
180,53,142424,1,8,0:0:0:0:
248,96,142594,6,0,B|259:118|259:118|232:302,1,202.500007724762,4|0,0:0|0:0,0:0:0:0:
275,363,143102,2,0,L|390:349,1,101.250003862381,8|4,0:0|0:0,0:0:0:0:
454,371,143441,6,0,P|414:298|485:201,1,202.500007724762,2|8,0:0|0:0,0:0:0:0:
510,296,143950,1,0,0:0:0:0:
432,261,144119,6,0,L|220:296,1,202.500007724762,2|8,0:0|0:0,0:0:0:0:
176,352,144628,1,4,0:0:0:0:
143,278,144797,6,0,P|57:276|124:333,1,202.500007724762,2|8,0:0|0:0,0:0:0:0:
176,352,145306,2,0,L|164:143,1,202.500007724762,4|0,0:0|0:0,0:0:0:0:
157,68,145814,2,0,B|189:55|189:55|256:69,1,101.250003862381,8|0,0:0|0:0,0:0:0:0:
326,104,146153,2,0,P|328:31|268:-9,2,151.875005793572,2|2|6,0:0|0:0|0:0,0:0:0:0:
394,152,146831,2,0,P|330:188|264:155,2,151.875005793572,2|2|6,0:0|0:0|0:0,0:0:0:0:
475,155,147509,6,0,P|521:99|424:88,1,202.500007724762,4|8,0:0|0:0,0:0:0:0:
394,152,148018,2,0,B|381:186|381:186|406:358,1,202.500007724762,4|0,0:0|0:0,0:0:0:0:
466,297,148526,2,0,P|451:280|364:284,1,101.250003862381,8|0,0:0|0:0,0:0:0:0:
320,336,148865,6,0,B|256:320|224:352|224:352|192:384|121:362,1,202.500007724762,2|8,0:0|0:0,0:0:0:0:
48,375,149374,1,4,0:0:0:0:
84,302,149543,6,0,B|97:278|97:278|78:100,1,202.500007724762,2|8,0:0|0:0,0:0:0:0:
133,43,150052,1,4,0:0:0:0:
186,99,150221,6,0,B|199:123|199:123|180:301,1,202.500007724762,2|8,0:0|0:0,0:0:0:0:
261,291,150730,2,0,P|308:240|215:245,1,202.500007724762,4|0,0:0|0:0,0:0:0:0:
181,298,151238,6,0,B|190:366|190:366|190:348|210:312,1,101.250003862381,8|0,0:0|0:0,0:0:0:0:
267,373,151577,6,0,B|307:383|307:383|429:341,2,151.875005793572,2|2|2,0:0|0:0|0:0,0:0:0:0:
181,298,152255,2,0,B|141:288|141:288|19:330,2,151.875005793572,2|2|6,0:0|0:0|0:0,0:0:0:0:
261,291,152933,6,0,B|258:189|258:189|263:187|263:187|261:54,1,202.500007724762,4|8,0:0|0:0,0:0:0:0:
299,20,153441,2,0,P|385:21|302:66,1,202.500007724762,4|0,0:0|0:0,0:0:0:0:
261,91,153950,2,0,L|128:75,1,101.250003862381,8|0,0:0|0:0,0:0:0:0:
83,54,154289,6,0,B|54:82|54:82|78:248,1,202.500007724762,2|8,0:0|0:0,0:0:0:0:
22,182,154797,1,4,0:0:0:0:
101,165,154967,2,0,P|142:195|77:326,1,202.500007724762,2|8,0:0|0:0,0:0:0:0:
77,242,155475,1,4,0:0:0:0:
157,251,155645,6,0,B|221:235|253:267|253:267|285:299|356:277,1,202.500007724762,2|8,0:0|0:0,0:0:0:0:
375,357,156153,2,0,B|378:274|378:274|382:271|382:271|389:124,1,202.500007724762,4|0,0:0|0:0,0:0:0:0:
392,75,156662,6,0,L|507:102,1,101.250003862381,8|0,0:0|0:0,0:0:0:0:
387,156,157001,2,0,L|222:125,2,151.875005793572,2|2|2,0:0|0:0|0:0,0:0:0:0:
310,203,157679,2,0,L|459:174,2,151.875005793572,0|2|6,0:0|0:0|0:0,0:0:0:0:
230,220,158357,6,0,P|198:288|291:265,1,202.500007724762,4|8,0:0|0:0,0:0:0:0:
312,204,158865,2,0,B|318:175|318:175|285:6,1,202.500007724762,4|0,0:0|0:0,0:0:0:0:
359,39,159374,2,0,P|372:100|341:127,1,101.250003862381,8|0,0:0|0:0,0:0:0:0:
276,86,159713,6,0,B|178:97|178:97|171:99|171:99|68:111,1,202.500007724762,2|8,0:0|0:0,0:0:0:0:
131,51,160221,1,4,0:0:0:0:
177,117,160391,6,0,B|183:146|183:146|150:315,1,202.500007724762,2|8,0:0|0:0,0:0:0:0:
100,250,160899,1,4,0:0:0:0:
180,241,161069,6,0,B|244:225|276:257|276:257|308:289|379:267,1,202.500007724762,2|8,0:0|0:0,0:0:0:0:
430,215,161577,2,0,P|511:234|449:289,1,202.500007724762,4|4,0:0|0:0,0:0:0:0:
370,269,162085,2,0,L|379:148,1,101.250003862381,8|0,0:0|0:0,0:0:0:0:
414,95,162424,6,0,B|505:135|505:135|465:82,2,151.875005793572,4|8|8,0:0|0:0|0:0,0:0:0:0:
377,168,163102,2,0,B|286:208|286:208|326:155,2,151.875005793572,4|8|4,0:0|0:0|0:0,0:0:0:0:
333,91,163780,6,0,B|230:98|230:98|226:103|226:103|99:110,1,202.500007724762,6|8,0:0|0:0,0:0:0:0:
53,90,164289,1,0,0:0:0:0:
53,90,164374,1,0,0:0:0:0:
53,90,164458,2,0,P|18:32|113:30,1,202.500007724762,2|8,0:0|0:0,0:0:0:0:
133,108,164967,1,4,0:0:0:0:
208,136,165136,6,0,B|221:175|221:175|194:340,1,202.500007724762,6|10,0:0|0:0,0:0:0:0:
276,329,165645,2,0,L|486:307,1,202.500007724762,6|6,0:0|0:0,0:0:0:0:
480,348,166153,2,0,B|444:356|444:356|381:348,1,101.250003862381,8|0,0:0|0:0,0:0:0:0:
336,279,166492,6,0,B|323:240|323:240|370:140|370:140|345:64,1,202.500007724762,6|0,0:0|0:0,0:0:0:0:
391,18,167001,1,2,0:0:0:0:
391,18,167085,1,2,0:0:0:0:
391,18,167170,2,0,P|474:16|430:87,1,202.500007724762,2|8,0:0|0:0,0:0:0:0:
354,91,167679,1,4,0:0:0:0:
291,40,167848,6,0,B|269:31|269:31|117:64,1,151.875005793572,2|0,0:0|0:0,0:0:0:0:
114,66,168187,1,14,0:0:0:0:
17,140,168526,6,0,B|39:131|39:131|191:164,1,151.875005793572,6|0,0:0|0:0,0:0:0:0:
194,166,168865,2,0,L|293:149,1,101.250003862381,10|4,0:0|0:0,0:0:0:0:
371,172,169204,2,0,P|424:227|347:324,1,202.500007724762,6|8,0:0|0:0,0:0:0:0:
292,298,169713,1,2,0:0:0:0:
292,298,169797,1,2,0:0:0:0:
292,298,169882,6,0,B|228:291|228:291|83:325,1,202.500007724762,2|8,0:0|0:0,0:0:0:0:
21,283,170391,1,4,0:0:0:0:
30,198,170560,6,0,P|113:168|60:245,1,202.500007724762,6|8,0:0|0:0,0:0:0:0:
21,283,171069,2,0,L|13:61,1,202.500007724762,2|0,0:0|0:0,0:0:0:0:
68,20,171577,2,0,L|192:38,1,101.250003862381,8|0,0:0|0:0,0:0:0:0:
222,95,171916,6,0,B|242:104|242:104|432:72,1,202.500007724762,2|8,0:0|0:0,0:0:0:0:
485,20,172424,1,2,0:0:0:0:
485,20,172509,1,2,0:0:0:0:
485,20,172594,2,0,B|508:63|508:63|465:217,1,202.500007724762,2|8,0:0|0:0,0:0:0:0:
496,286,173102,1,4,0:0:0:0:
466,211,173272,6,0,L|249:254,1,202.500007724762,4|8,0:0|0:0,0:0:0:0:
118,218,173950,2,0,P|53:258|141:289,1,202.500007724762,4|8,0:0|0:0,0:0:0:0:
194,246,174458,1,4,0:0:0:0:
176,166,174628,6,0,L|170:374,1,202.500007724762,2|8,0:0|0:0,0:0:0:0:
129,298,175136,1,2,0:0:0:0:
129,298,175221,1,2,0:0:0:0:
129,298,175306,2,0,P|50:270|115:217,1,202.500007724762,2|8,0:0|0:0,0:0:0:0:
196,246,175814,1,4,0:0:0:0:
264,201,175984,2,0,B|277:169|277:169|246:-3,1,202.500007724762,6|8,0:0|0:0,0:0:0:0:
315,48,176492,2,0,P|379:64|304:109,1,202.500007724762,6|2,0:0|0:0,0:0:0:0:
225,103,177001,2,0,L|123:95,1,101.250003862381,8|4,0:0|0:0,0:0:0:0:
46,106,177340,6,0,P|0:29|80:41,1,202.500007724762,2|8,0:0|0:0,0:0:0:0:
132,101,177848,1,2,0:0:0:0:
132,101,177933,1,2,0:0:0:0:
132,101,178018,2,0,B|121:175|121:175|124:179|124:179|110:303,1,202.500007724762,2|8,0:0|0:0,0:0:0:0:
75,227,178526,1,4,0:0:0:0:
156,232,178696,6,0,L|313:256,1,151.875005793572,2|0,0:0|0:0,0:0:0:0:
346,262,179035,1,8,0:0:0:0:
502,219,179374,2,0,B|513:205|513:205|495:83,1,101.250003862381,4|0,0:0|0:0,0:0:0:0:
503,81,179628,6,0,L|370:62,1,101.250003862381,8|0,0:0|0:0,0:0:0:0:
362,59,179882,1,8,0:0:0:0:
303,115,180052,6,0,L|295:12,1,101.250003862381,4|0,0:0|0:0,0:0:0:0:
216,14,180391,2,0,L|209:115,1,101.250003862381,8|0,0:0|0:0,0:0:0:0:
127,115,180730,2,0,L|119:12,1,101.250003862381,4|0,0:0|0:0,0:0:0:0:
37,16,181069,2,0,L|29:116,1,101.250003862381,8|0,0:0|0:0,0:0:0:0:
25,197,181407,6,0,L|146:191,1,101.250003862381,4|0,0:0|0:0,0:0:0:0:
207,190,181746,2,0,L|308:195,1,101.250003862381,8|0,0:0|0:0,0:0:0:0:
301,275,182085,2,0,L|180:269,1,101.250003862381,4|0,0:0|0:0,0:0:0:0:
119,268,182424,2,0,L|17:273,1,101.250003862381,8|0,0:0|0:0,0:0:0:0:
36,352,182763,6,0,L|91:348,3,50.6250019311906,8|0|4|0,0:0|0:0|0:0|0:0,0:0:0:0:
127,347,183102,2,0,L|177:350,3,50.6250019311906,8|0|4|0,0:0|0:0|0:0|0:0,0:0:0:0:
217,355,183441,2,0,L|267:351,3,50.6250019311906,8|0|4|0,0:0|0:0|0:0|0:0,0:0:0:0:
308,353,183780,2,0,L|358:356,3,50.6250019311906,4|0|4|0,0:0|0:0|0:0|0:0,0:0:0:0:
256,192,184119,12,0,184967,0:0:0:0:
257,188,185475,5,6,0:0:0:0:
