osu file format v14

[General]
AudioFilename: audio.mp3
AudioLeadIn: 0
PreviewTime: -1
Countdown: 1
SampleSet: Normal
StackLeniency: 0.7
Mode: 0
LetterboxInBreaks: 0
WidescreenStoryboard: 0

[Editor]
DistanceSpacing: 0.6
BeatDivisor: 4
GridSize: 4
TimelineZoom: 1.8

[Metadata]
Title:Neuronecia
TitleUnicode:Neuronecia
Artist:Function Phantom
ArtistUnicode:Function Phantom
Creator:Egotrip
Version:Extra
Source:
Tags:
BeatmapID:1565310
BeatmapSetID:742060

[Difficulty]
HPDrainRate:6
CircleSize:4.5
OverallDifficulty:8
ApproachRate:9.3
SliderMultiplier:1.8
SliderTickRate:1

[Events]
//Background and Video events
0,0,"BACKGROUND.jpg",0,0
//Break Periods
2,22963,27633
2,98896,107633
2,109743,114413
//Storyboard Layer 0 (Background)
//Storyboard Layer 1 (Fail)
//Storyboard Layer 2 (Pass)
//Storyboard Layer 3 (Foreground)
//Storyboard Sound Samples

[TimingPoints]
1069,338.983050847458,4,2,1,90,1,0
1069,-200,4,2,1,90,0,0
1111,-200,4,2,3,40,0,0
11916,-142.857142857143,4,2,3,50,0,0
14628,-200,4,2,3,40,0,0
17255,-200,4,2,3,5,0,0
17340,-142.857142857143,4,2,3,50,0,0
20052,-200,4,2,3,40,0,0
21407,-142.857142857143,4,2,3,40,0,0
22763,-142.857142857143,4,2,1,90,0,0
33611,-83.3333333333333,4,1,1,80,0,0
35136,-166.666666666667,4,1,1,80,0,0
35475,-83.3333333333333,4,1,1,80,0,0
36492,-166.666666666667,4,1,1,80,0,0
37001,-83.3333333333333,4,1,1,80,0,0
39204,-166.666666666667,4,1,1,80,0,0
39713,-83.3333333333333,4,1,1,80,0,0
40560,-166.666666666667,4,1,1,80,0,0
40899,-83.3333333333333,4,1,1,80,0,0
41916,-166.666666666667,4,1,1,80,0,0
42763,-83.3333333333333,4,1,1,80,0,0
43611,-100,4,1,1,80,0,0
44119,-66.6666666666667,4,1,1,80,0,0
44458,-76.9230769230769,4,1,1,80,0,0
44628,-76.9230769230769,4,1,2,80,0,0
49543,-76.9230769230769,4,1,1,80,0,0
49882,-76.9230769230769,4,1,2,80,0,0
54119,-76.9230769230769,4,2,1,80,0,0
54458,-76.9230769230769,4,1,1,80,0,0
55306,-200,4,1,1,80,0,0
57509,-66.6666666666667,4,1,1,70,0,0
58018,-125,4,1,1,80,0,0
58187,-125,4,2,20,70,0,0
58526,-125,4,1,1,80,0,0
59374,-125,4,2,20,70,0,0
59882,-125,4,1,1,80,0,0
60730,-200,4,1,1,80,0,0
62933,-66.6666666666667,4,1,1,80,0,0
63441,-76.9230769230769,4,1,1,80,0,0
63780,-100,4,1,1,80,0,0
64119,-76.9230769230769,4,1,1,80,0,0
64458,-100,4,1,1,80,0,0
64797,-66.6666666666667,4,1,1,80,0,0
65475,-100,4,1,1,80,0,0
66153,-200,4,1,1,80,0,0
68187,-100,4,1,1,80,0,0
68357,-66.6666666666667,4,1,1,80,0,0
68865,-125,4,1,1,80,0,0
69035,-125,4,2,20,70,0,0
69374,-125,4,1,1,80,0,0
70221,-125,4,2,20,70,0,0
70730,-125,4,1,1,80,0,0
71577,-200,4,1,1,80,0,0
72255,-200,4,1,1,70,0,0
74289,-100,4,2,21,40,0,0
76323,-200,4,1,1,70,0,0
77001,-83.3333333333333,4,1,1,80,0,0
78526,-166.666666666667,4,1,1,80,0,0
78865,-83.3333333333333,4,1,1,80,0,0
79882,-166.666666666667,4,1,1,80,0,0
80391,-100,4,1,1,80,0,0
81069,-83.3333333333333,4,2,1,80,0,0
81407,-83.3333333333333,4,1,1,80,0,0
82594,-166.666666666667,4,1,1,80,0,0
83102,-83.3333333333333,4,1,1,80,0,0
83950,-166.666666666667,4,1,1,80,0,0
84458,-83.3333333333333,4,1,1,80,0,0
85306,-166.666666666667,4,1,1,80,0,0
85814,-83.3333333333333,4,1,1,80,0,0
86492,-71.4285714285714,4,1,1,80,0,0
87509,-66.6666666666667,4,1,1,80,0,0
87848,-83.3333333333333,4,1,1,80,0,0
88018,-83.3333333333333,4,1,2,80,0,0
89374,-166.666666666667,4,1,2,80,0,0
89628,-83.3333333333333,4,1,2,80,0,0
90730,-166.666666666667,4,1,2,80,0,0
90984,-83.3333333333333,4,1,2,80,0,0
92933,-83.3333333333333,4,1,1,80,0,0
93272,-83.3333333333333,4,1,2,80,0,0
93441,-166.666666666667,4,1,2,80,0,0
93696,-83.3333333333333,4,1,2,80,0,0
94797,-166.666666666667,4,1,2,80,0,0
95052,-83.3333333333333,4,1,2,80,0,0
96153,-166.666666666667,4,1,2,80,0,0
96407,-83.3333333333333,4,1,2,80,0,0
97255,-71.4285714285714,4,1,1,80,0,0
98696,-200,4,2,1,80,0,0
120391,-200,4,2,1,60,0,0
131238,-100,4,2,3,60,0,0
131577,-100,4,2,3,40,0,0
133950,-100,4,2,3,45,0,0
135645,-100,4,2,3,50,0,0
136662,-100,4,1,1,55,0,0
138018,-100,4,1,1,60,0,0
139374,-100,4,1,1,65,0,0
140730,-100,4,1,20,100,0,0
140899,-100,4,2,3,60,0,0
141662,-200,4,2,3,60,0,0
142085,-66.6666666666667,4,1,1,100,0,1
162424,-50,4,1,1,100,0,0
162933,-66.6666666666667,4,1,1,100,0,1
184035,-100,4,1,1,80,0,0
184119,-100,4,1,1,80,0,1
184204,-100,4,1,1,80,0,0

[Colours]
Combo1 : 137,157,203
Combo2 : 51,143,247
Combo3 : 173,207,233
Combo4 : 122,52,239
Combo5 : 168,128,234
Combo6 : 195,195,195
Combo7 : 66,206,236
Combo8 : 28,57,113

[HitObjects]
49,317,1069,6,0,P|92:298|135:309,1,90
250,364,1746,2,0,L|259:258,1,90
276,62,2424,1,0,0:0:0:0:
273,48,2933,1,0,0:0:0:0:
270,32,3441,1,0,0:0:0:0:
201,77,3611,1,0,0:0:0:0:
373,134,3780,6,0,L|309:129,1,45
201,77,4119,2,0,L|137:82,1,45
25,95,4458,2,0,P|11:59|20:8,1,90
156,80,4967,2,0,L|138:175,1,90
116,297,5475,1,0,0:0:0:0:
119,317,5814,2,0,L|166:312,1,45
271,268,6153,2,0,L|315:272,1,45
447,291,6492,38,0,P|458:256|458:228,1,45
458,229,6746,1,0,0:0:0:0:
451,212,6831,1,0,0:0:0:0:
315,272,7001,1,0,0:0:0:0:
254,180,7170,2,0,L|259:119,1,45
160,267,7509,2,0,L|165:328,1,45
45,193,7848,6,0,P|31:157|40:106,1,90
176,178,8357,2,0,L|158:273,1,90
243,366,8865,101,0,0:0:0:0:
397,206,9035,1,0,0:0:0:0:
433,273,9204,2,0,P|404:258|350:271,1,90
336,285,9713,1,0,0:0:0:0:
243,366,9882,2,0,L|250:269,1,90
252,253,10391,1,0,0:0:0:0:
175,178,10560,54,0,P|148:157|90:172,1,90
80,186,11069,6,0,P|53:207|-5:192,1,90
248,55,11746,1,0,0:0:0:0:
263,152,11916,102,0,P|275:98|268:73,1,62.9999980773926
266,70,12170,1,0,0:0:0:0:
248,55,12255,1,0,0:0:0:0:
148,110,12424,1,0,0:0:0:0:
263,152,12594,2,0,L|353:146,1,62.9999980773926
388,276,12933,2,0,L|298:270,1,62.9999980773926
213,261,13272,6,0,P|182:304|225:376,1,125.999996154785
326,270,13780,2,0,B|341:209|341:209|323:137,1,125.999996154785
325,147,14204,1,0,0:0:0:0:
325,147,14289,1,0,0:0:0:0:
202,184,14458,1,0,0:0:0:0:
326,270,14628,38,0,L|427:259,1,90
426,172,15136,1,0,0:0:0:0:
296,376,15306,2,0,L|195:365,1,90
72,276,15814,2,0,P|57:234|80:197,1,90
94,280,16323,2,0,P|101:337|74:373,1,90
92,186,16831,2,0,L|187:199,1,90
269,220,17340,6,0,P|284:191|279:145,1,62.9999980773926
280,139,17594,1,0,0:0:0:0:
265,122,17679,1,0,0:0:0:0:
181,198,17848,1,0,0:0:0:0:
270,220,18018,2,0,L|358:208,1,62.9999980773926
395,161,18357,2,0,L|483:173,1,62.9999980773926
239,289,18696,2,0,L|88:271,1,125.999996154785
43,242,19204,2,0,P|14:285|35:369,1,125.999996154785
24,355,19628,1,0,0:0:0:0:
24,355,19713,1,0,0:0:0:0:
167,195,19882,1,0,0:0:0:0:
239,285,20052,86,0,L|246:389,1,90
113,274,20560,1,0,0:0:0:0:
329,254,20730,2,0,L|336:152,1,90
480,69,21238,2,0,L|487:171,1,90
347,345,21746,1,0,0:0:0:0:
328,254,22085,2,0,L|390:257,1,62.9999980773926
477,265,22594,1,0,0:0:0:0:
257,192,22763,5,0,0:0:0:0:
256,192,28187,12,0,30899,0:0:0:0:
277,230,33611,5,4,0:0:0:0:
41,192,33780,2,0,L|103:197,1,53.9999983520508,2|0,0:0|0:0,0:0:0:0:
152,248,33950,2,0,L|274:230,1,107.999996704102,8|4,0:0|0:0,0:0:0:0:
341,264,34204,1,0,0:0:0:0:
359,271,34289,2,0,P|376:308|336:378,1,107.999996704102,6|0,0:0|0:0,0:0:0:0:
332,373,34543,2,0,L|259:357,1,53.9999983520508,0|10,0:0|0:0,0:0:0:0:
381,190,34797,2,0,P|422:165|483:210,1,107.999996704102,2|4,0:0|0:0,0:0:0:0:
248,352,35136,6,0,L|175:336,1,53.9999983520508,2|8,0:0|0:0,0:0:0:0:
24,336,35475,1,4,0:0:0:0:
146,253,35645,2,0,P|83:239|49:277,1,107.999996704102,2|4,0:0|0:0,0:0:0:0:
124,322,35899,1,4,0:0:0:0:
141,306,35984,6,0,L|146:240,1,53.9999983520508,4|0,0:0|0:0,0:0:0:0:
183,144,36153,2,0,L|178:78,1,53.9999983520508,6|0,0:0|0:0,0:0:0:0:
141,8,36323,1,4,0:0:0:0:
56,188,36492,6,0,P|24:192|-4:160,1,53.9999983520508,2|8,0:0|0:0,0:0:0:0:
152,112,36831,1,4,0:0:0:0:
166,100,36916,1,0,0:0:0:0:
178,90,37001,2,0,L|291:95,1,107.999996704102,2|0,0:0|0:0,0:0:0:0:
360,108,37255,1,4,0:0:0:0:
366,99,37340,6,0,P|372:72|363:29,1,53.9999983520508,10|0,0:0|0:0,0:0:0:0:
260,179,37509,2,0,L|268:244,1,53.9999983520508,6|0,0:0|0:0,0:0:0:0:
367,369,37679,6,0,P|380:300|309:303,1,161.999995056153,6|2,0:0|0:0,0:0:0:0:
294,313,38018,2,0,P|261:318|225:304,1,53.9999983520508,8|0,0:0|0:0,0:0:0:0:
259,178,38187,2,2,B|284:142|279:92|279:92|282:144|338:186,1,161.999995056153,4|0,0:0|0:0,0:0:0:0:
320,164,38526,1,6,0:0:0:0:
384,191,38611,1,4,0:0:0:0:
448,163,38696,6,0,L|454:88,1,53.9999983520508,6|0,0:0|0:0,0:0:0:0:
512,65,38865,2,0,L|507:11,1,53.9999983520508,14|0,0:0|0:0,0:0:0:0:
320,164,39035,1,4,0:0:0:0:
408,360,39204,6,0,P|432:368|460:356,1,53.9999983520508,2|8,0:0|0:0,0:0:0:0:
300,320,39543,1,4,0:0:0:0:
294,313,39628,1,0,0:0:0:0:
286,305,39713,2,0,P|234:287|171:371,1,161.999995056153,2|0,0:0|0:0,0:0:0:0:
177,358,40052,2,0,B|191:389|191:389|186:337|186:337|178:301|178:301|171:229,1,161.999995056153,8|0,0:0|0:0,0:0:0:0:
168,231,40391,1,4,0:0:0:0:
284,28,40560,6,0,P|316:23|348:47,1,53.9999983520508,2|8,0:0|0:0,0:0:0:0:
228,104,40899,1,4,0:0:0:0:
215,113,40984,1,0,0:0:0:0:
200,120,41069,2,0,L|77:129,1,107.999996704102,2|0,0:0|0:0,0:0:0:0:
24,113,41323,1,0,0:0:0:0:
17,98,41407,6,0,P|14:68|34:32,1,53.9999983520508,8|0,0:0|0:0,0:0:0:0:
168,230,41577,2,0,L|68:222,1,53.9999983520508,4|0,0:0|0:0,0:0:0:0:
11,287,41746,1,4,0:0:0:0:
166,359,41916,6,0,L|158:287,1,53.9999983520508,2|8,0:0|0:0,0:0:0:0:
281,151,42255,2,0,L|271:266,1,107.999996704102,4|4,0:0|0:0,0:0:0:0:
282,349,42679,1,4,0:0:0:0:
300,358,42763,6,0,L|361:356,1,53.9999983520508,8|0,0:0|0:0,0:0:0:0:
416,317,42933,2,0,L|458:322,2,26.9999991760254,4|0|0,0:0|0:0|0:0,0:0:0:0:
281,151,43102,6,0,L|218:157,1,53.9999983520508
129,186,43272,2,0,P|88:143|135:40,1,161.999995056153,8|0,0:0|0:0,0:0:0:0:
152,116,43611,2,0,B|140:160|140:160|144:192|144:192|128:272,1,135,4|0,0:0|0:0,0:0:0:0:
132,268,43950,1,4,0:0:0:0:
88,328,44119,2,2,B|84:304|48:288|48:288|104:296|104:296|108:300|108:300|148:316|192:296,1,202.500007724762,10|0,0:0|0:0,0:0:0:0:
203,272,44458,6,0,L|196:405,1,116.999994644165,4|0,0:0|0:0,0:0:0:0:
250,330,44713,2,0,P|276:291|275:265,1,58.4999973220826,6|4,0:0|0:0,0:0:0:0:
154,116,44967,6,0,L|9:131,1,116.999994644165,4|0,0:0|0:0,0:0:0:0:
134,44,45221,2,0,P|188:44|210:64,1,58.4999973220826,6|0,0:0|0:0,0:0:0:0:
214,163,45391,1,4,0:0:0:0:
230,168,45475,6,0,L|358:158,1,116.999994644165,8|0,0:0|0:0,0:0:0:0:
373,155,45730,2,0,P|380:128|357:81,1,58.4999973220826,6|4,0:0|0:0,0:0:0:0:
203,272,45984,2,0,L|75:262,1,116.999994644165,4|0,0:0|0:0,0:0:0:0:
72,249,46238,2,0,P|54:264|49:357,1,116.999994644165,2|0,0:0|0:0,0:0:0:0:
65,364,46492,6,0,L|137:355,1,58.4999973220826,6|0,0:0|0:0,0:0:0:0:
203,272,46662,6,0,L|261:279,1,58.4999973220826,6|0,0:0|0:0,0:0:0:0:
291,370,46831,6,0,L|363:361,1,58.4999973220826,10|0,0:0|0:0,0:0:0:0:
429,278,47001,6,0,L|487:285,1,58.4999973220826,6|0,0:0|0:0,0:0:0:0:
457,197,47170,6,0,P|390:197|347:242,1,116.999994644165,4|4,0:0|0:0,0:0:0:0:
331,294,47424,1,4,0:0:0:0:
347,285,47509,2,0,P|354:256|354:227,1,58.4999973220826,10|0,0:0|0:0,0:0:0:0:
190,328,47679,1,0,0:0:0:0:
179,351,47763,6,0,B|136:380|90:357|90:357|-10:377,1,175.499991966248,6|6,0:0|0:0,0:0:0:0:
121,235,48102,1,0,0:0:0:0:
121,235,48187,2,0,P|130:273|124:298,1,58.4999973220826,4|0,0:0|0:0,0:0:0:0:
198,296,48357,2,0,P|180:349|159:371,1,58.4999973220826,4|0,0:0|0:0,0:0:0:0:
73,159,48526,6,0,B|176:128|148:200|242:164,1,175.499991966248,6|2,0:0|0:0,0:0:0:0:
264,152,48865,2,0,P|268:120|256:80,1,58.4999973220826,8|0,0:0|0:0,0:0:0:0:
121,235,49035,2,0,P|44:240|-8:144,1,175.499991966248,6|2,0:0|0:0,0:0:0:0:
0,136,49374,2,0,P|20:104|56:84,1,58.4999973220826,2|0,0:0|0:0,0:0:0:0:
243,262,49543,6,0,P|211:270|185:266,1,58.4999973220826,2|0,0:0|0:0,0:0:0:0:
264,152,49713,6,0,P|296:144|322:148,1,58.4999973220826,2|0,0:0|0:0,0:0:0:0:
338,303,49882,6,0,P|374:267|366:183,1,116.999994644165,4|0,0:0|0:0,0:0:0:0:
370,179,50136,2,0,P|334:151|306:147,1,58.4999973220826,6|8,0:0|0:0,0:0:0:0:
187,267,50391,6,0,L|195:383,1,116.999994644165,6|0,0:0|0:0,0:0:0:0:
115,291,50645,2,0,P|115:247|147:203,1,58.4999973220826,6|0,0:0|0:0,0:0:0:0:
230,80,50814,1,0,0:0:0:0:
213,90,50899,6,0,L|85:82,1,116.999994644165,6|0,0:0|0:0,0:0:0:0:
182,160,51153,2,0,P|226:164|254:152,1,58.4999973220826,6|0,0:0|0:0,0:0:0:0:
68,8,51407,6,0,P|24:48|40:136,1,116.999994644165,6|0,0:0|0:0,0:0:0:0:
24,120,51662,2,0,P|56:152|132:152,1,116.999994644165,6|0,0:0|0:0,0:0:0:0:
96,82,51916,2,0,L|92:158,1,58.4999973220826,6|0,0:0|0:0,0:0:0:0:
24,216,52085,5,6,0:0:0:0:
24,216,52170,1,4,0:0:0:0:
24,216,52255,2,0,L|28:292,1,58.4999973220826,10|0,0:0|0:0,0:0:0:0:
88,324,52424,2,0,L|84:400,1,58.4999973220826,6|0,0:0|0:0,0:0:0:0:
272,236,52594,6,0,P|220:204|144:244,1,116.999994644165,4|0,0:0|0:0,0:0:0:0:
272,364,52848,1,4,0:0:0:0:
275,352,52933,6,0,L|271:228,1,116.999994644165,10|0,0:0|0:0,0:0:0:0:
247,155,53187,2,0,L|251:31,1,116.999994644165,2|0,0:0|0:0,0:0:0:0:
302,107,53441,2,0,P|320:147|315:176,1,58.4999973220826,2|0,0:0|0:0,0:0:0:0:
166,217,53611,6,0,L|92:210,1,58.4999973220826,8|0,0:0|0:0,0:0:0:0:
29,329,53780,2,0,L|103:322,1,58.4999973220826,4|0,0:0|0:0,0:0:0:0:
356,300,53950,1,4,0:0:0:0:
275,352,54119,6,0,L|271:228,1,116.999994644165,8|0,0:0|0:0,0:0:0:0:
243,34,54458,2,0,P|322:36|270:109,1,175.499991966248,4|0,0:0|0:0,0:0:0:0:
282,117,54797,2,0,L|207:108,1,58.4999973220826,4|0,0:0|0:0,0:0:0:0:
42,203,54967,2,0,P|-9:230|72:269,1,175.499991966248,8|0,0:0|0:0,0:0:0:0:
77,273,55306,6,0,B|130:255|130:255|212:278,1,135,4|0,0:0|0:0,0:0:0:0:
212,282,55899,1,0,0:0:0:0:
212,282,55984,2,0,L|209:221,1,45,8|4,0:0|0:0,0:0:0:0:
181,73,56492,2,0,P|214:25|314:82,1,180,4|4,0:0|0:0,0:0:0:0:
352,225,57340,1,8,0:0:0:0:
410,329,57509,6,0,L|342:322,1,67.5000025749208,2|0,0:0|0:0,0:0:0:0:
283,273,57679,2,0,L|189:289,1,67.5000025749208,2|0,0:0|0:0,0:0:0:0:
157,334,57848,2,0,L|89:327,1,67.5000025749208,2|0,0:0|0:0,0:0:0:0:
15,190,58018,6,0,P|52:180|99:215,1,72,4|0,0:0|0:0,0:0:0:0:
82,192,58272,1,0,0:0:0:0:
82,192,58357,1,0,0:0:0:0:
300,181,58526,1,0,0:0:0:0:
354,122,58696,6,0,L|350:19,1,72,8|0,0:0|0:0,0:0:0:0:
406,0,59035,1,0,0:0:0:0:
230,175,59204,2,0,P|302:180|326:166,1,72,4|0,0:0|0:0,0:0:0:0:
354,122,59543,2,0,P|426:117|450:131,1,72,2|0,0:0|0:0,0:0:0:0:
512,223,59882,1,4,0:0:0:0:
367,298,60052,6,0,L|363:346,2,48,8|4|4,0:0|0:0|0:0,0:0:0:0:
234,222,60391,2,0,L|230:175,2,48,8|4|4,0:0|0:0|0:0,0:0:0:0:
183,339,60730,6,0,B|140:368|94:345|94:345|38:361,1,135,4|0,0:0|0:0,0:0:0:0:
39,362,61323,1,0,0:0:0:0:
38,360,61407,1,4,0:0:0:0:
136,234,61577,2,0,L|134:290,1,45,4|0,0:0|0:0,0:0:0:0:
272,298,61916,2,0,P|312:266|224:237,1,180,4|4,0:0|0:0,0:0:0:0:
33,292,62763,1,8,0:0:0:0:
136,234,62933,6,0,L|204:227,1,67.5000025749208,2|0,0:0|0:0,0:0:0:0:
263,178,63103,2,0,L|357:194,1,67.5000025749208,2|0,0:0|0:0,0:0:0:0:
389,239,63272,2,0,L|457:232,1,67.5000025749208,2|0,0:0|0:0,0:0:0:0:
304,107,63441,6,4,B|201:76|229:148|135:112,1,175.499991966248,4|0,0:0|0:0,0:0:0:0:
109,106,63780,2,0,P|105:77|112:48,2,60,4|4|4,0:0|0:0|0:0,0:0:0:0:
263,178,64119,2,0,P|328:143|387:234,1,175.499991966248,12|0,0:0|0:0,0:0:0:0:
389,239,64458,6,0,P|376:264|316:285,2,60,4|4|4,0:0|0:0|0:0,0:0:0:0:
219,119,64797,2,0,P|188:158|201:210,1,67.5000025749208,4|0,0:0|0:0,0:0:0:0:
105,184,64967,2,0,P|123:230|174:245,1,67.5000025749208,4|0,0:0|0:0,0:0:0:0:
103,311,65136,2,0,P|152:318|190:281,1,67.5000025749208,4|0,0:0|0:0,0:0:0:0:
320,140,65306,5,4,0:0:0:0:
320,140,65391,1,4,0:0:0:0:
320,140,65475,2,0,P|281:106|240:108,1,90,8|4,0:0|0:0,0:0:0:0:
350,282,65814,2,0,L|466:275,1,90,8|4,0:0|0:0,0:0:0:0:
282,368,66153,6,0,P|241:384|174:325,1,135,4|0,0:0|0:0,0:0:0:0:
170,322,66746,1,0,0:0:0:0:
167,311,66831,2,0,P|174:278|196:256,1,45,8|4,0:0|0:0,0:0:0:0:
320,140,67340,2,0,L|504:127,1,180,4|4,0:0|0:0,0:0:0:0:
404,93,68187,1,8,0:0:0:0:
324,216,68357,6,0,L|256:209,1,67.5000025749208,2|0,0:0|0:0,0:0:0:0:
197,160,68527,2,0,L|103:176,1,67.5000025749208,2|0,0:0|0:0,0:0:0:0:
71,221,68696,2,0,L|3:214,1,67.5000025749208,2|0,0:0|0:0,0:0:0:0:
162,89,68865,6,0,P|199:79|248:105,1,72,4|0,0:0|0:0,0:0:0:0:
230,88,69119,1,0,0:0:0:0:
230,88,69204,1,0,0:0:0:0:
286,282,69374,1,0,0:0:0:0:
327,218,69543,6,0,L|325:141,1,72
386,283,69882,1,0,0:0:0:0:
253,353,70052,2,0,L|172:341,1,72
113,294,70391,2,0,L|32:306,1,72
175,172,70730,1,0,0:0:0:0:
386,283,70899,6,0,L|382:331,2,48,8|4|4,0:0|0:0|0:0,0:0:0:0:
253,207,71238,2,0,L|249:160,2,48,8|4|4,0:0|0:0|0:0,0:0:0:0:
117,292,71577,1,4,0:0:0:0:
256,192,74289,12,0,76153,0:0:0:0:
72,140,76323,6,0,L|221:130,1,135,8|0,0:0|0:0,0:0:0:0:
319,179,77001,5,4,0:0:0:0:
260,126,77170,2,0,L|206:130,1,53.9999983520508,2|0,0:0|0:0,0:0:0:0:
61,239,77340,2,0,P|43:196|57:139,1,107.999996704102,8|0,0:0|0:0,0:0:0:0:
193,233,77594,1,0,0:0:0:0:
177,237,77679,2,0,L|54:228,1,107.999996704102,2|0,0:0|0:0,0:0:0:0:
61,239,77933,2,0,L|-38:232,1,53.9999983520508,0|10,0:0|0:0,0:0:0:0:
118,98,78187,2,0,P|152:89|208:138,1,107.999996704102,2|4,0:0|0:0,0:0:0:0:
180,290,78526,6,0,L|175:222,1,53.9999983520508,2|8,0:0|0:0,0:0:0:0:
133,349,78865,1,4,0:0:0:0:
206,130,79035,2,0,P|245:105|311:138,1,107.999996704102,2|0,0:0|0:0,0:0:0:0:
346,75,79289,1,0,0:0:0:0:
329,80,79374,6,0,P|302:112|300:134,1,53.9999983520508,8|0,0:0|0:0,0:0:0:0:
400,288,79543,2,0,P|427:256|429:234,1,53.9999983520508,4|0,0:0|0:0,0:0:0:0:
259,178,79713,1,4,0:0:0:0:
210,353,79882,6,0,L|273:357,1,53.9999983520508,2|8,0:0|0:0,0:0:0:0:
204,229,80221,1,4,0:0:0:0:
190,232,80306,1,0,0:0:0:0:
176,236,80391,2,0,L|29:248,1,135,2|0,0:0|0:0,0:0:0:0:
20,251,80730,6,0,P|13:219|25:171,1,45,8|0,0:0|0:0,0:0:0:0:
115,54,80899,2,0,P|122:86|110:134,1,45,4|0,0:0|0:0,0:0:0:0:
312,293,81069,6,0,P|333:286|265:243,1,161.999995056153,6|0,0:0|0:0,0:0:0:0:
268,219,81407,2,0,P|230:228|199:212,1,53.9999983520508,8|0,0:0|0:0,0:0:0:0:
75,117,81577,2,0,B|106:137|147:126|147:126|272:139,1,161.999995056153,4|0,0:0|0:0,0:0:0:0:
244,139,81916,1,4,0:0:0:0:
282,74,82001,1,0,0:0:0:0:
242,6,82085,6,0,L|183:13,1,53.9999983520508,2|0,0:0|0:0,0:0:0:0:
115,54,82255,2,0,L|56:47,1,53.9999983520508,2|0,0:0|0:0,0:0:0:0:
168,144,82424,1,4,0:0:0:0:
55,293,82594,6,0,L|61:202,1,53.9999983520508,2|8,0:0|0:0,0:0:0:0:
359,212,82933,1,4,0:0:0:0:
365,205,83018,1,0,0:0:0:0:
372,198,83103,2,0,P|331:133|255:145,1,161.999995056153,2|0,0:0|0:0,0:0:0:0:
246,156,83441,2,0,B|195:178|148:131|148:131|51:156,1,161.999995056153,8|0,0:0|0:0,0:0:0:0:
70,152,83780,1,4,0:0:0:0:
216,35,83950,6,0,L|212:100,1,53.9999983520508,2|8,0:0|0:0,0:0:0:0:
272,268,84289,1,4,0:0:0:0:
256,256,84374,1,0,0:0:0:0:
240,244,84458,2,0,P|168:240|144:308,1,107.999996704102,2|0,0:0|0:0,0:0:0:0:
144,336,84713,1,0,0:0:0:0:
153,316,84797,6,0,L|145:244,1,53.9999983520508,8|0,0:0|0:0,0:0:0:0:
76,96,84967,2,0,L|68:168,1,53.9999983520508,4|0,0:0|0:0,0:0:0:0:
24,252,85136,1,4,0:0:0:0:
8,96,85306,6,0,L|80:92,1,53.9999983520508,2|8,0:0|0:0,0:0:0:0:
192,36,85645,1,4,0:0:0:0:
204,32,85730,1,0,0:0:0:0:
212,28,85814,2,0,L|332:40,1,107.999996704102,2|0,0:0|0:0,0:0:0:0:
396,88,86069,1,0,0:0:0:0:
412,76,86153,6,0,P|420:44|412:8,1,53.9999983520508,8|0,0:0|0:0,0:0:0:0:
284,120,86323,2,0,P|276:152|284:188,1,53.9999983520508,4|0,0:0|0:0,0:0:0:0:
384,352,86492,6,0,P|436:312|368:296,1,125.999996154785,4|0,0:0|0:0,0:0:0:0:
312,292,86746,2,0,L|180:316,1,125.999996154785,4|0,0:0|0:0,0:0:0:0:
124,248,87001,2,0,P|160:204|164:312,1,251.999992309571,4|0,0:0|0:0,0:0:0:0:
136,268,87424,1,0,0:0:0:0:
124,248,87509,2,0,B|108:208|128:160|128:160|132:156|132:156|152:108|136:48,1,202.500007724762,14|0,0:0|0:0,0:0:0:0:
136,28,87848,5,4,0:0:0:0:
8,120,88018,2,0,L|132:132,1,107.999996704102,6|8,0:0|0:0,0:0:0:0:
140,140,88272,2,0,L|216:148,1,53.9999983520508,6|4,0:0|0:0,0:0:0:0:
356,132,88526,2,0,P|308:120|268:160,1,107.999996704102,6|4,0:0|0:0,0:0:0:0:
280,260,88780,1,0,0:0:0:0:
280,260,88865,6,2,L|380:248,1,53.9999983520508,10|2,0:0|0:0,0:0:0:0:
400,192,89035,2,0,L|480:208,1,53.9999983520508,6|0,0:0|0:0,0:0:0:0:
248,348,89204,1,4,0:0:0:0:
72,259,89374,6,0,P|108:247|136:251,1,53.9999983520508,6|8,0:0|0:0,0:0:0:0:
148,252,89628,2,0,P|172:280|168:344,1,53.9999983520508,6|4,0:0|0:0,0:0:0:0:
80,360,89882,2,0,L|-40:348,1,107.999996704102,6|4,0:0|0:0,0:0:0:0:
20,192,90136,1,4,0:0:0:0:
36,184,90221,6,0,L|136:172,1,53.9999983520508,10|0,0:0|0:0,0:0:0:0:
156,116,90391,2,0,L|236:132,1,53.9999983520508,6|0,0:0|0:0,0:0:0:0:
436,116,90560,1,4,0:0:0:0:
328,64,90730,6,0,P|308:112|312:132,1,53.9999983520508,2|8,0:0|0:0,0:0:0:0:
308,128,90984,2,0,L|368:124,1,53.9999983520508,6|0,0:0|0:0,0:0:0:0:
480,224,91238,2,0,L|368:232,1,107.999996704102,6|0,0:0|0:0,0:0:0:0:
284,240,91492,1,4,0:0:0:0:
284,252,91577,2,0,L|288:328,1,53.9999983520508,10|0,0:0|0:0,0:0:0:0:
144,364,91746,2,0,L|148:288,1,53.9999983520508,6|0,0:0|0:0,0:0:0:0:
104,164,91916,6,0,P|44:192|124:216,1,161.999995056153,4|0,0:0|0:0,0:0:0:0:
104,248,92255,2,0,P|128:236|168:236,1,53.9999983520508,8|0,0:0|0:0,0:0:0:0:
286,305,92424,2,0,P|342:349|256:348,1,161.999995056153,4|0,0:0|0:0,0:0:0:0:
272,384,92763,1,4,0:0:0:0:
232,208,92933,6,0,L|240:128,1,53.9999983520508,2|0,0:0|0:0,0:0:0:0:
288,80,93102,2,0,L|280:0,1,53.9999983520508,2|0,0:0|0:0,0:0:0:0:
168,108,93272,1,4,0:0:0:0:
328,176,93441,6,0,L|396:172,1,53.9999983520508,6|8,0:0|0:0,0:0:0:0:
404,168,93696,2,0,L|472:164,1,53.9999983520508,6|4,0:0|0:0,0:0:0:0:
360,92,93950,1,4,0:0:0:0:
286,305,94119,2,0,L|218:293,1,53.9999983520508,6|0,0:0|0:0,0:0:0:0:
170,245,94289,2,0,L|102:257,1,53.9999983520508,2|0,0:0|0:0,0:0:0:0:
54,309,94458,2,0,L|-14:297,1,53.9999983520508,2|0,0:0|0:0,0:0:0:0:
80,172,94628,1,4,0:0:0:0:
180,374,94797,6,0,L|174:314,1,53.9999983520508,6|8,0:0|0:0,0:0:0:0:
173,298,95052,2,0,L|169:231,1,53.9999983520508,6|4,0:0|0:0,0:0:0:0:
201,130,95306,2,0,P|250:107|316:140,1,107.999996704102,4|4,0:0|0:0,0:0:0:0:
346,75,95560,1,4,0:0:0:0:
329,80,95645,6,0,P|302:112|300:134,1,53.9999983520508,10|0,0:0|0:0,0:0:0:0:
400,288,95814,2,0,P|427:256|429:234,1,53.9999983520508,6|0,0:0|0:0,0:0:0:0:
256,184,95984,1,4,0:0:0:0:
128,348,96153,6,0,L|201:347,1,53.9999983520508,6|8,0:0|0:0,0:0:0:0:
200,344,96407,2,0,L|264:343,1,53.9999983520508,6|4,0:0|0:0,0:0:0:0:
100,228,96662,2,0,L|-8:248,1,107.999996704102,6|0,0:0|0:0,0:0:0:0:
48,168,96916,1,4,0:0:0:0:
60,156,97001,2,0,P|108:144|124:148,1,53.9999983520508,10|0,0:0|0:0,0:0:0:0:
136,72,97170,2,0,P|178:97|186:111,1,53.9999983520508,6|0,0:0|0:0,0:0:0:0:
224,244,97340,6,0,L|63:223,1,125.999996154785,4|0,0:0|0:0,0:0:0:0:
208,264,97594,2,0,L|332:280,1,125.999996154785,4|0,0:0|0:0,0:0:0:0:
424,256,97848,2,0,P|452:192|416:132,1,125.999996154785,8|0,0:0|0:0,0:0:0:0:
408,256,98102,2,0,P|380:320|416:380,1,125.999996154785,8|0,0:0|0:0,0:0:0:0:
452,316,98357,5,4,0:0:0:0:
376,324,98441,1,12,0:0:0:0:
300,332,98526,1,12,0:0:0:0:
224,340,98611,1,12,0:0:0:0:
148,344,98696,5,4,0:0:0:0:
164,232,108187,6,0,L|72:236,1,90,2|0,0:0|0:0,0:0:0:0:
74,235,108696,1,2,0:0:0:0:
204,156,109035,6,0,L|296:160,1,90,2|0,0:0|0:0,0:0:0:0:
364,200,109543,1,4,0:0:0:0:
256,192,114967,12,0,120052,0:0:0:0:
160,312,120391,6,0,L|96:308,1,45,2|0,0:0|0:0,0:0:0:0:
72,244,120645,2,0,L|8:248,1,45
168,304,120899,6,0,L|104:300,1,45,2|0,0:0|0:0,0:0:0:0:
80,236,121153,2,0,L|16:240,1,45
176,300,121407,6,0,L|112:296,1,45,2|0,0:0|0:0,0:0:0:0:
88,232,121662,2,0,L|24:236,1,45
184,292,121916,6,0,L|120:288,1,45,2|0,0:0|0:0,0:0:0:0:
96,224,122169,2,0,L|32:228,1,45
192,284,122424,6,0,L|128:280,1,45,2|0,0:0|0:0,0:0:0:0:
104,216,122678,2,0,L|40:220,1,45,2|0,0:0|0:0,0:0:0:0:
216,176,122933,1,2,0:0:0:0:
352,312,123102,6,0,L|416:308,1,45,2|0,0:0|0:0,0:0:0:0:
440,244,123357,2,0,L|504:248,1,45
344,304,123611,6,0,L|408:300,1,45,2|0,0:0|0:0,0:0:0:0:
432,236,123865,2,0,L|496:240,1,45
336,300,124118,6,0,L|400:296,1,45,2|0,0:0|0:0,0:0:0:0:
424,232,124372,2,0,L|488:236,1,45
328,292,124626,6,0,L|392:288,1,45,2|0,0:0|0:0,0:0:0:0:
416,224,124880,2,0,L|480:228,1,45
320,284,125136,6,0,L|384:280,1,45,2|0,0:0|0:0,0:0:0:0:
408,216,125389,2,0,L|472:220,1,45,2|0,0:0|0:0,0:0:0:0:
296,176,125645,1,2,0:0:0:0:
200,224,125814,6,0,L|208:284,1,45,2|0,0:0|0:0,0:0:0:0:
248,332,126069,2,0,L|240:392,1,45
208,216,126323,6,0,L|216:276,1,45,2|0,0:0|0:0,0:0:0:0:
256,324,126578,2,0,L|248:384,1,45
216,208,126831,6,0,L|224:268,1,45,2|0,0:0|0:0,0:0:0:0:
264,316,127086,2,0,L|256:376,1,45
224,200,127340,6,0,L|232:260,1,45,2|0,0:0|0:0,0:0:0:0:
272,308,127595,2,0,L|264:368,1,45
232,192,127848,6,0,L|240:252,1,45,2|0,0:0|0:0,0:0:0:0:
280,300,128103,2,0,L|272:360,1,45,2|0,0:0|0:0,0:0:0:0:
252,116,128357,1,2,0:0:0:0:
140,196,128526,6,0,L|132:256,1,45,2|0,0:0|0:0,0:0:0:0:
92,304,128781,2,0,L|100:364,1,45
132,188,129035,6,0,L|124:248,1,45,2|0,0:0|0:0,0:0:0:0:
84,296,129290,2,0,L|92:356,1,45
124,180,129543,6,0,L|116:240,1,45,2|0,0:0|0:0,0:0:0:0:
76,288,129798,2,0,L|84:348,1,45
116,172,130052,6,0,L|108:232,1,45,2|0,0:0|0:0,0:0:0:0:
68,280,130307,2,0,L|76:340,1,45
108,164,130560,6,0,L|100:224,1,45,2|0,0:0|0:0,0:0:0:0:
60,272,130814,2,0,L|68:332,1,45,2|0,0:0|0:0,0:0:0:0:
88,88,131069,1,2,0:0:0:0:
252,116,131238,6,0,L|152:120,1,90
236,24,131577,1,0,0:0:0:0:
236,208,131746,1,0,0:0:0:0:
236,208,131831,1,0,0:0:0:0:
236,208,131916,2,0,L|336:212,1,90
408,216,132255,2,0,P|424:156|392:112,1,90
284,280,132594,2,0,P|268:340|300:384,1,90
456,296,132933,2,0,L|356:300,1,90,8|0,0:0|0:0,0:0:0:0:
278,363,133272,2,0,L|178:359,1,90
188,359,133526,1,0,0:0:0:0:
188,359,133611,1,0,0:0:0:0:
204,236,133780,1,0,0:0:0:0:
16,300,133950,6,0,P|0:348|24:396,1,90
124,232,134289,1,0,0:0:0:0:
108,148,134458,1,0,0:0:0:0:
92,144,134543,1,0,0:0:0:0:
80,140,134628,2,0,L|-16:156,1,90
160,32,134967,2,0,L|256:48,1,90
328,76,135306,2,0,P|352:28|344:-8,1,90
200,124,135645,2,0,P|176:184|196:232,1,90
248,284,135984,2,0,L|348:276,1,90
337,276,136238,1,0,0:0:0:0:
337,276,136323,1,0,0:0:0:0:
436,336,136492,1,0,0:0:0:0:
192,336,136662,5,4,0:0:0:0:
152,268,136831,1,4,0:0:0:0:
208,216,137001,1,4,0:0:0:0:
284,368,137170,5,4,0:0:0:0:
284,368,137255,1,4,0:0:0:0:
284,368,137340,1,4,0:0:0:0:
208,216,137509,5,4,0:0:0:0:
200,124,137679,1,4,0:0:0:0:
384,196,137848,5,4,0:0:0:0:
384,196,137933,1,4,0:0:0:0:
384,196,138018,1,4,0:0:0:0:
200,124,138187,5,4,0:0:0:0:
236,60,138357,1,4,0:0:0:0:
292,228,138526,5,4,0:0:0:0:
292,228,138611,1,4,0:0:0:0:
292,228,138696,1,4,0:0:0:0:
88,160,138865,5,4,0:0:0:0:
20,200,139035,1,4,0:0:0:0:
148,260,139204,1,4,0:0:0:0:
284,224,139374,5,4,0:0:0:0:
316,205,139458,1,0,0:0:0:0:
353,202,139543,1,0,0:0:0:0:
387,212,139628,1,0,0:0:0:0:
393,293,139713,5,4,0:0:0:0:
359,311,139797,1,0,0:0:0:0:
323,313,139882,1,0,0:0:0:0:
289,303,139967,1,0,0:0:0:0:
220,268,140052,5,4,0:0:0:0:
184,256,140136,1,0,0:0:0:0:
148,260,140221,1,0,0:0:0:0:
116,276,140306,1,0,0:0:0:0:
124,356,140391,5,4,0:0:0:0:
160,368,140475,1,0,0:0:0:0:
196,364,140560,1,0,0:0:0:0:
228,348,140645,1,0,0:0:0:0:
256,192,140730,12,4,141916,0:0:0:0:
56,104,142085,6,0,B|144:92|100:144|196:124,1,135.000005149842,6|0,0:0|0:0,0:0:0:0:
276,112,142340,1,0,0:0:0:0:
288,104,142424,2,0,P|296:52|280:24,1,67.5000025749208,8|0,0:0|0:0,0:0:0:0:
72,184,142594,2,0,B|28:192|0:196|0:196|48:192|90:212|90:212|96:210|96:210|144:204|204:224,1,270.000010299683,4|0,0:0|0:0,0:0:0:0:
276,200,143018,1,4,0:0:0:0:
288,208,143102,2,0,P|300:256|268:308,1,67.5000025749208,4|0,0:0|0:0,0:0:0:0:
368,292,143272,2,0,P|342:334|283:348,1,67.5000025749208,4|0,0:0|0:0,0:0:0:0:
163,381,143441,6,0,P|76:323|180:308,1,270.000010299683,6|8,0:0|0:0,0:0:0:0:
179,307,143865,1,4,0:0:0:0:
179,307,143950,1,4,0:0:0:0:
364,164,144119,6,0,P|420:103|339:86,1,202.500007724762,6|0,0:0|0:0,0:0:0:0:
315,95,144458,2,0,L|243:91,1,67.5000025749208,8|0,0:0|0:0,0:0:0:0:
139,180,144628,2,0,L|67:184,1,67.5000025749208,4|0,0:0|0:0,0:0:0:0:
156,52,144797,6,0,P|180:4|240:92,1,202.500007724762,6|0,0:0|0:0,0:0:0:0:
248,92,145136,2,0,P|232:144|256:188,1,67.5000025749208,8|0,0:0|0:0,0:0:0:0:
376,300,145306,6,0,B|420:296|424:236|404:204|364:192|312:204|288:232|284:264|212:248,1,270.000010299683,4|0,0:0|0:0,0:0:0:0:
144,296,145730,1,4,0:0:0:0:
136,284,145814,2,0,P|128:244|148:200,1,67.5000025749208,4|0,0:0|0:0,0:0:0:0:
64,188,145984,2,4,P|86:154|131:137,1,67.5000025749208
328,113,146153,6,0,L|480:137,1,135.000005149842,6|0,0:0|0:0,0:0:0:0:
352,37,146407,2,0,P|272:49|252:137,1,135.000005149842,10|0,0:0|0:0,0:0:0:0:
192,160,146662,2,0,P|164:128|168:68,1,67.5000025749208,6|0,0:0|0:0,0:0:0:0:
268,197,146831,6,0,L|116:221,1,135.000005149842,6|0,0:0|0:0,0:0:0:0:
44,240,147085,2,0,P|16:188|56:112,1,135.000005149842,10|0,0:0|0:0,0:0:0:0:
184,144,147340,1,6,0:0:0:0:
192,160,147424,1,4,0:0:0:0:
200,176,147509,6,0,B|192:248|192:248|192:256|192:256|180:348,1,135.000005149842,6|0,0:0|0:0,0:0:0:0:
120,356,147763,1,0,0:0:0:0:
104,360,147848,2,0,B|56:356|24:316|24:316,1,67.5000025749208,8|0,0:0|0:0,0:0:0:0:
273,117,148018,2,0,B|289:85|345:97|369:133|353:185|313:205|273:209|193:173,1,270.000010299683,4|0,0:0|0:0,0:0:0:0:
116,105,148441,1,4,0:0:0:0:
100,109,148526,2,0,P|84:153|92:189,1,67.5000025749208,8|0,0:0|0:0,0:0:0:0:
8,185,148696,2,0,P|27:227|58:247,1,67.5000025749208,4|0,0:0|0:0,0:0:0:0:
216,284,148865,6,0,B|196:252|200:176|200:176|192:252|136:256,1,202.500007724762,6|0,0:0|0:0,0:0:0:0:
156,251,149204,1,8,0:0:0:0:
264,364,149374,2,0,L|348:356,1,67.5000025749208,4|0,0:0|0:0,0:0:0:0:
436,196,149543,6,0,P|516:224|432:264,1,202.500007724762,6|4,0:0|0:0,0:0:0:0:
432,280,149882,2,0,L|348:272,1,67.5000025749208,8|0,0:0|0:0,0:0:0:0:
280,128,150052,2,0,L|364:120,1,67.5000025749208,4|0,0:0|0:0,0:0:0:0:
160,240,150221,6,0,B|144:281|144:281|144:245|132:201|132:201|132:185|132:185|120:105,1,202.500007724762,6|0,0:0|0:0,0:0:0:0:
68,69,150560,2,0,L|92:-31,1,67.5000025749208,8|0,0:0|0:0,0:0:0:0:
208,181,150730,2,0,P|236:237|88:277,1,270.000010299683,4|0,0:0|0:0,0:0:0:0:
60,217,151153,1,4,0:0:0:0:
40,209,151238,2,0,L|-4:217,6,33.7500012874604,8|0|0|0|0|0|0,0:0|0:0|0:0|0:0|0:0|0:0|0:0,0:0:0:0:
160,240,151577,6,0,L|136:400,1,135.000005149842,6|0,0:0|0:0,0:0:0:0:
208,301,151831,2,0,P|236:241|204:178,1,135.000005149842,10|0,0:0|0:0,0:0:0:0:
192,104,152085,2,0,P|224:104|260:124,1,67.5000025749208,6|0,0:0|0:0,0:0:0:0:
342,294,152255,6,0,L|187:301,1,135.000005149842,6|0,0:0|0:0,0:0:0:0:
320,368,152509,2,0,P|360:372|416:288,1,135.000005149842,10|0,0:0|0:0,0:0:0:0:
352,164,152763,1,10,0:0:0:0:
340,172,152848,1,4,0:0:0:0:
328,180,152933,6,0,B|308:160|308:160|318:159|440:172,1,135.000005149842,6|0,0:0|0:0,0:0:0:0:
492,156,153187,1,0,0:0:0:0:
508,140,153272,2,0,P|520:108|504:72,1,67.5000025749208,8|0,0:0|0:0,0:0:0:0:
216,80,153441,2,0,B|180:104|144:112|144:112|194:92|236:112|236:112|244:104|244:104|292:72|353:91,1,270.000010299683,4|0,0:0|0:0,0:0:0:0:
416,80,153865,1,4,0:0:0:0:
432,68,153950,2,0,P|438:35|431:2,1,67.5000025749208,8|0,0:0|0:0,0:0:0:0:
198,211,154119,2,0,P|192:256|204:288,1,67.5000025749208,4|0,0:0|0:0,0:0:0:0:
288,384,154289,6,0,B|332:380|336:320|316:288|276:276|224:288|200:316|216:356|128:340,1,270.000010299683,6|8,0:0|0:0,0:0:0:0:
143,342,154713,1,0,0:0:0:0:
143,342,154797,1,4,0:0:0:0:
0,173,154967,6,0,L|204:213,1,202.500007724762,6|4,0:0|0:0,0:0:0:0:
216,208,155306,2,0,P|228:160|212:124,1,67.5000025749208,8|0,0:0|0:0,0:0:0:0:
300,124,155475,2,0,P|274:81|237:67,1,67.5000025749208,4|0,0:0|0:0,0:0:0:0:
80,280,155645,6,0,P|52:348|148:348,1,202.500007724762,6|0,0:0|0:0,0:0:0:0:
160,332,155984,2,0,P|192:320|264:344,1,67.5000025749208,8|0,0:0|0:0,0:0:0:0:
432,280,156153,2,0,P|449:364|368:284,1,270.000010299683,4|0,0:0|0:0,0:0:0:0:
364,228,156577,1,4,0:0:0:0:
360,216,156662,2,0,L|368:132,1,67.5000025749208,8|0,0:0|0:0,0:0:0:0:
420,72,156831,2,0,L|412:-12,1,67.5000025749208,4|0,0:0|0:0,0:0:0:0:
236,129,157001,6,0,B|316:116|284:168|384:145,1,135.000005149842,6|0,0:0|0:0,0:0:0:0:
256,196,157255,2,0,B|177:183|209:235|127:215,1,135.000005149842,10|0,0:0|0:0,0:0:0:0:
56,224,157509,2,0,P|48:188|60:152,1,67.5000025749208,6|0,0:0|0:0,0:0:0:0:
236,268,157679,6,0,B|316:255|284:307|384:284,1,135.000005149842,6|0,0:0|0:0,0:0:0:0:
256,335,157933,2,0,B|177:322|209:374|127:354,1,135.000005149842,10|0,0:0|0:0,0:0:0:0:
68,304,158187,2,0,L|-12:320,1,67.5000025749208,6|0,0:0|0:0,0:0:0:0:
120,60,158357,6,0,B|140:28|140:28|128:152,1,135.000005149842,6|0,0:0|0:0,0:0:0:0:
164,200,158611,1,0,0:0:0:0:
164,216,158696,2,0,L|156:292,1,67.5000025749208,8|0,0:0|0:0,0:0:0:0:
16,140,158865,2,0,P|-32:88|100:84,1,270.000010299683,4|0,0:0|0:0,0:0:0:0:
176,96,159289,1,4,0:0:0:0:
192,104,159374,2,0,L|272:96,1,67.5000025749208,8|0,0:0|0:0,0:0:0:0:
380,28,159543,2,4,L|460:36,1,67.5000025749208
400,260,159713,6,0,B|332:280|328:212|268:184|204:212|172:280|240:336|272:312,1,270.000010299683,6|8,0:0|0:0,0:0:0:0:
243,312,160136,1,4,0:0:0:0:
243,312,160221,1,4,0:0:0:0:
385,185,160391,6,0,P|465:144|500:228,1,202.500007724762,6|0,0:0|0:0,0:0:0:0:
488,256,160730,2,0,P|448:268|412:256,1,67.5000025749208,8|0,0:0|0:0,0:0:0:0:
264,184,160899,2,0,L|152:196,1,67.5000025749208,4|0,0:0|0:0,0:0:0:0:
20,120,161069,6,0,P|56:52|68:144,1,202.500007724762,6|0,0:0|0:0,0:0:0:0:
80,152,161407,2,0,P|68:184|76:220,1,67.5000025749208,8|0,0:0|0:0,0:0:0:0:
248,320,161577,2,0,P|328:272|212:244,1,270.000010299683,4|0,0:0|0:0,0:0:0:0:
168,324,162001,1,4,0:0:0:0:
180,323,162085,2,0,L|252:319,1,67.5000025749208,8|0,0:0|0:0,0:0:0:0:
428,264,162255,2,0,L|500:268,1,67.5000025749208,12|0,0:0|0:0,0:0:0:0:
448,108,162424,6,0,L|344:116,1,90,6|0,0:0|0:0,0:0:0:0:
144,188,162679,6,0,L|40:180,1,90,10|0,0:0|0:0,0:0:0:0:
160,44,162933,6,0,L|152:116,1,67.5000025749208,6|0,0:0|0:0,0:0:0:0:
196,256,163102,6,0,L|352:264,1,135.000005149842,10|0,0:0|0:0,0:0:0:0:
416,252,163357,1,6,0:0:0:0:
428,264,163441,2,0,P|432:300|416:348,1,67.5000025749208,4|0,0:0|0:0,0:0:0:0:
276,172,163611,2,0,P|272:136|288:88,1,67.5000025749208,4|0,0:0|0:0,0:0:0:0:
456,104,163780,6,0,P|520:56|424:28,1,202.500007724762,6|0,0:0|0:0,0:0:0:0:
428,16,164119,2,0,L|344:12,1,67.5000025749208,8|0,0:0|0:0,0:0:0:0:
209,115,164289,1,6,0:0:0:0:
209,115,164374,1,2,0:0:0:0:
209,115,164458,2,0,B|245:79|237:19|237:19|237:83|309:127,1,202.500007724762,6|0,0:0|0:0,0:0:0:0:
296,108,164797,2,0,L|363:111,1,67.5000025749208,8|0,0:0|0:0,0:0:0:0:
156,48,164967,2,0,L|88:51,1,67.5000025749208,4|0,0:0|0:0,0:0:0:0:
24,184,165136,6,0,P|-12:272|80:224,1,202.500007724762,6|0,0:0|0:0,0:0:0:0:
84,252,165475,2,0,P|120:244|160:264,1,67.5000025749208,8|0,0:0|0:0,0:0:0:0:
288,344,165645,2,0,P|336:336|248:264,1,270.000010299683,6|2,0:0|0:0,0:0:0:0:
200,332,166069,1,4,0:0:0:0:
220,341,166153,2,0,L|320:345,1,67.5000025749208,4|0,0:0|0:0,0:0:0:0:
400,280,166323,2,0,L|467:277,1,67.5000025749208,4|0,0:0|0:0,0:0:0:0:
363,138,166492,6,0,B|330:105|341:17|341:17|341:107|262:114,1,202.500007724762,6|0,0:0|0:0,0:0:0:0:
296,102,166831,2,0,P|250:111|217:96,1,67.5000025749208,8|0,0:0|0:0,0:0:0:0:
36,105,167001,1,6,0:0:0:0:
36,105,167085,1,2,0:0:0:0:
36,105,167170,2,0,B|81:40|158:85|159:162|55:232,1,202.500007724762,6|0,0:0|0:0,0:0:0:0:
85,211,167509,2,0,P|74:255|101:305,1,67.5000025749208,8|0,0:0|0:0,0:0:0:0:
6,300,167679,2,0,P|29:338|83:355,1,67.5000025749208,4|0,0:0|0:0,0:0:0:0:
286,290,167848,6,0,P|243:240|219:335,1,202.500007724762,6|0,0:0|0:0,0:0:0:0:
222,341,168187,1,0,0:0:0:0:
416,289,168357,2,0,B|485:278|485:278|257:291,1,270.000010299683,6|2,0:0|0:0,0:0:0:0:
225,234,168780,1,0,0:0:0:0:
219,222,168865,2,0,B|250:154|189:173|227:73,1,135.000005149842,8|4,0:0|0:0,0:0:0:0:
278,17,169119,1,8,0:0:0:0:
301,13,169204,6,0,B|355:2|409:40|404:121|328:128|302:94,1,202.5,6|0,0:0|0:0,0:0:0:0:
286,92,169543,2,0,P|256:85|209:96,1,67.5000025749208,8|0,0:0|0:0,0:0:0:0:
54,185,169713,1,6,0:0:0:0:
54,185,169797,1,2,0:0:0:0:
54,185,169882,2,0,B|4:174|-49:212|-44:293|31:300|47:276,1,202.5,6|0,0:0|0:0,0:0:0:0:
58,266,170221,2,0,P|90:257|137:280,1,67.5000025749208,8|0,0:0|0:0,0:0:0:0:
232,351,170391,2,0,P|264:360|311:337,1,67.5000025749208,4|0,0:0|0:0,0:0:0:0:
476,234,170560,6,0,B|448:194|452:118|452:118|452:206|400:202,1,202.500007724762,6|0,0:0|0:0,0:0:0:0:
408,198,170899,2,0,P|364:210|328:190,1,67.5000025749208,8|0,0:0|0:0,0:0:0:0:
156,113,171069,2,0,P|55:147|149:197,1,270.000010299683,6|6,0:0|0:0,0:0:0:0:
204,164,171492,1,4,0:0:0:0:
220,144,171576,2,0,P|224:96|208:64,1,67.5000025749208,8|0,0:0|0:0,0:0:0:0:
288,48,171746,2,0,P|256:11|222:0,1,67.5000025749208,4|0,0:0|0:0,0:0:0:0:
149,196,171916,6,0,B|189:180|237:200|237:200|241:204|241:204|289:224|349:203,1,202.500007724762,6|0,0:0|0:0,0:0:0:0:
368,204,172255,2,0,P|376:156|360:124,1,67.5000025749208,8|0,0:0|0:0,0:0:0:0:
192,268,172424,1,6,0:0:0:0:
192,268,172509,1,2,0:0:0:0:
192,268,172594,2,0,P|175:350|256:327,1,202.500007724762,6|0,0:0|0:0,0:0:0:0:
268,308,172933,2,0,L|264:228,1,67.5000025749208,8|0,0:0|0:0,0:0:0:0:
220,144,173102,2,0,L|224:64,1,67.5000025749208,4|0,0:0|0:0,0:0:0:0:
429,138,173272,6,0,B|465:110|517:198|437:254|365:202,1,202.500007724762,6|0,0:0|0:0,0:0:0:0:
340,196,173611,2,0,P|320:188|264:196,1,67.5000025749208,8|0,0:0|0:0,0:0:0:0:
36,212,173950,6,0,B|0:184|-52:272|28:328|100:276,1,202.500007724762,6|0,0:0|0:0,0:0:0:0:
125,270,174289,2,0,P|145:262|201:270,1,67.5000025749208,8|0,0:0|0:0,0:0:0:0:
456,280,174458,1,12,0:0:0:0:
456,280,174543,1,12,0:0:0:0:
456,280,174628,6,0,P|520:328|424:356,1,202.500007724762,6|0,0:0|0:0,0:0:0:0:
428,368,174967,2,0,L|344:372,1,67.5000025749208,8|0,0:0|0:0,0:0:0:0:
209,269,175136,1,6,0:0:0:0:
209,269,175222,1,2,0:0:0:0:
209,269,175306,2,0,B|245:305|237:365|237:365|237:301|309:257,1,202.500007724762,2|0,0:0|0:0,0:0:0:0:
296,276,175645,2,0,L|363:273,1,67.5000025749208,8|0,0:0|0:0,0:0:0:0:
156,336,175815,2,0,L|88:333,1,67.5000025749208,4|0,0:0|0:0,0:0:0:0:
24,200,175984,6,0,P|-12:112|80:160,1,202.500007724762,6|0,0:0|0:0,0:0:0:0:
84,132,176323,2,0,P|120:140|160:120,1,67.5000025749208,8|0,0:0|0:0,0:0:0:0:
288,40,176493,2,0,P|336:48|248:120,1,270.000010299683,6|2,0:0|0:0,0:0:0:0:
200,52,176917,1,4,0:0:0:0:
220,43,177001,2,0,L|320:39,1,67.5000025749208,4|0,0:0|0:0,0:0:0:0:
400,104,177171,2,0,L|467:107,1,67.5000025749208,4|0,0:0|0:0,0:0:0:0:
363,246,177340,6,0,B|330:279|341:367|341:367|341:277|262:270,1,202.500007724762,6|0,0:0|0:0,0:0:0:0:
296,282,177679,2,0,P|250:273|217:288,1,67.5000025749208,8|0,0:0|0:0,0:0:0:0:
36,279,177848,1,6,0:0:0:0:
36,279,177933,1,2,0:0:0:0:
36,279,178018,2,0,B|81:344|158:299|159:222|55:152,1,202.500007724762,6|0,0:0|0:0,0:0:0:0:
85,173,178357,2,0,P|74:129|101:79,1,67.5000025749208,8|0,0:0|0:0,0:0:0:0:
6,84,178526,2,0,P|29:46|83:29,1,67.5000025749208,4|0,0:0|0:0,0:0:0:0:
304,55,178696,6,0,P|297:139|226:94,1,202.500007724762,6|0,0:0|0:0,0:0:0:0:
228,80,179035,1,8,0:0:0:0:
326,229,179204,2,0,B|352:212|385:211|385:211|354:217|328:204|328:204|292:221|184:202,1,202.500007724762,6|0,0:0|0:0,0:0:0:0:
176,188,179543,1,6,0:0:0:0:
160,200,179628,2,0,P|148:236|156:276,1,67.5000025749208,10|0,0:0|0:0,0:0:0:0:
80,376,179882,2,2,L|8:364,1,67.5000025749208,10|2,0:0|0:0,0:0:0:0:
256,352,180052,5,6,0:0:0:0:
216,284,180221,1,4,0:0:0:0:
248,210,180391,1,8,0:0:0:0:
348,384,180560,5,4,0:0:0:0:
348,384,180645,1,4,0:0:0:0:
348,384,180730,1,6,0:0:0:0:
248,210,180899,5,4,0:0:0:0:
244,128,181069,1,8,0:0:0:0:
448,212,181238,5,4,0:0:0:0:
448,212,181323,1,4,0:0:0:0:
448,212,181408,1,6,0:0:0:0:
244,128,181577,5,4,0:0:0:0:
300,76,181747,1,8,0:0:0:0:
356,244,181916,5,4,0:0:0:0:
356,244,182001,1,4,0:0:0:0:
356,244,182086,1,6,0:0:0:0:
152,176,182255,5,4,0:0:0:0:
84,216,182425,1,10,0:0:0:0:
212,276,182594,1,4,0:0:0:0:
236,60,182763,5,14,0:0:0:0:
268,44,182848,1,0,0:0:0:0:
300,44,182933,1,2,0:0:0:0:
332,52,183018,1,0,0:0:0:0:
396,100,183102,5,14,0:0:0:0:
388,140,183187,1,0,0:0:0:0:
376,180,183272,1,2,0:0:0:0:
364,220,183356,1,0,0:0:0:0:
360,304,183441,5,14,0:0:0:0:
392,320,183526,1,0,0:0:0:0:
424,320,183611,1,2,0:0:0:0:
456,312,183696,1,0,0:0:0:0:
460,228,183780,5,14,0:0:0:0:
428,212,183865,1,0,0:0:0:0:
396,212,183950,1,6,0:0:0:0:
364,220,184035,1,0,0:0:0:0:
288,252,184119,5,6,0:0:0:0:
256,192,184204,12,0,185306,0:0:0:0:
52,344,185475,5,4,0:0:0:0:
