osu file format v14

[General]
AudioFilename: audio.mp3
AudioLeadIn: 0
PreviewTime: -1
Countdown: 1
SampleSet: Soft
StackLeniency: 0.7
Mode: 0
LetterboxInBreaks: 0
WidescreenStoryboard: 0

[Editor]
DistanceSpacing: 0.8
BeatDivisor: 2
GridSize: 4
TimelineZoom: 1

[Metadata]
Title:Neuronecia
TitleUnicode:Neuronecia
Artist:Function Phantom
ArtistUnicode:Function Phantom
Creator:CanDyFloS
Version:ChronoNeuro
Source:
Tags:
BeatmapID:1567135
BeatmapSetID:743079

[Difficulty]
HPDrainRate:5
CircleSize:5
OverallDifficulty:5
ApproachRate:5
SliderMultiplier:1.4
SliderTickRate:1

[Events]
//Background and Video events
//Break Periods
//Storyboard Layer 0 (Background)
//Storyboard Layer 1 (Fail)
//Storyboard Layer 2 (Pass)
//Storyboard Layer 3 (Foreground)
//Storyboard Sound Samples

[TimingPoints]
1022,338.983050847458,4,2,0,100,1,0

[HitObjects]
209,161,344,5,0,0:0:0:0:
209,144,513,1,0,0:0:0:0:
283,118,683,1,0,0:0:0:0:
284,165,1191,1,0,0:0:0:0:
195,280,1360,1,0,0:0:0:0:
224,189,1530,1,0,0:0:0:0:
239,284,1699,1,0,0:0:0:0:
294,293,1869,1,0,0:0:0:0:
350,273,2038,1,0,0:0:0:0:
144,191,2208,1,0,0:0:0:0:
405,250,2377,1,0,0:0:0:0:
397,200,2547,1,0,0:0:0:0:
344,172,2886,1,0,0:0:0:0:
306,157,3055,1,0,0:0:0:0:
248,147,3225,1,0,0:0:0:0:
234,191,3564,1,0,0:0:0:0:
228,225,3733,1,0,0:0:0:0:
230,230,3903,1,0,0:0:0:0:
230,250,4072,1,0,0:0:0:0:
280,248,4242,1,0,0:0:0:0:
217,273,4411,1,0,0:0:0:0:
191,295,4581,1,0,0:0:0:0:
295,147,4920,1,0,0:0:0:0:
335,138,5089,1,0,0:0:0:0:
354,165,5259,1,0,0:0:0:0:
319,213,5598,1,0,0:0:0:0:
244,267,5937,1,0,0:0:0:0:
257,308,6106,1,0,0:0:0:0:
311,284,6445,1,0,0:0:0:0:
302,236,6615,1,0,0:0:0:0:
289,197,6954,1,0,0:0:0:0:
309,154,7123,1,0,0:0:0:0:
357,142,7293,1,0,0:0:0:0:
372,198,7632,1,0,0:0:0:0:
325,236,7801,1,0,0:0:0:0:
292,273,8140,1,0,0:0:0:0:
276,308,8310,1,0,0:0:0:0:
314,349,8479,1,0,0:0:0:0:
376,301,8818,1,0,0:0:0:0:
363,262,9157,1,0,0:0:0:0:
323,222,9327,1,0,0:0:0:0:
274,318,9496,2,0,L|172:292,1,70
266,132,9835,1,0,0:0:0:0:
291,79,10005,1,0,0:0:0:0:
354,110,10344,1,0,0:0:0:0:
342,157,10513,1,0,0:0:0:0:
277,183,10683,1,0,0:0:0:0:
244,208,11022,1,0,0:0:0:0:
231,244,11191,1,0,0:0:0:0:
247,283,11530,1,0,0:0:0:0:
307,283,11699,1,0,0:0:0:0:
336,225,12038,1,0,0:0:0:0:
59,270,12208,2,0,L|177:191,1,140
129,327,12886,2,0,L|216:206,1,140
183,101,13225,1,0,0:0:0:0:
326,220,13564,1,0,0:0:0:0:
424,105,13733,1,0,0:0:0:0:
314,227,14072,1,0,0:0:0:0:
175,158,14411,1,0,0:0:0:0:
226,86,14750,1,0,0:0:0:0:
375,201,15089,1,0,0:0:0:0:
418,151,15259,1,0,0:0:0:0:
368,199,15598,1,0,0:0:0:0:
325,203,15937,1,0,0:0:0:0:
230,177,16276,1,0,0:0:0:0:
172,112,16615,1,0,0:0:0:0:
238,177,16954,1,0,0:0:0:0:
280,193,17123,1,0,0:0:0:0:
352,211,17462,1,0,0:0:0:0:
320,204,17801,1,0,0:0:0:0:
256,183,18140,1,0,0:0:0:0:
189,141,18479,1,0,0:0:0:0:
153,120,18649,1,0,0:0:0:0:
212,195,18818,1,0,0:0:0:0:
288,216,18988,1,0,0:0:0:0:
339,223,19327,1,0,0:0:0:0:
379,200,19496,1,0,0:0:0:0:
385,164,19666,1,0,0:0:0:0:
352,195,20005,1,0,0:0:0:0:
303,232,20174,1,0,0:0:0:0:
256,214,20513,1,0,0:0:0:0:
191,178,20683,1,0,0:0:0:0:
166,144,20852,1,0,0:0:0:0:
191,200,21191,1,0,0:0:0:0:
220,266,21699,2,0,B|200:172|284:229|285:219|274:249,15,70
183,226,24411,1,0,0:0:0:0:
176,183,24581,1,0,0:0:0:0:
176,183,24750,1,0,0:0:0:0:
253,253,24920,2,0,L|204:184,4,70
171,192,25937,1,0,0:0:0:0:
171,192,26106,1,0,0:0:0:0:
171,192,26276,1,0,0:0:0:0:
171,192,26445,1,0,0:0:0:0:
154,247,28140,2,0,P|566:12|583:213,1,910
244,203,30683,1,0,0:0:0:0:
167,286,31191,2,0,L|180:174,1,70
223,312,31530,2,0,B|239:197|236:223,1,70
264,192,32208,1,0,0:0:0:0:
118,105,32547,1,0,0:0:0:0:
194,210,32716,1,0,0:0:0:0:
208,138,33055,1,0,0:0:0:0:
262,116,33225,1,0,0:0:0:0:
274,184,33394,1,0,0:0:0:0:
242,179,33564,1,0,0:0:0:0:
363,221,33903,1,0,0:0:0:0:
363,221,34072,1,0,0:0:0:0:
363,221,34242,1,0,0:0:0:0:
268,191,34411,1,0,0:0:0:0:
226,135,34750,1,0,0:0:0:0:
363,221,34920,1,0,0:0:0:0:
363,221,35089,1,0,0:0:0:0:
242,206,35259,1,0,0:0:0:0:
363,221,35428,1,0,0:0:0:0:
268,94,35598,1,0,0:0:0:0:
306,174,35767,1,0,0:0:0:0:
363,221,35937,1,0,0:0:0:0:
363,221,36106,1,0,0:0:0:0:
227,94,36276,1,0,0:0:0:0:
258,93,36445,1,0,0:0:0:0:
363,221,36615,1,0,0:0:0:0:
314,152,36784,1,0,0:0:0:0:
260,207,36954,1,0,0:0:0:0:
363,221,37123,1,0,0:0:0:0:
269,261,37293,1,0,0:0:0:0:
328,220,37462,1,0,0:0:0:0:
260,146,37632,1,0,0:0:0:0:
251,111,37801,1,0,0:0:0:0:
279,146,37971,1,0,0:0:0:0:
363,221,38140,1,0,0:0:0:0:
327,209,38310,1,0,0:0:0:0:
322,239,38479,1,0,0:0:0:0:
263,256,38649,1,0,0:0:0:0:
205,143,38818,1,0,0:0:0:0:
314,125,38988,1,0,0:0:0:0:
222,257,39157,1,0,0:0:0:0:
363,221,39666,1,0,0:0:0:0:
363,221,39835,1,0,0:0:0:0:
363,221,40005,1,0,0:0:0:0:
363,221,40174,1,0,0:0:0:0:
37,145,40344,1,0,0:0:0:0:
262,147,40513,1,0,0:0:0:0:
312,90,40683,1,0,0:0:0:0:
320,117,40852,1,0,0:0:0:0:
336,180,41022,1,0,0:0:0:0:
299,226,41191,1,0,0:0:0:0:
248,241,41360,1,0,0:0:0:0:
363,221,41699,1,0,0:0:0:0:
171,103,41869,1,0,0:0:0:0:
226,79,42038,1,0,0:0:0:0:
243,162,42208,1,0,0:0:0:0:
263,176,42377,1,0,0:0:0:0:
243,201,42547,1,0,0:0:0:0:
363,221,42716,1,0,0:0:0:0:
120,130,42886,1,0,0:0:0:0:
185,151,43055,1,0,0:0:0:0:
260,90,43225,1,0,0:0:0:0:
284,181,43394,1,0,0:0:0:0:
363,221,43564,1,0,0:0:0:0:
166,125,43733,1,0,0:0:0:0:
253,223,43903,1,0,0:0:0:0:
303,129,44242,1,0,0:0:0:0:
363,221,44411,1,0,0:0:0:0:
246,132,44581,1,0,0:0:0:0:
239,128,44750,1,0,0:0:0:0:
239,134,44920,1,0,0:0:0:0:
363,221,45259,1,0,0:0:0:0:
363,221,45428,1,0,0:0:0:0:
363,221,45598,1,0,0:0:0:0:
264,222,45937,1,0,0:0:0:0:
228,194,46106,1,0,0:0:0:0:
217,139,46276,1,0,0:0:0:0:
259,101,46445,1,0,0:0:0:0:
304,134,46615,1,0,0:0:0:0:
294,197,46954,1,0,0:0:0:0:
184,104,47293,1,0,0:0:0:0:
282,126,47462,1,0,0:0:0:0:
183,279,47632,1,0,0:0:0:0:
265,130,47801,1,0,0:0:0:0:
308,167,47971,1,0,0:0:0:0:
184,175,48140,1,0,0:0:0:0:
226,64,48310,1,0,0:0:0:0:
326,128,48479,1,0,0:0:0:0:
211,186,48649,1,0,0:0:0:0:
150,176,48818,1,0,0:0:0:0:
205,57,48988,1,0,0:0:0:0:
289,112,49157,1,0,0:0:0:0:
294,175,49327,1,0,0:0:0:0:
291,163,49496,1,0,0:0:0:0:
185,90,49666,1,0,0:0:0:0:
292,60,49835,1,0,0:0:0:0:
323,102,50005,1,0,0:0:0:0:
268,169,50174,1,0,0:0:0:0:
343,192,50344,1,0,0:0:0:0:
209,147,50513,1,0,0:0:0:0:
289,162,50683,5,0,0:0:0:0:
277,167,50852,5,0,0:0:0:0:
259,165,51022,1,0,0:0:0:0:
222,148,51191,5,0,0:0:0:0:
197,147,51360,1,0,0:0:0:0:
199,123,51699,5,0,0:0:0:0:
226,171,51869,5,0,0:0:0:0:
259,136,52038,5,0,0:0:0:0:
276,134,52208,5,0,0:0:0:0:
277,192,52377,5,0,0:0:0:0:
182,133,52716,5,0,0:0:0:0:
232,157,52886,5,0,0:0:0:0:
246,199,53225,5,0,0:0:0:0:
240,158,53394,5,0,0:0:0:0:
247,189,53733,5,0,0:0:0:0:
247,194,53903,5,0,0:0:0:0:
211,184,54072,1,0,0:0:0:0:
39,158,55598,1,0,0:0:0:0:
98,152,55767,1,0,0:0:0:0:
168,121,55937,1,0,0:0:0:0:
230,110,56106,1,0,0:0:0:0:
211,111,56276,1,0,0:0:0:0:
230,110,56445,1,0,0:0:0:0:
230,110,56615,1,0,0:0:0:0:
256,101,56784,1,0,0:0:0:0:
138,155,56954,1,0,0:0:0:0:
