osu file format v14

[General]
AudioFilename: audio.mp3
AudioLeadIn: 0
PreviewTime: 121083
Countdown: 0
SampleSet: Soft
StackLeniency: 0.7
Mode: 0
LetterboxInBreaks: 0
WidescreenStoryboard: 0

[Editor]
Bookmarks: 22341,33313,44284,53883,66226,77197,97769,121083,143026,164969,186912,208855,230797
DistanceSpacing: 0.9
BeatDivisor: 4
GridSize: 4
TimelineZoom: 1

[Metadata]
Title:Neuro Phantasm
TitleUnicode:Neuro Phantasm
Artist:Function Phantom
ArtistUnicode:Function Phantom
Creator:RikiH_
Version:Darkness
Source:
Tags:
BeatmapID:1311832
BeatmapSetID:622226

[Difficulty]
HPDrainRate:6
CircleSize:4
OverallDifficulty:7
ApproachRate:9.4
SliderMultiplier:2.2
SliderTickRate:1

[Events]
//Background and Video events
0,0,"black-cloud-fantasy-planet-wallpaper (1).jpg",0,0
//Break Periods
2,941,5687
2,133427,142487
//Storyboard Layer 0 (Background)
//Storyboard Layer 1 (Fail)
//Storyboard Layer 2 (Pass)
//Storyboard Layer 3 (Foreground)
//Storyboard Sound Samples

[TimingPoints]
399,342.857142857143,4,1,0,20,1,0
6227,-1000,4,2,0,10,0,0
11370,-100,4,2,0,20,0,0
12399,-200,4,2,0,20,0,0
13084,-66.6666666666667,4,2,0,10,0,0
14113,-133.333333333333,4,2,0,10,0,0
15999,-66.6666666666667,4,2,0,10,0,0
16856,-133.333333333333,4,2,0,10,0,0
22341,-100,4,1,0,30,0,1
22427,-100,4,1,0,30,0,0
33313,-100,4,1,0,30,0,1
33399,-100,4,1,0,30,0,0
44284,-1000,4,2,0,10,0,0
47883,-1000,4,2,0,5,0,0
53883,-66.6666666666667,4,1,0,20,0,1
55169,-66.6666666666667,4,1,0,20,0,0
55255,-100,4,1,0,20,0,1
55340,-100,4,1,0,20,0,0
66226,-83.3333333333333,4,1,0,20,0,1
66312,-83.3333333333333,4,1,0,20,0,0
77197,-71.4285714285714,4,1,0,20,0,1
77283,-71.4285714285714,4,1,0,20,0,0
97769,-50,4,1,0,30,0,1
99055,-50,4,1,0,30,0,0
99140,-62.5,4,1,0,30,0,1
107713,-200,4,1,0,30,0,1
108056,-62.5,4,1,0,30,0,1
108399,-200,4,1,0,30,0,1
108741,-62.5,4,1,0,30,0,1
121084,-50,4,2,0,30,0,0
121599,-52.6315789473684,4,2,0,30,0,0
122113,-55.5555555555556,4,2,0,30,0,0
122627,-58.8235294117647,4,2,0,30,0,0
123141,-62.5,4,2,0,30,0,0
123484,-66.6666666666667,4,2,0,30,0,0
123827,-71.4285714285714,4,2,0,30,0,0
124341,-76.9230769230769,4,2,0,30,0,0
124856,-83.3333333333333,4,2,0,30,0,0
125370,-90.9090909090909,4,2,0,30,0,0
125884,-100,4,2,0,30,0,0
126227,-111.111111111111,4,2,0,30,0,0
126570,-142.857142857143,4,2,0,15,0,0
127084,-153.846153846154,4,2,0,15,0,0
127599,-166.666666666667,4,2,0,15,0,0
128113,-181.818181818182,4,2,0,10,0,0
128627,-200,4,2,0,10,0,0
128970,-222.222222222222,4,2,0,10,0,0
129313,-250,4,2,0,10,0,0
129827,-285.714285714286,4,2,0,10,0,0
130341,-333.333333333333,4,2,0,10,0,0
130856,-400,4,2,0,10,0,0
131370,-500,4,2,0,10,0,0
131713,-666.666666666667,4,2,0,10,0,0
132056,-1000,4,2,0,10,0,0

[Colours]
Combo1 : 68,187,128
Combo2 : 17,147,185
Combo3 : 112,151,160
Combo4 : 49,74,217

[HitObjects]
153,199,399,6,0,B|203:174|255:193|255:193|313:216|376:183,1,220
366,187,6227,6,0,L|370:165,2,22
57,36,10684,6,0,P|63:44|65:73,1,38.5
59,82,11370,6,0,B|228:58|228:58|287:91,1,220
387,145,11884,1,0,0:0:0:0:
383,155,12399,6,0,L|391:259,1,82.5
389,237,12741,6,0,P|341:270|310:271,1,82.5
306,265,13084,6,0,P|282:244|229:221,1,82.5000031471254
228,320,13256,2,0,P|204:341|151:364,1,82.5000031471254
143,262,13427,2,0,L|94:186,1,82.5000031471254
55,119,13599,1,0,0:0:0:0:
256,16,13770,5,0,0:0:0:0:
272,18,13856,1,0,0:0:0:0:
288,21,13941,1,0,0:0:0:0:
304,24,14027,1,0,0:0:0:0:
320,29,14113,6,0,L|418:46,1,82.5000031471254
348,109,14370,6,0,L|434:158,1,82.5000031471254
352,198,14627,6,0,L|416:274,1,82.5000031471254
325,278,14884,6,0,L|359:371,1,82.5000031471254
267,340,15141,6,0,P|228:352|179:333,1,82.5000031471254
174,329,15399,1,0,0:0:0:0:
163,316,15484,6,0,P|181:274|175:230,1,82.5000031471254
255,235,15741,6,0,P|286:201|295:158,1,82.5000031471254
267,95,15999,6,0,B|254:35|254:35|239:72,1,82.5000031471254
129,118,16170,2,0,B|189:105|189:105|152:90,1,82.5000031471254
340,53,16341,1,0,0:0:0:0:
501,132,16513,5,0,0:0:0:0:
500,148,16599,1,0,0:0:0:0:
499,164,16684,1,0,0:0:0:0:
498,180,16770,1,0,0:0:0:0:
497,196,16856,6,0,L|505:286,1,82.5000031471254
340,256,17113,6,0,L|422:248,1,82.5000031471254
361,88,17370,6,0,L|369:178,1,82.5000031471254
204,148,17627,6,0,L|286:140,1,82.5000031471254
234,66,17884,6,0,L|151:73,1,82.5000031471254
133,65,18141,1,0,0:0:0:0:
115,56,18227,6,0,P|71:37|18:33,1,82.5000031471254
91,136,18484,6,0,P|43:141|-4:164,1,82.5000031471254
138,207,18741,6,0,P|99:235|69:279,1,82.5000031471254
220,220,18999,6,0,P|201:264|197:317,1,82.5000031471254
296,189,19256,5,0,0:0:0:0:
255,24,19427,1,0,0:0:0:0:
335,17,19513,1,0,0:0:0:0:
344,30,19599,5,0,0:0:0:0:
256,192,19684,12,0,22170,0:0:0:0:
288,156,22341,6,0,B|315:150|340:139|340:139|394:157|430:186|430:186|457:180|485:145,1,220
417,33,22856,1,0,0:0:0:0:
335,264,23027,1,0,0:0:0:0:
211,220,23199,1,0,0:0:0:0:
76,205,23370,1,0,0:0:0:0:
132,323,23541,1,0,0:0:0:0:
147,328,23627,1,0,0:0:0:0:
217,296,23713,6,0,B|231:246|231:246|233:246|233:246|231:245|231:245|237:177,1,110
302,77,24056,2,0,P|322:49|292:74,1,110
297,313,24399,2,0,B|309:262|309:262|308:261|308:261|310:261|310:261|339:199,1,110
259,64,24741,2,0,P|250:104|276:73,1,110
279,35,24999,1,0,0:0:0:0:
250,23,25084,6,0,B|223:26|189:39|189:39|145:14|89:21|89:21|27:65,1,220
128,156,25599,2,0,B|137:173|166:189|166:189|121:236|116:292|116:292|119:272|107:229,1,220
267,300,26113,1,0,0:0:0:0:
400,255,26284,1,0,0:0:0:0:
400,255,26370,1,0,0:0:0:0:
400,255,26456,6,0,B|405:276|405:276|391:315,1,55
465,179,26627,2,0,B|470:158|470:158|456:119,1,55
421,34,26799,1,0,0:0:0:0:
216,104,26970,2,0,B|189:109|159:117|159:117|109:89|62:82|62:82|104:71|164:85,1,220
306,12,27484,2,0,P|299:29|297:73,1,55
314,142,27656,2,0,P|314:160|331:201,1,55
376,259,27827,6,0,B|410:294|468:315|468:315|483:252|467:204,1,220
510,79,28341,1,0,0:0:0:0:
379,103,28513,2,0,B|334:69|334:69|322:16,2,110
467,205,29027,2,0,P|477:201|456:196,1,55
449,207,29199,6,0,B|403:237|403:237|402:235|402:235|399:240|399:240|341:229,1,110
225,196,29541,1,0,0:0:0:0:
461,220,29713,2,0,B|399:258|399:258|298:231|298:231|281:261|250:274,1,220
144,304,30227,1,0,0:0:0:0:
151,171,30399,1,0,0:0:0:0:
151,171,30484,1,0,0:0:0:0:
151,171,30570,6,0,B|136:117|136:117|153:9|153:9|112:75,1,220
26,144,31084,1,0,0:0:0:0:
252,100,31256,1,0,0:0:0:0:
331,204,31427,1,0,0:0:0:0:
383,82,31599,1,0,0:0:0:0:
252,100,31770,1,0,0:0:0:0:
247,110,31856,1,0,0:0:0:0:
252,188,31941,6,0,P|266:251|362:277,1,165
331,204,32284,1,0,0:0:0:0:
247,336,32456,2,0,B|205:340|205:340|200:334|200:334|201:341|201:341|133:347|133:347|129:352|129:352|126:344|126:344|85:345|85:345|82:341|82:341|79:345|79:345|36:350,1,220
13,221,32970,5,0,0:0:0:0:
16,202,33056,1,0,0:0:0:0:
98,151,33141,5,0,0:0:0:0:
95,132,33227,1,0,0:0:0:0:
38,65,33313,6,0,B|54:44|48:11|48:11|72:34|116:43|148:41|201:8,1,220
315,72,33827,2,0,B|337:180|337:180|344:185|344:185|334:186|334:186|339:189|339:189|349:222|349:222|344:227|344:227|354:227|354:227|350:235|350:235|369:318|369:318|381:257,1,330
494,118,34513,2,0,B|504:75|504:75|516:95,1,55
488,136,34684,6,0,B|505:167|509:184|509:184|513:188|513:188|508:190|508:190|498:231|477:250,1,110
375,296,35027,2,0,B|367:294|357:253|357:253|352:251|352:251|356:247|356:247|360:230|377:199,1,110
376,67,35370,2,0,B|360:56|360:56|322:43,1,55
268,150,35541,2,0,B|284:139|284:139|322:126,1,55
246,65,35713,1,0,0:0:0:0:
40,35,35884,1,0,0:0:0:0:
29,47,35970,1,0,0:0:0:0:
29,63,36056,6,0,B|41:117|41:117|10:236|10:236|23:293,1,220
127,353,36570,1,0,0:0:0:0:
143,222,36741,2,0,P|190:182|256:165,2,110
251,298,37256,1,0,0:0:0:0:
251,298,37341,1,0,0:0:0:0:
251,298,37427,6,0,L|314:311,1,55
295,224,37599,2,0,L|358:211,1,55
386,294,37770,1,0,0:0:0:0:
485,38,37941,5,0,0:0:0:0:
213,84,38113,1,0,0:0:0:0:
386,294,38284,1,0,0:0:0:0:
485,38,38456,6,0,L|430:25,1,55
354,65,38627,2,0,L|299:52,1,55
213,84,38799,6,0,B|161:67|161:67|179:122|179:122|142:234,1,220
107,350,39313,2,0,B|55:367|55:367|73:312|73:312|36:200,1,220
0,83,39827,1,0,0:0:0:0:
128,115,39999,1,0,0:0:0:0:
128,115,40084,1,0,0:0:0:0:
178,57,40170,6,0,B|206:48|224:37|224:37|229:39|229:39|229:34|229:34|263:39|290:26,2,110
159,188,40684,2,0,P|81:180|79:54,1,220
39,188,41199,1,0,0:0:0:0:
102,303,41370,1,0,0:0:0:0:
102,303,41456,1,0,0:0:0:0:
102,303,41541,6,0,B|153:292|153:292|256:358|256:358|311:344,1,220
428,380,42056,2,0,P|358:351|360:216,1,220
267,121,42570,1,0,0:0:0:0:
396,98,42741,2,0,P|404:95|388:96,1,55
369,97,42913,5,0,0:0:0:0:
248,43,43084,2,0,L|181:48,1,55
105,53,43256,1,0,0:0:0:0:
150,229,43427,1,0,0:0:0:0:
332,219,43599,1,0,0:0:0:0:
92,58,43770,1,0,0:0:0:0:
74,64,43856,1,0,0:0:0:0:
56,71,43941,2,0,L|173:99,1,110
162,96,44284,6,0,P|209:109|155:100,1,231
256,192,49769,12,0,53712,0:0:0:0:
299,132,53883,6,0,B|317:106|317:106|312:54,1,82.5000031471254
213,132,54055,2,0,B|195:106|195:106|200:54,1,82.5000031471254
256,200,54226,2,0,L|256:284,1,82.5000031471254
154,359,54397,2,0,B|133:356|133:356|155:346,3,41.2500015735627
166,331,54569,2,0,P|127:314|95:275,1,82.5000031471254
43,184,54740,2,0,L|55:95,1,82.5000031471254
140,33,54912,6,0,B|183:22|224:22|224:22|251:37|267:60|267:60|304:84|304:84|346:72|346:72|371:86,1,247.500009441376
421,30,55255,6,0,B|396:73|396:73|393:72|393:72|381:108|382:119|382:119|379:119|379:119|388:148|395:152|395:152|396:158|396:158|408:177|403:197,1,165
471,220,55597,1,0,0:0:0:0:
359,342,55769,1,0,0:0:0:0:
359,342,55855,1,0,0:0:0:0:
359,342,55940,2,0,B|300:322|300:322|244:346,1,110
153,211,56283,2,0,B|260:171|260:171|230:230,1,165
196,143,56626,6,0,P|176:89|133:58,1,110
35,190,56969,1,0,0:0:0:0:
285,32,57140,1,0,0:0:0:0:
285,32,57226,1,0,0:0:0:0:
285,32,57312,2,0,B|343:36|343:36|347:35|347:35|348:39|348:39|350:36|350:36|407:41,1,110
477,179,57655,2,0,B|441:223|441:223|415:139|415:139|370:136,1,165
350,206,57997,6,0,B|368:262|368:262|372:265|372:265|368:268|368:268|342:309|342:309|343:313|343:313|337:313|337:313|348:355,1,165
427,330,58340,1,0,0:0:0:0:
278,257,58512,2,0,P|257:247|234:271,1,55
229,279,58683,2,0,L|204:165,1,110
120,29,59026,2,0,L|96:136,1,110
62,298,59369,6,0,B|68:309|73:339|73:339|79:267|27:221,1,165
14,146,59712,1,0,0:0:0:0:
163,214,59883,2,0,B|224:207|224:207|228:203|228:203|274:200|274:200|278:195|278:195|328:190|328:190|333:186|333:186|382:182,1,220
485,307,60397,5,0,0:0:0:0:
486,300,60483,1,0,0:0:0:0:
399,348,60569,5,0,0:0:0:0:
393,341,60655,1,0,0:0:0:0:
413,257,60740,6,0,B|458:236|475:176|449:120|443:127|443:127|469:125,1,165
498,55,61083,2,0,P|452:44|387:70,1,110
387,60,61340,1,0,0:0:0:0:
380,54,61426,2,0,L|256:40,1,110
120,111,61769,2,0,B|125:130|125:130|122:135|122:135|129:166,3,55
81,231,62112,6,0,L|69:342,2,110
55,67,62626,2,0,B|48:54|48:54|93:34,1,55
164,13,62797,1,0,0:0:0:0:
417,86,62969,1,0,0:0:0:0:
216,253,63140,1,0,0:0:0:0:
205,278,63226,1,0,0:0:0:0:
203,305,63312,1,0,0:0:0:0:
210,331,63397,1,0,0:0:0:0:
228,351,63483,6,0,P|283:335|327:376,1,110
291,201,63826,1,0,0:0:0:0:
129,232,63997,1,0,0:0:0:0:
129,232,64083,1,0,0:0:0:0:
129,232,64169,2,0,B|105:250|105:250|116:348,1,110
58,153,64512,2,0,B|34:135|34:135|45:37,1,110
205,87,64855,6,0,P|152:123|186:81,1,165
170,12,65197,1,0,0:0:0:0:
265,147,65369,2,0,P|325:171|436:79,1,220
394,244,65883,2,0,P|369:253|332:254,1,55
118,244,66055,2,0,P|143:253|180:254,1,55
256,162,66226,6,0,B|275:101|275:101|272:95|272:95|278:99|278:99|408:86|408:86,1,197.99999395752
261,82,66569,6,0,P|209:41|136:28,1,131.99999597168
160,147,66826,6,0,P|151:211|171:274,1,131.99999597168
266,198,67083,6,0,P|326:173|366:136,1,65.9999979858399
349,89,67255,2,0,B|373:65|380:32|380:32|370:101|424:179|462:186,1,197.99999395752
487,63,67597,5,0,0:0:0:0:
371,331,67769,1,0,0:0:0:0:
210,90,67940,1,0,0:0:0:0:
82,350,68112,2,0,P|69:357|34:324,1,65.9999979858399
25,319,68283,6,0,B|63:265|63:265|51:128,1,197.99999395752
174,67,68626,2,0,B|136:121|136:121|148:258,1,197.99999395752
161,341,68969,6,0,B|230:325|237:253|237:253|229:166,1,197.99999395752
275,92,69312,1,0,0:0:0:0:
372,263,69483,1,0,0:0:0:0:
372,263,69569,1,0,0:0:0:0:
372,263,69655,2,0,B|407:249|436:251|457:262|457:262|429:245|417:227,1,131.99999597168
275,92,69997,2,0,B|199:66|149:65|149:65|117:45|117:45|137:50|131:109,1,197.99999395752
126,169,70340,6,0,B|134:240|134:240|123:284|123:284|144:349|144:349|155:324,1,197.99999395752
229,279,70683,1,0,0:0:0:0:
31,254,70855,2,0,B|23:191|23:191|32:185|32:185|20:180|20:180|14:131|14:131|25:88|58:56|78:53|110:57,1,263.99999194336
302,29,71369,1,0,0:0:0:0:
306,35,71455,1,0,0:0:0:0:
309,41,71540,1,0,0:0:0:0:
312,48,71626,1,0,0:0:0:0:
316,58,71712,6,0,B|309:80|309:80|326:121|326:121|318:138|318:138|336:176|337:194|334:214|330:225|326:238|322:244|318:251|315:255,1,197.99999395752
235,194,72055,2,0,B|294:156|294:156|353:160|389:186|389:186|425:169,1,197.99999395752
458,87,72397,6,0,P|471:164|505:223,1,131.99999597168
370,345,72655,6,0,P|398:285|407:220,1,131.99999597168
356,92,72912,6,0,P|341:60|316:37,1,65.9999979858399
222,15,73083,6,0,B|129:36|129:36|97:13,2,131.99999597168
46,108,73597,1,0,0:0:0:0:
46,108,73683,1,0,0:0:0:0:
46,108,73769,6,0,B|81:133|81:133|73:246|73:246|107:275,1,197.99999395752
173,201,74112,2,0,B|208:226|208:226|200:339|200:339|234:368,1,197.99999395752
299,293,74455,6,0,B|303:227|303:227|336:195|336:195|345:195|345:195|392:146|392:146|397:61,1,263.99999194336
201,32,74969,2,0,P|196:35|223:55,1,65.9999979858399
184,22,75140,2,0,B|113:15|113:15|47:27,1,131.99999597168
328,22,75483,2,0,B|399:15|399:15|465:27,1,131.99999597168
386,211,75826,5,0,0:0:0:0:
256,61,75997,1,0,0:0:0:0:
256,61,76083,1,0,0:0:0:0:
256,61,76169,2,0,L|241:-3,2,65.9999979858399
188,248,76512,1,0,0:0:0:0:
188,248,76597,1,0,0:0:0:0:
188,248,76683,1,0,0:0:0:0:
43,109,76855,5,0,0:0:0:0:
108,152,76940,1,0,0:0:0:0:
180,166,77026,1,0,0:0:0:0:
256,171,77112,1,0,0:0:0:0:
321,134,77197,6,0,B|363:117|378:99|378:99|369:71|355:65|355:65|364:92|414:117|432:118|432:118|442:104|438:89,1,230.99999295044
390,200,77540,2,0,P|377:283|470:327,1,153.999995300293
390,200,77797,2,0,P|358:273|287:295,1,153.999995300293
282,178,78055,2,0,L|269:101,1,76.9999976501466
176,32,78226,2,0,B|98:8|98:8|28:37,1,153.999995300293
33,267,78569,6,0,B|111:291|111:291|181:262,2,153.999995300293
256,330,79083,1,0,0:0:0:0:
256,330,79169,1,0,0:0:0:0:
256,330,79255,2,0,B|293:317|293:317|322:321|322:321|341:294|341:294|388:309|388:309|419:266|419:266|458:270,1,230.99999295044
469,268,79597,6,0,P|455:254|494:243,1,76.9999976501466
415,100,79769,2,0,P|449:100|438:132,1,76.9999976501466
287,40,79940,6,0,B|240:22|240:22|263:47,1,76.9999976501466
257,197,80112,2,0,B|304:215|304:215|285:195,1,76.9999976501466
118,119,80283,6,0,P|62:113|4:182,1,153.999995300293
118,119,80540,2,0,P|153:209|114:255,1,153.999995300293
75,37,80797,2,0,B|97:31|97:31|127:40|127:40|156:31,1,76.9999976501466
265,18,80969,2,0,B|344:32|344:32|388:26|388:26|415:52,1,153.999995300293
447,139,81226,1,0,0:0:0:0:
415,233,81312,6,0,P|427:298|484:265,1,153.999995300293
341,213,81569,6,0,P|364:275|415:233,1,153.999995300293
266,206,81826,6,0,P|299:263|342:213,1,153.999995300293
190,212,82083,6,0,P|233:263|266:206,1,153.999995300293
132,145,82340,6,0,P|98:233|190:212,1,230.99999295044
122,66,82683,6,0,B|60:87|33:117|21:149|21:149|43:88|79:64,1,230.99999295044
169,6,83026,2,0,B|296:32|296:32|328:20,1,153.999995300293
352,134,83283,2,0,B|374:125|374:125|501:151,1,153.999995300293
246,203,83540,2,0,L|160:215,1,76.9999976501466
85,294,83712,2,0,P|50:212|72:148,1,153.999995300293
339,123,84055,6,0,P|374:205|352:269,2,153.999995300293
110,82,84569,1,0,0:0:0:0:
110,82,84655,1,0,0:0:0:0:
110,82,84740,6,0,B|75:53|75:53|58:55|58:55|77:65,1,76.9999976501466
136,211,84912,2,0,B|171:240|171:240|188:238|188:238|169:228,1,76.9999976501466
278,108,85083,6,0,B|291:99|291:99|337:97|337:97|352:86,1,76.9999976501466
382,233,85255,2,0,B|395:242|395:242|441:244|441:244|456:255,1,76.9999976501466
175,231,85426,6,0,B|147:231|118:219|118:219|157:248|207:256|241:247|283:219,1,230.99999295044
200,136,85769,2,0,B|178:58|178:58|101:15,1,153.999995300293
89,135,86026,1,0,0:0:0:0:
287,35,86112,6,0,B|332:17|388:17|421:28|421:28|397:11|322:11,1,230.99999295044
364,121,86455,2,0,P|382:145|429:171,1,76.9999976501466
333,244,86626,2,0,P|336:273|364:319,1,76.9999976501466
243,312,86797,6,0,B|192:307|192:307|181:314|181:314|164:303|164:303|135:285|85:289,1,153.999995300293
137,216,87055,6,0,B|126:166|126:166|116:158|116:158|122:138|122:138|130:105|110:59,1,153.999995300293
195,87,87312,6,0,B|240:61|240:61|244:49|244:49|265:48|265:48|299:45|337:13,1,153.999995300293
337,102,87569,6,0,B|375:136|375:136|388:137|388:137|395:156|395:156|408:187|451:214,1,153.999995300293
366,241,87826,6,0,B|345:288|345:288|348:301|348:301|333:313|333:313|307:335|295:384,1,153.999995300293
263,262,88083,1,0,0:0:0:0:
257,256,88169,6,0,B|243:231|243:231|269:143|269:143|258:102,1,153.999995300293
42,30,88512,2,0,B|52:68|52:68|16:189,1,153.999995300293
73,280,88769,1,0,0:0:0:0:
140,185,88855,2,0,P|210:133|278:119,1,153.999995300293
381,75,89112,2,0,P|311:23|243:9,1,153.999995300293
140,55,89369,1,0,0:0:0:0:
233,265,89540,5,0,0:0:0:0:
458,212,89712,1,0,0:0:0:0:
220,279,89883,2,0,B|192:292|192:292|188:290|188:290|188:294|188:294|172:306|159:328,1,76.9999976501466
107,165,90055,2,0,B|89:190|89:190|84:190|84:190|86:193|86:193|78:212|78:237,1,76.9999976501466
274,122,90226,2,0,B|300:102|329:93|366:97|366:97|340:84|300:86,1,153.999995300293
207,39,90483,1,0,0:0:0:0:
119,72,90569,6,0,B|96:76|96:76|40:61,1,76.9999976501466
73,179,90740,2,0,B|96:183|96:183|152:168,1,76.9999976501466
259,133,90912,6,0,P|250:105|243:133,1,76.9999976501466
241,249,91083,2,0,P|233:277|225:249,1,76.9999976501466
274,145,91255,2,0,L|326:-7,1,153.999995300293
471,132,91512,2,0,L|319:80,1,153.999995300293
130,44,91769,2,0,L|213:38,1,76.9999976501466
105,178,91940,6,0,P|61:160|39:138,1,76.9999976501466
150,298,92112,2,0,P|102:304|72:296,1,76.9999976501466
276,77,92283,6,0,P|277:153|226:208,1,153.999995300293
370,176,92540,6,0,P|299:200|231:168,1,153.999995300293
306,296,92797,6,0,P|261:236|270:161,1,153.999995300293
171,271,93055,6,0,P|215:210|289:196,1,153.999995300293
154,136,93312,6,0,P|225:159|257:304,1,230.99999295044
154,136,93655,6,0,B|197:133|197:133|205:128|205:128|280:120|280:120|315:113|340:100|354:78|355:57,1,230.99999295044
246,95,93997,2,0,P|315:168|377:168,1,153.999995300293
461,107,94255,1,0,0:0:0:0:
470,221,94340,2,0,B|489:253|489:253|465:371,1,153.999995300293
359,317,94597,2,0,B|340:285|340:285|364:167,1,153.999995300293
461,107,94855,2,0,L|446:18,1,76.9999976501466
334,9,95026,5,0,0:0:0:0:
134,123,95197,1,0,0:0:0:0:
332,242,95369,2,0,P|356:260|409:269,2,76.9999976501466
216,252,95626,2,0,B|141:283|141:283|243:159,1,230.99999295044
225,51,95969,1,0,0:0:0:0:
134,123,96055,6,0,L|82:182,1,76.9999976501466
81,24,96226,2,0,L|29:83,1,76.9999976501466
83,180,96397,6,0,L|91:269,1,76.9999976501466
13,384,96569,2,0,L|6:307,1,76.9999976501466
185,285,96740,6,0,B|193:364|193:364|233:377|288:366,1,153.999995300293
344,283,96997,2,0,B|336:204|336:204|296:191|241:202,1,153.999995300293
146,177,97255,2,0,P|106:191|63:180,1,76.9999976501466
103,73,97426,6,0,L|75:-2,1,76.9999976501466
225,91,97597,2,0,L|253:16,1,76.9999976501466
333,164,97769,5,0,0:0:0:0:
369,192,97855,1,0,0:0:0:0:
388,233,97940,1,0,0:0:0:0:
388,279,98026,1,0,0:0:0:0:
430,234,98112,5,0,0:0:0:0:
484,206,98197,1,0,0:0:0:0:
507,148,98283,1,0,0:0:0:0:
501,86,98369,1,0,0:0:0:0:
453,46,98455,5,0,0:0:0:0:
379,25,98540,1,0,0:0:0:0:
301,20,98626,1,0,0:0:0:0:
226,39,98712,1,0,0:0:0:0:
172,93,98797,6,0,L|178:144,10,38.4999988250733
196,166,99140,6,0,B|205:257|205:257|244:276|273:309|273:309|288:283|323:248|323:248|314:154,1,352
349,81,99569,1,0,0:0:0:0:
428,88,99655,1,0,0:0:0:0:
438,165,99740,1,0,0:0:0:0:
371,209,99826,5,0,0:0:0:0:
313,153,99912,1,0,0:0:0:0:
244,114,99997,1,0,0:0:0:0:
165,101,100083,1,0,0:0:0:0:
109,44,100169,6,0,P|75:24|17:11,1,88
88,118,100340,2,0,P|68:152|55:210,1,88
165,101,100512,2,0,B|193:92|193:92|206:69|206:69|248:59,1,88
312,36,100683,5,0,0:0:0:0:
376,83,100769,1,0,0:0:0:0:
395,160,100855,1,0,0:0:0:0:
363,232,100940,1,0,0:0:0:0:
293,269,101026,2,0,B|266:275|266:275|205:254,1,88
165,101,101197,5,0,0:0:0:0:
117,37,101283,1,0,0:0:0:0:
43,67,101369,1,0,0:0:0:0:
44,146,101455,1,0,0:0:0:0:
120,165,101540,1,0,0:0:0:0:
165,101,101626,1,0,0:0:0:0:
230,55,101712,2,0,B|244:44|244:44|316:31,1,88
388,58,101884,6,0,B|446:65|446:65|411:50,1,88
458,229,102056,2,0,B|400:222|400:222|435:237,1,88
337,180,102227,6,0,B|344:122|344:122|329:157,1,88
508,110,102399,2,0,B|501:168|501:168|516:133,1,88
348,263,102570,5,0,0:0:0:0:
53,228,102741,1,0,0:0:0:0:
53,228,102827,1,0,0:0:0:0:
53,228,102913,2,0,L|42:138,1,88
150,121,103084,2,0,L|161:31,1,88
282,75,103256,6,0,P|350:66|469:21,1,176
210,217,103513,6,0,P|316:204|399:215,1,176
42,128,103770,6,0,P|146:112|219:131,1,176
486,113,104027,6,0,P|378:113|296:98,1,176
58,37,104284,5,0,0:0:0:0:
68,40,104370,1,0,0:0:0:0:
32,125,104456,5,0,0:0:0:0:
42,128,104542,1,0,0:0:0:0:
74,209,104627,6,0,P|92:246|85:304,1,88
183,113,104799,2,0,P|165:150|172:208,1,88
186,278,104970,1,0,0:0:0:0:
438,209,105141,6,0,P|420:246|427:304,1,88
329,113,105313,2,0,P|347:150|340:208,1,88
326,278,105484,1,0,0:0:0:0:
256,317,105570,1,0,0:0:0:0:
186,278,105656,1,0,0:0:0:0:
116,314,105741,1,0,0:0:0:0:
45,276,105827,2,0,B|30:260|30:260|39:186,1,88
48,114,105999,5,0,0:0:0:0:
105,60,106084,1,0,0:0:0:0:
182,43,106170,1,0,0:0:0:0:
256,14,106256,1,0,0:0:0:0:
313,68,106341,1,0,0:0:0:0:
390,85,106427,1,0,0:0:0:0:
455,40,106513,2,0,P|468:71|454:134,1,88
393,166,106684,5,0,0:0:0:0:
366,240,106770,1,0,0:0:0:0:
386,316,106856,1,0,0:0:0:0:
319,358,106941,1,0,0:0:0:0:
258,306,107027,1,0,0:0:0:0:
287,232,107113,1,0,0:0:0:0:
366,240,107199,2,0,P|406:242|453:215,1,88
393,166,107370,6,0,B|368:146|368:146|346:75|346:75|345:67|345:51|348:44|353:38|359:37|364:37|370:42|374:51|374:61|371:69|365:75|356:80|346:83|334:84|317:83|301:79|273:65|253:42|253:42|230:29|215:28,1,264
219,21,107713,6,0,L|132:27,1,82.5
71,69,108056,6,0,B|59:98|59:98|68:129|61:164|61:164|54:169|51:175|48:183|48:189|48:190|51:192|52:195|57:198|60:198|63:198|65:198|70:197|73:195|76:192|78:188|79:184|79:180|79:178|79:174|76:170|74:167|70:164|66:163|63:163|60:162|54:163|50:166|46:169|44:172|43:177|41:182|41:188|41:193|44:200|48:204|54:207|63:208|69:208|72:208|78:206|85:200|88:193,1,264
29,273,108399,6,0,P|19:309|37:355,1,82.5
99,306,108741,6,0,B|184:272|184:272|223:173,1,176
370,349,108999,6,0,B|336:264|336:264|237:225,1,176
413,78,109256,6,0,B|328:112|328:112|289:211,1,176
142,35,109514,6,0,B|176:120|176:120|275:159,1,176
297,190,109770,5,0,0:0:0:0:
258,233,109856,5,0,0:0:0:0:
215,194,109941,5,0,0:0:0:0:
254,151,110027,5,0,0:0:0:0:
297,190,110113,6,0,L|374:257,1,88
379,156,110284,2,0,L|456:223,1,88
396,69,110456,1,0,0:0:0:0:
215,194,110627,6,0,L|138:127,1,88
133,228,110798,2,0,L|56:161,1,88
116,315,110970,1,0,0:0:0:0:
238,97,111141,6,0,B|253:72|253:72|245:5,1,88
274,287,111313,2,0,B|259:312|259:312|267:379,1,88
256,192,111484,5,0,0:0:0:0:
309,133,111570,1,0,0:0:0:0:
387,118,111656,1,0,0:0:0:0:
461,142,111741,1,0,0:0:0:0:
498,211,111827,1,0,0:0:0:0:
478,288,111913,1,0,0:0:0:0:
415,336,111999,2,0,P|371:346|326:376,1,88
267,326,112170,5,0,0:0:0:0:
191,300,112256,1,0,0:0:0:0:
112,305,112341,1,0,0:0:0:0:
46,350,112427,1,0,0:0:0:0:
36,271,112513,2,0,P|18:234|21:188,1,88
77,132,112684,2,0,L|86:44,1,88
161,16,112856,6,0,B|206:11|206:11|252:-4,1,88
298,57,113027,2,0,B|343:62|343:62|389:77,1,88
429,141,113199,2,0,B|392:220|392:220|445:297|445:297|470:261|470:261|444:215,1,264
374,206,113541,2,0,P|350:190|283:169,1,88
241,292,113713,2,0,P|265:308|332:329,1,88
207,77,113884,2,0,P|178:75|109:90,1,88
134,217,114056,2,0,P|162:218|231:203,1,88
72,155,114227,6,0,B|46:164|25:183|21:208|21:208|25:234|46:313,1,176
134,217,114484,6,0,B|160:208|181:189|185:164|185:164|181:138|160:59,1,176
291,186,114741,6,0,B|263:180|236:186|220:206|220:206|210:230|189:309,1,176
313,270,114998,6,0,B|340:275|367:269|383:249|383:249|393:225|414:146,1,176
250,32,115256,6,0,P|265:54|334:76,1,88
203,161,115427,2,0,P|188:183|119:205,1,88
98,66,115599,5,0,0:0:0:0:
239,340,115770,1,0,0:0:0:0:
81,61,115941,1,0,0:0:0:0:
403,73,116113,6,0,L|326:129,1,88
167,288,116284,1,0,0:0:0:0:
415,83,116456,1,0,0:0:0:0:
62,198,116627,2,0,P|10:227|74:217,1,176
211,39,116970,5,0,0:0:0:0:
392,187,117141,2,0,P|420:212|484:226,1,88
466,132,117313,5,0,0:0:0:0:
155,114,117484,1,0,0:0:0:0:
305,372,117656,1,0,0:0:0:0:
475,113,117827,5,0,0:0:0:0:
144,97,117999,1,0,0:0:0:0:
483,95,118170,6,0,P|498:71|494:11,1,88
406,46,118341,6,0,B|377:40|377:40|339:48|339:48|307:40,1,88
221,81,118513,2,0,B|192:75|192:75|154:83|154:83|122:75,1,88
41,44,118684,1,0,0:0:0:0:
75,269,118856,2,0,P|94:292|50:315,1,88
75,269,119027,2,0,B|159:294|159:294|225:266|225:266|231:270|231:270|321:229|321:229|403:272,1,352
150,83,119541,1,0,0:0:0:0:
414,26,119713,5,0,0:0:0:0:
256,192,119799,12,0,120913,0:0:0:0:
32,47,121084,6,0,L|261:31,1,220
39,56,121599,6,0,L|258:40,1,208.999994419098
46,65,122113,6,0,L|246:50,1,197.99999395752
52,77,122627,6,0,L|243:62,1,187.000003566742
59,89,123141,6,0,L|240:74,1,176
67,104,123484,6,0,L|233:89,1,165.000006294251
76,118,123827,6,0,L|232:104,1,153.999995300293
84,129,124341,6,0,L|228:116,1,142.99999345398
91,142,124856,6,0,L|228:129,1,131.99999597168
96,156,125370,6,0,L|225:143,1,121.000003692627
104,169,125884,6,0,L|220:157,1,110
111,185,126227,6,0,L|220:173,1,98.9999969787599
284,197,126570,6,0,L|368:206,1,76.9999976501466
286,206,127084,6,0,L|368:215,1,71.4999967269899
290,213,127599,6,0,L|365:222,1,65.9999979858399
293,219,128113,6,0,L|366:228,1,60.5000018463135
296,227,128627,6,0,L|364:235,1,55
299,235,128970,6,0,L|359:242,1,49.4999984893799
301,243,129313,6,0,L|358:250,1,44
303,252,129827,6,0,L|352:257,1,38.4999988250733
305,259,130341,6,0,L|345:264,1,32.99999899292
307,266,130856,6,0,L|341:271,1,27.5
309,276,131370,6,0,L|339:280,1,22
311,284,131713,6,0,L|332:287,1,16.49999949646
312,292,132056,6,0,L|326:294,1,11
254,92,143027,5,0,0:0:0:0:
