osu file format v14

[General]
AudioFilename: audio.mp3
AudioLeadIn: 0
PreviewTime: 131957
Countdown: 0
SampleSet: Normal
StackLeniency: 0.7
Mode: 1
LetterboxInBreaks: 0
WidescreenStoryboard: 0

[Editor]
Bookmarks: 22285,44228,55200,66171,88114,115714,153943,197143
DistanceSpacing: 0.8
BeatDivisor: 12
GridSize: 32
TimelineZoom: 1.7

[Metadata]
Title:Euclid
TitleUnicode:Euclid
Artist:Function Phantom
ArtistUnicode:Function Phantom
Creator:salchow
Version:Oni
Source:osu!
Tags:dubstep drumstep ocelot rin ginsuke fa featured artist neonat greenshell neurofunk drum and bass 'n' dnb
BeatmapID:1965439
BeatmapSetID:941145

[Difficulty]
HPDrainRate:6
CircleSize:2
OverallDifficulty:6
ApproachRate:10
SliderMultiplier:1.4
SliderTickRate:1

[Events]
//Background and Video events
0,0,"blurred-blurry-bokeh-220118.jpg",0,0
//Break Periods
2,22485,23807
2,27971,29293
2,33457,34779
2,38943,40265
2,88314,89635
2,93800,95121
2,108885,109607
//Storyboard Layer 0 (Background)
//Storyboard Layer 1 (Fail)
//Storyboard Layer 2 (Pass)
//Storyboard Layer 3 (Foreground)
//Storyboard Sound Samples

[TimingPoints]
343,342.857142857143,4,1,2,75,1,0
343,-142.857142857143,4,1,2,75,0,0
26400,-50,4,1,2,75,0,0
27771,-142.857142857143,4,1,2,75,0,0
37371,-50,4,1,2,75,0,0
38743,-142.857142857143,4,1,2,75,0,0
42857,-28.5714285714286,4,1,2,75,0,0
44228,-100,4,1,2,75,0,0
49371,-66.6666666666667,4,1,2,75,0,0
49714,-100,4,1,2,75,0,0
54685,-102.040816326531,4,1,2,75,0,0
54771,-104.166666666667,4,1,2,75,0,0
54857,-106.382978723404,4,1,2,75,0,0
54943,-108.695652173913,4,1,2,75,0,0
55028,-111.111111111111,4,1,2,75,0,0
55200,-83.3333333333333,4,1,2,75,0,0
55457,-90.9090909090909,4,1,2,75,0,0
60343,-66.6666666666667,4,1,2,75,0,0
60685,-90.9090909090909,4,1,2,75,0,0
64800,-95.2380952380952,4,1,2,75,0,0
64971,-100,4,1,2,75,0,0
65143,-105.263157894737,4,1,2,75,0,0
65400,-111.111111111111,4,1,2,75,0,0
65657,-117.647058823529,4,1,2,75,0,0
65828,-120.481927710843,4,1,2,75,0,0
65914,-123.456790123457,4,1,2,75,0,0
66000,-126.582278481013,4,1,2,75,0,0
66085,-129.87012987013,4,1,2,75,0,0
66171,-135.135135135135,4,1,2,75,0,0
86700,-166.666666666667,4,1,2,75,0,0
88114,-142.857142857143,4,1,2,75,0,0
91114,-119.047619047619,4,1,2,75,0,0
91371,-113.636363636364,4,1,2,75,0,0
91543,-108.695652173913,4,1,2,75,0,0
91800,-104.166666666667,4,1,2,75,0,0
92057,-100,4,1,2,75,0,0
92228,-50,4,1,2,75,0,0
93600,-86.9565217391304,4,1,2,75,0,0
94971,-142.857142857143,4,1,2,75,0,0
96600,-119.047619047619,4,1,2,75,0,0
96857,-113.636363636364,4,1,2,75,0,0
97028,-108.695652173913,4,1,2,75,0,0
97285,-104.166666666667,4,1,2,75,0,0
97543,-100,4,1,2,75,0,0
97714,-96.1538461538461,4,1,2,75,0,0
97971,-92.5925925925926,4,1,2,75,0,0
98228,-89.2857142857143,4,1,2,75,0,0
98400,-86.2068965517241,4,1,2,75,0,0
98457,-84.7457627118644,4,1,2,75,0,0
99085,-78.125,4,1,2,75,0,0
99771,-100,4,1,2,75,0,0
103200,-55.5555555555556,4,1,2,75,0,0
103714,-71.4285714285714,4,1,2,75,0,0
103885,-76.9230769230769,4,1,2,75,0,0
104057,-83.3333333333333,4,1,2,75,0,0
104400,-90.9090909090909,4,1,2,75,0,0
104571,-100,4,1,2,75,0,0
110057,-76.9230769230769,4,1,2,75,0,0
110228,-90.9090909090909,4,1,2,75,0,0
114171,-76.9230769230769,4,1,2,75,0,0
114343,-86.9565217391304,4,1,2,75,0,0
114514,-71.4285714285714,4,1,2,75,0,0
115028,-90.9090909090909,4,1,2,75,0,0
115500,-76.9230769230769,4,1,2,75,0,0
115714,-90.9090909090909,4,1,2,75,0,0
119657,-76.9230769230769,4,1,2,75,0,0
119828,-90.9090909090909,4,1,2,75,0,0
120685,-89.2857142857143,4,1,2,75,0,0
120771,-87.719298245614,4,1,2,75,0,0
120857,-86.2068965517241,4,1,2,75,0,0
120943,-84.7457627118644,4,1,2,75,0,0
121028,-83.3333333333333,4,1,2,75,0,0
123771,-71.4285714285714,4,1,2,75,0,0
123943,-83.3333333333333,4,1,2,75,0,0
125485,-90.9090909090909,4,1,2,75,0,0
125571,-89.2857142857143,4,1,2,75,0,0
125657,-87.719298245614,4,1,2,75,0,0
125743,-86.2068965517241,4,1,2,75,0,0
125828,-84.7457627118644,4,1,2,75,0,0
126000,-81.9672131147541,4,1,2,75,0,0
126085,-80.6451612903226,4,1,2,75,0,0
126343,-78.125,4,1,2,75,0,0
126514,-75.7575757575758,4,1,2,75,0,0
126685,-83.3333333333333,4,1,2,75,0,0
129257,-75.7575757575758,4,1,2,75,0,0
129428,-83.3333333333333,4,1,2,75,0,0
129943,-75.7575757575758,4,1,2,75,0,0
130114,-83.3333333333333,4,1,2,75,0,0
130628,-75.7575757575758,4,1,2,75,0,0
130800,-83.3333333333333,4,1,2,75,0,0
132000,-66.6666666666667,4,1,2,75,0,1
132343,-111.111111111111,4,1,2,75,0,1
137485,-66.6666666666667,4,1,2,75,0,1
137828,-111.111111111111,4,1,2,75,0,1
142971,-66.6666666666667,4,1,2,75,0,1
143314,-111.111111111111,4,1,2,75,0,1
148457,-66.6666666666667,4,1,2,75,0,1
148800,-111.111111111111,4,1,2,75,0,1
151543,-108.695652173913,4,1,2,75,0,1
151714,-106.382978723404,4,1,2,75,0,1
151885,-104.166666666667,4,1,2,75,0,1
151971,-102.040816326531,4,1,2,75,0,1
152057,-100,4,1,2,75,0,1
152228,-98.0392156862745,4,1,2,75,0,1
152400,-96.1538461538461,4,1,2,75,0,1
152485,-94.3396226415094,4,1,2,75,0,1
152571,-92.5925925925926,4,1,2,75,0,0
152914,-89.2857142857143,4,1,2,75,0,0
153085,-87.719298245614,4,1,2,75,0,0
153257,-86.2068965517241,4,1,2,75,0,0
153428,-84.7457627118644,4,1,2,75,0,0
153514,-83.3333333333333,4,1,2,75,0,0
153600,-81.9672131147541,4,1,2,75,0,0
153685,-80.6451612903226,4,1,2,75,0,0
153771,-79.3650793650794,4,1,2,75,0,0
153857,-76.9230769230769,4,1,2,75,0,0
153943,-76.9230769230769,4,1,2,75,0,1
159428,-66.6666666666667,4,1,2,75,0,1
159557,-76.9230769230769,4,1,2,75,0,1
164871,-66.6666666666667,4,1,2,75,0,1
165043,-76.9230769230769,4,1,2,75,0,1
170400,-66.6666666666667,4,1,2,75,0,1
170571,-76.9230769230769,4,1,2,75,0,1
173100,-66.6666666666667,4,1,2,75,0,1
173314,-76.9230769230769,4,1,2,75,0,1
173828,-66.6666666666667,4,1,2,75,0,1
174000,-76.9230769230769,4,1,2,75,0,1
174514,-66.6666666666667,4,1,2,75,0,1
174685,-76.9230769230769,4,1,2,75,0,1
174771,-75.7575757575758,4,1,2,75,0,1
174857,-74.6268656716418,4,1,2,75,0,1
175028,-73.5294117647059,4,1,2,75,0,1
175200,-72.463768115942,4,1,2,75,0,1
175285,-71.4285714285714,4,1,2,75,0,1
175371,-70.4225352112676,4,1,2,75,0,1
175543,-69.4444444444444,4,1,2,75,0,1
175628,-68.4931506849315,4,1,2,75,0,1
175714,-67.5675675675676,4,1,2,75,0,1
175800,-66.6666666666667,4,1,2,75,0,1
175885,-58.8235294117647,4,1,2,75,0,0
176914,-100,4,1,2,75,0,0
181028,-66.6666666666667,4,1,2,75,0,0
181371,-100,4,1,2,75,0,0
186343,-102.040816326531,4,1,2,75,0,0
186428,-104.166666666667,4,1,2,75,0,0
186514,-106.382978723404,4,1,2,75,0,0
186600,-108.695652173913,4,1,2,75,0,0
186685,-111.111111111111,4,1,2,75,0,0
186857,-83.3333333333333,4,1,2,75,0,0
187114,-90.9090909090909,4,1,2,75,0,0
192000,-66.6666666666667,4,1,2,75,0,0
192343,-90.9090909090909,4,1,2,75,0,0
196457,-83.3333333333333,4,1,2,75,0,0
196628,-76.9230769230769,4,1,2,75,0,0
196800,-71.4285714285714,4,1,2,75,0,0
197057,-66.6666666666667,4,1,2,75,0,0

[HitObjects]
256,192,22285,5,12,0:0:0:0:
256,192,24257,5,0,0:0:0:0:
256,192,24514,1,0,0:0:0:0:
256,192,24943,1,0,0:0:0:0:
156,34,26400,6,4,B|159:348|159:348|426:347|426:347|424:289|424:289|204:294,1,840
256,192,27771,5,12,0:0:0:0:
256,192,29743,5,0,0:0:0:0:
256,192,30000,1,0,0:0:0:0:
256,192,30429,1,0,0:0:0:0:
256,192,33257,5,12,0:0:0:0:
256,192,35229,5,0,0:0:0:0:
256,192,35486,1,0,0:0:0:0:
256,192,35915,1,0,0:0:0:0:
226,93,37371,6,4,B|437:94|437:94|421:292|420:292|144:234|144:234|244:177|244:177|250:187|269:259|255:282,1,840
256,192,38743,5,12,0:0:0:0:
256,192,40715,5,0,0:0:0:0:
256,192,40972,1,0,0:0:0:0:
256,192,41401,1,0,0:0:0:0:
256,192,42857,12,0,44057,0:0:0:0:
256,192,44228,5,4,0:0:0:0:
256,192,44571,1,8,0:0:0:0:
256,192,44743,1,0,0:0:0:0:
256,192,44828,1,8,0:0:0:0:
256,192,45000,1,8,0:0:0:0:
256,192,45085,1,0,0:0:0:0:
256,192,45257,1,8,0:0:0:0:
256,192,45600,1,8,0:0:0:0:
256,192,45771,1,0,0:0:0:0:
256,192,45857,1,0,0:0:0:0:
256,192,45943,1,8,0:0:0:0:
256,192,46028,1,8,0:0:0:0:
256,192,46200,1,8,0:0:0:0:
256,192,46457,1,0,0:0:0:0:
256,192,46543,1,0,0:0:0:0:
256,192,46628,1,8,0:0:0:0:
256,192,46800,1,8,0:0:0:0:
256,192,46971,1,0,0:0:0:0:
256,192,47314,1,8,0:0:0:0:
256,192,47485,1,0,0:0:0:0:
256,192,47571,1,8,0:0:0:0:
256,192,47743,1,8,0:0:0:0:
256,192,47828,1,0,0:0:0:0:
256,192,48000,1,8,0:0:0:0:
256,192,48343,1,8,0:0:0:0:
256,192,48514,1,8,0:0:0:0:
256,192,48685,1,8,0:0:0:0:
256,192,48771,1,0,0:0:0:0:
256,192,48857,1,0,0:0:0:0:
256,192,48943,1,8,0:0:0:0:
256,63,49371,2,4,L|258:295,1,210.000008010865
256,192,50057,1,8,0:0:0:0:
256,192,50229,1,0,0:0:0:0:
256,192,50314,1,8,0:0:0:0:
256,192,50486,1,8,0:0:0:0:
256,192,50571,1,0,0:0:0:0:
256,192,50743,1,8,0:0:0:0:
256,192,51086,1,8,0:0:0:0:
256,192,51257,1,0,0:0:0:0:
256,192,51343,1,0,0:0:0:0:
256,192,51429,1,8,0:0:0:0:
256,192,51514,1,8,0:0:0:0:
256,192,51686,1,8,0:0:0:0:
256,192,51943,1,0,0:0:0:0:
256,192,52029,1,0,0:0:0:0:
256,192,52114,1,8,0:0:0:0:
256,192,52286,1,8,0:0:0:0:
256,192,52457,1,0,0:0:0:0:
256,192,52800,1,8,0:0:0:0:
256,192,52971,1,0,0:0:0:0:
256,192,53057,1,8,0:0:0:0:
256,192,53229,1,8,0:0:0:0:
256,192,53314,1,0,0:0:0:0:
256,192,53486,1,8,0:0:0:0:
256,192,53828,1,8,0:0:0:0:
256,192,53913,1,0,0:0:0:0:
256,192,54000,1,8,0:0:0:0:
256,192,54085,1,0,0:0:0:0:
256,192,54171,1,8,0:0:0:0:
256,192,54428,1,0,0:0:0:0:
256,192,54685,1,8,0:0:0:0:
256,192,54771,1,8,0:0:0:0:
256,192,54857,1,8,0:0:0:0:
256,192,54943,1,8,0:0:0:0:
256,192,55028,1,8,0:0:0:0:
256,192,55200,1,4,0:0:0:0:
256,192,55457,1,0,0:0:0:0:
256,192,55543,1,8,0:0:0:0:
256,192,55800,1,0,0:0:0:0:
256,192,55971,1,8,0:0:0:0:
256,192,56057,1,0,0:0:0:0:
256,192,56143,1,0,0:0:0:0:
256,192,56228,1,8,0:0:0:0:
256,192,56571,1,0,0:0:0:0:
256,192,56828,1,0,0:0:0:0:
256,192,56914,1,8,0:0:0:0:
256,192,57085,1,8,0:0:0:0:
256,192,57171,1,8,0:0:0:0:
256,192,57428,1,0,0:0:0:0:
256,192,57514,1,0,0:0:0:0:
256,192,57600,1,8,0:0:0:0:
256,192,57771,1,8,0:0:0:0:
256,192,57943,1,0,0:0:0:0:
256,192,58200,1,0,0:0:0:0:
256,192,58286,1,8,0:0:0:0:
256,192,58543,1,0,0:0:0:0:
256,192,58714,1,8,0:0:0:0:
256,192,58800,1,0,0:0:0:0:
256,192,58885,1,0,0:0:0:0:
256,192,58971,1,8,0:0:0:0:
256,192,59314,1,0,0:0:0:0:
256,192,59485,1,8,0:0:0:0:
256,192,59571,1,0,0:0:0:0:
256,192,59657,1,8,0:0:0:0:
256,192,59828,1,0,0:0:0:0:
256,192,59914,1,0,0:0:0:0:
256,192,60085,1,8,0:0:0:0:
256,192,60171,1,0,0:0:0:0:
257,94,60343,2,4,L|257:335,1,210.000008010865
256,192,60943,1,0,0:0:0:0:
256,192,61029,1,8,0:0:0:0:
256,192,61285,1,0,0:0:0:0:
256,192,61457,1,8,0:0:0:0:
256,192,61543,1,8,0:0:0:0:
256,192,61628,1,0,0:0:0:0:
256,192,61714,1,8,0:0:0:0:
256,192,62057,1,0,0:0:0:0:
256,192,62400,1,8,0:0:0:0:
256,192,62571,1,0,0:0:0:0:
256,192,62657,1,8,0:0:0:0:
256,192,62828,1,0,0:0:0:0:
256,192,62914,1,8,0:0:0:0:
256,192,63000,1,0,0:0:0:0:
256,192,63086,1,8,0:0:0:0:
256,192,63257,1,8,0:0:0:0:
256,192,63429,1,0,0:0:0:0:
256,192,63686,1,0,0:0:0:0:
256,192,63772,1,8,0:0:0:0:
256,192,64028,1,0,0:0:0:0:
256,192,64200,1,8,0:0:0:0:
256,192,64285,1,8,0:0:0:0:
256,192,64371,1,0,0:0:0:0:
256,192,64457,1,8,0:0:0:0:
256,192,64800,1,12,0:0:0:0:
256,192,64971,1,0,0:0:0:0:
256,192,65143,1,12,0:0:0:0:
256,192,65400,1,4,0:0:0:0:
256,192,65657,1,8,0:0:0:0:
256,192,65828,1,8,0:0:0:0:
256,192,65914,1,8,0:0:0:0:
256,192,66000,1,8,0:0:0:0:
256,192,66085,1,8,0:0:0:0:
256,192,66171,1,4,0:0:0:0:
256,192,66514,1,8,0:0:0:0:
256,192,67028,1,0,0:0:0:0:
256,192,67200,1,8,0:0:0:0:
256,192,67457,1,0,0:0:0:0:
256,192,67714,1,0,0:0:0:0:
256,192,67885,1,8,0:0:0:0:
256,192,68143,1,0,0:0:0:0:
256,192,68485,1,0,0:0:0:0:
256,192,68571,1,8,0:0:0:0:
256,192,68914,1,0,0:0:0:0:
256,192,69257,1,8,0:0:0:0:
256,192,69771,1,0,0:0:0:0:
256,192,69943,1,8,0:0:0:0:
256,192,70200,1,0,0:0:0:0:
256,192,70543,1,0,0:0:0:0:
256,192,70628,1,8,0:0:0:0:
256,192,70885,1,0,0:0:0:0:
256,192,71143,1,0,0:0:0:0:
256,192,71314,1,8,0:0:0:0:
256,192,71657,1,0,0:0:0:0:
256,192,72000,1,8,0:0:0:0:
256,192,72514,1,0,0:0:0:0:
256,192,72685,1,8,0:0:0:0:
256,192,72943,1,0,0:0:0:0:
256,192,73200,1,0,0:0:0:0:
256,192,73371,1,8,0:0:0:0:
256,192,73628,1,0,0:0:0:0:
256,192,73971,1,0,0:0:0:0:
256,192,74057,1,8,0:0:0:0:
256,192,74400,1,0,0:0:0:0:
256,192,74743,1,8,0:0:0:0:
256,192,75257,1,0,0:0:0:0:
256,192,75428,1,8,0:0:0:0:
256,192,75685,1,0,0:0:0:0:
256,192,76028,1,0,0:0:0:0:
256,192,76114,1,8,0:0:0:0:
256,192,76371,1,0,0:0:0:0:
256,192,76628,1,0,0:0:0:0:
256,192,76800,1,8,0:0:0:0:
256,192,77143,1,0,0:0:0:0:
256,192,77485,1,8,0:0:0:0:
256,192,78000,1,0,0:0:0:0:
256,192,78171,1,8,0:0:0:0:
256,192,78428,1,0,0:0:0:0:
256,192,78685,1,0,0:0:0:0:
256,192,78857,1,8,0:0:0:0:
256,192,79114,1,0,0:0:0:0:
256,192,79457,1,0,0:0:0:0:
256,192,79543,1,8,0:0:0:0:
256,192,79885,1,0,0:0:0:0:
256,192,80228,1,8,0:0:0:0:
256,192,80743,1,0,0:0:0:0:
256,192,80914,1,8,0:0:0:0:
256,192,81171,1,0,0:0:0:0:
256,192,81514,1,0,0:0:0:0:
256,192,81600,1,8,0:0:0:0:
256,192,81857,1,0,0:0:0:0:
256,192,82114,1,0,0:0:0:0:
256,192,82285,1,8,0:0:0:0:
256,192,82628,1,0,0:0:0:0:
256,192,82971,1,8,0:0:0:0:
256,192,83485,1,0,0:0:0:0:
256,192,83656,1,8,0:0:0:0:
256,192,83914,1,0,0:0:0:0:
256,192,84171,1,0,0:0:0:0:
256,192,84342,1,8,0:0:0:0:
256,192,84599,1,0,0:0:0:0:
256,192,84942,1,0,0:0:0:0:
256,192,85028,1,8,0:0:0:0:
256,192,85371,1,0,0:0:0:0:
256,192,85714,1,8,0:0:0:0:
256,192,86228,1,0,0:0:0:0:
256,192,86399,1,8,0:0:0:0:
256,192,86743,12,0,87943,0:0:0:0:
256,192,88114,5,12,0:0:0:0:
256,192,90085,5,0,0:0:0:0:
256,192,90343,1,0,0:0:0:0:
256,192,90771,1,0,0:0:0:0:
256,192,91114,1,8,0:0:0:0:
256,192,91371,1,8,0:0:0:0:
256,192,91543,1,0,0:0:0:0:
256,192,91800,1,8,0:0:0:0:
256,192,92057,1,8,0:0:0:0:
192,0,92228,6,4,B|255:406|255:406|328:-41,1,840
256,192,93600,1,12,0:0:0:0:
256,192,95571,5,0,0:0:0:0:
256,192,95829,1,0,0:0:0:0:
256,192,96257,1,0,0:0:0:0:
256,192,96600,1,8,0:0:0:0:
256,192,96857,1,8,0:0:0:0:
256,192,97028,1,0,0:0:0:0:
256,192,97285,1,8,0:0:0:0:
256,192,97543,1,8,0:0:0:0:
256,192,97714,1,0,0:0:0:0:
256,192,97971,1,8,0:0:0:0:
256,192,98228,1,8,0:0:0:0:
256,192,98400,1,0,0:0:0:0:
256,192,98457,1,0,0:0:0:0:
256,192,99085,1,12,0:0:0:0:
256,192,99771,1,8,0:0:0:0:
256,192,100543,1,0,0:0:0:0:
256,192,100800,1,0,0:0:0:0:
256,192,101143,1,8,0:0:0:0:
256,192,101314,1,0,0:0:0:0:
256,192,101657,1,8,0:0:0:0:
256,192,101828,1,0,0:0:0:0:
256,192,102514,1,8,0:0:0:0:
352,96,103200,2,4,B|259:235|259:235|256:141|256:141|258:159,1,251.999992309571
256,192,103714,1,0,0:0:0:0:
256,192,103885,1,8,0:0:0:0:
256,192,104057,1,0,0:0:0:0:
256,192,104400,1,8,0:0:0:0:
256,192,104571,1,0,0:0:0:0:
256,192,105257,1,8,0:0:0:0:
256,192,106028,1,0,0:0:0:0:
256,192,106285,1,0,0:0:0:0:
256,192,106628,1,8,0:0:0:0:
256,192,106800,1,0,0:0:0:0:
256,192,107143,1,8,0:0:0:0:
256,192,107314,1,0,0:0:0:0:
256,192,108000,1,8,0:0:0:0:
256,192,108257,1,0,0:0:0:0:
256,192,108514,1,8,0:0:0:0:
256,192,108685,1,0,0:0:0:0:
256,192,110057,5,12,0:0:0:0:
256,192,110400,1,8,0:0:0:0:
256,192,110571,1,8,0:0:0:0:
256,192,110657,1,0,0:0:0:0:
256,192,110828,1,0,0:0:0:0:
256,192,110914,1,8,0:0:0:0:
256,192,111085,1,0,0:0:0:0:
256,192,111257,1,0,0:0:0:0:
256,192,111343,1,0,0:0:0:0:
256,192,111428,1,8,0:0:0:0:
256,192,111600,1,0,0:0:0:0:
256,192,111771,1,8,0:0:0:0:
256,192,111857,1,0,0:0:0:0:
256,192,111943,1,0,0:0:0:0:
256,192,112028,1,8,0:0:0:0:
256,192,112200,1,0,0:0:0:0:
256,192,112285,1,8,0:0:0:0:
256,192,112371,1,0,0:0:0:0:
256,192,112628,1,8,0:0:0:0:
256,192,112800,1,0,0:0:0:0:
256,192,112971,1,0,0:0:0:0:
256,192,113057,1,0,0:0:0:0:
256,192,113143,1,8,0:0:0:0:
256,192,113314,1,0,0:0:0:0:
256,192,113400,1,8,0:0:0:0:
256,192,113571,1,0,0:0:0:0:
256,192,113657,1,8,0:0:0:0:
256,192,113743,1,8,0:0:0:0:
256,192,113828,1,0,0:0:0:0:
256,192,114171,1,12,0:0:0:0:
256,192,114343,1,0,0:0:0:0:
256,32,114514,2,4,L|257:256,1,195.999994018555,0|0,0:0|0:0,0:0:0:0:
256,192,115028,1,8,0:0:0:0:
256,192,115114,1,0,0:0:0:0:
256,192,115371,1,0,0:0:0:0:
256,192,115543,1,12,0:0:0:0:
256,192,115886,1,8,0:0:0:0:
256,192,116057,1,8,0:0:0:0:
256,192,116143,1,0,0:0:0:0:
256,192,116314,1,0,0:0:0:0:
256,192,116400,1,8,0:0:0:0:
256,192,116571,1,0,0:0:0:0:
256,192,116743,1,0,0:0:0:0:
256,192,116829,1,0,0:0:0:0:
256,192,116914,1,8,0:0:0:0:
256,192,117086,1,0,0:0:0:0:
256,192,117257,1,8,0:0:0:0:
256,192,117343,1,0,0:0:0:0:
256,192,117429,1,0,0:0:0:0:
256,192,117514,1,8,0:0:0:0:
256,192,117771,1,0,0:0:0:0:
256,192,117857,1,8,0:0:0:0:
256,192,117943,1,0,0:0:0:0:
256,192,118114,1,8,0:0:0:0:
256,192,118286,1,0,0:0:0:0:
256,192,118457,1,0,0:0:0:0:
256,192,118543,1,0,0:0:0:0:
256,192,118629,1,8,0:0:0:0:
256,192,118800,1,0,0:0:0:0:
256,192,118886,1,8,0:0:0:0:
256,192,119057,1,0,0:0:0:0:
256,192,119143,1,8,0:0:0:0:
256,192,119229,1,8,0:0:0:0:
256,192,119314,1,0,0:0:0:0:
256,192,119657,1,12,0:0:0:0:
256,192,119828,1,0,0:0:0:0:
256,192,120000,1,8,0:0:0:0:
256,192,120257,1,8,0:0:0:0:
256,192,120514,1,0,0:0:0:0:
256,192,120685,1,8,0:0:0:0:
256,192,120771,1,8,0:0:0:0:
256,192,120857,1,8,0:0:0:0:
256,192,120943,1,8,0:0:0:0:
256,192,121028,1,4,0:0:0:0:
256,192,121285,1,8,0:0:0:0:
256,192,121457,1,8,0:0:0:0:
256,192,121543,1,0,0:0:0:0:
256,192,121628,1,0,0:0:0:0:
256,192,121714,1,8,0:0:0:0:
256,192,121885,1,8,0:0:0:0:
256,192,121971,1,0,0:0:0:0:
256,192,122143,1,0,0:0:0:0:
256,192,122228,1,8,0:0:0:0:
256,192,122400,1,0,0:0:0:0:
256,192,122743,1,8,0:0:0:0:
256,192,122914,1,0,0:0:0:0:
256,192,123000,1,0,0:0:0:0:
256,192,123171,1,8,0:0:0:0:
256,192,123257,1,8,0:0:0:0:
256,192,123343,1,0,0:0:0:0:
256,192,123428,1,8,0:0:0:0:
256,192,123600,1,8,0:0:0:0:
256,192,123771,1,4,0:0:0:0:
256,192,124028,1,8,0:0:0:0:
256,192,124200,1,8,0:0:0:0:
256,192,124286,1,0,0:0:0:0:
256,192,124371,1,0,0:0:0:0:
256,192,124457,1,8,0:0:0:0:
256,192,124628,1,0,0:0:0:0:
256,192,124714,1,8,0:0:0:0:
256,192,124886,1,8,0:0:0:0:
256,192,124971,1,0,0:0:0:0:
256,192,125143,1,0,0:0:0:0:
256,192,125485,1,8,0:0:0:0:
256,192,125571,1,8,0:0:0:0:
256,192,125657,1,8,0:0:0:0:
256,192,125743,1,8,0:0:0:0:
256,192,125828,1,0,0:0:0:0:
256,192,126000,1,8,0:0:0:0:
256,192,126085,1,0,0:0:0:0:
256,192,126343,1,8,0:0:0:0:
256,192,126514,1,4,0:0:0:0:
256,192,126770,1,8,0:0:0:0:
256,192,126942,1,8,0:0:0:0:
256,192,127028,1,0,0:0:0:0:
256,192,127113,1,0,0:0:0:0:
256,192,127199,1,8,0:0:0:0:
256,192,127370,1,8,0:0:0:0:
256,192,127456,1,0,0:0:0:0:
256,192,127628,1,0,0:0:0:0:
256,192,127713,1,8,0:0:0:0:
256,192,127885,1,0,0:0:0:0:
256,192,128229,1,8,0:0:0:0:
256,192,128400,1,0,0:0:0:0:
256,192,128486,1,0,0:0:0:0:
256,192,128657,1,8,0:0:0:0:
256,192,128743,1,8,0:0:0:0:
256,192,128829,1,8,0:0:0:0:
256,192,128914,1,0,0:0:0:0:
256,192,129086,1,8,0:0:0:0:
256,192,129257,1,4,0:0:0:0:
256,192,129428,1,8,0:0:0:0:
256,192,129514,1,0,0:0:0:0:
256,192,129685,1,0,0:0:0:0:
256,192,129771,1,8,0:0:0:0:
256,192,129943,1,12,0:0:0:0:
256,192,130114,1,0,0:0:0:0:
256,192,130200,1,8,0:0:0:0:
256,192,130371,1,8,0:0:0:0:
256,192,130456,1,0,0:0:0:0:
256,192,130628,1,4,0:0:0:0:
256,192,130800,1,8,0:0:0:0:
256,192,130885,1,8,0:0:0:0:
256,192,130971,1,0,0:0:0:0:
256,192,131143,1,8,0:0:0:0:
256,192,131228,1,0,0:0:0:0:
256,192,131314,1,8,0:0:0:0:
256,192,131485,1,0,0:0:0:0:
256,192,131571,1,0,0:0:0:0:
256,192,131657,1,8,0:0:0:0:
256,192,132000,1,4,0:0:0:0:
256,192,132343,1,0,0:0:0:0:
256,192,132514,1,8,0:0:0:0:
256,192,132685,1,0,0:0:0:0:
256,192,132771,1,0,0:0:0:0:
256,192,132857,1,8,0:0:0:0:
256,192,133028,1,0,0:0:0:0:
256,192,133114,1,8,0:0:0:0:
256,192,133285,1,8,0:0:0:0:
256,192,133371,1,8,0:0:0:0:
256,192,133543,1,0,0:0:0:0:
256,192,133714,1,8,0:0:0:0:
256,192,133971,1,8,0:0:0:0:
256,192,134057,1,0,0:0:0:0:
256,192,134228,1,0,0:0:0:0:
256,192,134314,1,0,0:0:0:0:
256,192,134400,1,8,0:0:0:0:
256,192,134571,1,0,0:0:0:0:
256,192,134743,1,8,0:0:0:0:
256,192,135085,1,8,0:0:0:0:
256,192,135257,1,0,0:0:0:0:
256,192,135428,1,8,0:0:0:0:
256,192,135514,1,8,0:0:0:0:
256,192,135600,1,0,0:0:0:0:
256,192,135771,1,8,0:0:0:0:
256,192,135857,1,8,0:0:0:0:
256,192,135943,1,0,0:0:0:0:
256,192,136028,1,8,0:0:0:0:
256,192,136371,1,0,0:0:0:0:
256,192,136457,1,8,0:0:0:0:
256,192,136628,1,8,0:0:0:0:
256,192,136714,1,8,0:0:0:0:
256,192,136885,1,8,0:0:0:0:
256,192,136971,1,0,0:0:0:0:
256,192,137057,1,0,0:0:0:0:
256,192,137143,1,8,0:0:0:0:
256,192,137485,1,4,0:0:0:0:
256,192,137828,1,8,0:0:0:0:
256,192,138000,1,0,0:0:0:0:
256,192,138171,1,8,0:0:0:0:
256,192,138257,1,8,0:0:0:0:
256,192,138343,1,0,0:0:0:0:
256,192,138514,1,8,0:0:0:0:
256,192,138600,1,8,0:0:0:0:
256,192,138685,1,0,0:0:0:0:
256,192,138771,1,8,0:0:0:0:
256,192,138943,1,0,0:0:0:0:
256,192,139028,1,0,0:0:0:0:
256,192,139200,1,8,0:0:0:0:
256,192,139457,1,8,0:0:0:0:
256,192,139543,1,0,0:0:0:0:
256,192,139714,1,0,0:0:0:0:
256,192,139800,1,0,0:0:0:0:
256,192,139886,1,8,0:0:0:0:
256,192,140057,1,0,0:0:0:0:
256,192,140229,1,8,0:0:0:0:
256,192,140571,1,8,0:0:0:0:
256,192,140743,1,0,0:0:0:0:
256,192,140914,1,8,0:0:0:0:
256,192,141000,1,0,0:0:0:0:
256,192,141085,1,8,0:0:0:0:
256,192,141257,1,8,0:0:0:0:
256,192,141428,1,0,0:0:0:0:
256,192,141514,1,8,0:0:0:0:
256,192,141600,1,8,0:0:0:0:
256,192,141771,1,8,0:0:0:0:
256,192,141857,1,0,0:0:0:0:
256,192,141943,1,8,0:0:0:0:
256,192,142114,1,8,0:0:0:0:
256,192,142285,1,0,0:0:0:0:
256,192,142543,1,0,0:0:0:0:
256,192,142628,1,8,0:0:0:0:
256,192,142971,1,4,0:0:0:0:
256,192,143314,1,0,0:0:0:0:
256,192,143485,1,8,0:0:0:0:
256,192,143656,1,0,0:0:0:0:
256,192,143742,1,0,0:0:0:0:
256,192,143828,1,8,0:0:0:0:
256,192,143999,1,0,0:0:0:0:
256,192,144085,1,8,0:0:0:0:
256,192,144256,1,8,0:0:0:0:
256,192,144342,1,8,0:0:0:0:
256,192,144514,1,0,0:0:0:0:
256,192,144685,1,8,0:0:0:0:
256,192,144942,1,8,0:0:0:0:
256,192,145028,1,0,0:0:0:0:
256,192,145199,1,0,0:0:0:0:
256,192,145285,1,0,0:0:0:0:
256,192,145371,1,8,0:0:0:0:
256,192,145542,1,0,0:0:0:0:
256,192,145714,1,8,0:0:0:0:
256,192,146056,1,8,0:0:0:0:
256,192,146228,1,0,0:0:0:0:
256,192,146399,1,8,0:0:0:0:
256,192,146485,1,8,0:0:0:0:
256,192,146571,1,0,0:0:0:0:
256,192,146742,1,8,0:0:0:0:
256,192,146828,1,8,0:0:0:0:
256,192,146914,1,0,0:0:0:0:
256,192,146999,1,8,0:0:0:0:
256,192,147342,1,0,0:0:0:0:
256,192,147428,1,8,0:0:0:0:
256,192,147599,1,8,0:0:0:0:
256,192,147685,1,8,0:0:0:0:
256,192,147856,1,8,0:0:0:0:
256,192,147942,1,0,0:0:0:0:
256,192,148028,1,0,0:0:0:0:
256,192,148114,1,8,0:0:0:0:
256,192,148457,1,4,0:0:0:0:
256,192,148800,1,8,0:0:0:0:
256,192,148971,1,0,0:0:0:0:
256,192,149142,1,8,0:0:0:0:
256,192,149228,1,8,0:0:0:0:
256,192,149314,1,0,0:0:0:0:
256,192,149485,1,8,0:0:0:0:
256,192,149571,1,8,0:0:0:0:
256,192,149656,1,0,0:0:0:0:
256,192,149742,1,8,0:0:0:0:
256,192,149914,1,0,0:0:0:0:
256,192,149999,1,0,0:0:0:0:
256,192,150171,1,8,0:0:0:0:
256,192,150428,1,8,0:0:0:0:
256,192,150514,1,0,0:0:0:0:
256,192,150685,1,0,0:0:0:0:
256,192,150771,1,0,0:0:0:0:
256,192,150857,1,8,0:0:0:0:
256,192,151028,1,0,0:0:0:0:
256,192,151200,1,8,0:0:0:0:
256,192,151543,1,8,0:0:0:0:
256,192,151714,1,0,0:0:0:0:
256,192,151885,1,8,0:0:0:0:
256,192,151971,1,0,0:0:0:0:
256,192,152057,1,8,0:0:0:0:
256,192,152228,1,8,0:0:0:0:
256,192,152400,1,0,0:0:0:0:
256,192,152485,1,0,0:0:0:0:
256,192,152571,1,12,0:0:0:0:
256,192,152914,1,8,0:0:0:0:
256,192,153085,1,0,0:0:0:0:
256,192,153171,1,0,0:0:0:0:
256,192,153257,1,12,0:0:0:0:
256,192,153428,1,0,0:0:0:0:
256,192,153514,1,0,0:0:0:0:
256,192,153600,1,8,0:0:0:0:
256,192,153685,1,8,0:0:0:0:
256,192,153771,1,0,0:0:0:0:
256,192,153943,1,12,0:0:0:0:
256,192,154114,1,0,0:0:0:0:
256,192,154285,1,0,0:0:0:0:
256,192,154371,1,8,0:0:0:0:
256,192,154457,1,0,0:0:0:0:
256,192,154543,1,8,0:0:0:0:
256,192,154800,1,0,0:0:0:0:
256,192,154972,1,8,0:0:0:0:
256,192,155057,1,0,0:0:0:0:
256,192,155143,1,0,0:0:0:0:
256,192,155228,1,8,0:0:0:0:
256,192,155485,1,0,0:0:0:0:
256,192,155657,1,8,0:0:0:0:
256,192,155743,1,8,0:0:0:0:
256,192,155828,1,0,0:0:0:0:
256,192,155914,1,8,0:0:0:0:
256,192,156085,1,0,0:0:0:0:
256,192,156257,1,0,0:0:0:0:
256,192,156343,1,8,0:0:0:0:
256,192,156685,1,8,0:0:0:0:
256,192,156857,1,0,0:0:0:0:
256,192,157028,1,8,0:0:0:0:
256,192,157114,1,0,0:0:0:0:
256,192,157200,1,0,0:0:0:0:
256,192,157285,1,8,0:0:0:0:
256,192,157543,1,8,0:0:0:0:
256,192,157714,1,0,0:0:0:0:
256,192,157800,1,8,0:0:0:0:
256,192,157885,1,0,0:0:0:0:
256,192,157971,1,8,0:0:0:0:
256,192,158228,1,0,0:0:0:0:
256,192,158400,1,8,0:0:0:0:
256,192,158485,1,8,0:0:0:0:
256,192,158571,1,0,0:0:0:0:
256,192,158657,1,8,0:0:0:0:
256,192,158828,1,0,0:0:0:0:
256,192,158914,1,8,0:0:0:0:
256,192,159085,1,0,0:0:0:0:
256,192,159428,1,12,0:0:0:0:
256,192,159600,1,0,0:0:0:0:
256,192,159771,1,0,0:0:0:0:
256,192,159857,1,8,0:0:0:0:
256,192,159943,1,0,0:0:0:0:
256,192,160029,1,8,0:0:0:0:
256,192,160286,1,0,0:0:0:0:
256,192,160458,1,8,0:0:0:0:
256,192,160543,1,0,0:0:0:0:
256,192,160629,1,0,0:0:0:0:
256,192,160714,1,8,0:0:0:0:
256,192,160971,1,0,0:0:0:0:
256,192,161143,1,8,0:0:0:0:
256,192,161229,1,8,0:0:0:0:
256,192,161314,1,0,0:0:0:0:
256,192,161400,1,8,0:0:0:0:
256,192,161571,1,0,0:0:0:0:
256,192,161743,1,0,0:0:0:0:
256,192,161829,1,8,0:0:0:0:
256,192,162171,1,8,0:0:0:0:
256,192,162343,1,0,0:0:0:0:
256,192,162514,1,8,0:0:0:0:
256,192,162600,1,0,0:0:0:0:
256,192,162686,1,0,0:0:0:0:
256,192,162771,1,8,0:0:0:0:
256,192,163029,1,8,0:0:0:0:
256,192,163200,1,0,0:0:0:0:
256,192,163286,1,8,0:0:0:0:
256,192,163371,1,0,0:0:0:0:
256,192,163457,1,8,0:0:0:0:
256,192,163714,1,0,0:0:0:0:
256,192,163886,1,8,0:0:0:0:
256,192,163971,1,8,0:0:0:0:
256,192,164057,1,0,0:0:0:0:
256,192,164143,1,8,0:0:0:0:
256,192,164314,1,0,0:0:0:0:
256,192,164400,1,8,0:0:0:0:
256,192,164571,1,0,0:0:0:0:
256,192,164914,1,12,0:0:0:0:
256,192,165085,1,0,0:0:0:0:
256,192,165256,1,0,0:0:0:0:
256,192,165342,1,8,0:0:0:0:
256,192,165428,1,0,0:0:0:0:
256,192,165514,1,8,0:0:0:0:
256,192,165771,1,0,0:0:0:0:
256,192,165943,1,8,0:0:0:0:
256,192,166028,1,0,0:0:0:0:
256,192,166114,1,0,0:0:0:0:
256,192,166199,1,8,0:0:0:0:
256,192,166456,1,0,0:0:0:0:
256,192,166628,1,8,0:0:0:0:
256,192,166714,1,8,0:0:0:0:
256,192,166799,1,0,0:0:0:0:
256,192,166885,1,8,0:0:0:0:
256,192,167056,1,0,0:0:0:0:
256,192,167228,1,0,0:0:0:0:
256,192,167314,1,8,0:0:0:0:
256,192,167656,1,8,0:0:0:0:
256,192,167828,1,0,0:0:0:0:
256,192,167999,1,8,0:0:0:0:
256,192,168085,1,0,0:0:0:0:
256,192,168171,1,0,0:0:0:0:
256,192,168256,1,8,0:0:0:0:
256,192,168514,1,8,0:0:0:0:
256,192,168685,1,0,0:0:0:0:
256,192,168771,1,8,0:0:0:0:
256,192,168856,1,0,0:0:0:0:
256,192,168942,1,8,0:0:0:0:
256,192,169199,1,0,0:0:0:0:
256,192,169371,1,8,0:0:0:0:
256,192,169456,1,8,0:0:0:0:
256,192,169542,1,0,0:0:0:0:
256,192,169628,1,8,0:0:0:0:
256,192,169799,1,0,0:0:0:0:
256,192,169885,1,8,0:0:0:0:
256,192,170056,1,0,0:0:0:0:
256,192,170400,1,12,0:0:0:0:
256,192,170571,1,0,0:0:0:0:
256,192,170742,1,0,0:0:0:0:
256,192,170828,1,8,0:0:0:0:
256,192,170914,1,0,0:0:0:0:
256,192,171000,1,8,0:0:0:0:
256,192,171257,1,0,0:0:0:0:
256,192,171429,1,8,0:0:0:0:
256,192,171514,1,0,0:0:0:0:
256,192,171600,1,0,0:0:0:0:
256,192,171685,1,8,0:0:0:0:
256,192,171942,1,0,0:0:0:0:
256,192,172114,1,8,0:0:0:0:
256,192,172200,1,8,0:0:0:0:
256,192,172285,1,0,0:0:0:0:
256,192,172371,1,8,0:0:0:0:
256,192,172542,1,0,0:0:0:0:
256,192,172628,1,0,0:0:0:0:
256,192,172714,1,8,0:0:0:0:
256,192,172800,1,8,0:0:0:0:
256,192,172971,1,0,0:0:0:0:
256,192,173143,1,12,0:0:0:0:
256,192,173314,1,0,0:0:0:0:
256,192,173400,1,0,0:0:0:0:
256,192,173485,1,8,0:0:0:0:
256,192,173657,1,0,0:0:0:0:
256,192,173828,1,12,0:0:0:0:
256,192,174000,1,0,0:0:0:0:
256,192,174171,1,0,0:0:0:0:
256,192,174343,1,0,0:0:0:0:
256,192,174514,1,12,0:0:0:0:
256,192,174685,1,0,0:0:0:0:
256,192,174771,1,0,0:0:0:0:
256,192,174857,1,8,0:0:0:0:
256,192,175028,1,0,0:0:0:0:
256,192,175200,1,8,0:0:0:0:
256,192,175285,1,8,0:0:0:0:
256,192,175371,1,8,0:0:0:0:
256,192,175543,1,8,0:0:0:0:
256,192,175628,1,0,0:0:0:0:
256,192,175714,1,8,0:0:0:0:
256,192,175800,1,8,0:0:0:0:
256,192,175885,1,4,0:0:0:0:
256,192,176914,5,8,0:0:0:0:
256,192,177257,5,4,0:0:0:0:
256,192,177600,1,8,0:0:0:0:
256,192,177772,1,0,0:0:0:0:
256,192,177857,1,8,0:0:0:0:
256,192,178029,1,8,0:0:0:0:
256,192,178114,1,8,0:0:0:0:
256,192,178200,1,0,0:0:0:0:
256,192,178286,1,8,0:0:0:0:
256,192,178629,1,8,0:0:0:0:
256,192,178714,1,0,0:0:0:0:
256,192,178886,1,0,0:0:0:0:
256,192,178972,1,8,0:0:0:0:
256,192,179057,1,8,0:0:0:0:
256,192,179143,1,0,0:0:0:0:
256,192,179229,1,8,0:0:0:0:
256,192,179486,1,0,0:0:0:0:
256,192,179572,1,0,0:0:0:0:
256,192,179657,1,8,0:0:0:0:
256,192,179829,1,8,0:0:0:0:
256,192,180000,1,0,0:0:0:0:
256,192,180171,1,0,0:0:0:0:
256,192,180343,1,8,0:0:0:0:
256,192,180514,1,0,0:0:0:0:
256,192,180600,1,8,0:0:0:0:
256,192,180685,1,8,0:0:0:0:
256,192,180771,1,0,0:0:0:0:
256,64,181028,2,4,L|254:292,1,210.000008010865
256,192,181714,1,8,0:0:0:0:
256,192,181886,1,0,0:0:0:0:
256,192,181971,1,8,0:0:0:0:
256,192,182143,1,8,0:0:0:0:
256,192,182228,1,8,0:0:0:0:
256,192,182314,1,0,0:0:0:0:
256,192,182400,1,8,0:0:0:0:
256,192,182571,1,0,0:0:0:0:
256,192,182743,1,8,0:0:0:0:
256,192,182828,1,0,0:0:0:0:
256,192,183000,1,0,0:0:0:0:
256,192,183086,1,8,0:0:0:0:
256,192,183171,1,8,0:0:0:0:
256,192,183257,1,0,0:0:0:0:
256,192,183343,1,8,0:0:0:0:
256,192,183600,1,0,0:0:0:0:
256,192,183686,1,0,0:0:0:0:
256,192,183771,1,8,0:0:0:0:
256,192,183943,1,8,0:0:0:0:
256,192,184114,1,0,0:0:0:0:
256,192,184457,1,8,0:0:0:0:
256,192,184628,1,0,0:0:0:0:
256,192,184714,1,8,0:0:0:0:
256,192,184886,1,8,0:0:0:0:
256,192,184971,1,0,0:0:0:0:
256,192,185143,1,8,0:0:0:0:
256,192,185228,1,8,0:0:0:0:
256,192,185314,1,0,0:0:0:0:
256,192,185400,1,0,0:0:0:0:
256,192,185486,1,8,0:0:0:0:
256,192,185657,1,0,0:0:0:0:
256,192,185828,1,8,0:0:0:0:
256,192,185914,1,0,0:0:0:0:
256,192,186085,1,8,0:0:0:0:
256,192,186343,1,8,0:0:0:0:
256,192,186428,1,8,0:0:0:0:
256,192,186514,1,8,0:0:0:0:
256,192,186600,1,8,0:0:0:0:
256,192,186685,1,8,0:0:0:0:
256,192,186857,1,4,0:0:0:0:
256,192,187114,1,0,0:0:0:0:
256,192,187200,1,8,0:0:0:0:
256,192,187371,1,0,0:0:0:0:
256,192,187457,1,0,0:0:0:0:
256,192,187628,1,8,0:0:0:0:
256,192,187714,1,0,0:0:0:0:
256,192,187800,1,0,0:0:0:0:
256,192,187885,1,8,0:0:0:0:
256,192,188228,1,0,0:0:0:0:
256,192,188485,1,0,0:0:0:0:
256,192,188571,1,8,0:0:0:0:
256,192,188742,1,8,0:0:0:0:
256,192,188828,1,8,0:0:0:0:
256,192,189000,1,0,0:0:0:0:
256,192,189085,1,0,0:0:0:0:
256,192,189171,1,0,0:0:0:0:
256,192,189257,1,8,0:0:0:0:
256,192,189428,1,8,0:0:0:0:
256,192,189600,1,0,0:0:0:0:
256,192,189857,1,0,0:0:0:0:
256,192,189943,1,8,0:0:0:0:
256,192,190114,1,0,0:0:0:0:
256,192,190200,1,0,0:0:0:0:
256,192,190371,1,8,0:0:0:0:
256,192,190457,1,0,0:0:0:0:
256,192,190542,1,0,0:0:0:0:
256,192,190628,1,8,0:0:0:0:
256,192,190971,1,0,0:0:0:0:
256,192,191142,1,8,0:0:0:0:
256,192,191228,1,0,0:0:0:0:
256,192,191314,1,8,0:0:0:0:
256,192,191485,1,0,0:0:0:0:
256,192,191571,1,0,0:0:0:0:
256,192,191742,1,8,0:0:0:0:
256,192,191828,1,0,0:0:0:0:
257,94,192000,2,4,L|257:335,1,210.000008010865
256,192,192600,1,0,0:0:0:0:
256,192,192686,1,8,0:0:0:0:
256,192,192857,1,0,0:0:0:0:
256,192,192943,1,8,0:0:0:0:
256,192,193114,1,8,0:0:0:0:
256,192,193200,1,8,0:0:0:0:
256,192,193285,1,0,0:0:0:0:
256,192,193371,1,8,0:0:0:0:
256,192,193714,1,0,0:0:0:0:
256,192,193971,1,0,0:0:0:0:
256,192,194057,1,8,0:0:0:0:
256,192,194228,1,8,0:0:0:0:
256,192,194314,1,8,0:0:0:0:
256,192,194485,1,0,0:0:0:0:
256,192,194571,1,8,0:0:0:0:
256,192,194657,1,0,0:0:0:0:
256,192,194743,1,8,0:0:0:0:
256,192,194914,1,8,0:0:0:0:
256,192,195086,1,0,0:0:0:0:
256,192,195343,1,0,0:0:0:0:
256,192,195429,1,8,0:0:0:0:
256,192,195600,1,0,0:0:0:0:
256,192,195685,1,8,0:0:0:0:
256,192,195857,1,8,0:0:0:0:
256,192,195942,1,8,0:0:0:0:
256,192,196028,1,0,0:0:0:0:
256,192,196114,1,8,0:0:0:0:
256,192,196457,1,12,0:0:0:0:
256,192,196628,1,0,0:0:0:0:
256,192,196800,1,12,0:0:0:0:
256,192,197057,1,4,0:0:0:0:
