osu file format v14

[General]
AudioFilename: audio.mp3
AudioLeadIn: 0
PreviewTime: 131957
Countdown: 0
SampleSet: Normal
StackLeniency: 0.7
Mode: 1
LetterboxInBreaks: 0
WidescreenStoryboard: 1

[Editor]
Bookmarks: 22285,44228,55200,66171,88114,115714,153943,197143
DistanceSpacing: 0.8
BeatDivisor: 4
GridSize: 32
TimelineZoom: 1.7

[Metadata]
Title:Euclid
TitleUnicode:Euclid
Artist:Function Phantom
ArtistUnicode:Function Phantom
Creator:salchow
Version:Kantan
Source:osu!
Tags:dubstep drumstep ocelot rin ginsuke fa featured artist neonat greenshell neurofunk drum and bass 'n' dnb
BeatmapID:1966484
BeatmapSetID:941145

[Difficulty]
HPDrainRate:7.5
CircleSize:2
OverallDifficulty:3.5
ApproachRate:10
SliderMultiplier:1.4
SliderTickRate:1

[Events]
//Background and Video events
0,0,"blurred-blurry-bokeh-220118.jpg",0,0
//Break Periods
2,22485,23807
2,27971,29293
2,33457,34778
2,38943,40264
2,88314,89635
2,93800,95121
2,108885,109607
//Storyboard Layer 0 (Background)
//Storyboard Layer 1 (Fail)
//Storyboard Layer 2 (Pass)
//Storyboard Layer 3 (Foreground)
//Storyboard Sound Samples

[TimingPoints]
343,342.857142857143,4,1,2,75,1,0
132000,-100,4,1,2,75,0,1
152571,-100,4,1,2,75,0,0
153771,-100,4,1,2,75,0,0
153943,-100,4,1,2,75,0,1
175885,-100,4,1,2,75,0,0

[HitObjects]
256,192,22285,5,12,0:0:0:0:
256,192,24257,5,0,0:0:0:0:
256,192,24943,5,0,0:0:0:0:
256,192,26400,12,0,27428,0:0:0:0:
256,192,27771,5,12,0:0:0:0:
256,192,29743,5,0,0:0:0:0:
256,192,30429,5,0,0:0:0:0:
256,192,33257,5,12,0:0:0:0:
256,192,35228,5,0,0:0:0:0:
256,192,35915,5,0,0:0:0:0:
256,192,37371,12,0,38400,0:0:0:0:
256,192,38743,5,12,0:0:0:0:
256,192,40714,5,0,0:0:0:0:
256,192,41401,5,0,0:0:0:0:
256,192,42857,12,0,43885,0:0:0:0:
256,192,44228,5,4,0:0:0:0:
256,192,45257,1,8,0:0:0:0:
256,192,45600,1,0,0:0:0:0:
256,192,46628,1,8,0:0:0:0:
256,192,46971,1,0,0:0:0:0:
256,192,47314,1,8,0:0:0:0:
256,192,48343,1,0,0:0:0:0:
256,192,48685,1,8,0:0:0:0:
256,192,49371,1,8,0:0:0:0:
256,192,49714,1,4,0:0:0:0:
256,192,50742,1,8,0:0:0:0:
256,192,51085,1,0,0:0:0:0:
256,192,52113,1,8,0:0:0:0:
256,192,52456,1,0,0:0:0:0:
256,192,52799,1,8,0:0:0:0:
256,192,53828,1,0,0:0:0:0:
256,192,54170,1,8,0:0:0:0:
256,192,54856,1,8,0:0:0:0:
256,192,55199,5,4,0:0:0:0:
256,192,55543,1,8,0:0:0:0:
256,192,56228,1,8,0:0:0:0:
256,192,56571,1,0,0:0:0:0:
256,192,57600,1,8,0:0:0:0:
256,192,57943,1,0,0:0:0:0:
256,192,58285,1,8,0:0:0:0:
256,192,58971,1,0,0:0:0:0:
256,192,59314,1,8,0:0:0:0:
256,192,60343,1,8,0:0:0:0:
256,192,60685,5,4,0:0:0:0:
256,192,61028,1,8,0:0:0:0:
256,192,61713,1,8,0:0:0:0:
256,192,62056,1,0,0:0:0:0:
256,192,63085,1,8,0:0:0:0:
256,192,63428,1,0,0:0:0:0:
256,192,63770,1,8,0:0:0:0:
256,192,64456,1,0,0:0:0:0:
256,192,64799,1,12,0:0:0:0:
256,192,65828,5,8,0:0:0:0:
256,192,66170,5,4,0:0:0:0:
256,192,66514,1,8,0:0:0:0:
256,192,67200,1,8,0:0:0:0:
256,192,67885,1,8,0:0:0:0:
256,192,68571,1,8,0:0:0:0:
256,192,70285,1,0,0:0:0:0:
256,192,71657,1,0,0:0:0:0:
256,192,72000,1,8,0:0:0:0:
256,192,72686,1,8,0:0:0:0:
256,192,73371,1,8,0:0:0:0:
256,192,74057,1,8,0:0:0:0:
256,192,75771,1,0,0:0:0:0:
256,192,77143,1,0,0:0:0:0:
256,192,77486,1,8,0:0:0:0:
256,192,78171,1,8,0:0:0:0:
256,192,78857,1,8,0:0:0:0:
256,192,79543,1,8,0:0:0:0:
256,192,81257,1,0,0:0:0:0:
256,192,82628,1,0,0:0:0:0:
256,192,82971,1,8,0:0:0:0:
256,192,83657,1,8,0:0:0:0:
256,192,84343,1,8,0:0:0:0:
256,192,85028,1,8,0:0:0:0:
256,192,86743,12,0,87771,0:0:0:0:
256,192,88114,5,12,0:0:0:0:
256,192,90085,5,0,0:0:0:0:
256,192,90771,5,0,0:0:0:0:
256,192,92229,12,0,93257,0:0:0:0:
256,192,93600,5,12,0:0:0:0:
256,192,95571,5,0,0:0:0:0:
256,192,96258,1,0,0:0:0:0:
256,192,98400,1,0,0:0:0:0:
256,192,99086,5,12,0:0:0:0:
256,192,99771,1,8,0:0:0:0:
256,192,101143,1,8,0:0:0:0:
256,192,101657,1,8,0:0:0:0:
256,192,102514,1,8,0:0:0:0:
256,192,103200,1,0,0:0:0:0:
256,192,103885,5,8,0:0:0:0:
256,192,104400,1,8,0:0:0:0:
256,192,105257,1,8,0:0:0:0:
256,192,106629,1,8,0:0:0:0:
256,192,107143,1,8,0:0:0:0:
256,192,108000,1,8,0:0:0:0:
256,192,108685,5,0,0:0:0:0:
256,192,110057,5,12,0:0:0:0:
256,192,110914,1,0,0:0:0:0:
256,192,111428,1,8,0:0:0:0:
256,192,112285,1,0,0:0:0:0:
256,192,112800,1,8,0:0:0:0:
256,192,113143,1,8,0:0:0:0:
256,192,114171,1,0,0:0:0:0:
256,192,114514,1,8,0:0:0:0:
256,192,115543,1,12,0:0:0:0:
256,192,116400,1,0,0:0:0:0:
256,192,116914,1,8,0:0:0:0:
256,192,117771,1,0,0:0:0:0:
256,192,118286,1,8,0:0:0:0:
256,192,118629,1,8,0:0:0:0:
256,192,119657,1,0,0:0:0:0:
256,192,120000,1,8,0:0:0:0:
256,192,121028,5,4,0:0:0:0:
256,192,121714,1,8,0:0:0:0:
256,192,122057,1,0,0:0:0:0:
256,192,122400,1,8,0:0:0:0:
256,192,123771,1,8,0:0:0:0:
256,192,124457,1,8,0:0:0:0:
256,192,124800,1,8,0:0:0:0:
256,192,125143,1,0,0:0:0:0:
256,192,126171,1,12,0:0:0:0:
256,192,126514,1,4,0:0:0:0:
256,192,127200,1,8,0:0:0:0:
256,192,127543,1,0,0:0:0:0:
256,192,127886,1,8,0:0:0:0:
256,192,129257,1,12,0:0:0:0:
256,192,129943,1,12,0:0:0:0:
256,192,130628,1,12,0:0:0:0:
256,192,132000,1,4,0:0:0:0:
256,192,132685,1,0,0:0:0:0:
256,192,133028,1,8,0:0:0:0:
256,192,133371,1,0,0:0:0:0:
256,192,134057,1,0,0:0:0:0:
256,192,134743,1,8,0:0:0:0:
256,192,135428,1,0,0:0:0:0:
256,192,135771,1,8,0:0:0:0:
256,192,136114,1,8,0:0:0:0:
256,192,137485,1,4,0:0:0:0:
256,192,138170,1,0,0:0:0:0:
256,192,138513,1,8,0:0:0:0:
256,192,138856,1,0,0:0:0:0:
256,192,139542,1,8,0:0:0:0:
256,192,140228,1,0,0:0:0:0:
256,192,140913,1,0,0:0:0:0:
256,192,141256,1,8,0:0:0:0:
256,192,141600,1,8,0:0:0:0:
256,192,142628,1,8,0:0:0:0:
256,192,142971,1,4,0:0:0:0:
256,192,143656,1,0,0:0:0:0:
256,192,143999,1,8,0:0:0:0:
256,192,144342,1,0,0:0:0:0:
256,192,145028,1,0,0:0:0:0:
256,192,145714,1,8,0:0:0:0:
256,192,146399,1,0,0:0:0:0:
256,192,146742,1,8,0:0:0:0:
256,192,147085,1,8,0:0:0:0:
256,192,148456,5,4,0:0:0:0:
256,192,149143,1,0,0:0:0:0:
256,192,149484,1,8,0:0:0:0:
256,192,149827,1,0,0:0:0:0:
256,192,150513,1,8,0:0:0:0:
256,192,151199,1,0,0:0:0:0:
256,192,152227,5,0,0:0:0:0:
256,192,152571,1,8,0:0:0:0:
256,192,153257,1,12,0:0:0:0:
256,192,153599,1,8,0:0:0:0:
256,192,153943,5,12,0:0:0:0:
256,192,154628,1,0,0:0:0:0:
256,192,154971,1,8,0:0:0:0:
256,192,155314,1,0,0:0:0:0:
256,192,156000,1,8,0:0:0:0:
256,192,156343,1,8,0:0:0:0:
256,192,156685,1,0,0:0:0:0:
256,192,158057,1,0,0:0:0:0:
256,192,158743,1,8,0:0:0:0:
256,192,159085,1,0,0:0:0:0:
256,192,159428,5,12,0:0:0:0:
256,192,160113,1,0,0:0:0:0:
256,192,160456,1,8,0:0:0:0:
256,192,160799,1,8,0:0:0:0:
256,192,161485,1,8,0:0:0:0:
256,192,161828,1,0,0:0:0:0:
256,192,162170,1,8,0:0:0:0:
256,192,163542,1,8,0:0:0:0:
256,192,164228,1,8,0:0:0:0:
256,192,164571,1,0,0:0:0:0:
256,192,164914,5,12,0:0:0:0:
256,192,165599,1,0,0:0:0:0:
256,192,165942,1,8,0:0:0:0:
256,192,166285,1,0,0:0:0:0:
256,192,166971,1,8,0:0:0:0:
256,192,167314,1,8,0:0:0:0:
256,192,167656,1,0,0:0:0:0:
256,192,169028,1,0,0:0:0:0:
256,192,169714,1,8,0:0:0:0:
256,192,170056,1,0,0:0:0:0:
256,192,170399,5,12,0:0:0:0:
256,192,171084,1,0,0:0:0:0:
256,192,171427,1,8,0:0:0:0:
256,192,171770,1,8,0:0:0:0:
256,192,172456,1,8,0:0:0:0:
256,192,172799,1,0,0:0:0:0:
256,192,173143,1,12,0:0:0:0:
256,192,173827,1,12,0:0:0:0:
256,192,174513,1,12,0:0:0:0:
256,192,175543,1,8,0:0:0:0:
256,192,175885,5,4,0:0:0:0:
256,192,176914,1,8,0:0:0:0:
256,192,177257,1,4,0:0:0:0:
256,192,178285,1,8,0:0:0:0:
256,192,178628,1,0,0:0:0:0:
256,192,178971,1,8,0:0:0:0:
256,192,180000,1,0,0:0:0:0:
256,192,180342,1,8,0:0:0:0:
256,192,181028,1,8,0:0:0:0:
256,192,181371,1,4,0:0:0:0:
256,192,182399,1,8,0:0:0:0:
256,192,182742,1,0,0:0:0:0:
256,192,183770,1,8,0:0:0:0:
256,192,184113,1,0,0:0:0:0:
256,192,184456,1,8,0:0:0:0:
256,192,185485,1,0,0:0:0:0:
256,192,185827,1,8,0:0:0:0:
256,192,186513,1,8,0:0:0:0:
256,192,186857,5,4,0:0:0:0:
256,192,187200,1,8,0:0:0:0:
256,192,187885,1,8,0:0:0:0:
256,192,188228,1,0,0:0:0:0:
256,192,189257,1,8,0:0:0:0:
256,192,189600,1,0,0:0:0:0:
256,192,189942,1,8,0:0:0:0:
256,192,190628,1,0,0:0:0:0:
256,192,190971,1,8,0:0:0:0:
256,192,192000,1,8,0:0:0:0:
256,192,192342,5,4,0:0:0:0:
256,192,192685,1,8,0:0:0:0:
256,192,193370,1,8,0:0:0:0:
256,192,193713,1,0,0:0:0:0:
256,192,194742,1,8,0:0:0:0:
256,192,195085,1,0,0:0:0:0:
256,192,195427,1,8,0:0:0:0:
256,192,196113,1,0,0:0:0:0:
256,192,196457,1,12,0:0:0:0:
256,192,197057,1,12,0:0:0:0:
