osu file format v14

[General]
AudioFilename: audio.mp3
AudioLeadIn: 0
PreviewTime: 132095
Countdown: 0
SampleSet: Normal
StackLeniency: 0.7
Mode: 0
LetterboxInBreaks: 0
EpilepsyWarning: 1
WidescreenStoryboard: 1

[Editor]
Bookmarks: 66266,132095,159523,165009,170495,177352,181466
DistanceSpacing: 1.3
BeatDivisor: 4
GridSize: 32
TimelineZoom: 1

[Metadata]
Title:Euclid
TitleUnicode:Euclid
Artist:Function Phantom
ArtistUnicode:Function Phantom
Creator:byfar
Version:Insane
Source:
Tags:toybot mikii refaller exile- dubstep drumstep ocelot neurofunk dnb rin ginsuke starR starrstyx
BeatmapID:970190
BeatmapSetID:419614

[Difficulty]
HPDrainRate:6.3
CircleSize:4
OverallDifficulty:6.8
ApproachRate:9
SliderMultiplier:1.2
SliderTickRate:1

[Events]
//Background and Video events
0,0,"math.jpg",0,0
//Break Periods
//Storyboard Layer 0 (Background)
//Storyboard Layer 1 (Fail)
//Storyboard Layer 2 (Pass)
//Storyboard Layer 3 (Foreground)
//Storyboard Sound Samples

[TimingPoints]
438,342.857142857143,4,1,1,40,1,0
22380,-125,4,1,1,80,0,0
44323,-71.4285714285714,4,1,1,80,0,0
55295,-66.6666666666667,4,1,1,80,0,0
66266,-100,4,1,1,80,0,0
88209,-200,4,1,1,80,0,0
108609,-100,4,1,1,80,0,0
110152,-83.3333333333333,4,1,1,80,0,0
121123,-71.4285714285714,4,1,1,80,0,1
132095,-71.4285714285714,4,1,1,80,0,0
154038,-66.6666666666667,4,1,1,80,0,1
177352,-66.6666666666667,4,1,1,80,0,0
197152,-50,4,1,1,80,0,0

[Colours]
Combo1 : 255,128,0
Combo2 : 128,0,255
Combo3 : 108,108,108
Combo4 : 205,130,251
Combo5 : 188,188,188
Combo6 : 82,204,239
Combo7 : 248,41,57
Combo8 : 155,199,247

[HitObjects]
138,57,22380,21,2,0:0:0:0:
129,136,22552,2,0,L|117:232,1,95.9999999999999,0|0,0:0|0:0,0:0:0:0:
328,219,23152,2,0,P|293:223|260:207,1,72,0|0,0:0|0:0,0:0:0:0:
209,145,23580,22,0,P|235:193|156:334,1,216,0|2,0:0|0:0,0:0:0:0:
172,327,24609,1,2,0:0:0:0:
9,164,25038,1,2,0:0:0:0:
9,164,25123,86,0,P|-3:204|12:247,2,72,0|0|0,0:0|0:0|0:0,0:0:0:0:
63,106,25809,2,0,L|230:132,1,168,0|0,0:0|0:0,0:0:0:0:
229,131,26495,22,0,P|207:89|370:90,1,336,8|0,0:0|0:0,0:0:0:0:
487,154,27866,85,2,0:0:0:0:
473,232,28038,2,0,P|453:265|384:273,1,96,0|0,0:0|0:0,0:0:0:0:
335,234,28552,2,0,L|222:244,1,96,0|0,0:0|0:0,0:0:0:0:
139,197,29066,22,0,P|243:180|335:234,1,216,0|2,0:0|0:0,0:0:0:0:
334,233,30095,1,2,0:0:0:0:
63,226,30523,1,2,0:0:0:0:
63,226,30608,86,0,P|57:190|71:149,2,72,0|0|0,0:0|0:0|0:0,0:0:0:0:
35,306,31295,2,0,L|122:296,1,72,0|0,0:0|0:0,0:0:0:0:
260,280,31809,1,0,0:0:0:0:
304,351,31980,22,0,P|302:307|477:152,1,288,0|0,0:0|0:0,0:0:0:0:
462,152,33352,85,0,0:0:0:0:
449,73,33523,2,0,P|410:44|359:46,1,96
250,100,34123,2,0,L|261:191,1,72,0|0,0:0|0:0,0:0:0:0:
308,237,34552,22,0,P|258:212|97:209,1,216,0|2,0:0|0:0,0:0:0:0:
100,207,35580,1,2,0:0:0:0:
345,163,36009,1,2,0:0:0:0:
345,163,36095,86,0,L|353:91,2,72,0|0|0,0:0|0:0|0:0,0:0:0:0:
425,174,36780,2,0,P|458:161|492:62,1,144
366,0,37466,22,0,L|70:28,1,288,8|0,0:0|0:0,0:0:0:0:
45,170,38838,85,0,0:0:0:0:
57,249,39009,2,0,P|96:278|147:276,1,96,0|0,0:0|0:0,0:0:0:0:
212,191,39609,2,0,L|223:285,1,72,0|0,0:0|0:0,0:0:0:0:
228,344,40038,22,0,L|457:373,1,216,0|2,0:0|0:0,0:0:0:0:
442,371,41066,1,2,0:0:0:0:
374,242,41495,1,2,0:0:0:0:
374,242,41580,86,0,L|292:251,2,72,0|0|0,0:0|0:0|0:0,0:0:0:0:
433,297,42266,2,0,P|423:225|479:112,1,192,0|0,0:0|0:0,0:0:0:0:
163,12,44323,6,0,P|119:55|114:116,1,125.999996154785,6|0,0:0|0:0,0:0:0:0:
123,137,44666,2,0,L|219:147,1,83.9999974365235,8|0,0:0|0:0,0:0:0:0:
206,146,44923,1,2,0:0:0:0:
206,146,45009,1,0,0:0:0:0:
249,77,45180,1,2,0:0:0:0:
163,222,45352,1,8,0:0:0:0:
163,222,45695,86,0,P|181:258|174:315,1,83.9999974365235,2|0,0:0|0:0,0:0:0:0:
132,364,46038,2,0,P|97:387|55:384,1,83.9999974365235,8|0,0:0|0:0,0:0:0:0:
39,369,46295,1,2,0:0:0:0:
61,203,46466,2,0,L|69:148,1,41.9999987182618,2|0,0:0|0:0,0:0:0:0:
50,286,46723,2,0,L|191:278,1,125.999996154785,8|0,0:0|0:0,0:0:0:0:
197,276,47066,22,0,P|185:229|196:183,1,83.9999974365235,2|0,0:0|0:0,0:0:0:0:
389,253,47409,2,0,L|375:335,1,83.9999974365235,8|0,0:0|0:0,0:0:0:0:
374,335,47666,1,4,0:3:0:0:
374,335,47752,2,0,P|321:351|278:336,1,83.9999974365235,0|0,0:0|0:0,0:0:0:0:
321,202,48095,2,0,L|477:194,1,125.999996154785,8|0,0:0|0:0,0:0:0:0:
468,195,48438,86,0,P|475:170|472:142,2,41.9999987182618,2|0|2,0:0|0:0|0:0,0:0:0:0:
348,83,48780,2,0,L|363:0,1,83.9999974365235,8|0,0:0|0:3,0:0:0:0:
363,0,49038,2,0,P|305:33|224:18,1,125.999996154785,2|0,0:0|0:3,0:0:0:0:
67,1,49466,2,0,L|83:159,1,125.999996154785,8|0,0:0|0:0,0:0:0:0:
70,140,49809,22,0,P|118:163|164:150,1,83.9999974365235,2|0,0:0|0:0,0:0:0:0:
263,129,50152,2,0,L|252:246,1,83.9999974365235,8|0,0:0|0:0,0:0:0:0:
255,212,50409,1,4,0:3:0:0:
255,212,50495,1,0,0:0:0:0:
181,167,50666,1,0,0:3:0:0:
339,182,50838,1,8,0:0:0:0:
339,182,51180,86,0,P|318:147|323:99,1,83.9999974365235,2|0,0:0|0:0,0:0:0:0:
398,246,51523,2,0,P|432:268|473:268,1,83.9999974365235,8|0,0:0|0:0,0:0:0:0:
488,259,51780,1,4,0:3:0:0:
418,166,51952,2,0,L|423:88,1,41.9999987182618,0|0,0:3|0:3,0:0:0:0:
402,339,52209,2,0,L|268:346,1,125.999996154785,8|0,0:0|0:0,0:0:0:0:
261,352,52552,22,0,P|248:302|273:251,1,83.9999974365235,2|0,0:0|0:0,0:0:0:0:
179,149,52895,2,0,P|192:199|167:250,1,83.9999974365235,8|0,0:0|0:0,0:0:0:0:
173,242,53152,2,0,L|49:252,1,83.9999974365235,4|0,0:3|0:0,0:0:0:0:
266,99,53495,1,0,0:0:0:0:
266,99,53580,2,0,L|426:115,1,125.999996154785,8|0,0:0|0:0,0:0:0:0:
403,100,53923,85,2,0:0:0:0:
472,52,54095,1,2,0:0:0:0:
457,165,54266,1,8,0:0:0:0:
159,146,54523,2,0,P|180:192|163:254,1,83.9999974365235,2|0,0:0|0:0,0:0:0:0:
169,242,54780,2,0,P|155:262|149:292,1,41.9999987182618,0|0,0:0|0:0,0:0:0:0:
131,352,54952,2,0,P|152:354|173:351,3,41.9999987182618,0|0|0|0,0:0|0:0|0:0|0:0,0:0:0:0:
73,300,55295,22,0,L|62:142,1,135.000005149841,12|0,0:0|0:0,0:0:0:0:
50,146,55638,2,0,B|91:123|91:123|148:135,1,90.0000034332277,8|0,0:0|0:0,0:0:0:0:
133,131,55895,1,2,0:0:0:0:
81,23,56066,1,0,0:3:0:0:
200,32,56238,1,0,0:3:0:0:
200,32,56323,2,0,P|215:86|312:101,1,135.000005149841,8|0,0:0|0:0,0:0:0:0:
305,107,56666,86,0,L|323:0,1,90.0000034332277,2|0,0:0|0:0,0:0:0:0:
387,190,57009,2,0,P|278:194|228:226,1,135.000005149841,8|2,0:0|0:0,0:0:0:0:
136,284,57438,2,0,L|153:345,2,45.0000017166138,0|0|2,0:0|0:0|0:0,0:0:0:0:
55,278,57695,2,0,P|50:322|71:361,1,90.0000034332277,8|0,0:0|0:0,0:0:0:0:
225,293,58038,22,0,L|229:191,1,90.0000034332277,2|0,0:0|0:0,0:0:0:0:
62,120,58380,2,0,P|57:75|78:36,1,90.0000034332277,8|0,0:0|0:3,0:0:0:0:
95,16,58638,2,0,L|201:30,1,90.0000034332277,2|0,0:0|0:0,0:0:0:0:
171,119,58980,1,2,0:0:0:0:
171,119,59066,2,0,P|201:73|300:70,1,135.000005149841,8|0,0:0|0:0,0:0:0:0:
287,72,59409,85,2,0:0:0:0:
334,195,59580,1,2,0:0:0:0:
381,318,59752,2,0,L|215:307,1,135.000005149841,8|2,0:0|0:0,0:0:0:0:
26,296,60266,2,0,L|36:352,1,45.0000017166138,2|0,0:0|0:0,0:0:0:0:
12,304,60438,2,0,P|30:248|129:244,1,135.000005149841,8|0,0:0|0:0,0:0:0:0:
174,264,60780,22,0,L|185:129,1,135.000005149841,2|0,0:0|0:0,0:0:0:0:
202,115,61123,2,0,L|191:227,1,90.0000034332277,8|0,0:0|0:0,0:0:0:0:
190,226,61380,1,2,0:0:0:0:
190,226,61466,1,0,0:0:0:0:
99,160,61638,1,2,0:0:0:0:
289,182,61809,1,8,0:0:0:0:
289,182,62152,86,0,P|285:238|317:282,1,90.0000034332277,2|0,0:0|0:0,0:0:0:0:
474,238,62495,2,0,P|478:182|446:138,1,90.0000034332277,8|0,0:0|0:0,0:0:0:0:
445,139,62752,2,0,L|429:316,1,135.000005149841,2|0,0:0|0:0,0:0:0:0:
430,295,63095,1,2,0:0:0:0:
430,295,63180,1,8,0:0:0:0:
418,379,63352,1,2,0:0:0:0:
302,204,63523,22,0,P|298:148|330:104,1,90.0000034332277,2|0,0:0|0:0,0:0:0:0:
386,18,63866,2,0,L|257:34,1,90.0000034332277,8|0,0:0|0:0,0:0:0:0:
273,32,64123,2,0,P|232:14|175:25,1,90.0000034332277,2|2,0:0|0:0,0:0:0:0:
177,21,64380,1,0,0:0:0:0:
199,224,64552,2,0,P|227:181|202:83,1,135.000005149841,8|0,0:0|0:0,0:0:0:0:
217,102,64895,85,8,0:0:0:0:
24,0,65066,1,2,0:0:0:0:
40,142,65238,2,0,L|52:246,1,90.0000034332277,8|0,0:0|0:0,0:0:0:0:
4,307,65495,2,0,P|45:277|129:264,1,135.000005149841,8|8,0:0|0:0,0:0:0:0:
318,340,65923,2,0,L|307:397,3,45.0000017166138,8|0|0|0,0:0|0:0|0:0|0:0,0:0:0:0:
303,330,66266,38,0,P|278:298|295:208,1,120,4|8,0:0|0:0,0:0:0:0:
365,211,66780,1,0,0:0:0:0:
365,211,66952,2,0,L|395:206,2,30,2|0|0,0:0|0:0|0:0,0:0:0:0:
472,194,67295,86,0,L|486:87,2,90,8|2|0,0:0|0:0|0:0,0:0:0:0:
281,303,67980,2,0,L|371:315,2,90,8|2|0,0:0|0:0|0:0,0:0:0:0:
164,142,68666,2,0,P|150:182|167:249,1,90,8|0,0:0|0:0,0:0:0:0:
156,229,69009,22,0,L|291:210,1,120,2|8,0:0|0:0,0:0:0:0:
452,194,69695,2,0,L|457:164,2,30,0|0|2,0:3|0:3|0:0,0:0:0:0:
374,202,70038,2,0,L|387:123,1,60,8|0,0:0|0:0,0:0:0:0:
383,142,70295,86,0,P|353:151|261:119,1,120,2|2,0:0|0:0,0:0:0:0:
256,115,70723,1,8,0:0:0:0:
212,266,70980,2,0,L|122:275,1,90,2|0,0:0|0:0,0:0:0:0:
272,331,71409,1,8,0:0:0:0:
272,331,71752,22,0,P|261:287|281:190,1,120,2|8,0:0|0:0,0:0:0:0:
308,142,72266,1,0,0:0:0:0:
308,142,72438,2,0,L|337:146,2,30,2|0|2,0:0|0:0|0:0,0:0:0:0:
174,121,72780,86,0,L|164:27,2,90,8|2|0,0:0|0:0|0:0,0:0:0:0:
121,208,73466,2,0,B|98:245|98:245|117:312,2,90,8|2|0,0:0|0:0|0:0,0:0:0:0:
200,85,74152,1,8,0:0:0:0:
199,84,74495,22,0,P|225:99|255:101,1,60,2|0,0:0|0:0,0:0:0:0:
311,45,74838,2,0,P|336:29|366:28,1,60,8|0,0:0|0:0,0:0:0:0:
435,67,75180,2,0,L|429:107,2,30,0|0|2,0:0|0:0|0:0,0:0:0:0:
417,176,75523,2,0,L|408:235,1,60,8|0,0:0|0:0,0:0:0:0:
418,249,75780,86,0,L|283:262,1,120,2|2,0:0|0:0,0:0:0:0:
299,261,76209,1,8,0:0:0:0:
198,84,76466,2,0,P|193:40|212:0,1,90,2|2,0:0|0:0,0:0:0:0:
276,116,76895,1,8,0:0:0:0:
276,116,77238,22,0,L|151:139,1,120,2|8,0:0|0:0,0:0:0:0:
81,152,77752,2,0,L|93:74,2,60,0|0|2,0:0|0:0|0:0,0:0:0:0:
7,183,78266,86,0,P|54:180|108:249,1,120,8|2,0:0|0:0,0:0:0:0:
111,306,78780,1,0,0:0:0:0:
97,383,78952,2,0,L|-4:368,2,90,8|2|0,0:0|0:0|0:0,0:0:0:0:
211,226,79638,2,0,P|196:268|199:313,1,90,8|0,0:0|0:0,0:0:0:0:
198,312,79980,22,0,L|302:323,1,90,2|0,0:0|0:0,0:0:0:0:
302,323,80323,2,0,P|336:308|380:314,1,60,8|0,0:0|0:0,0:0:0:0:
435,327,80666,2,0,L|431:368,2,30,0|0|2,0:0|0:0|0:0,0:0:0:0:
445,246,81009,2,0,L|450:186,1,60,8|0,0:0|0:0,0:0:0:0:
451,171,81266,86,0,P|415:180|324:173,1,120,2|2,0:0|0:0,0:0:0:0:
318,169,81695,1,8,0:0:0:0:
217,102,81952,2,0,L|122:117,1,90,2|2,0:0|0:0,0:0:0:0:
299,88,82380,1,8,0:0:0:0:
299,88,82723,22,0,P|294:126|316:219,1,120,2|8,0:0|0:0,0:0:0:0:
361,265,83238,1,0,0:0:0:0:
438,254,83409,2,0,L|476:249,2,30,0|0|2,0:0|0:0|0:0,0:0:0:0:
361,265,83752,86,0,L|372:354,2,90,8|2|0,0:0|0:0|0:0,0:0:0:0:
226,290,84438,2,0,P|227:334|253:371,2,90,8|2|0,0:0|0:0|0:0,0:0:0:0:
216,132,85123,2,0,P|242:169|229:233,1,90,8|0,0:0|0:0,0:0:0:0:
240,212,85466,22,0,L|387:191,1,120,2|8,0:0|0:0,0:0:0:0:
436,184,85980,1,0,0:0:0:0:
436,184,86152,2,0,L|431:233,2,30,2|0|2,0:0|0:0|0:0,0:0:0:0:
447,98,86495,1,8,0:0:0:0:
256,192,86666,8,0,88038,0:0:0:0:
65,219,88209,86,0,B|130:263|199:212|199:212|251:287|216:358,1,300,2|0,0:0|0:0,0:0:0:0:
140,348,90180,1,2,0:0:0:0:
63,338,90438,1,2,0:0:0:0:
308,270,90866,22,0,L|421:285,1,105,2|0,0:0|0:0,0:0:0:0:
494,292,91638,2,0,P|486:248|489:194,1,90,0|0,0:0|0:0,0:0:0:0:
495,119,92323,86,0,L|468:123,14,15,8|0|0|0|0|0|0|0|0|0|0|0|0|0|0,0:0|0:3|0:3|0:3|0:3|0:3|0:3|0:3|0:3|0:3|0:3|0:3|0:3|0:3|0:3,0:0:0:0:
470,47,93695,22,0,B|426:53|426:53|386:132|386:132|284:150|284:150|321:89,1,300,2|0,0:0|0:0,0:0:0:0:
248,58,95666,1,2,0:0:0:0:
184,19,95923,1,2,0:0:0:0:
81,183,96352,86,0,P|104:195|183:184,1,105,2|0,0:0|0:0,0:0:0:0:
246,139,97123,2,0,P|256:173|258:253,1,105,0|0,0:0|0:0,0:0:0:0:
192,283,97809,22,0,P|178:324|200:361,1,90
334,346,98495,1,4,0:0:0:0:
334,346,99180,86,0,L|348:221,1,120,2|8,0:0|0:0,0:0:0:0:
370,33,100638,22,0,L|321:43,1,45,2|2,0:0|0:0,0:0:0:0:
134,78,101238,1,8,0:0:0:0:
199,118,101409,2,0,P|209:93|207:57,1,60,0|8,0:0|0:0,0:0:0:0:
72,29,101923,86,0,P|82:66|95:159,1,120,2|8,0:0|0:0,0:0:0:0:
65,341,103295,22,0,L|61:364,6,15,8|0|0|0|0|0|0,0:0|0:0|0:0|0:0|0:0|0:0|0:0,0:0:0:0:
77,263,103980,2,0,L|116:256,1,30,8|2,0:0|0:0,0:0:0:0:
255,233,104495,1,8,0:0:0:0:
287,307,104666,86,0,P|319:281|327:200,1,120,2|8,0:0|0:0,0:0:0:0:
199,56,106123,22,0,L|204:113,1,45,2|2,0:0|0:0,0:0:0:0:
212,250,106723,1,8,0:0:0:0:
137,280,106895,2,0,P|134:258|139:212,1,60,2|8,0:0|0:0,0:0:0:0:
94,139,107409,86,0,L|216:150,1,120,0|8,0:0|0:0,0:0:0:0:
282,107,108352,1,2,0:0:0:0:
351,64,108609,22,0,L|418:72,1,60,8|2,0:0|0:0,0:0:0:0:
375,355,110152,70,0,P|341:364|273:314,1,107.999996704102,6|0,0:0|0:0,0:0:0:0:
261,338,110495,2,0,L|274:234,1,71.9999978027344,8|0,0:0|0:0,0:0:0:0:
273,246,110752,1,2,0:0:0:0:
147,137,111009,2,0,P|182:119|184:204,1,143.999995605469,8|2,0:0|0:0,0:0:0:0:
84,354,111523,22,0,P|79:300|67:248,1,107.999996704102,2|0,0:0|0:0,0:0:0:0:
63,230,111866,2,0,L|154:240,1,71.9999978027344,8|0,0:0|0:0,0:0:0:0:
182,302,112123,2,0,L|253:294,1,71.9999978027344,2|0,0:0|0:0,0:0:0:0:
310,349,112380,1,8,0:0:0:0:
459,248,112723,1,8,0:0:0:0:
424,322,112895,86,0,P|386:283|410:182,1,143.999995605469,2|8,0:0|0:0,0:0:0:0:
461,83,113495,1,2,0:0:0:0:
370,97,113752,2,0,B|409:63|408:16|408:16|417:62|467:86,1,179.999994506836,8|0,0:0|0:0,0:0:0:0:
476,81,114266,22,0,L|459:204,1,107.999996704102,2|0,0:0|0:0,0:0:0:0:
467,204,114609,2,0,L|421:213,6,35.9999989013672,8|0|0|0|0|2|0,0:0|0:0|0:0|0:0|0:0|0:0|0:0,0:0:0:0:
357,220,115209,2,0,L|222:207,1,107.999996704102,2|8,0:0|0:0,0:0:0:0:
188,282,115638,86,0,P|205:239|177:147,1,143.999995605469,2|8,0:0|0:0,0:0:0:0:
17,288,116238,2,0,P|56:288|97:301,1,71.9999978027344,2|0,0:0|0:0,0:0:0:0:
103,306,116495,2,0,L|82:139,1,143.999995605469,8|0,0:0|0:0,0:0:0:0:
188,282,117009,22,0,P|191:327|164:370,1,71.9999978027344,2|0,0:0|0:0,0:0:0:0:
18,330,117352,2,0,P|15:285|42:242,1,71.9999978027344,8|0,0:0|0:0,0:0:0:0:
14,246,117609,2,0,L|106:259,1,71.9999978027344,2|0,0:0|0:0,0:0:0:0:
103,259,117866,2,0,P|90:200|88:100,1,143.999995605469,2|8,0:0|0:0,0:0:0:0:
284,215,118380,86,0,P|297:274|299:374,1,143.999995605469,2|8,0:0|0:0,0:0:0:0:
206,210,118980,2,0,P|227:160|304:143,1,107.999996704102,2|10,0:0|0:0,0:0:0:0:
357,80,119409,2,0,P|352:115|350:151,1,71.9999978027344
447,231,119752,21,2,0:0:0:0:
425,351,119923,1,2,0:0:0:0:
447,231,120095,2,0,P|453:185|442:62,1,143.999995605469,8|0,0:0|0:0,0:0:0:0:
441,64,120523,1,0,0:0:0:0:
441,64,120609,2,0,L|374:75,1,35.9999989013672,0|0,0:0|0:0,0:0:0:0:
291,24,120780,2,0,L|224:35,3,35.9999989013672,8|8|8|8,0:0|0:0|0:0|0:0,0:0:0:0:
309,16,121123,70,0,P|289:82|294:148,1,125.999996154785,6|0,0:0|0:0,0:0:0:0:
299,153,121466,2,0,P|258:137|191:155,1,83.9999974365235,8|2,0:0|0:0,0:0:0:0:
143,167,121723,2,0,L|148:220,1,41.9999987182618,2|0,0:0|0:0,0:0:0:0:
158,289,121895,1,0,0:0:0:0:
158,289,121980,2,0,L|51:274,2,83.9999974365235,8|0|2,0:0|0:0|0:0,0:0:0:0:
310,384,122495,6,0,P|299:332|301:235,1,125.999996154785,2|0,0:0|0:0,0:0:0:0:
303,243,122838,2,0,L|399:259,1,83.9999974365235,8|2,0:0|0:0,0:0:0:0:
394,270,123095,2,0,P|429:232|421:168,1,83.9999974365235,2|0,0:0|3:0,0:0:0:0:
428,185,123352,1,8,0:0:0:0:
423,168,123438,2,0,P|376:129|385:38,1,125.999996154785,2|8,0:0|0:3,0:0:0:0:
243,55,123866,70,0,P|232:115|183:152,1,125.999996154785,2|8,0:0|0:0,0:0:0:0:
166,152,124209,2,0,P|138:131|58:148,1,83.9999974365235,2|2,0:0|0:0,0:0:0:0:
74,134,124466,2,0,L|83:206,1,41.9999987182618,2|0,0:0|0:0,0:0:0:0:
92,255,124638,1,0,0:0:0:0:
92,255,124723,2,0,P|59:279|-5:266,1,83.9999974365235,8|0,0:0|0:0,0:0:0:0:
213,350,125066,1,0,0:0:0:0:
180,274,125238,70,0,P|164:222|175:121,1,125.999996154785,2|0,0:0|0:0,0:0:0:0:
184,73,125580,2,0,L|239:82,4,41.9999987182618,8|0|0|0|0,0:0|0:0|0:0|0:0|0:0,0:0:0:0:
297,139,126095,1,2,0:0:0:0:
297,122,126180,1,2,0:0:0:0:
299,105,126266,1,2,0:0:0:0:
306,89,126352,1,0,3:0:0:0:
316,76,126438,1,10,0:0:0:0:
329,65,126523,1,0,0:0:0:0:
344,58,126609,70,0,P|369:106|366:153,1,83.9999974365235,4|0,0:0|0:0,0:0:0:0:
378,149,126866,2,0,L|237:132,1,125.999996154785,0|0,3:0|0:0,0:0:0:0:
236,133,127209,1,2,0:0:0:0:
219,131,127295,2,0,P|233:194|234:232,1,83.9999974365235,0|8,0:0|0:0,0:0:0:0:
182,274,127552,2,0,P|205:290|275:281,1,83.9999974365235,2|2,0:0|0:0,0:0:0:0:
276,282,127809,1,2,0:0:0:0:
116,223,127980,6,0,P|66:234|51:358,1,167.999994873047,2|8,0:0|0:0,0:0:0:0:
109,144,128580,2,0,L|96:15,1,125.999996154785,2|8,0:0|0:0,0:0:0:0:
87,33,128923,2,0,P|139:55|228:32,1,125.999996154785,2|8,0:0|0:0,0:0:0:0:
370,2,129352,70,0,P|316:45|301:130,1,125.999996154785,4|8,0:0|0:0,0:0:0:0:
295,113,129695,2,0,L|421:106,1,125.999996154785,8|2,0:0|0:0,0:0:0:0:
438,98,130038,1,8,0:0:0:0:
441,260,130209,1,8,0:0:0:0:
441,260,130295,2,0,P|385:217|301:231,1,125.999996154785,2|2,0:0|0:0,0:0:0:0:
296,384,130723,22,0,P|311:353|308:302,1,83.9999974365235,4|2,0:2|0:0,0:0:0:0:
146,278,131066,2,0,P|131:309|134:360,1,83.9999974365235,8|2,0:0|0:0,0:0:0:0:
221,331,131409,2,0,L|216:268,1,41.9999987182618,8|8,0:0|0:0,0:0:0:0:
208,209,131580,2,0,L|203:146,1,41.9999987182618,8|8,0:0|0:0,0:0:0:0:
195,87,131752,2,0,L|190:24,3,41.9999987182618,8|0|0|0,0:0|0:0|0:0|0:0,0:0:0:0:
184,103,132095,70,0,P|232:90|326:152,1,167.999994873047,4|0,0:0|0:0,0:0:0:0:
279,305,132609,2,0,P|231:318|137:256,1,167.999994873047,2|2,0:0|0:0,0:0:0:0:
22,21,133123,2,0,P|35:83|25:146,1,125.999996154785,8|2,0:0|0:0,0:0:0:0:
17,162,133466,22,0,P|60:146|111:158,1,83.9999974365235
256,207,133809,2,0,P|297:211|335:196,1,83.9999974365235,8|0,0:0|0:0,0:0:0:0:
176,177,134152,1,0,0:0:0:0:
196,9,134323,1,0,0:0:0:0:
196,9,134409,1,0,0:0:0:0:
196,9,134495,2,0,L|355:28,1,125.999996154785,8|0,0:0|0:0,0:0:0:0:
339,13,134838,86,0,P|327:57|349:121,1,83.9999974365235,2|0,0:0|0:0,0:0:0:0:
486,105,135180,1,8,0:0:0:0:
414,60,135352,1,2,0:0:0:0:
400,235,135523,2,0,L|486:223,1,83.9999974365235,0|0,0:0|0:0,0:0:0:0:
299,182,135866,2,0,P|322:240|325:303,1,125.999996154785,8|2,0:0|0:0,0:0:0:0:
325,324,136209,22,0,P|287:303|217:307,1,83.9999974365235
227,305,136466,1,2,0:0:0:0:
208,315,136552,2,0,L|218:379,1,41.9999987182618,8|0,0:0|0:0,0:0:0:0:
36,371,136809,2,0,P|69:315|155:320,1,125.999996154785,2|2,0:0|0:0,0:0:0:0:
164,128,137238,2,0,P|195:184|148:256,1,125.999996154785,8|0,0:0|0:0,0:0:0:0:
165,229,137580,86,0,P|211:214|260:231,1,83.9999974365235,2|0,0:0|0:0,0:0:0:0:
329,258,137923,1,8,0:0:0:0:
329,258,138095,1,2,0:0:0:0:
319,167,138266,2,0,P|305:128|273:102,1,83.9999974365235,0|2,0:0|0:0,0:0:0:0:
256,96,138523,1,0,0:0:0:0:
241,97,138609,1,8,0:0:0:0:
425,238,138866,22,0,P|411:303|410:381,1,125.999996154785,2|0,0:0|0:0,0:0:0:0:
212,372,139295,2,0,P|213:324|199:285,1,83.9999974365235,8|0,0:0|0:0,0:0:0:0:
191,271,139552,2,0,P|130:298|44:283,1,125.999996154785,2|0,0:0|0:0,0:0:0:0:
0,71,139980,2,0,P|75:72|95:138,1,125.999996154785,8|0,0:0|0:0,0:0:0:0:
89,129,140323,86,4,B|136:171|136:171|213:158,1,125.999996154785,2|0,0:0|0:3,0:0:0:0:
219,158,140666,2,0,L|231:57,1,83.9999974365235,8|2,0:0|0:0,0:0:0:0:
405,24,141009,1,2,0:0:0:0:
405,24,141180,1,2,0:0:0:0:
391,108,141352,2,0,P|451:152|443:212,1,125.999996154785,8|2,0:0|0:0,0:0:0:0:
459,217,141695,22,0,L|360:247,1,83.9999974365235,0|0,0:0|0:0,0:0:0:0:
376,262,141952,1,2,0:0:0:0:
373,282,142038,1,8,0:0:0:0:
276,384,142209,2,0,P|273:329|217:234,1,167.999994873047,2|2,0:0|0:0,0:0:0:0:
65,252,142723,2,0,L|11:258,3,41.9999987182618,8|0|0|0,0:0|0:0|0:0|0:0,0:0:0:0:
85,264,143066,86,0,P|74:207|121:93,1,167.999994873047,6|8,0:0|0:0,0:0:0:0:
402,105,143580,2,0,P|436:181|427:264,1,167.999994873047,2|2,0:0|0:0,0:0:0:0:
335,62,144095,2,0,P|362:35|418:30,1,83.9999974365235,8|0,0:0|0:0,0:0:0:0:
347,189,144438,22,0,L|197:172,1,125.999996154785,2|0,0:0|0:0,0:0:0:0:
201,172,144780,2,0,P|215:228|214:257,1,83.9999974365235,8|0,0:0|0:0,0:0:0:0:
7,372,145123,2,0,P|4:315|44:221,1,125.999996154785,2|2,0:0|0:0,0:0:0:0:
38,234,145466,2,0,L|145:245,1,83.9999974365235,8|0,0:0|0:0,0:0:0:0:
226,359,145809,86,0,L|371:346,1,125.999996154785,2|0,0:0|0:0,0:0:0:0:
372,346,146152,1,8,0:0:0:0:
414,245,146323,1,0,0:0:0:0:
306,259,146495,2,0,P|288:220|297:164,1,83.9999974365235,2|2,0:0|0:0,0:0:0:0:
414,245,146838,2,0,P|438:209|491:189,1,83.9999974365235,10|0,0:0|0:0,0:0:0:0:
495,191,147095,22,0,P|461:132|380:115,1,125.999996154785,2|0,0:0|0:0,0:0:0:0:
393,118,147438,1,2,0:0:0:0:
377,124,147523,2,0,L|329:117,1,41.9999987182618,8|0,0:0|0:0,0:0:0:0:
166,53,147780,2,0,P|180:104|186:214,1,125.999996154785,2|2,0:0|0:0,0:0:0:0:
8,320,148209,2,0,P|44:273|136:281,1,125.999996154785,8|0,0:0|0:0,0:0:0:0:
100,280,148552,86,0,P|78:234|91:180,2,83.9999974365235,2|0|8,0:0|0:0|0:0,0:0:0:0:
195,323,149066,1,0,0:0:0:0:
187,219,149237,2,0,P|207:183|243:163,1,83.9999974365235,2|2,0:0|0:0,0:0:0:0:
389,98,149580,2,0,P|450:104|487:153,1,125.999996154785,8|2,0:0|0:0,0:0:0:0:
488,169,149923,22,0,P|450:184|428:219,1,83.9999974365235,0|0,0:3|0:0,0:0:0:0:
349,335,150266,2,0,L|343:251,1,83.9999974365235,8|0,0:0|0:0,0:0:0:0:
342,233,150523,2,0,P|275:238|184:218,1,125.999996154785,2|0,0:0|0:3,0:0:0:0:
73,96,150952,2,0,P|132:95|152:180,1,125.999996154785,8|0,0:0|0:0,0:0:0:0:
157,164,151295,86,0,B|125:218|125:218|149:293,1,125.999996154785,2|0,0:0|0:0,0:0:0:0:
150,294,151638,1,8,0:0:0:0:
232,281,151809,1,2,0:0:0:0:
314,268,151980,2,0,P|328:299|317:368,1,83.9999974365235,2|2,0:0|0:0,0:0:0:0:
254,143,152323,2,0,L|268:46,1,83.9999974365235,8|0,0:0|0:0,0:0:0:0:
256,46,152580,1,2,0:0:0:0:
249,34,152666,22,0,P|301:11|386:84,1,167.999994873047,2|8,0:0|0:0,0:0:0:0:
353,236,153180,1,0,0:0:0:0:
197,196,153352,2,0,P|147:196|110:231,1,83.9999974365235,4|0,0:2|0:0,0:0:0:0:
161,374,153695,1,4,0:2:0:0:
181,378,153780,1,0,0:0:0:0:
202,376,153866,1,0,0:0:0:0:
221,368,153952,1,0,0:0:0:0:
237,355,154038,6,0,L|112:332,1,90.0000034332277,4|0,0:2|0:0,0:0:0:0:
69,128,154380,2,0,L|25:121,1,45.0000017166138,8|2,0:0|0:0,0:0:0:0:
147,102,154552,2,0,B|161:152|128:187|128:187|96:222|107:273,1,180.000006866455,2|2,0:0|0:0,0:0:0:0:
259,137,155066,2,0,L|273:241,1,90.0000034332277,8|0,0:0|0:0,0:0:0:0:
272,241,155323,1,2,0:0:0:0:
273,255,155409,86,0,P|230:265|191:246,1,90.0000034332277,0|0,0:0|0:3,0:0:0:0:
69,128,155752,2,0,P|31:155|24:211,1,90.0000034332277,8|0,0:0|0:0,0:0:0:0:
21,208,156009,2,0,L|119:199,1,90.0000034332277,2|0,0:0|0:0,0:0:0:0:
122,186,156266,2,0,L|192:179,1,45.0000017166138,0|2,0:0|0:0,0:0:0:0:
265,136,156438,2,0,P|293:195|274:258,1,135.000005149841,8|0,0:0|0:0,0:0:0:0:
260,269,156780,22,0,L|424:295,1,135.000005149841,2|0,0:0|0:0,0:0:0:0:
411,293,157123,1,8,0:0:0:0:
404,202,157295,1,2,0:0:0:0:
397,111,157466,2,0,P|438:84|495:92,1,90.0000034332277,2|0,0:0|0:0,0:0:0:0:
254,26,157809,2,0,P|291:48|310:89,1,90.0000034332277,8|0,0:0|0:0,0:0:0:0:
300,98,158066,86,0,L|310:253,1,135.000005149841,2|0,0:0|0:0,0:0:0:0:
319,241,158409,1,0,3:0:0:0:
329,249,158495,2,0,P|297:206|240:211,1,90.0000034332277,8|0,0:0|0:0,0:0:0:0:
247,208,158752,2,0,L|72:188,1,135.000005149841,2|2,0:0|0:0,0:0:0:0:
173,351,159180,2,0,L|219:346,3,45.0000017166138,8|8|8|8,0:0|0:0|0:0|0:0,0:0:0:0:
151,366,159523,22,0,P|163:298|161:259,1,90.0000034332277,8|0,0:0|0:0,0:0:0:0:
22,116,159866,1,8,0:0:0:0:
28,208,160038,1,0,0:0:0:0:
21,222,160123,1,2,0:0:0:0:
15,235,160209,2,0,B|65:249|100:216|100:216|135:184|186:195,1,180.000006866455,0|8,0:0|0:0,0:0:0:0:
180,213,160638,1,2,0:0:0:0:
256,92,160809,86,0,P|267:148|256:298,1,180.000006866455,2|0,0:0|0:0,0:0:0:0:
254,286,161238,2,0,L|317:278,1,45.0000017166138,8|2,0:0|0:0,0:0:0:0:
135,372,161495,2,0,P|131:317|96:232,1,135.000005149841,2|0,0:0|0:0,0:0:0:0:
377,372,161923,2,0,P|380:327|398:286,1,90.0000034332277,8|2,0:0|0:0,0:0:0:0:
502,258,162266,22,0,P|414:254|359:187,1,180.000006866455,2|8,0:0|0:0,0:0:0:0:
407,122,162780,1,2,0:0:0:0:
407,122,162866,1,0,0:0:0:0:
407,122,162952,2,0,P|354:105|300:128,1,90.0000034332277,0|2,0:0|0:0,0:0:0:0:
106,222,163295,2,0,P|159:205|213:228,1,90.0000034332277,8|0,0:0|0:0,0:0:0:0:
208,227,163552,86,0,P|228:309|312:326,1,180.000006866455,2|0,0:0|3:3,0:0:0:0:
327,317,163980,1,8,0:0:0:0:
320,226,164152,1,2,0:0:0:0:
460,224,164323,2,0,L|453:331,1,90.0000034332277,6|8,0:2|0:0,0:0:0:0:
392,176,164666,2,0,P|433:145|531:178,1,135.000005149841,2|2,0:0|0:0,0:0:0:0:
511,157,165009,22,0,P|502:114|465:83,1,90.0000034332277,4|0,0:0|0:0,0:0:0:0:
364,253,165352,2,0,P|365:276|376:300,1,45.0000017166138,8|0,0:0|0:0,0:0:0:0:
392,176,165523,2,0,B|342:162|307:195|307:195|272:227|225:217,1,180.000006866455,2|0,0:0|0:0,0:0:0:0:
132,108,166038,2,0,P|146:150|149:195,1,90.0000034332277,8|0,0:0|0:0,0:0:0:0:
144,213,166295,1,2,0:0:0:0:
138,229,166380,86,0,P|149:161|259:150,1,180.000006866455,0|8,0:0|0:0,0:0:0:0:
264,137,166809,2,0,L|255:196,1,45.0000017166138
333,255,166980,2,0,L|354:107,1,135.000005149841,2|2,0:0|0:0,0:0:0:0:
347,103,167323,1,0,0:0:0:0:
342,85,167409,2,0,P|388:82|429:120,1,90.0000034332277,8|2,0:0|0:0,0:0:0:0:
251,267,167752,22,0,L|111:277,1,135.000005149841,2|0,0:0|0:0,0:0:0:0:
106,292,168095,1,8,0:0:0:0:
132,187,168266,1,0,0:0:0:0:
158,82,168438,1,2,0:0:0:0:
158,82,168523,1,0,0:0:0:0:
158,82,168609,2,0,L|232:93,1,45.0000017166138,2|0,0:0|0:0,0:0:0:0:
260,159,168780,2,0,P|288:113|275:51,1,90.0000034332277,8|0,0:0|0:0,0:0:0:0:
288,78,169038,86,0,P|327:124|422:125,1,135.000005149841,2|2,0:0|0:0,0:0:0:0:
405,133,169380,1,0,0:0:0:0:
411,131,169466,2,0,P|385:118|315:133,1,90.0000034332277,8|0,0:0|0:0,0:0:0:0:
313,130,169723,2,0,L|331:276,1,135.000005149841,2|2,0:0|0:0,0:0:0:0:
130,368,170152,1,8,0:0:0:0:
132,345,170237,1,8,0:0:0:0:
135,323,170323,1,8,0:0:0:0:
138,301,170409,1,8,0:0:0:0:
141,278,170495,22,0,P|97:297|49:289,1,90.0000034332277,4|0,0:2|0:0,0:0:0:0:
69,122,170838,1,8,0:0:0:0:
146,163,171009,1,2,0:0:0:0:
158,168,171095,1,0,0:3:0:0:
168,174,171180,2,0,P|216:100|157:-7,1,180.000006866455,2|8,0:0|0:0,0:0:0:0:
176,21,171609,1,2,0:0:0:0:
296,117,171780,1,2,0:0:0:0:
301,104,171866,86,0,L|475:97,1,135.000005149841,4|0,0:2|0:0,0:0:0:0:
443,87,172209,2,0,P|478:133|456:215,1,135.000005149841,8|2,0:0|0:0,0:0:0:0:
456,215,172552,1,0,0:0:0:0:
366,204,172723,1,2,0:0:0:0:
342,346,172895,2,0,L|436:334,1,90.0000034332277,8|0,0:0|0:3,0:0:0:0:
263,143,173238,22,0,P|284:212|284:294,1,135.000005149841,6|0,0:0|0:0,0:0:0:0:
281,291,173580,1,10,0:0:0:0:
148,234,173752,1,2,0:0:0:0:
33,325,173923,86,0,P|12:256|12:174,1,135.000005149841,6|0,0:2|0:0,0:0:0:0:
15,177,174265,1,10,0:0:0:0:
148,234,174437,1,2,0:0:0:0:
131,91,174609,22,0,P|165:54|230:55,1,90.0000034332277,14|10,0:2|0:0,0:0:0:0:
409,183,174952,2,0,P|366:156|304:173,1,90.0000034332277,10|10,0:0|0:0,0:0:0:0:
148,234,175295,1,2,0:0:0:0:
148,234,175380,1,2,0:0:0:0:
148,234,175466,1,2,0:0:0:0:
249,286,175638,2,0,L|238:193,1,90.0000034332277,14|10,0:2|0:0,0:0:0:0:
236,178,175895,1,0,0:0:0:0:
234,160,175980,6,0,P|312:207|328:317,2,180.000006866455,2|2|0,0:0|0:0|0:0,0:0:0:0:
215,159,176752,1,0,0:0:0:0:
196,158,176838,1,2,0:0:0:0:
372,105,177009,2,0,P|391:62|373:10,1,90.0000034332277,8|0,0:0|0:0,0:0:0:0:
129,50,177352,22,0,L|295:56,1,135.000005149841,6|0,0:0|0:0,0:0:0:0:
280,47,177695,2,0,L|293:156,1,90.0000034332277,10|0,0:0|0:0,0:0:0:0:
290,136,177952,1,2,0:0:0:0:
290,136,178038,1,0,0:0:0:0:
216,166,178209,1,2,0:0:0:0:
381,128,178380,1,8,0:0:0:0:
337,289,178552,1,2,0:0:0:0:
216,166,178723,86,0,P|153:154|71:217,1,135.000005149841,2|0,0:0|0:0,0:0:0:0:
77,195,179066,2,0,L|69:322,1,90.0000034332277,10|0,0:0|0:0,0:0:0:0:
85,298,179323,2,0,P|43:313|0:306,1,90.0000034332277
0,305,179580,1,0,0:0:0:0:
220,272,179752,2,0,P|263:249|354:290,1,135.000005149841,8|0,0:0|0:0,0:0:0:0:
349,290,180095,22,0,P|366:267|360:183,1,90.0000034332277,2|0,0:0|0:0,0:0:0:0:
261,9,180438,2,0,P|244:32|250:116,1,90.0000034332277,8|0,0:0|0:0,0:0:0:0:
228,106,180695,2,0,L|392:83,1,135.000005149841,2|0,0:0|0:0,0:0:0:0:
120,44,181123,2,0,L|68:35,3,45.0000017166138,8|0|0|0,0:0|0:0|0:0|0:0,0:0:0:0:
141,28,181466,86,0,P|122:99|124:181,1,135.000005149841,2|0,0:0|0:0,0:0:0:0:
107,171,181809,2,0,P|160:152|206:173,1,90.0000034332277,8|0,0:0|0:0,0:0:0:0:
201,168,182066,1,2,0:0:0:0:
212,175,182152,1,0,0:0:0:0:
180,254,182323,1,2,0:0:0:0:
234,93,182495,2,0,P|184:75|73:94,1,135.000005149841,8|0,0:0|0:0,0:0:0:0:
87,88,182838,22,0,P|85:45|58:4,1,90.0000034332277,2|0,0:0|0:0,0:0:0:0:
212,175,183180,2,0,P|210:218|183:259,1,90.0000034332277,8|0,0:0|0:0,0:0:0:0:
174,265,183438,2,0,L|42:253,1,90.0000034332277,2|0,0:0|0:0,0:0:0:0:
73,265,183695,2,0,L|62:190,1,45.0000017166138,0|2,0:0|0:0,0:0:0:0:
56,141,183866,1,8,0:0:0:0:
129,171,184038,1,2,0:0:0:0:
59,306,184209,86,0,P|52:262|66:220,1,90.0000034332277,2|0,0:0|0:0,0:0:0:0:
208,45,184552,2,0,P|215:88|200:130,1,90.0000034332277,8|0,0:0|0:0,0:0:0:0:
185,141,184809,2,0,L|68:130,1,90.0000034332277,2|0,0:0|0:0,0:0:0:0:
310,184,185152,1,0,0:0:0:0:
310,184,185238,2,0,L|292:19,1,135.000005149841,8|0,0:0|0:0,0:0:0:0:
288,33,185580,22,0,P|332:47|394:34,1,90.0000034332277,2|2,0:0|0:0,0:0:0:0:
512,169,185923,2,0,P|468:155|406:168,1,90.0000034332277,8|0,0:0|0:0,0:0:0:0:
409,168,186180,2,0,L|394:302,1,135.000005149841,2|0,0:0|0:0,0:0:0:0:
382,308,186523,1,0,0:0:0:0:
369,311,186609,1,0,0:3:0:0:
355,311,186695,1,0,0:3:0:0:
341,309,186780,1,0,0:0:0:0:
327,305,186866,1,0,0:0:0:0:
315,298,186952,86,0,P|274:279|198:304,1,90.0000034332277,6|0,0:0|0:0,0:0:0:0:
49,318,187295,2,0,P|89:336|133:333,1,90.0000034332277,8|0,0:0|0:0,0:0:0:0:
150,326,187552,2,0,L|139:204,1,90.0000034332277,2|0,0:0|0:0,0:0:0:0:
140,222,187809,1,0,0:0:0:0:
130,62,187980,2,0,P|118:115|28:132,1,135.000005149841,8|0,0:0|0:0,0:0:0:0:
31,131,188323,22,0,P|96:129|124:156,1,90.0000034332277,2|0,0:0|0:0,0:0:0:0:
290,175,188666,2,0,P|225:177|197:150,1,90.0000034332277,8|0,0:0|0:0,0:0:0:0:
192,154,188923,2,0,P|211:109|210:49,1,90.0000034332277,2|0,0:0|0:0,0:0:0:0:
211,49,189180,1,0,0:3:0:0:
206,31,189266,1,2,0:0:0:0:
198,14,189352,2,0,L|256:21,1,45.0000017166138,8|0,0:0|0:0,0:0:0:0:
300,76,189523,2,0,L|358:69,1,45.0000017166138,2|0,0:0|0:0,0:0:0:0:
426,60,189695,86,0,P|418:109|416:161,1,90.0000034332277,2|0,0:0|0:0,0:0:0:0:
338,316,190038,2,0,P|335:271|312:222,1,90.0000034332277,8|0,0:0|0:0,0:0:0:0:
304,214,190295,2,0,L|471:237,1,135.000005149841,2|0,0:0|0:0,0:0:0:0:
188,336,190723,2,0,P|185:280|220:192,1,135.000005149841,8|0,0:0|0:0,0:0:0:0:
210,206,191066,21,2,0:0:0:0:
92,251,191238,1,2,0:0:0:0:
188,336,191409,2,0,P|191:280|165:217,1,90.0000034332277,8|0,0:0|0:0,0:0:0:0:
174,226,191666,2,0,P|171:170|206:81,1,135.000005149841,2|2,0:0|0:0,0:0:0:0:
232,25,192095,2,0,L|283:32,3,45.0000017166138,8|8|8|8,0:0|0:0|0:0|0:0,0:0:0:0:
216,36,192438,86,0,P|167:60|120:42,1,90.0000034332277,2|0,0:0|0:0,0:0:0:0:
35,24,192780,2,0,P|51:79|54:133,1,90.0000034332277,10|0,0:0|0:0,0:0:0:0:
38,128,193038,2,0,P|110:132|192:162,1,135.000005149841,2|0,0:0|0:0,0:0:0:0:
97,366,193466,2,0,P|105:307|89:223,1,135.000005149841,8|0,0:0|0:0,0:0:0:0:
79,213,193809,22,0,P|83:267|112:300,1,90.0000034332277,2|0,0:0|0:0,0:0:0:0:
301,366,194152,2,0,P|259:377|217:362,1,90.0000034332277,8|0,0:0|0:0,0:0:0:0:
198,374,194409,2,0,L|187:248,1,90.0000034332277,2|0,0:0|0:0,0:0:0:0:
185,262,194666,2,0,L|243:270,1,45.0000017166138,0|2,0:0|0:0,0:0:0:0:
306,278,194838,1,8,0:0:0:0:
322,157,195009,1,2,0:0:0:0:
201,141,195180,86,0,P|181:102|200:39,1,90.0000034332277,2|0,0:0|0:0,0:0:0:0:
401,18,195523,2,0,P|422:57|415:101,1,90.0000034332277,8|0,0:0|0:0,0:0:0:0:
431,123,195780,2,0,L|292:106,1,135.000005149841,2|2,0:0|0:0,0:0:0:0:
375,345,196209,2,0,P|363:295|362:206,1,135.000005149841,8|0,0:0|0:0,0:0:0:0:
377,201,196552,21,2,0:0:0:0:
263,277,196723,1,2,0:0:0:0:
129,101,196895,2,0,P|86:95|50:120,1,90.0000034332277,8|0,0:0|0:0,0:0:0:0:
15,194,197152,86,0,B|62:198|62:198|83:190|83:190|112:215|112:215|133:206|133:206|184:209,1,180,2|0,0:0|0:0,0:0:0:0:
