osu file format v14

[General]
AudioFilename: audio.mp3
AudioLeadIn: 0
PreviewTime: 132095
Countdown: 0
SampleSet: Normal
StackLeniency: 0.2
Mode: 0
LetterboxInBreaks: 0
EpilepsyWarning: 1
WidescreenStoryboard: 1

[Editor]
Bookmarks: 44323,66266,121123,151295,154038,175980
DistanceSpacing: 1.1
BeatDivisor: 4
GridSize: 32
TimelineZoom: 1.6

[Metadata]
Title:Euclid
TitleUnicode:Euclid
Artist:Function Phantom
ArtistUnicode:Function Phantom
Creator:byfar
Version:Fifth Postulate
Source:
Tags:toybot mikii refaller exile- dubstep drumstep ocelot neurofunk dnb rin ginsuke starR starrstyx
BeatmapID:908093
BeatmapSetID:419614

[Difficulty]
HPDrainRate:6
CircleSize:4.1
OverallDifficulty:9
ApproachRate:9.5
SliderMultiplier:2
SliderTickRate:1

[Events]
//Background and Video events
0,0,"math.jpg",0,0
//Break Periods
//Storyboard Layer 0 (Background)
//Storyboard Layer 1 (Fail)
//Storyboard Layer 2 (Pass)
//Storyboard Layer 3 (Foreground)
//Storyboard Sound Samples

[TimingPoints]
438,342.857142857143,4,1,1,40,1,0
22380,-166.666666666667,4,1,1,60,0,0
25209,-166.666666666667,4,1,1,40,0,0
26495,-166.666666666667,4,1,1,60,0,0
30695,-166.666666666667,4,1,1,40,0,0
32066,-166.666666666667,4,1,1,60,0,0
32152,-166.666666666667,4,1,1,45,0,0
32238,-166.666666666667,4,1,1,30,0,0
32323,-166.666666666667,4,1,1,25,0,0
32495,-166.666666666667,4,1,1,15,0,0
32580,-166.666666666667,4,1,1,25,0,0
32666,-166.666666666667,4,1,1,30,0,0
32838,-166.666666666667,4,1,1,45,0,0
32923,-166.666666666667,4,1,1,30,0,0
33009,-166.666666666667,4,1,1,45,0,0
33095,-166.666666666667,4,1,1,60,0,0
33180,-166.666666666667,4,1,1,45,0,0
33266,-166.666666666667,4,1,1,60,0,0
33352,-166.666666666667,4,1,1,60,0,0
36180,-166.666666666667,4,1,1,40,0,0
37466,-166.666666666667,4,1,1,60,0,0
42952,-333,4,1,1,60,0,0
43123,-333,4,1,1,50,0,0
43295,-333,4,1,1,40,0,0
43466,-333,4,1,1,30,0,0
43638,-333,4,1,1,20,0,0
44323,-83.3333333333333,4,1,1,80,0,0
44666,-66.6666666666667,4,1,1,80,0,0
45352,-62.5,4,1,1,80,0,0
45695,-83.3333333333333,4,1,1,80,0,0
46038,-58.8235294117647,4,1,1,80,0,0
47066,-83.3333333333333,4,1,1,80,0,0
47409,-62.5,4,1,1,80,0,0
47666,-66.6666666666667,4,1,1,80,0,0
48095,-62.5,4,1,1,80,0,0
49038,-55.5555555555556,4,1,1,80,0,0
49466,-100,4,1,1,80,0,0
49809,-83.3333333333333,4,1,1,80,0,0
50152,-58.8235294117647,4,1,1,80,0,0
50409,-55.5555555555556,4,1,1,80,0,0
50838,-55.5555555555556,4,1,1,90,0,0
51180,-83.3333333333333,4,1,1,80,0,0
51523,-58.8235294117647,4,1,1,80,0,0
52209,-50,4,1,1,80,0,0
52552,-83.3333333333333,4,1,1,80,0,0
52895,-58.8235294117647,4,1,1,80,0,0
53580,-62.5,4,1,1,80,0,0
54266,-55.5555555555556,4,1,1,80,0,0
55295,-83.3333333333333,4,1,1,80,0,0
55638,-55.5555555555556,4,1,1,80,0,0
56066,-83.3333333333333,4,1,1,80,0,0
56323,-55.5555555555556,4,1,1,80,0,0
56666,-71.4285714285714,4,1,1,80,0,0
57009,-55.5555555555556,4,1,1,80,0,0
58038,-83.3333333333333,4,1,1,80,0,0
58380,-55.5555555555556,4,1,1,80,0,0
58809,-83.3333333333333,4,1,1,80,0,0
59066,-55.5555555555556,4,1,1,80,0,0
59752,-55.5555555555556,4,1,1,80,0,0
60780,-66.6666666666667,4,1,1,80,0,0
61123,-55.5555555555556,4,1,1,80,0,0
61380,-62.5,4,1,1,80,0,0
61552,-71.4285714285714,4,1,1,80,0,0
61809,-62.5,4,1,1,80,0,0
62495,-55.5555555555556,4,1,1,80,0,0
62752,-62.5,4,1,1,80,0,0
63180,-55.5555555555556,4,1,1,80,0,0
63523,-62.5,4,1,1,80,0,0
63866,-55.5555555555556,4,1,1,80,0,0
64123,-62.5,4,1,1,80,0,0
64895,-55.5555555555556,4,1,1,80,0,0
65238,-50,4,1,1,80,0,0
65923,-50,4,1,1,60,0,0
66266,-166.666666666667,4,1,1,40,0,0
66609,-133.333333333333,4,1,1,50,0,0
66952,-111.111111111111,4,1,1,60,0,0
67638,-133.333333333333,4,1,1,60,0,0
68323,-166.666666666667,4,1,1,50,0,0
71409,-83.3333333333333,4,1,1,40,0,0
71752,-166.666666666667,4,1,1,40,0,0
72095,-133.333333333333,4,1,1,50,0,0
72438,-111.111111111111,4,1,1,60,0,0
72780,-166.666666666667,4,1,1,60,0,0
73038,-133.333333333333,4,1,1,60,0,0
73723,-133.333333333333,4,1,1,40,0,0
74152,-83.3333333333333,4,1,1,40,0,0
74495,-166.666666666667,4,1,1,40,0,0
76895,-83.3333333333333,4,1,1,40,0,0
77238,-166.666666666667,4,1,1,40,0,0
77580,-133.333333333333,4,1,1,40,0,0
78266,-111.111111111111,4,1,1,40,0,0
78609,-133.333333333333,4,1,1,40,0,0
78952,-111.111111111111,4,1,1,40,0,0
79295,-90.9090909090909,4,1,1,40,0,0
79638,-83.3333333333333,4,1,1,40,0,0
79980,-166.666666666667,4,1,1,40,0,0
80323,-133.333333333333,4,1,1,40,0,0
80666,-166.666666666667,4,1,1,40,0,0
81009,-111.111111111111,4,1,1,40,0,0
81352,-166.666666666667,4,1,1,40,0,0
81695,-133.333333333333,4,1,1,40,0,0
81952,-111.111111111111,4,1,1,40,0,0
82380,-83.3333333333333,4,1,1,40,0,0
82723,-166.666666666667,4,1,1,40,0,0
83066,-133.333333333333,4,1,1,40,0,0
83752,-111.111111111111,4,1,1,40,0,0
84095,-166.666666666667,4,1,1,40,0,0
85123,-83.3333333333333,4,1,1,40,0,0
85466,-166.666666666667,4,1,1,40,0,0
86838,-83.3333333333333,4,1,1,80,0,0
87180,-166.666666666667,4,1,1,80,0,0
87780,-166.666666666667,4,1,1,80,0,0
88209,-166.666666666667,4,1,1,60,0,0
92323,-166.666666666667,4,3,20,60,0,0
93009,-166.666666666667,4,3,20,40,0,0
93352,-166.666666666667,4,3,20,20,0,0
93695,-166.666666666667,4,1,1,60,0,0
98495,-83.3333333333333,4,1,1,80,0,0
99180,-166.666666666667,4,1,1,80,0,0
99866,-66.6666666666667,4,1,1,80,0,0
100638,-125,4,1,1,80,0,0
102609,-66.6666666666667,4,1,1,80,0,0
103295,-166.666666666667,4,1,1,80,0,0
104152,-125,4,1,1,80,0,0
105352,-66.6666666666667,4,1,1,80,0,0
106123,-125,4,1,1,80,0,0
108095,-66.6666666666667,4,1,1,80,0,0
108352,-83.3333333333333,4,1,1,80,0,0
108609,-111.111111111111,4,1,1,80,0,0
110152,-66.6666666666667,4,1,1,80,0,0
111009,-55.5555555555556,4,1,1,80,0,0
112123,-50,4,1,1,80,0,0
112895,-50,4,1,1,100,0,0
113495,-55.5555555555556,4,1,1,80,0,0
113752,-111.111111111111,4,1,1,80,0,0
114266,-55.5555555555556,4,1,1,100,0,0
114609,-50,4,1,1,100,0,0
115209,-55.5555555555556,4,1,1,80,0,0
115466,-55.5555555555556,4,1,1,80,0,0
115638,-55.5555555555556,4,1,1,100,0,0
116238,-55.5555555555556,4,1,1,80,0,0
116495,-100,4,1,1,80,0,0
117009,-55.5555555555556,4,1,1,80,0,0
117352,-50,4,1,1,80,0,0
117609,-55.5555555555556,4,1,1,80,0,0
117866,-111.111111111111,4,1,1,80,0,0
117952,-71.4285714285714,4,1,1,80,0,0
118380,-55.5555555555556,4,1,1,80,0,0
118723,-50,4,1,1,90,0,0
119409,-100,4,1,1,80,0,0
119752,-55.5555555555556,4,1,1,80,0,0
120095,-50,4,1,1,80,0,0
121123,-50,4,1,1,80,0,1
121380,-50,4,3,1,80,0,1
121466,-50,4,1,3,80,0,1
121809,-50,4,3,1,80,0,1
121895,-50,4,1,1,80,0,1
122066,-50,4,1,3,80,0,1
122409,-50,4,1,3,80,0,1
122495,-55.5555555555556,4,1,3,80,0,0
122838,-50,4,1,3,80,0,0
123095,-55.5555555555556,4,1,1,80,0,0
123866,-55.5555555555556,4,1,1,80,0,1
124123,-50,4,3,1,80,0,1
124209,-50,4,1,3,80,0,1
124380,-55.5555555555556,4,1,1,80,0,1
124552,-50,4,3,1,80,0,1
124638,-50,4,1,3,80,0,1
125066,-50,4,3,1,80,0,1
125109,-50,4,1,3,80,0,1
125238,-83.3333333333333,4,1,3,80,0,0
125580,-55.5555555555556,4,1,3,80,0,0
126266,-52.6315789473684,4,1,3,80,0,0
126609,-50,4,1,1,80,0,1
126866,-50,4,3,1,80,0,1
126952,-50,4,1,3,80,0,1
127295,-50,4,3,1,80,0,1
127380,-50,4,1,3,80,0,1
127809,-50,4,3,1,80,0,1
127895,-50,4,1,3,80,0,1
127980,-55.5555555555556,4,1,1,80,0,0
128323,-55.5555555555556,4,1,3,80,0,0
128580,-55.5555555555556,4,1,1,80,0,0
129352,-50,4,3,21,80,0,1
129609,-50,4,3,1,80,0,1
129695,-50,4,1,3,80,0,1
130038,-50,4,3,1,80,0,1
130123,-50,4,1,3,80,0,1
130552,-100,4,3,1,80,0,1
130595,-100,4,1,3,80,0,1
130723,-50,4,1,3,84,0,1
130895,-50,4,1,3,88,0,1
131066,-50,4,1,3,92,0,1
131752,-50,4,1,1,92,0,1
132095,-83.3333333333333,4,1,1,80,0,0
132780,-83.3333333333333,4,1,2,80,0,0
132866,-83.3333333333333,4,1,1,80,0,0
133380,-83.3333333333333,4,1,2,80,0,0
133466,-83.3333333333333,4,1,1,80,0,0
134066,-83.3333333333333,4,1,2,80,0,0
134152,-83.3333333333333,4,1,1,80,0,0
134495,-66.6666666666667,4,1,3,80,0,0
134838,-83.3333333333333,4,1,2,80,0,0
135180,-83.3333333333333,4,1,1,80,0,0
135352,-83.3333333333333,4,1,2,80,0,0
135523,-83.3333333333333,4,1,2,80,0,0
135609,-83.3333333333333,4,1,1,80,0,0
135695,-83.3333333333333,4,1,2,80,0,0
135866,-83.3333333333333,4,1,1,80,0,0
136123,-83.3333333333333,4,1,2,80,0,0
136209,-83.3333333333333,4,1,1,80,0,0
136552,-83.3333333333333,4,1,1,100,0,0
136809,-83.3333333333333,4,1,2,80,0,0
136895,-83.3333333333333,4,1,1,80,0,0
137238,-66.6666666666667,4,1,1,100,0,0
137580,-83.3333333333333,4,1,2,80,0,0
137838,-83.3333333333333,4,1,1,80,0,0
138095,-83.3333333333333,4,1,2,80,0,0
138266,-83.3333333333333,4,1,2,80,0,0
138352,-83.3333333333333,4,1,1,80,0,0
138438,-83.3333333333333,4,1,2,80,0,0
138609,-83.3333333333333,4,1,1,80,0,0
138866,-83.3333333333333,4,1,2,80,0,0
138952,-83.3333333333333,4,1,1,80,0,0
139552,-83.3333333333333,4,1,2,80,0,0
139895,-66.6666666666667,4,1,3,80,0,0
140323,-83.3333333333333,4,1,2,80,0,0
140409,-83.3333333333333,4,1,1,80,0,0
141009,-83.3333333333333,4,1,2,80,0,0
141352,-83.3333333333333,4,1,1,80,0,0
141609,-66.6666666666667,4,1,2,80,0,0
141695,-66.6666666666667,4,1,1,80,0,0
142209,-83.3333333333333,4,1,2,80,0,0
142295,-83.3333333333333,4,1,1,80,0,0
142723,-83.3333333333333,4,1,2,80,0,0
142766,-83.3333333333333,4,1,1,80,0,0
143066,-83.3333333333333,4,1,2,100,0,0
143152,-83.3333333333333,4,1,1,80,0,0
143580,-83.3333333333333,4,1,2,100,0,0
143752,-83.3333333333333,4,1,2,80,0,0
143838,-83.3333333333333,4,1,1,80,0,0
143923,-83.3333333333333,4,1,2,80,0,0
144009,-83.3333333333333,4,1,1,80,0,0
144095,-83.3333333333333,4,1,2,80,0,0
144180,-83.3333333333333,4,1,1,80,0,0
144352,-83.3333333333333,4,1,2,80,0,0
144438,-83.3333333333333,4,1,1,80,0,0
145038,-83.3333333333333,4,1,2,80,0,0
145123,-83.3333333333333,4,1,1,80,0,0
145466,-66.6666666666667,4,1,1,80,0,0
145809,-83.3333333333333,4,1,2,80,0,0
145895,-83.3333333333333,4,1,1,80,0,0
146495,-83.3333333333333,4,1,2,80,0,0
146580,-83.3333333333333,4,1,1,80,0,0
146666,-83.3333333333333,4,1,2,80,0,0
146752,-83.3333333333333,4,1,1,80,0,0
146838,-83.3333333333333,4,1,2,80,0,0
146923,-83.3333333333333,4,1,1,80,0,0
147095,-83.3333333333333,4,1,2,80,0,0
147180,-83.3333333333333,4,1,1,80,0,0
147777,-83.3333333333333,4,1,2,80,0,0
147866,-83.3333333333333,4,1,1,80,0,0
148209,-55.5555555555556,4,1,1,80,0,0
148552,-83.3333333333333,4,1,2,80,0,0
148638,-83.3333333333333,4,1,1,80,0,0
149066,-83.3333333333333,4,1,2,80,0,0
149580,-83.3333333333333,4,1,1,80,0,0
149666,-83.3333333333333,4,1,2,80,0,0
150266,-83.3333333333333,4,1,1,80,0,0
150523,-83.3333333333333,4,1,2,80,0,0
150952,-66.6666666666667,4,1,1,80,0,0
151295,-83.3333333333333,4,1,2,80,0,0
151380,-83.3333333333333,4,1,1,80,0,0
151980,-83.3333333333333,4,1,2,80,0,0
152323,-83.3333333333333,4,1,1,80,0,0
152580,-83.3333333333333,4,1,2,80,0,0
152666,-83.3333333333333,4,1,1,80,0,0
153352,-83.3333333333333,4,1,1,80,0,0
154038,-66.6666666666667,4,1,2,90,0,1
154380,-83.3333333333333,4,1,1,90,0,1
154466,-83.3333333333333,4,1,2,90,0,1
154723,-83.3333333333333,4,1,1,90,0,1
154895,-83.3333333333333,4,1,1,90,0,1
155066,-83.3333333333333,4,1,1,90,0,1
155152,-83.3333333333333,4,1,2,90,0,1
155323,-83.3333333333333,4,1,2,90,0,1
155752,-83.3333333333333,4,1,1,90,0,1
155838,-83.3333333333333,4,1,2,90,0,1
156095,-83.3333333333333,4,1,1,90,0,1
156266,-83.3333333333333,4,1,2,90,0,1
156352,-83.3333333333333,4,1,1,90,0,1
156438,-83.3333333333333,4,1,2,90,0,1
156523,-83.3333333333333,4,1,1,90,0,1
156609,-83.3333333333333,4,1,2,90,0,1
156695,-83.3333333333333,4,1,1,90,0,1
156780,-66.6666666666667,4,1,1,90,0,1
157123,-83.3333333333333,4,1,1,90,0,1
157209,-83.3333333333333,4,1,2,90,0,1
157380,-66.6666666666667,4,1,2,90,0,1
157638,-66.6666666666667,4,1,1,90,0,1
158066,-55.5555555555556,4,1,2,90,0,1
158152,-55.5555555555556,4,1,1,90,0,1
158495,-66.6666666666667,4,1,1,90,0,1
158580,-66.6666666666667,4,1,2,90,0,1
158752,-66.6666666666667,4,1,2,90,0,1
158838,-66.6666666666667,4,1,1,90,0,1
159009,-66.6666666666667,4,1,2,90,0,1
159095,-66.6666666666667,4,1,1,90,0,1
159523,-66.6666666666667,4,1,2,90,0,1
159609,-66.6666666666667,4,1,1,90,0,1
159952,-66.6666666666667,4,1,2,90,0,1
160038,-66.6666666666667,4,1,1,90,0,1
160123,-66.6666666666667,4,1,2,90,0,1
160380,-66.6666666666667,4,1,1,90,0,1
160552,-66.6666666666667,4,1,1,90,0,1
160638,-66.6666666666667,4,1,2,90,0,1
160723,-66.6666666666667,4,1,1,90,0,1
160809,-66.6666666666667,4,1,2,90,0,1
161066,-66.6666666666667,4,1,1,90,0,1
161238,-66.6666666666667,4,1,1,90,0,1
161323,-66.6666666666667,4,1,2,90,0,1
161409,-66.6666666666667,4,1,1,90,0,1
161495,-66.6666666666667,4,1,2,90,0,1
161580,-66.6666666666667,4,1,1,90,0,1
161752,-66.6666666666667,4,1,2,90,0,1
161838,-66.6666666666667,4,1,1,90,0,1
162095,-66.6666666666667,4,1,2,90,0,1
162180,-66.6666666666667,4,1,1,90,0,1
162266,-66.6666666666667,4,1,2,90,0,1
162609,-66.6666666666667,4,1,1,90,0,1
162695,-66.6666666666667,4,1,2,90,0,1
162780,-66.6666666666667,4,1,1,90,0,1
162866,-66.6666666666667,4,1,2,90,0,1
163123,-66.6666666666667,4,1,1,90,0,1
163380,-66.6666666666667,4,1,2,90,0,1
163466,-66.6666666666667,4,1,1,90,0,1
163552,-55.5555555555556,4,1,2,90,0,1
163980,-66.6666666666667,4,1,1,90,0,1
164152,-66.6666666666667,4,1,2,90,0,1
164238,-66.6666666666667,4,1,1,90,0,1
164323,-66.6666666666667,4,1,1,70,0,1
164409,-66.6666666666667,4,1,1,90,0,1
164495,-66.6666666666667,4,1,2,90,0,1
164580,-66.6666666666667,4,1,1,90,0,1
164666,-66.6666666666667,4,1,1,93,0,1
164752,-66.6666666666667,4,1,1,96,0,1
164838,-66.6666666666667,4,1,1,99,0,1
164923,-66.6666666666667,4,1,1,96,0,1
165009,-66.6666666666667,4,1,1,90,0,1
165438,-66.6666666666667,4,1,2,90,0,1
165523,-66.6666666666667,4,1,1,90,0,1
165609,-66.6666666666667,4,1,2,90,0,1
165695,-66.6666666666667,4,1,1,90,0,1
166123,-66.6666666666667,4,1,2,90,0,1
166209,-66.6666666666667,4,1,1,90,0,1
166295,-66.6666666666667,4,1,2,90,0,1
166466,-66.6666666666667,4,1,1,90,0,1
166809,-66.6666666666667,4,1,2,90,0,1
166895,-66.6666666666667,4,1,1,90,0,1
166980,-66.6666666666667,4,1,2,90,0,1
167066,-66.6666666666667,4,1,1,90,0,1
167580,-66.6666666666667,4,1,2,90,0,1
167666,-66.6666666666667,4,1,1,90,0,1
167752,-66.6666666666667,4,1,1,90,0,1
167838,-66.6666666666667,4,1,1,90,0,1
168180,-66.6666666666667,4,1,2,90,0,1
168266,-66.6666666666667,4,1,1,90,0,1
168352,-66.6666666666667,4,1,2,90,0,1
168438,-66.6666666666667,4,1,1,90,0,1
168866,-66.6666666666667,4,1,2,90,0,1
168952,-66.6666666666667,4,1,1,90,0,1
169038,-55.5555555555556,4,1,2,90,0,1
169123,-55.5555555555556,4,1,1,90,0,1
169295,-55.5555555555556,4,1,2,90,0,1
169380,-55.5555555555556,4,1,1,90,0,1
169466,-66.6666666666667,4,1,1,90,0,1
169552,-66.6666666666667,4,1,2,90,0,1
169638,-66.6666666666667,4,1,1,90,0,1
169723,-66.6666666666667,4,1,2,90,0,1
169895,-66.6666666666667,4,1,1,90,0,1
169980,-66.6666666666667,4,1,2,90,0,1
170152,-66.6666666666667,4,1,1,90,0,1
170495,-66.6666666666667,4,1,2,90,0,1
170580,-66.6666666666667,4,1,1,90,0,1
170923,-66.6666666666667,4,1,2,90,0,1
171009,-66.6666666666667,4,1,1,90,0,1
171095,-66.6666666666667,4,1,2,90,0,1
171180,-66.6666666666667,4,1,1,90,0,1
171609,-66.6666666666667,4,1,2,90,0,1
171695,-66.6666666666667,4,1,1,90,0,1
171780,-66.6666666666667,4,1,2,90,0,1
171866,-66.6666666666667,4,1,1,90,0,1
172295,-66.6666666666667,4,1,2,90,0,1
172380,-66.6666666666667,4,1,1,90,0,1
172466,-66.6666666666667,4,1,2,90,0,1
172552,-66.6666666666667,4,1,1,90,0,1
172723,-66.6666666666667,4,1,2,90,0,1
172809,-66.6666666666667,4,1,1,90,0,1
173066,-66.6666666666667,4,1,2,90,0,1
173238,-83.3333333333333,4,1,1,100,0,1
174609,-66.6666666666667,4,1,1,100,0,1
175295,-83.3333333333333,4,1,1,80,0,1
175980,-83.3333333333333,4,1,1,80,0,0
176323,-66.6666666666667,4,1,1,80,0,0
176666,-66.6666666666667,4,1,1,80,0,0
177009,-58.8235294117647,4,1,1,80,0,0
177352,-66.6666666666667,4,1,1,80,0,0
177695,-100,4,1,1,80,0,0
177952,-66.6666666666667,4,1,1,80,0,0
178381,-58.8235294117647,4,1,1,80,0,0
178724,-66.6666666666667,4,1,1,80,0,0
179067,-50,4,1,1,80,0,0
179323,-66.6666666666667,4,1,1,80,0,0
179752,-55.5555555555556,4,1,1,80,0,0
180095,-66.6666666666667,4,1,1,80,0,0
180695,-58.8235294117647,4,1,1,80,0,0
181123,-62.5,4,1,1,80,0,0
181466,-83.3333333333333,4,1,1,80,0,0
181809,-66.6666666666667,4,1,1,80,0,0
182495,-58.8235294117647,4,1,1,80,0,0
182838,-83.3333333333333,4,1,1,80,0,0
183180,-55.5555555555556,4,1,1,80,0,0
184209,-83.3333333333333,4,1,1,80,0,0
184552,-66.6666666666667,4,1,1,80,0,0
185238,-62.5,4,1,1,80,0,0
187980,-55.5555555555556,4,1,1,80,0,0
189352,-50,4,1,1,80,0,0
189695,-62.5,4,1,1,80,0,0
190038,-55.5555555555556,4,1,1,80,0,0
190723,-50,4,1,1,80,0,0
192438,-55.5555555555556,4,1,1,80,0,0
192780,-50,4,1,1,80,0,0
193038,-55.5555555555556,4,1,1,80,0,0
193466,-50,4,1,1,80,0,0
193809,-55.5555555555556,4,1,1,80,0,0
194152,-50,4,1,1,80,0,0
195180,-55.5555555555556,4,1,1,80,0,0
195523,-50,4,1,1,80,0,0
197323,-50,4,1,1,40,0,0
197409,-50,4,1,1,5,0,0

[Colours]
Combo1 : 255,128,0
Combo2 : 128,0,255
Combo3 : 108,108,108
Combo4 : 205,130,251
Combo5 : 188,188,188
Combo6 : 82,204,239
Combo7 : 248,41,57
Combo8 : 155,199,247

[HitObjects]
37,120,22380,22,0,B|92:109|129:163|129:163|147:116|115:69|115:69|159:5|159:5|215:61|239:173|164:241|164:241|228:184|304:232,1,689.999978942872,2|2,0:0|0:0,0:0:0:0:
294,226,24609,1,2,0:0:0:0:
439,89,25038,1,2,0:0:0:0:
439,89,25123,22,0,P|445:133|429:175,2,89.9999972534181
377,243,25809,2,0,P|371:287|388:329,2,89.9999972534181
431,179,26495,86,0,L|445:180,30,14.9999995422363,8|0|0|0|0|0|0|0|0|0|0|0|0|0|0|0|0|0|0|0|0|0|0|0|0|0|0|0|0|0|0,0:0|0:0|0:0|0:0|0:0|0:0|0:0|0:0|0:0|0:0|0:0|0:0|0:0|0:0|0:0|0:0|0:0|0:0|0:0|0:0|0:0|0:0|0:0|0:0|0:0|0:0|0:0|0:0|0:0|0:0|0:0,0:0:0:0:
369,242,27866,22,0,B|332:201|280:212|280:212|247:247|253:312|253:312|210:323|184:355|184:355|166:271|195:204|195:204|148:227|95:201|85:149|85:149|88:108|141:91|168:152,1,689.999978942872,2|2,0:0|0:0,0:0:0:0:
158,135,30095,1,2,0:0:0:0:
231,36,30523,1,2,0:0:0:0:
231,36,30609,86,0,P|228:78|242:126,2,89.9999972534181
316,168,31295,2,0,P|359:156|404:159,2,89.9999972534181
270,243,31980,21,0,0:0:0:0:
270,243,32066,2,0,P|276:258|277:273,2,29.9999990844727
197,280,32323,2,0,P|196:295|191:310,11,29.9999990844727
86,347,33352,86,0,B|159:361|215:292|174:233|158:202|158:202|114:194|114:194|90:232|90:232|104:271|104:271|38:239|-20:118|77:22|77:22|65:87,1,689.999978942872,2|2,0:0|0:0,0:0:0:0:
67,73,35580,1,2,0:0:0:0:
350,247,36009,1,2,0:0:0:0:
350,247,36095,22,0,P|358:194|332:141,2,89.9999972534181
274,118,36780,2,0,P|265:75|277:32,2,89.9999972534181
346,161,37466,86,0,L|360:163,30,14.9999995422363,12|0|0|0|0|0|0|0|0|0|0|0|0|0|0|0|0|0|0|0|0|0|0|0|0|0|0|0|0|0|0,0:0|0:0|0:0|0:0|0:0|0:0|0:0|0:0|0:0|0:0|0:0|0:0|0:0|0:0|0:0|0:0|0:0|0:0|0:0|0:0|0:0|0:0|0:0|0:0|0:0|0:0|0:0|0:0|0:0|0:0|0:0,0:0:0:70:drum-hitclap20.wav
386,252,38838,22,0,B|426:150|344:99|344:99|332:171|275:189|275:189|306:251|267:309|267:309|347:258|455:273|518:347,1,689.999978942872,2|2,0:0|0:0,0:0:0:0:
512,340,41066,1,2,0:0:0:0:
49,244,41495,1,2,0:0:0:0:
49,244,41580,86,0,P|93:246|136:232,2,89.9999972534181
210,180,42266,2,0,L|222:270,2,89.9999972534181
302,271,42952,2,0,B|446:289|446:289|493:338,1,210.21021021021
211,41,44323,102,0,B|183:181|183:181|210:208,1,179.999994506836,6|0,0:0|0:0,0:3:0:0:
288,186,44666,22,0,B|383:156|383:156|364:179|364:204,1,150.000005722046,8|0,0:0|0:0,0:0:0:0:
322,268,44923,2,0,P|356:280|399:272,1,75.0000028610231,2|0,0:0|0:0,0:0:0:0:
349,65,45095,1,0,0:0:0:0:
366,63,45180,2,0,B|404:57|404:57|427:85,1,75.0000028610231,2|0,0:0|0:0,0:0:0:0:
509,236,45352,86,0,P|414:241|471:164,1,240,8|0,0:0|0:3,0:3:0:0:
436,350,45695,22,8,P|352:328|261:339,1,179.999994506836,2|0,0:0|0:0,0:0:0:0:
184,375,46038,86,0,B|167:327|194:290|194:290|220:255|206:212,1,170.000003242493,8|0,0:0|0:0,0:0:0:0:
181,105,46295,2,0,P|144:120|146:161,1,85.0000016212464,2|0,0:0|0:0,0:0:0:0:
260,339,46466,2,0,P|297:324|295:283,2,85.0000016212464,0|2|2,0:0|0:0|0:0,0:0:0:0:
12,213,46723,22,0,B|57:260|130:237|130:237|86:224,1,170.000003242493,8|0,0:0|0:0,0:0:0:0:
441,195,47066,86,0,P|356:187|326:108,1,179.999994506836,2|0,0:0|0:0,0:0:0:0:
253,54,47409,22,0,B|291:76|334:61|334:61|348:24|389:13,1,160,8|0,0:0|0:0,0:0:0:0:
493,24,47666,86,0,B|490:61|490:61|464:34,1,75.0000028610231,2|0,0:0|0:0,0:0:0:0:
407,123,47838,1,0,0:0:0:0:
407,123,47923,2,0,B|409:88|409:88|439:119,1,75.0000028610231
509,250,48095,22,0,P|477:345|407:273,1,240,8|0,0:0|0:0,0:0:0:0:
378,198,48438,86,0,B|327:194|327:194|302:209,1,80,2|0,0:0|0:0,0:0:0:0:
256,329,48609,2,0,B|205:333|205:333|180:317,1,80,2|0,0:0|0:0,0:0:0:0:
137,59,48780,22,0,B|209:22|209:22|201:100,1,160,8|0,0:0|0:3,0:3:0:0:
2,219,49038,86,0,B|-15:187|-19:131|47:98|47:98|98:118|103:151|103:151|66:180,1,269.999991760254,2|0,0:0|0:3,0:3:0:0:
160,311,49380,1,2,0:0:0:0:
80,296,49466,22,0,L|55:291,6,25,8|0|0|0|0|0|0,0:0|0:0|0:0|0:0|0:0|0:0|0:0,0:0:0:0:
25,371,49809,86,0,B|34:321|79:295|79:295|161:312,1,179.999994506836,2|0,0:0|0:0,0:0:0:0:
343,254,50152,22,0,B|355:197|355:197|250:235,1,170.000003242493,8|0,0:0|0:0,0:0:0:0:
160,311,50409,86,0,B|262:330,1,89.9999972534181,2|0,0:0|0:0,0:0:0:0:
428,153,50580,1,0,0:3:0:0:
441,148,50666,2,0,P|483:157|505:196,1,89.9999972534181
486,279,50838,22,0,B|504:353|504:353|410:428|290:277|466:342,1,269.999991760254,8|0,0:0|0:0,0:0:0:0:
415,327,51180,86,0,P|320:343|260:260,1,179.999994506836,2|0,0:0|0:0,0:0:0:0:
137,255,51523,22,0,B|93:297|26:274|26:274|58:263|70:235,1,170.000003242493,8|0,0:0|0:0,0:0:0:0:
387,188,51780,86,0,B|376:228|376:228|342:254,1,85.0000016212464,2|0,0:0|0:0,0:0:0:0:
116,178,51952,1,0,0:0:0:0:
115,178,52038,2,0,B|113:220|113:220|137:255,1,85.0000016212464
237,355,52209,22,8,B|244:274|244:274|194:197|194:197|250:158|250:158|306:178,1,300,8|0,0:0|0:0,0:0:0:0:
387,188,52552,86,0,B|428:301|428:301|408:268|370:264,1,179.999994506836,2|0,0:0|0:0,0:0:0:0:
320,364,52895,22,0,B|250:358|250:358|221:369|221:369|152:362,1,170.000003242493,8|0,0:0|0:0,0:0:0:0:
74,384,53152,86,0,B|55:345|55:345|88:314,1,85.0000016212464,2|0,0:0|0:0,0:0:0:0:
194,197,53323,2,0,B|209:280,2,85.0000016212464
488,122,53580,22,0,P|410:150|374:13,1,240,8|0,0:0|0:0,0:0:0:0:
426,73,53923,86,0,B|420:121|420:121|416:127|416:127|419:132|419:132|413:179,1,80,2|0,0:0|0:0,0:0:0:0:
397,306,54095,2,0,B|391:354|391:354|388:359|388:359|390:365|390:365|384:412,1,80,2|0,0:0|0:0,0:0:0:0:
512,260,54266,22,0,B|473:212|399:228|399:228|436:229|466:265,1,179.999994506836,8|0,0:0|0:0,0:0:0:0:
204,315,54523,86,0,B|153:319|153:319|120:310|120:310|86:326|86:326|27:331,1,179.999994506836,2|0,0:0|0:0,0:0:0:0:
34,171,54780,22,0,B|68:196|68:196|57:247,1,89.9999972534181
192,92,54952,2,0,P|159:113|169:157,1,89.9999972534181
0,7,55123,2,0,B|34:32|34:32|23:83,1,89.9999972534181
258,152,55295,86,0,B|321:136|391:144|391:144|324:152,1,179.999994506836,12|0,0:0|0:0,0:0:0:0:
427,259,55638,22,0,P|507:280|506:208,1,179.999994506836
482,52,55895,2,0,B|477:85|477:85|471:96|471:96|474:102|474:102|468:139,1,89.9999972534181
480,320,56066,86,0,P|425:313|427:258,1,119.999996337891,0|0,0:3|0:3,0:3:0:0:
258,252,56323,22,0,B|208:237|172:274|172:274|136:299|77:296|77:296|122:299|143:335,1,269.999991760254,8|0,0:0|0:0,0:0:0:0:
28,360,56666,86,0,B|40:287|40:287|19:226|19:226|30:156,1,209.999993591309,2|0,0:0|0:0,0:0:0:0:
35,73,57009,22,0,B|89:46|130:57|157:87|157:87|133:74|110:77,1,179.999994506836,8|0,0:0|0:0,0:0:0:0:
156,167,57266,86,0,P|199:170|223:133,1,89.9999972534181,2|0,0:0|0:0,0:0:0:0:
364,35,57438,2,0,P|398:61|438:45,2,89.9999972534181,0|0|2,0:0|0:0|0:0,0:0:0:0:
286,0,57695,22,0,B|279:38|279:38|292:87,1,89.9999972534181,8|0,0:0|0:0,0:0:0:0:
346,358,57866,2,0,B|353:320|353:320|339:267,1,89.9999972534181
318,185,58038,86,0,B|354:160|397:160|433:191|433:191|403:176|380:184,1,179.999994506836,2|0,0:0|0:0,0:0:0:0:
512,282,58380,22,0,B|456:290|456:290|426:276|426:276|395:261|395:261|340:270,1,179.999994506836,8|0,0:0|0:3,0:3:0:0:
263,285,58638,2,0,B|219:294|219:294|178:274,1,89.9999972534181,2|0,0:0|0:0,0:0:0:0:
33,331,58809,86,0,P|88:327|98:272,1,119.999996337891,0|2,0:0|0:0,0:0:0:0:
63,118,59066,22,0,B|82:71|18:39|-17:132|36:178|67:201|67:201|28:220|23:260,1,269.999991760254,8|0,0:0|0:0,0:0:0:0:
323,351,59409,86,0,P|345:312|339:269,1,89.9999972534181,2|0,0:0|0:0,0:0:0:0:
261,74,59580,2,0,B|280:85|304:82|304:82|286:97|283:121,1,89.9999972534181,2|0,0:0|0:0,0:0:0:0:
203,201,59752,22,0,B|262:197|262:197|291:201|291:201|318:191|318:191|381:186,1,179.999994506836,8|0,0:0|0:0,0:0:0:0:
438,0,60009,2,0,B|447:28|486:62|539:61|539:61|495:93|486:159|530:201|530:201|500:177|458:185,1,359.999989013672,2|0,0:0|0:0,0:0:0:0:
290,377,60438,85,8,0:0:0:0:
364,357,60523,1,8,0:0:0:0:
404,289,60609,1,8,0:0:0:0:
388,213,60695,1,8,0:0:0:0:
330,162,60780,22,8,B|268:121|215:154|215:154|155:192|88:152,1,225.000008583069,2|0,0:0|0:0,0:0:0:0:
43,54,61123,86,0,B|94:7|169:33|169:33|151:75,1,179.999994506836,8|0,0:0|0:0,0:0:0:0:
88,258,61380,2,0,P|53:266|8:246,1,80,2|0,0:0|0:0,0:0:0:0:
214,155,61552,2,0,L|310:147,2,69.9999978637696,0|0|2,0:0|0:0|0:0,0:0:0:0:
3,174,61809,22,0,B|-7:208|13:250|13:250|31:300|-2:342|-2:342|23:320|75:324,1,240,8|0,0:0|0:0,0:0:0:0:
173,259,62152,86,0,B|213:288|205:335|205:335|172:339|115:375|115:375|133:354|134:324,1,240,2|0,0:0|0:0,0:0:0:0:
133,188,62495,22,0,B|174:207|204:203|238:184|238:184|266:153|316:145,1,179.999994506836,8|0,0:0|0:0,0:0:0:0:
320,74,62752,86,0,P|351:79|363:141,1,80,2|0,0:0|0:0,0:0:0:0:
281,277,62923,2,0,P|295:241|394:277,1,160,0|2,0:0|0:0,0:0:0:0:
512,199,63180,22,0,B|473:190|473:190|465:184|465:184|425:176,1,89.9999972534181,8|0,0:0|0:0,0:0:0:0:
211,126,63352,2,0,B|251:134|251:134|259:140|259:140|298:149,1,89.9999972534181
371,119,63523,86,0,P|386:56|254:57,1,240,2|0,0:0|0:0,0:0:0:0:
87,139,63866,22,0,B|26:160|42:83|91:91|111:142|136:160|216:121,1,179.999994506836,8|0,0:0|0:0,0:0:0:0:
320,74,64123,2,0,P|336:108|318:142,1,80,2|0,0:0|0:0,0:0:0:0:
157,59,64295,2,0,P|154:26|176:53,2,80,2|0|2,0:0|0:0|0:0,0:0:0:0:
296,227,64552,86,0,B|263:188|214:200|214:200|171:224|124:222|124:222|164:226|190:263,1,240,8|0,0:0|0:0,0:0:0:0:
16,334,64895,22,0,B|46:326|46:326|77:330|77:330|103:323,1,89.9999972534181,8|0,0:0|0:0,0:0:0:0:
102,127,65066,2,0,B|76:120|76:120|45:124|45:124|15:116,1,89.9999972534181,2|0,0:0|0:0,0:0:0:0:
214,330,65238,86,0,B|248:384|248:384|310:261,1,200,8|0,0:0|0:0,0:0:0:0:
498,129,65495,2,0,B|430:11|430:11|403:68,1,200,8|0,0:0|0:0,0:0:0:0:
425,314,65752,2,0,P|466:326|513:296,1,100,8|0,0:0|0:0,0:0:0:0:
350,164,65923,21,8,0:0:0:0:
271,172,66008,1,8,0:0:0:0:
191,183,66094,1,8,0:0:0:0:
111,192,66180,1,8,0:0:0:0:
31,203,66266,102,0,P|20:230|23:259,1,59.9999981689454,4|0,0:0|0:0,0:0:0:0:
63,131,66609,2,0,P|74:96|65:60,1,75.0000028610231,8|0,0:0|0:0,0:0:0:0:
111,192,66952,2,0,L|156:200,2,44.999998626709,2|0|2,0:0|0:0|0:0,0:0:0:0:
56,47,67295,2,0,L|144:30,1,89.9999972534181,8|0,0:0|0:0,0:0:0:0:
224,16,67552,1,2,0:0:0:0:
235,13,67638,22,0,L|209:83,1,75.0000028610231,2|0,0:2|0:0,0:0:0:0:
368,221,67980,2,0,P|394:194|399:158,1,75.0000028610231,8|0,0:0|0:0,0:0:0:0:
354,90,68238,1,2,0:0:0:0:
347,80,68323,2,0,L|421:67,1,59.9999981689454,2|0,0:2|0:0,0:0:0:0:
484,55,68580,1,2,0:0:0:0:
486,40,68666,1,8,0:0:0:0:
461,305,69009,86,0,L|401:294,1,59.9999981689454,2|0,0:0|0:0,0:0:0:0:
284,332,69352,2,0,L|322:285,1,59.9999981689454,8|0,0:0|0:3,0:3:0:0:
358,190,69695,2,0,L|369:219,2,29.9999990844727,0|0|2,0:3|0:3|0:0,0:3:0:0:
466,309,70038,2,0,L|407:299,1,59.9999981689454,8|0,0:0|0:0,0:0:0:0:
321,285,70294,1,2,0:0:0:0:
310,285,70380,22,0,L|272:332,1,59.9999981689454,0|0,0:3|0:3,0:3:0:0:
230,260,70638,1,2,0:0:0:0:
223,249,70723,2,0,P|195:260|165:259,1,59.9999981689454,8|0,0:0|0:0,0:0:0:0:
142,120,70980,2,0,P|168:107|198:109,1,59.9999981689454,2|0,0:0|0:0,0:0:0:0:
184,184,71238,1,0,0:0:0:0:
51,210,71409,2,0,L|110:200,1,59.9999981689454,8|0,0:0|0:0,0:0:0:0:
330,48,71752,86,0,P|305:63|292:89,1,59.9999981689454,2|0,0:0|0:0,0:0:0:0:
265,174,72095,2,0,L|352:159,1,75.0000028610231,8|0,0:0|0:0,0:0:0:0:
510,134,72438,2,0,L|466:143,2,44.999998626709,2|0|2,0:0|0:0|1:0,0:0:0:0:
322,244,72780,2,0,P|348:257|377:253,1,59.9999981689454,8|0,0:0|0:0,0:0:0:0:
451,228,73038,1,2,0:0:0:0:
452,216,73123,22,0,L|468:130,1,75.0000028610231,2|0,0:2|0:0,0:0:0:0:
421,380,73466,2,0,L|435:307,1,75.0000028610231,8|0,0:0|0:0,0:0:0:0:
377,252,73723,2,0,P|338:225|271:238,1,112.500004291535,2|0,2:0|0:0,0:0:0:0:
229,297,74066,1,2,0:0:0:0:
220,309,74152,2,0,L|148:303,1,59.9999981689454,8|0,0:0|0:0,0:0:0:0:
45,377,74495,86,0,P|32:352|35:323,1,59.9999981689454,2|0,0:0|0:0,0:0:0:0:
46,310,74752,1,0,0:0:0:0:
56,299,74838,2,0,P|69:274|66:245,1,59.9999981689454,8|0,0:0|0:0,0:0:0:0:
57,230,75095,1,0,0:0:0:0:
47,218,75180,2,0,P|43:197|51:173,2,29.9999990844727,0|0|2,0:0|0:0|0:0,0:0:0:0:
21,99,75523,2,0,P|55:111|94:102,1,59.9999981689454,8|0,0:0|0:0,0:0:0:0:
89,98,75780,1,2,0:0:0:0:
100,88,75866,22,0,L|159:83,1,59.9999981689454
224,39,76123,1,2,0:0:0:0:
236,35,76209,2,0,P|247:59|241:109,1,59.9999981689454,8|0,0:0|0:0,0:0:0:0:
303,187,76466,2,0,P|303:157|315:130,1,59.9999981689454,2|0,0:0|0:0,0:0:0:0:
367,71,76723,1,2,0:0:0:0:
159,83,76895,2,0,L|99:87,1,59.9999981689454,8|0,0:0|0:0,0:0:0:0:
367,64,77238,86,0,L|426:59,1,59.9999981689454,2|0,1:0|0:0,0:0:0:0:
223,139,77580,2,0,L|166:193,1,75.0000028610231,8|0,0:0|0:0,0:0:0:0:
315,130,77923,1,2,0:0:0:0:
327,138,78008,1,0,0:0:0:0:
339,147,78094,1,2,0:0:0:0:
42,185,78266,2,0,L|107:249,1,89.9999972534181,8|0,0:0|0:0,0:0:0:0:
164,312,78523,1,2,0:0:0:0:
164,312,78609,22,0,L|108:369,1,75.0000028610231,2|0,0:2|0:0,0:0:0:0:
232,127,78952,2,0,L|168:191,1,89.9999972534181,8|0,0:0|0:0,0:0:0:0:
224,251,79209,2,0,L|335:360,1,134.999995880127,2|0,0:2|0:0,0:0:0:0:
330,355,79552,1,2,0:0:0:0:
341,365,79638,2,0,P|358:336|357:288,1,59.9999981689454,8|0,0:0|0:0,0:0:0:0:
424,83,79980,86,0,P|428:112|444:137,1,59.9999981689454,2|0,0:0|0:0,0:0:0:0:
494,211,80323,2,0,L|413:220,1,75.0000028610231,8|0,0:0|0:0,0:0:0:0:
311,232,80666,2,0,L|340:229,2,29.9999990844727,2|0|2,0:0|0:0|0:0,0:0:0:0:
231,242,81009,2,0,L|141:250,1,89.9999972534181,8|0,0:0|0:0,0:0:0:0:
246,165,81266,1,2,0:0:0:0:
261,163,81352,22,0,P|278:134|277:86,1,59.9999981689454,2|0,0:2|0:0,0:0:0:0:
263,31,81609,1,2,0:0:0:0:
248,33,81695,2,0,L|168:40,1,75.0000028610231,8|0,0:0|0:0,0:0:0:0:
95,50,81952,2,0,L|4:59,1,89.9999972534181,2|0,0:0|0:0,0:0:0:0:
5,58,82209,1,2,0:0:0:0:
281,107,82380,2,0,L|341:113,1,59.9999981689454,8|0,0:0|0:0,0:0:0:0:
102,133,82723,86,0,P|95:170|119:210,1,59.9999981689454,2|0,0:0|0:0,0:0:0:0:
132,342,83066,2,0,P|144:307|137:271,1,75.0000028610231,8|0,0:0|0:0,0:0:0:0:
80,40,83409,1,2,0:0:0:0:
95,44,83494,1,0,0:0:0:0:
110,48,83580,1,2,0:0:0:0:
201,324,83752,2,0,P|178:287|137:271,1,89.9999972534181,8|0,0:0|0:0,0:0:0:0:
57,269,84009,1,2,0:0:0:0:
44,271,84095,22,0,P|17:283|0:307,1,59.9999981689454,2|0,0:2|0:0,2:0:0:0:
181,355,84438,2,0,L|187:295,1,59.9999981689454,8|0,0:0|0:0,0:0:0:0:
196,218,84695,2,0,L|206:112,1,89.9999972534181,2|0,0:2|0:0,0:0:0:0:
218,133,85038,1,2,0:0:0:0:
232,136,85123,2,0,L|224:59,1,59.9999981689454,8|0,0:0|0:0,0:0:0:0:
262,352,85466,86,0,P|295:340|321:343,1,59.9999981689454,2|0,0:0|0:0,0:0:0:0:
333,348,85723,1,0,0:0:0:0:
346,355,85809,2,0,P|379:367|405:364,1,59.9999981689454,8|0,0:0|0:0,0:0:0:0:
417,359,86066,1,0,0:0:0:0:
429,350,86152,2,0,L|424:294,2,29.9999990844727,0|0|2,0:0|0:0|0:0,0:0:0:0:
187,329,86495,2,0,L|128:323,1,59.9999981689454,8|0,0:0|0:0,0:0:0:0:
369,255,86838,22,0,P|379:229|372:192,1,59.9999981689454,4|0,0:3|0:0,0:0:0:0:
306,154,87009,1,0,0:0:0:0:
300,165,87094,1,0,0:0:0:0:
293,175,87180,2,0,L|264:180,1,29.9999990844727,4|0,0:3|0:3,0:0:0:0:
184,176,87352,1,0,0:3:0:0:
176,191,87438,86,0,L|147:196,2,29.9999990844727,4|0|0,0:3|0:3|0:0,0:0:0:0:
74,243,87695,2,0,L|70:214,1,29.9999990844727,4|0,3:3|0:0,0:0:0:0:
54,136,87866,2,0,L|50:107,1,29.9999990844727,4|0,0:3|0:0,0:0:0:0:
35,30,88038,2,0,L|30:0,1,29.9999990844727,4|0,3:0|0:0,0:0:0:0:
56,326,88209,22,0,B|122:331|152:274|152:274|227:265|266:330|266:330|248:299|235:242|287:182|357:182|410:225|430:277|415:341|338:353|338:353|348:323|330:291,1,689.999978942872,2|2,0:0|0:0,0:0:0:0:
329,290,90438,1,2,0:0:0:0:
58,96,90866,1,2,0:0:0:0:
58,96,90952,86,0,B|102:85|102:85|116:35,1,89.9999972534181
114,42,91466,1,0,0:0:0:0:
154,192,91638,2,0,B|122:159|122:159|72:171,1,89.9999972534181
79,169,92152,1,0,0:0:0:0:
215,129,92323,22,0,L|229:125,30,14.9999995422363,12|0|0|0|0|0|0|0|0|0|0|0|0|0|0|0|0|0|0|0|0|0|0|0|0|0|0|0|0|0|0,0:0|0:3|0:3|0:3|0:3|0:3|0:3|0:3|0:3|0:3|0:3|0:3|0:3|0:3|0:3|0:3|0:3|0:3|0:3|0:3|0:3|0:3|0:3|0:3|0:3|0:3|0:3|0:3|0:3|0:3|0:3,0:3:0:0:
178,30,93695,86,0,B|233:21|274:60|274:60|223:132|270:212|342:266|467:201|460:100|403:44|403:44|446:0|508:0|508:0|492:24|499:55,1,689.999978942872,2|2,0:0|0:0,0:0:0:0:
498,51,95923,1,2,0:0:0:0:
454,288,96352,1,2,0:0:0:0:
454,288,96438,22,0,B|409:298|409:298|395:348,1,89.9999972534181,0|2,0:0|0:2,0:0:0:0:
397,340,96952,1,0,0:0:0:0:
358,192,97124,2,0,B|389:224|389:224|439:212,1,89.9999972534181,0|2,0:0|0:2,0:0:0:0:
433,213,97638,1,0,0:0:0:0:
323,324,97809,85,0,0:0:0:0:
323,324,97895,2,0,B|335:280|335:280|299:242,1,89.9999972534181,0|2,0:3|0:2,0:3:0:0:
62,308,98323,2,0,L|23:299,1,29.9999990844727
177,207,98495,22,0,L|154:324,1,119.999996337891,4|0,0:0|0:0,0:0:0:0:
154,325,99180,86,0,L|134:321,14,14.9999995422363,2|0|0|0|0|0|0|0|0|0|0|0|0|0|0,0:0|0:0|0:0|0:0|0:0|0:0|0:0|0:0|0:0|0:0|0:0|0:0|0:0|0:0|0:0,0:0:0:0:
161,337,99866,22,0,B|331:317,1,150.000005722046,8|0,0:0|0:0,0:0:0:0:
251,214,100209,1,0,0:0:0:0:
248,207,100295,1,0,0:0:0:0:
245,200,100380,1,0,0:0:0:0:
392,312,100552,85,0,0:0:0:0:
392,312,100638,2,0,P|408:279|401:226,1,80,2|0,0:0|0:0,0:0:0:0:
470,190,100895,2,0,L|453:98,1,80,2|0,0:0|0:0,0:0:0:0:
489,269,101238,1,8,0:0:0:0:
455,111,101409,2,0,L|440:32,1,80,2|0,0:0|0:0,0:0:0:0:
505,347,101752,1,8,0:0:0:0:
278,275,101923,22,0,B|216:246|144:290|144:290|66:342|0:291,1,280,2|0,0:0|0:0,0:0:0:0:
13,300,102609,86,0,B|73:258|73:258|158:297,1,150.000005722046,8|0,0:0|0:0,0:0:0:0:
142,290,102866,1,0,0:0:0:0:
66,178,103038,1,0,0:0:0:0:
65,169,103123,1,0,0:0:0:0:
84,362,103295,22,0,L|86:376,12,14.9999995422363,8|0|0|0|0|0|0|0|0|0|0|0|0,0:0|0:0|0:0|0:0|0:0|0:0|0:0|0:0|0:0|0:0|0:0|0:0|0:0,0:0:0:0:
280,153,103980,1,8,0:0:0:0:
39,79,104152,86,0,L|28:-3,1,80,2|0,0:0|0:0,0:0:0:0:
287,162,104495,1,8,0:0:0:0:
156,313,104666,22,0,L|152:336,15,20,2|0|0|0|0|0|0|0|0|0|0|0|0|0|0|0,0:0|0:0|0:0|0:0|0:0|0:0|0:0|0:0|0:0|0:0|0:0|0:0|0:0|0:0|0:0|0:0,0:0:0:0:
149,303,105352,86,0,L|312:294,1,150.000005722046,8|0,0:0|0:0,0:0:0:0:
287,162,105695,1,0,0:0:0:0:
286,154,105780,1,0,0:0:0:0:
285,146,105866,1,0,0:0:0:0:
411,41,106038,21,0,0:3:0:0:
411,41,106123,2,0,P|452:35|498:68,1,80,2|0,0:0|0:3,0:3:0:0:
463,184,106380,2,0,P|421:189|376:157,1,80,2|0,0:0|0:3,0:3:0:0:
273,41,106723,1,8,0:0:0:0:
297,290,106895,2,0,L|304:370,1,80,2|0,0:0|0:0,0:0:0:0:
272,32,107238,1,8,0:0:0:0:
44,150,107409,86,0,B|10:191|10:191|102:230|172:164|172:164|128:136,1,280,2|0,0:0|0:0,0:0:0:0:
137,49,108095,22,0,L|268:132,1,150.000005722046,8|0,0:0|0:0,0:0:0:0:
284,206,108352,2,0,P|331:173|341:115,1,119.999996337891,2|0,0:0|0:0,0:0:0:0:
414,34,108609,2,0,L|370:40,1,44.999998626709,8|0,0:0|0:0,0:0:0:0:
292,49,108780,1,2,0:0:0:0:
466,261,110152,70,0,B|437:237|400:247|400:247|360:275|310:258|310:258|323:300|382:309,1,225.000008583069,6|0,0:2|0:0,0:0:0:0:
320,112,110495,2,0,P|342:141|346:178,1,75.0000028610231,8|0,0:0|0:0,0:0:0:0:
94,338,110752,22,0,L|105:247,1,75.0000028610231,2|0,0:0|0:0,0:0:0:0:
131,49,110923,1,0,0:0:0:0:
61,91,111009,86,0,B|2:128|2:128|37:186|129:199|182:149,1,269.999991760254,8|0,0:0|0:0,0:0:0:0:
130,38,111352,2,0,L|124:-7,2,44.999998626709,2|0|0,1:0|0:0|0:0,0:0:0:0:
320,112,111523,22,0,P|375:126|313:24,1,269.999991760254,2|0,1:1|0:0,0:0:0:0:
161,141,111866,2,0,P|189:112|268:140,1,89.9999972534181,8|0,0:0|0:0,0:0:0:0:
357,317,112038,1,2,0:0:0:0:
366,313,112123,86,0,P|408:240|325:235,1,200,2|0,1:0|0:0,0:0:0:0:
177,292,112380,1,8,0:0:0:0:
189,284,112466,2,0,B|216:262|253:271|253:271|281:321|336:333|391:303,1,200,2|0,0:0|0:0,0:0:0:0:
504,241,112723,2,0,P|456:228|412:249,1,100,8|0,0:0|0:0,0:0:0:0:
277,172,112895,22,0,B|309:184|325:236|325:236|356:167|317:119,1,200,2|0,0:0|2:0,0:0:0:0:
132,105,113152,1,0,2:0:0:0:
76,46,113238,2,0,P|121:25|170:33,1,100,14|0,2:0|0:0,0:0:0:0:
446,345,113495,86,0,B|396:335|396:335|367:314|367:314|328:322|328:322|275:312,1,179.999994506836,2|0,0:0|0:0,0:0:0:0:
197,302,113752,22,0,P|142:372|11:342,1,224.999993133545,8|0,0:0|0:0,0:0:0:0:
23,173,114266,86,0,B|85:129|152:173|152:173|219:216|287:176,1,269.999991760254,2|0,1:0|0:0,0:0:0:0:
371,136,114609,22,0,B|384:62|384:62|311:27|311:27|334:113,1,200,8|0,0:1|0:0,0:0:0:70:normal-hitwhistle2.wav
196,220,114838,2,0,P|163:216|136:197,4,66.6666666666667
289,246,115123,2,0,L|276:181,1,66.6666666666667,8|0,0:0|0:0,0:0:0:0:
179,112,115209,86,0,L|380:138,1,179.999994506836,2|0,0:0|0:0,0:0:0:0:
442,148,115466,2,0,L|424:58,1,89.9999972534181,8|0,0:0|0:0,0:0:0:0:
410,312,115638,22,0,P|503:371|505:260,1,269.999991760254,2|0,0:0|0:0,0:0:0:0:
424,59,115980,2,0,P|474:47|505:81,1,89.9999972534181,8|0,1:0|0:0,0:0:0:0:
66,190,116238,2,0,B|35:222|35:222|112:240|156:180,1,179.999994506836,2|0,0:0|0:0,0:0:0:0:
203,17,116495,86,0,B|237:60|201:109|201:109|141:104|131:49,1,200,8|2,0:0|0:0,0:0:0:0:
401,268,117009,22,0,B|426:232|397:165|397:165|275:197|336:338,1,269.999991760254,2|0,0:0|0:0,0:0:0:0:
279,357,117352,2,0,P|328:367|373:347,1,100,8|0,0:0|0:0,0:0:0:0:
455,94,117523,1,2,0:0:0:0:
378,124,117609,86,0,P|345:203|402:268,1,179.999994506836,2|0,0:0|0:0,0:0:0:0:
378,124,117866,2,0,L|374:101,1,22.4999993133545,8|0,0:0|0:0,0:0:0:0:
278,254,117952,22,0,P|336:289|400:268,1,139.999995727539,2|0,0:0|0:0,0:0:0:0:
455,94,118209,2,0,L|470:35,1,34.9999989318848,8|0,0:0|0:0,0:0:0:0:
345,205,118380,86,0,B|284:139|211:185|211:185|148:224|96:197,1,269.999991760254,2|0,0:0|0:0,0:0:0:0:
42,103,118723,2,0,B|91:48|165:61|165:61|139:89|142:131,1,200,8|0,0:0|0:0,0:0:0:0:
60,301,118980,2,0,P|57:201|42:103,1,200,2|0,0:0|0:0,0:0:0:0:
236,125,119238,2,0,P|249:171|212:199,1,100,8|0,0:0|0:0,0:0:0:0:
44,384,119409,22,0,P|15:314|81:264,1,150
236,125,119752,86,0,B|249:170|249:170|218:200,1,89.9999972534181,2|0,0:0|0:0,0:0:0:0:
137,226,119923,2,0,B|117:139,1,89.9999972534181,2|0,0:0|0:0,0:0:0:0:
381,355,120095,22,0,B|440:382|440:382|409:229,1,200,8|0,0:0|0:3,0:3:0:0:
373,54,120352,86,0,B|240:27|240:27|260:112,1,200,2|0,0:0|0:2,0:0:0:0:
218,162,120609,2,0,P|264:172|317:142,1,100,2|0,0:0|0:0,0:0:0:0:
448,70,120780,1,8,0:0:0:0:
373,54,120866,1,8,0:0:0:0:
298,38,120952,1,8,0:0:0:0:
223,22,121038,1,8,0:0:0:0:
116,136,121123,70,2,B|196:132|196:132|236:155|236:155|310:149,1,200,6|0,0:0|0:0,0:0:0:0:
393,277,121381,2,0,B|409:226|409:226|374:168,1,100,0|8,3:0|0:0,0:0:0:0:
103,341,121552,1,0,0:0:0:0:
87,346,121638,2,0,B|123:385|123:385|190:384,1,100,2|2,0:0|0:0,0:0:0:0:
157,46,121809,22,0,P|181:137|178:244,1,200,2|8,0:0|0:0,0:0:0:0:
241,343,122066,2,0,P|168:277|70:264,1,200,2|0,3:0|2:0,0:0:0:0:
0,179,122323,2,0,P|31:190|75:138,1,100,2|2,3:1|0:0,0:0:0:0:
267,63,122495,6,0,P|197:150|156:46,1,269.999991760254,2|0,0:0|0:0,0:0:0:0:
0,0,122838,2,0,P|29:-13|78:34,1,100,10|0,0:0|0:0,0:0:0:0:
175,120,123009,1,2,0:0:0:0:
175,120,123095,22,0,P|193:42|235:122,1,179.999994506836,2|0,0:0|2:0,0:0:0:0:
463,6,123352,1,8,0:0:0:0:
467,15,123438,1,2,0:0:0:0:
470,24,123523,86,0,L|344:4,1,89.9999972534181,2|0,2:1|0:0,0:0:0:0:
299,5,123695,1,8,0:0:0:0:
419,201,123866,70,0,P|337:177|272:234,1,179.999994506836,2|0,2:1|0:0,0:0:0:0:
208,289,124123,2,0,B|189:246|189:246|197:193,1,100,0|8,3:0|1:0,0:0:0:0:
356,262,124295,1,2,1:0:0:0:
365,275,124380,2,0,L|353:364,1,89.9999972534181,2|2,0:1|1:0,0:0:0:0:
140,335,124552,22,0,B|22:272|22:272|86:257,1,200,2|8,3:0|0:0,0:0:0:0:
419,201,124809,2,0,B|485:276|485:276|444:366,1,200,2|0,3:0|2:0,0:0:0:0:
232,102,125066,2,0,B|224:47,2,50,2|0|0,2:1|0:3|0:3,0:3:0:0:
266,361,125238,6,0,B|246:183,1,179.999994506836,2|0,0:0|0:0,0:0:0:0:
52,75,125580,22,0,B|146:25|232:102|232:102|191:108|172:147,1,269.999991760254,8|0,0:0|0:0,0:0:0:0:
94,156,125923,2,0,L|32:163,2,44.999998626709
245,182,126095,86,0,P|253:220|199:238,1,89.9999972534181,2|2,0:0|0:0,0:0:0:0:
263,325,126266,22,0,P|226:352|187:331,1,94.9999974632264,2|0,0:0|3:0,0:0:0:0:
61,353,126438,86,0,B|69:302|69:302|125:278,1,94.9999974632264,10|0,0:0|3:0,0:0:0:0:
315,120,126609,102,0,B|407:134|407:134|420:133|420:133|524:149,1,200,2|0,1:0|0:0,0:0:0:0:
313,282,126866,2,0,B|352:247|352:247|309:191,1,100,2|8,3:0|0:0,0:0:0:0:
247,3,127038,1,0,0:0:0:0:
242,31,127123,86,0,B|226:135,1,100,2|2,3:1|1:0,0:0:0:0:
1,94,127295,2,0,B|125:107|125:107|155:175,1,200,2|8,3:0|0:0,0:0:0:0:
206,244,127552,2,0,B|191:267|191:267|76:290|76:290|107:244,1,200,2|2,3:0|0:0,0:0:0:0:
307,104,127809,2,0,P|280:93|225:151,1,100,2|2,2:1|0:0,0:0:0:0:
206,244,127980,38,0,B|262:282|324:270|347:233|347:233|371:176|282:172|284:240,1,269.999991760254,2|0,0:0|0:0,0:0:0:0:
505,102,128323,2,0,L|497:193,1,89.9999972534181,10|0,2:1|0:0,0:0:0:0:
488,351,128495,1,2,0:0:0:0:
472,359,128580,22,0,P|436:361|481:270,1,179.999994506836,2|0,0:0|0:0,0:0:0:0:
410,146,128838,1,8,0:0:0:0:
425,142,128923,2,0,P|467:151|484:191,1,89.9999972534181,2|0,0:0|0:3,0:3:0:0:
331,364,129095,1,0,1:0:0:0:
314,366,129180,2,0,P|275:345|269:302,1,89.9999972534181,10|0,0:0|0:3,0:3:0:0:
193,68,129352,38,0,B|250:40|250:40|196:165,1,200,6|0,0:2|0:3,0:3:0:0:
70,295,129609,2,0,B|85:247|85:247|125:217,1,100,2|8,3:0|0:0,0:0:0:0:
15,137,129780,1,0,0:0:0:0:
21,124,129866,2,0,B|65:110|65:110|115:131,1,100,2|2,3:2|0:0,0:0:0:0:
329,36,130038,22,0,B|192:68|192:68|224:68|245:89,1,200,14|0,3:2|0:0,0:0:0:0:
475,179,130295,2,0,B|504:96|443:42|443:42|421:99,1,200,10|0,0:0|0:0,0:0:0:0:
332,342,130552,2,0,L|324:365,2,25,2|0|0,3:1|0:0|0:0,0:0:0:0:
277,197,130723,86,0,B|324:215|324:215|307:261,1,100,14|0,0:2|0:0,0:0:0:0:
224,296,130895,2,0,B|177:278|177:278|193:231,1,100,2|0,0:0|0:0,0:0:0:0:
332,342,131066,22,0,B|314:389|314:389|267:372,1,100,8|0,0:0|0:0,0:0:0:0:
164,151,131238,2,0,B|182:104|182:104|228:120,1,100,2|0,0:0|0:0,0:0:0:0:
122,346,131409,2,0,B|75:328|75:328|90:280,1,100,8|8,0:0|0:0,0:0:0:0:
480,82,131580,1,8,0:0:0:0:
474,162,131666,1,8,0:0:0:0:
468,242,131752,86,0,L|402:234,7,50,8|0|0|0|0|0|0|0,0:0|0:0|0:0|0:0|0:0|0:0|0:0|0:0,0:0:0:0:
474,162,132095,102,0,P|420:210|308:172,1,179.999994506836,6|0,2:1|0:0,0:0:0:0:
278,122,132438,1,8,0:0:0:0:
159,293,132609,2,0,P|222:280|270:331,1,119.999996337891,2|2,2:1|0:0,0:0:0:0:
333,283,132866,1,0,0:0:0:0:
339,312,132952,1,0,0:0:0:70:normal-hitwhistle2.wav
95,348,133123,2,0,B|113:271|113:271|103:229,1,119.999996337891,8|0,0:0|0:0,0:0:0:0:
27,115,133380,22,0,P|78:182|194:157,1,179.999994506836,2|0,0:1|0:0,0:0:0:70:soft-hitnormal2.wav
167,179,133809,2,0,L|156:105,1,59.9999981689454,8|0,0:0|0:0,0:0:0:0:
446,38,134066,1,2,0:0:0:0:
445,38,134152,2,0,P|411:85|416:144,1,119.999996337891,0|0,0:1|0:0,0:0:0:0:
485,185,134409,1,2,0:0:0:0:
479,214,134495,86,0,P|380:177|324:275,1,225.000008583069,10|0,0:0|0:0,0:0:0:0:
343,348,134838,22,0,B|369:371|405:363|405:363|443:312|406:257,1,179.999994506836,2|0,0:0|2:0,0:0:0:0:
406,257,135180,1,8,0:0:0:0:
263,322,135352,2,0,P|204:312|144:316,1,119.999996337891,2|2,2:1|0:0,0:0:0:0:
67,297,135609,1,2,0:0:0:0:
62,326,135695,1,2,0:0:0:0:
62,326,135866,2,8,P|96:321|133:318,1,59.9999981689454,8|0,0:0|0:0,0:0:0:0:
411,47,136123,1,2,0:1:0:0:
410,46,136209,86,0,B|374:65|368:110|368:110|403:144|396:203,1,179.999994506836,0|2,0:0|0:0,0:0:0:0:
364,274,136552,2,0,L|269:260,1,59.9999981689454,8|0,0:0|0:0,0:0:0:0:
90,220,136809,2,0,P|162:227|212:175,1,119.999996337891,2|0,0:1|1:0,0:0:0:0:
241,103,137066,2,0,P|214:96|199:119,1,59.9999981689454,2|0,0:0|0:0,0:0:0:0:
287,281,137238,22,0,L|526:258,1,225.000008583069,8|0,0:0|0:0,0:0:0:0:
458,137,137580,86,0,B|456:169|432:188|432:188|353:194|319:115,1,179.999994506836,2|0,0:1|0:0,0:0:0:0:
307,59,137923,1,8,0:0:0:0:
104,280,138095,2,0,P|153:247|211:257,1,119.999996337891,2|2,2:1|0:0,0:0:0:0:
289,254,138352,1,2,0:0:0:0:
287,281,138438,1,2,0:0:0:0:
63,153,138609,2,0,B|52:3,1,119.999996337891,8|0,0:0|0:0,0:0:0:0:
47,11,138866,22,0,B|93:40|144:10|144:10|190:70|145:137,1,239.999992675781,2|0,2:1|0:0,0:0:0:0:
63,153,139295,2,0,P|39:135|29:107,1,59.9999981689454,8|0,0:0|0:0,0:0:0:0:
353,226,139552,2,0,P|284:173|200:196,1,179.999994506836,2|0,0:0|2:0,0:0:0:0:
170,307,139895,1,2,0:0:0:0:
166,329,139980,86,0,B|119:369|119:369|72:284|128:202,1,225.000008583069,8|0,0:0|0:0,0:0:0:0:
33,18,140323,22,0,P|0:96|63:153,1,179.999994506836,2|0,0:0|0:0,0:3:0:0:
145,137,140666,1,8,0:0:0:0:
3,331,140838,1,2,0:0:0:0:
145,137,141009,2,0,L|151:196,1,59.9999981689454,2|0,0:0|0:0,0:0:0:0:
160,280,141180,2,0,L|166:339,1,59.9999981689454,2|0,0:0|0:0,0:0:0:0:
82,245,141352,2,0,P|52:241|-5:261,1,59.9999981689454,8|0,0:0|0:0,0:0:0:0:
271,356,141609,1,2,0:0:0:0:
270,356,141695,86,0,P|326:307|399:311,1,150.000005722046,0|2,0:0|0:0,0:0:0:0:
478,317,141952,1,0,0:0:0:0:
472,345,142038,1,8,0:0:0:0:
289,238,142209,22,0,P|267:176|316:91,1,119.999996337891,6|0,0:1|0:0,0:0:0:0:
323,52,142466,1,0,0:0:0:0:
323,52,142552,2,0,L|263:45,1,59.9999981689454,2|0,0:1|0:0,0:0:0:0:
94,29,142723,2,0,L|91:-1,6,29.9999990844727,8|0|0|0|0|0|0,2:0|0:0|0:0|0:0|0:0|0:0|0:0,0:0:0:0:
102,112,143066,86,0,B|-23:157|-46:48|29:74,1,179.999994506836,2|0,0:0|0:0,0:0:0:0:
23,73,143409,1,8,0:0:0:0:
83,221,143580,1,2,0:0:0:0:
174,18,143752,2,0,L|239:27,1,59.9999981689454,2|0,0:1|0:0,0:0:0:0:
312,36,143923,2,0,L|371:44,1,59.9999981689454,2|0,0:0|0:0,0:0:0:0:
450,54,144095,1,10,2:0:0:0:
450,54,144180,1,0,3:0:0:0:
252,182,144352,22,0,P|168:174|128:283,1,179.999994506836,2|0,0:0|0:0,0:0:0:0:
208,295,144780,2,0,P|219:264|194:245,1,59.9999981689454,8|0,0:0|2:0,0:0:0:0:
22,312,145038,1,2,0:0:0:0:
22,312,145123,2,0,P|72:342|130:329,1,119.999996337891,0|0,0:1|0:0,0:0:0:0:
290,51,145466,2,0,B|265:5|189:16|189:16|147:63|163:118,1,225.000008583069,8|0,0:0|0:3,0:3:0:0:
245,130,145809,86,0,B|423:149,1,179.999994506836,2|0,2:1|0:0,0:0:0:0:
501,159,146152,1,8,0:0:0:0:
447,44,146323,1,2,1:0:0:0:
501,159,146495,2,0,P|499:195|473:230,1,59.9999981689454,2|0,2:1|0:0,0:0:0:0:
435,273,146666,2,0,P|402:289|359:284,1,59.9999981689454,2|2,0:0|0:0,0:0:0:0:
302,277,146838,1,10,2:0:0:0:
306,247,146923,1,2,0:3:0:0:
177,136,147095,1,2,0:0:0:0:
177,136,147180,22,0,B|161:185|188:224|188:224|218:267|196:315,1,179.999994506836,0|2,0:0|0:0,0:0:0:0:
269,346,147523,2,0,P|295:360|325:358,1,59.9999981689454,8|0,0:1|0:0,0:0:0:0:
13,290,147780,2,0,P|67:264|124:277,1,119.999996337891,2|0,0:0|0:0,0:0:0:0:
199,307,148038,2,0,P|205:277|200:248,1,59.9999981689454,2|0,0:0|0:0,0:0:0:0:
211,50,148209,86,8,B|263:32|263:32|323:69|323:69|273:153|273:153|281:237,1,269.999991760254,8|0,0:0|0:0,0:0:0:0:
288,283,148552,22,0,P|377:260|464:275,1,179.999994506836,2|0,0:0|0:0,0:0:0:0:
484,284,148895,1,8,0:0:0:0:
384,176,149066,2,0,P|399:235|353:286,1,119.999996337891,2|2,2:1|0:0,0:0:0:0:
366,360,149323,1,0,0:0:0:0:
336,356,149409,1,2,0:0:0:0:
237,196,149580,2,0,L|105:209,1,119.999996337891,8|0,0:0|0:0,0:0:0:0:
85,298,149838,1,2,0:0:0:0:
85,298,149923,86,0,B|98:250|98:250|71:174|71:174|92:102,1,179.999994506836,0|2,2:1|2:0,0:0:0:0:
95,98,150266,2,0,L|159:105,1,59.9999981689454,8|0,0:0|0:0,0:0:0:0:
258,291,150523,2,0,P|179:273|68:308,1,179.999994506836,2|0,2:1|0:0,0:0:0:0:
29,351,150866,1,0,0:0:0:0:
54,366,150952,22,0,P|195:308|274:339,1,225.000008583069,8|0,0:0|0:0,0:0:0:0:
337,343,151295,86,0,B|324:385|324:385|391:341|361:256,1,179.999994506836,2|0,2:1|0:0,0:0:0:0:
341,189,151638,2,0,L|262:202,1,59.9999981689454,8|0,0:0|0:0,0:0:0:0:
205,215,151809,1,0,0:0:0:0:
380,111,151980,2,0,P|406:98|435:101,1,59.9999981689454,2|0,2:1|0:0,0:0:0:0:
403,250,152152,2,0,P|431:253|458:241,1,59.9999981689454,2|0,2:1|0:0,0:0:0:0:
157,129,152323,1,8,0:0:0:0:
80,369,152495,1,0,0:0:0:0:
109,375,152580,1,2,0:0:0:0:
138,384,152666,22,0,P|155:318|120:241,1,119.999996337891,6|0,2:2|0:0,0:0:0:0:
26,212,153009,1,8,0:0:0:0:
26,212,153180,2,0,L|98:202,1,59.9999981689454,2|0,0:0|0:0,0:0:0:0:
137,138,153352,2,0,P|166:123|195:125,1,59.9999981689454,6|0,2:2|0:0,0:0:0:0:
364,301,153524,1,2,0:0:0:0:
293,317,153609,1,2,0:0:0:0:
237,272,153695,1,6,2:2:0:0:
237,200,153781,1,2,0:0:0:0:
293,155,153867,1,2,0:0:0:0:
364,171,153952,1,2,0:0:0:0:
395,236,154038,6,0,L|380:388,1,150.000005722046,6|0,0:0|0:0,0:0:0:0:
183,0,154380,1,8,0:0:0:0:
183,0,154466,2,0,P|217:7|237:25,1,59.9999981689454,2|0,0:0|2:1,0:0:0:0:
479,68,154638,2,0,L|351:80,1,119.999996337891,2|0,0:0|0:0,0:0:0:0:
282,87,154895,1,2,0:0:0:0:
392,239,155066,1,8,0:0:0:0:
392,239,155152,2,0,P|369:212|343:204,1,59.9999981689454,2|0,0:0|0:1,0:0:0:0:
149,286,155323,86,0,B|217:276|217:276|274:291|274:291|330:283,1,179.999994506836,2|0,0:0|2:0,0:3:0:0:
71,315,155752,1,8,0:0:0:0:
71,315,155838,2,0,P|64:281|91:223,1,59.9999981689454,2|0,0:0|0:0,0:0:0:0:
171,22,156009,22,0,L|161:142,1,119.999996337891,2|0,0:0|0:0,0:0:0:0:
149,286,156266,2,0,L|154:226,1,59.9999981689454,2|2,2:1|0:0,0:0:0:0:
32,149,156438,2,0,P|61:156|85:175,1,59.9999981689454,10|0,2:0|0:0,0:0:0:0:
286,169,156609,2,0,P|256:171|231:187,1,59.9999981689454,2|0,0:0|0:0,0:0:0:0:
158,368,156780,86,0,P|234:317|149:285,1,225.000008583069,2|0,0:0|0:0,0:0:0:0:
24,348,157123,2,0,P|53:345|81:334,1,59.9999981689454,8|2,0:1|0:0,0:0:0:0:
375,306,157295,1,0,0:1:0:0:
391,325,157380,22,0,B|207:317,1,150.000005722046,2|0,0:0|0:0,0:0:0:0:
50,190,157638,2,0,B|82:213|82:213|90:263,1,75.0000028610231,2|0,0:0|0:0,0:0:0:0:
158,368,157809,2,0,B|160:335|160:335|154:306|154:306|168:277|168:277|171:221,1,150.000005722046,8|2,0:0|2:0,0:0:0:0:
239,109,158066,86,0,B|243:54|243:54|91:117|91:117|132:145,1,269.999991760254,2|2,0:0|0:1,0:3:0:0:
258,220,158409,1,0,1:0:0:0:
258,220,158495,2,0,L|254:301,1,75.0000028610231,8|2,2:1|0:0,0:0:0:0:
476,363,158666,1,0,0:0:0:0:
494,370,158752,22,0,B|497:333|497:333|488:312|488:312|509:281|509:281|502:265|502:265|505:224,1,150.000005722046,2|0,0:0|0:0,0:0:0:0:
510,149,159009,2,0,P|480:127|407:137,1,75.0000028610231,2|0,0:0|0:0,0:0:0:0:
303,351,159180,85,8,0:0:0:0:
232,367,159265,1,8,0:0:0:0:
176,322,159351,1,8,0:0:0:0:
176,250,159437,1,8,0:0:0:0:
232,205,159523,22,8,B|335:199|335:199|402:251,1,150.000005722046,10|0,0:0|0:0,0:0:0:0:
424,43,159866,1,8,0:0:0:0:
424,43,159952,2,0,P|385:61|366:121,1,75.0000028610231,2|2,0:0|2:1,0:0:0:0:
465,356,160123,2,0,L|451:194,1,150.000005722046,2|0,0:0|0:0,0:0:0:0:
444,123,160380,1,2,0:0:0:0:
271,19,160552,1,8,0:1:0:0:
271,19,160638,2,0,P|267:61|309:108,1,75.0000028610231,2|0,0:0|0:0,0:3:0:0:
143,233,160809,86,0,B|207:250|249:200|249:200|305:173|353:211,1,225.000008583069,2|0,0:0|0:0,0:0:0:0:
306,384,161238,1,8,0:0:0:0:
306,384,161323,2,0,P|311:347|296:314,1,75.0000028610231,2|0,0:0|0:3,0:3:0:0:
173,142,161495,2,0,P|143:119|107:116,2,75.0000028610231,2|0|0,0:0|0:3|0:3,0:3:0:0:
117,346,161752,2,0,B|155:344|155:344|210:298,1,75.0000028610231,2|2,0:0|0:0,0:0:0:0:
286,125,161923,2,0,B|303:91|303:91|290:20,1,75.0000028610231,10|0,0:0|0:3,2:3:0:0:
143,234,162095,2,0,L|69:238,1,75.0000028610231,2|0,0:0|0:0,0:0:0:0:
308,223,162266,22,0,B|362:221|362:221|387:238|387:238|437:202|437:202|463:215|463:215|520:212,1,225.000008583069,2|0,0:1|2:0,0:0:0:0:
480,356,162609,2,0,P|450:334|466:277,1,75.0000028610231,10|2,0:0|0:0,0:0:0:0:
501,0,162780,1,2,0:0:0:0:
512,6,162866,2,0,P|526:43|454:140,1,150.000005722046,2|0,0:0|0:1,0:0:0:0:
243,194,163123,2,0,P|271:219|308:222,1,75.0000028610231,2|0,0:0|0:0,0:0:0:0:
388,170,163295,85,8,0:0:0:0:
375,94,163380,2,0,L|364:3,1,75.0000028610231,2|0,0:0|0:0,0:0:0:0:
468,234,163552,22,0,B|490:287|490:287|469:354|469:354|397:374|397:374|424:297,1,269.999991760254,2|0,0:0|2:0,0:0:0:0:
319,143,163895,1,0,0:0:0:0:
250,113,163980,86,0,P|214:109|180:126,1,75.0000028610231,8|0,0:0|0:3,0:3:0:0:
87,286,164152,2,0,P|89:322|111:352,1,75.0000028610231,2|0,0:0|0:3,0:3:0:0:
86,89,164323,22,0,P|89:52|111:22,1,75.0000028610231,14|0,0:2|0:3,0:3:0:0:
181,248,164495,2,0,P|214:264|251:260,1,75.0000028610231,2|0,0:0|2:1,0:3:0:0:
432,106,164666,1,2,1:0:0:0:
507,115,164751,1,2,1:0:0:0:
500,192,164838,2,0,L|493:287,1,75.0000028610231,2|2,0:0|0:0,0:0:0:0:
357,97,165009,86,0,B|339:-7|339:-7|355:12|376:16,1,150.000005722046,6|0,2:1|0:0,0:0:0:0:
381,376,165352,1,8,0:0:0:0:
381,376,165438,2,0,P|417:378|452:362,1,75.0000028610231,2|2,0:0|0:0,0:0:0:0:
288,174,165609,2,0,P|268:233|305:330,1,150.000005722046,2|0,0:0|0:3,0:3:0:0:
305,327,165866,2,0,P|320:294|318:257,1,75.0000028610231,2|0,0:0|0:0,0:0:0:0:
71,159,166038,1,8,0:0:0:0:
55,165,166123,2,0,P|88:180|125:178,1,75.0000028610231,2|0,0:0|0:0,0:0:0:0:
230,60,166295,22,0,B|242:-4|242:-4|166:48|204:148,1,225.000008583069,2|0,0:0|0:0,0:3:0:0:
233,382,166724,1,8,0:0:0:0:
162,349,166809,2,0,P|125:335|66:346,1,75.0000028610231,2|0,0:0|0:0,0:0:0:0:
0,72,166980,2,0,B|109:62|109:62|154:93,1,150.000005722046,2|0,0:0|0:0,0:0:0:0:
201,138,167238,2,0,P|245:133|273:76,1,75.0000028610231,2|0,0:0|0:0,0:0:0:0:
440,126,167409,2,0,P|466:152|503:157,1,75.0000028610231,8|0,1:1|0:3,0:3:0:0:
359,42,167580,2,0,L|353:116,1,75.0000028610231,2|0,0:0|0:0,0:0:0:0:
333,346,167752,86,0,P|316:273|341:204,1,150.000005722046,2|0,0:0|0:0,0:0:0:0:
480,331,168095,1,8,0:0:0:0:
480,331,168180,2,0,P|495:288|473:232,1,75.0000028610231,2|0,0:0|0:0,0:0:0:0:
225,282,168352,2,0,L|75:295,1,150.000005722046,2|0,0:0|2:0,0:0:0:0:
0,305,168609,1,2,0:0:0:0:
129,37,168780,1,8,0:0:0:0:
129,37,168866,2,0,B|143:78|143:78|180:107,1,75.0000028610231,2|0,0:0|0:0,0:0:0:0:
475,60,169038,22,0,B|402:52|402:52|368:57|368:57|320:31|320:31|286:37|286:37|214:28,1,269.999991760254,2|0,1:0|2:0,0:0:0:0:
61,131,169380,1,2,0:0:0:0:
53,136,169466,86,0,P|42:100|49:64,1,75.0000028610231,8|2,0:0|0:0,0:0:0:0:
294,276,169638,1,0,0:0:0:0:
308,267,169723,2,0,B|325:228|308:193|308:193|289:155|310:113,1,150.000005722046,2|0,0:0|0:0,0:0:0:0:
451,170,169980,2,0,P|414:172|381:157,1,75.0000028610231,2|0,0:0|0:0,0:0:0:0:
129,37,170152,21,8,0:1:0:0:
125,112,170237,1,8,0:1:0:0:
121,187,170323,1,8,0:1:0:0:
117,262,170409,1,8,0:1:0:0:
113,337,170495,86,8,P|184:297|300:350,1,150.000005722046,6|0,0:0|0:0,0:0:0:0:
391,20,170838,2,0,P|408:52|402:89,1,75.0000028610231,8|2,0:0|0:0,0:3:0:0:
485,162,171009,2,8,P|453:179|416:173,1,75.0000028610231,2|2,0:0|0:0,0:3:0:0:
332,140,171180,22,0,B|326:176|326:176|337:212,1,75.0000028610231,2|0,2:0|0:0,0:0:0:0:
431,327,171352,2,0,B|402:302|402:302|366:294,1,75.0000028610231,2|0,0:0|0:0,0:0:0:0:
217,311,171523,1,8,0:0:0:0:
221,319,171609,2,0,B|256:306|256:306|281:279,1,75.0000028610231,2|0,0:0|0:0,0:0:0:0:
246,124,171780,1,2,0:0:0:0:
242,138,171866,86,0,B|208:151|174:139|174:139|135:124|92:141|92:141|57:156|22:140,1,225.000008583069,6|2,2:2|0:1,0:0:0:0:
16,9,172209,1,8,0:0:0:0:
25,5,172295,2,0,P|51:29|59:66,1,75.0000028610231,2|0,0:0|0:0,2:0:0:0:
135,218,172466,2,0,B|140:165|140:165|133:124|133:124|138:69,1,150.000005722046,2|0,0:0|0:0,0:0:0:0:
24,307,172723,22,0,B|58:286|58:286|108:292,1,75.0000028610231,2|2,0:0|0:0,0:0:0:0:
385,271,172895,2,0,B|365:304|365:304|331:318,1,75.0000028610231,8|0,0:0|0:3,0:3:0:0:
188,153,173066,2,0,B|215:180|215:180|220:216,1,75.0000028610231,2|0,0:0|0:3,0:3:0:0:
190,362,173238,86,0,L|179:288,1,59.9999981689454,6|0,2:1|0:0,0:0:0:0:
324,330,173409,2,0,L|334:255,1,59.9999981689454,2|0,2:1|0:0,0:0:0:0:
166,215,173580,2,0,L|158:155,1,59.9999981689454,10|0,2:1|0:0,0:0:0:0:
348,183,173752,2,0,L|355:123,1,59.9999981689454,2|0,2:1|0:0,0:0:0:0:
190,22,173923,22,0,L|179:96,1,59.9999981689454,6|0,0:1|0:0,0:0:0:0:
324,54,174094,2,0,L|334:129,1,59.9999981689454,2|0,2:1|0:0,0:0:0:0:
166,169,174266,2,0,L|158:228,1,59.9999981689454,10|0,2:1|0:0,0:0:0:0:
348,201,174438,2,0,L|355:260,1,59.9999981689454,2|0,2:1|0:0,0:0:0:0:
137,359,174609,86,0,P|102:349|74:324,1,75.0000028610231,14|0,2:1|0:0,0:0:0:0:
374,359,174780,2,0,P|415:345|446:306,1,75.0000028610231,10|0,2:1|0:0,0:0:0:0:
137,25,174952,2,0,P|102:35|74:60,1,75.0000028610231,10|0,2:1|0:0,0:0:0:0:
373,24,175123,2,0,P|409:35|437:60,1,75.0000028610231,10|0,2:1|0:0,0:0:0:0:
178,119,175295,21,10,2:1:0:0:
168,122,175380,1,2,2:1:0:0:
158,125,175466,2,2,P|137:155|132:192,1,59.9999981689454,2|2,2:0|0:0,0:0:0:0:
354,125,175637,2,0,P|374:155|379:192,1,59.9999981689454,10|0,2:1|0:0,0:0:0:0:
256,128,175809,1,10,2:1:0:0:
256,208,175895,1,10,2:1:0:0:
256,288,175980,6,0,B|212:285|212:285|190:294|190:294|158:271|158:271|135:281|135:281|71:279,1,179.999994506836,2|0,0:0|0:0,0:0:0:0:
87,279,176323,2,0,L|104:358,1,75.0000028610231,2|0,0:0|0:0,0:0:0:0:
329,253,176580,1,2,0:0:0:0:
329,253,176666,22,0,B|341:285|341:285|322:345,1,75.0000028610231
262,371,176838,1,2,0:0:0:0:
146,139,177009,86,0,B|126:105|78:109|78:109|21:104|3:44|30:-5|92:1,1,255.000004863739,8|0,0:0|0:0,0:0:0:0:
429,261,177352,22,0,B|506:206|465:114|465:114|411:195,1,225.000008583069,6|0,0:0|0:0,0:0:0:0:
390,82,177695,2,0,B|359:128|359:128|369:84,1,100,10|0,0:0|0:0,0:0:0:0:
412,0,177952,86,0,L|298:12,1,75.0000028610231,2|0,0:0|0:0,0:0:0:0:
145,28,178123,1,0,0:0:0:0:
145,28,178209,2,0,P|160:71|207:84,1,75.0000028610231
203,163,178381,22,0,B|252:160|252:160|282:114|282:114|254:48|254:48|271:90|251:124,1,255.000004863739,8|0,0:0|0:0,0:0:0:0:
116,189,178724,86,0,P|86:96|184:84,1,225.000008583069,2|0,0:0|0:0,0:0:0:0:
254,48,179067,22,0,B|246:106|246:106|235:118|235:118|246:175|246:175|236:184|236:184|231:238,1,200,10|0,0:0|0:0,0:0:0:0:
161,282,179323,86,0,L|335:262,1,150,2|0,0:0|0:0,0:0:0:0:
393,290,179580,1,0,0:0:0:0:
392,278,179666,1,0,0:0:0:0:
393,265,179752,22,0,B|399:176|482:142|482:142|411:103|364:153,1,269.999991760254,8|0,0:0|0:0,0:0:0:0:
254,52,180095,86,0,P|284:86|286:142,1,75.0000028610231,2|0,0:0|0:0,0:0:0:0:
134,140,180266,2,0,P|178:131|227:157,1,75.0000028610231,2|0,0:0|0:0,0:0:0:0:
284,347,180438,2,0,P|291:256|262:198,1,150.000005722046,8|0,0:0|0:0,0:0:0:0:
96,316,180695,22,0,B|140:339|192:319|192:319|218:285|253:283|253:283|239:234|279:189,1,255.000004863739,2|0,0:0|0:0,0:0:0:0:
13,301,181038,1,2,0:0:0:0:
20,298,181123,2,0,P|24:276|17:244,7,40,8|0|0|0|0|0|0|0,0:0|0:0|0:0|0:0|0:0|0:0|0:0|0:0,0:0:0:0:
0,141,181466,86,0,B|53:151|68:195|68:195|55:149|82:108,1,179.999994506836,2|0,0:0|0:0,0:0:0:0:
128,40,181809,22,0,B|149:86|211:104|211:104|199:69|228:27,1,150.000005722046,8|0,0:0|0:0,0:0:0:0:
321,21,182066,2,0,P|313:57|286:82,1,75.0000028610231,2|0,0:0|0:0,0:0:0:0:
185,280,182238,1,0,0:0:0:0:
174,280,182323,2,0,P|152:249|154:212,1,75.0000028610231
402,229,182495,2,0,P|428:130|333:169,1,255.000004863739,8|0,0:0|0:0,0:0:0:0:
260,269,182838,86,0,B|258:239|233:218|233:218|306:225|318:288,1,179.999994506836,2|0,0:0|0:0,0:0:0:0:
447,350,183180,22,0,B|469:330|502:333|502:333|444:286|392:322,1,179.999994506836,8|0,0:0|0:0,0:0:0:0:
205,361,183438,2,0,P|181:322|185:277,1,89.9999972534181
236,81,183609,1,0,0:0:0:0:
234,68,183695,2,0,P|200:50|194:89,1,89.9999972534181
343,169,183866,86,0,B|306:166|306:166|295:169|295:169|254:166,1,89.9999972534181,8|0,0:0|0:0,0:0:0:0:
21,222,184038,2,0,P|64:204|111:229,1,89.9999972534181,2|0,0:0|0:0,0:0:0:0:
298,331,184209,22,0,B|326:300|328:250|328:250|310:297|259:304,1,179.999994506836,2|0,0:0|0:0,0:0:0:0:
443,362,184552,86,0,B|403:319|403:319|410:228,1,150.000005722046,8|0,0:0|0:0,0:0:0:0:
250,152,184809,2,0,P|242:188|253:224,1,75.0000028610231,2|0,0:0|0:0,0:0:0:0:
17,342,184980,1,0,0:0:0:0:
28,343,185066,2,0,P|38:307|30:271,1,75.0000028610231
12,24,185238,22,0,B|67:59|121:27|121:27|181:-9|240:24,1,240,8|0,0:0|0:0,0:0:0:0:
265,262,185580,86,0,B|251:216|251:216|266:188,1,80,2|0,0:0|0:0,0:0:0:0:
405,73,185752,2,0,B|419:27|419:27|388:-27,1,80,2|0,0:0|0:0,0:0:0:0:
135,112,185923,22,0,B|309:89,1,160,8|0,0:0|0:0,0:0:0:0:
491,306,186180,2,0,B|537:339|537:339|426:327,1,160,2|0,0:0|0:0,0:0:0:0:
346,320,186438,85,0,0:0:0:0:
341,304,186523,1,0,0:0:0:0:
340,271,186609,1,0,0:0:0:0:
361,227,186695,1,0,0:0:0:0:
416,195,186780,1,0,0:0:0:0:
495,208,186866,1,0,0:0:0:0:
434,327,186952,22,0,B|346:320|346:320|286:335|286:335|189:327,1,240,6|0,0:0|0:0,0:0:0:0:
17,261,187295,2,0,B|-21:277|-21:277|37:282|37:282|97:263,1,160,8|0,0:0|0:0,0:0:0:0:
217,171,187552,2,0,P|185:150|139:154,1,80,2|0,0:0|0:0,0:0:0:0:
70,181,187723,1,0,0:0:0:0:
62,188,187809,2,0,L|52:108,1,80
217,171,187980,86,0,B|262:154|301:189|301:189|259:246|287:297|287:297|330:296|356:248,1,269.999991760254,8|0,0:0|0:0,0:0:0:0:
416,131,188323,22,0,B|421:96|502:101|503:216|360:230|307:171,1,179.999994506836,2|0,0:0|0:0,0:0:0:0:
60,34,188666,2,0,P|133:13|76:91,1,179.999994506836,8|0,0:0|0:0,0:0:0:0:
253,145,188923,2,0,P|209:138|176:165,1,89.9999972534181,2|0,0:0|0:0,0:0:0:0:
43,157,189095,1,0,0:0:0:0:
54,152,189180,2,0,P|94:168|85:207,1,89.9999972534181,0|2,0:3|0:0,0:0:0:0:
258,232,189352,86,0,L|159:246,1,100,10|0,0:0|0:0,0:0:0:0:
9,236,189523,2,0,P|40:274|88:287,1,100,2|0,0:0|0:0,0:0:0:0:
325,304,189695,22,0,B|158:329|158:329|195:330|227:359,1,240,2|0,0:0|0:0,0:0:0:0:
464,365,190038,86,0,B|469:306|469:306|456:248|456:248|460:186,1,179.999994506836,10|0,0:0|0:0,0:0:0:0:
353,94,190295,2,0,P|344:136|377:164,1,89.9999972534181,2|0,0:0|0:0,0:0:0:0:
512,93,190466,2,0,P|470:81|422:127,1,89.9999972534181
355,347,190638,1,2,0:0:0:0:
352,363,190723,22,0,P|257:287|375:257,1,300,8|0,0:0|0:0,0:0:0:0:
482,378,191066,86,0,P|474:331|428:321,1,100,2|0,0:0|0:0,0:0:0:0:
325,193,191238,2,0,P|330:242|372:255,1,100,2|0,0:0|0:0,0:0:0:0:
501,206,191409,2,0,L|490:90,1,100,8|0,0:0|0:0,0:0:0:0:
109,311,191666,22,0,B|73:360|23:348|23:348|61:311|57:247|57:247|43:203|6:187|6:187|60:141|32:57,1,400,2|2,0:0|0:0,0:0:0:0:
113,58,192095,85,8,0:0:0:0:
154,119,192180,1,8,0:0:0:0:
229,137,192266,1,8,0:0:0:0:
297,103,192352,1,8,0:0:0:0:
322,29,192438,22,8,B|396:7|449:63|449:63|395:91,1,179.999994506836,2|0,0:0|0:0,0:0:0:0:
252,355,192780,86,8,B|184:387|124:335|124:335|159:336|188:311,1,200,10|0,0:0|0:0,0:0:0:0:
331,279,193038,22,0,P|335:222|314:180,1,89.9999972534181,2|0,0:0|0:0,0:0:0:0:
92,257,193209,2,0,L|0:269,2,89.9999972534181,2|0|2,0:0|0:0|0:0,0:0:0:0:
246,222,193466,86,0,P|199:315|167:191,1,300,8|0,0:0|0:0,0:0:0:0:
331,195,193809,22,0,B|362:189|377:159|377:159|387:122|354:102|354:102|323:93|302:112|302:112|267:148|215:135,1,269.999991760254,2|0,0:0|0:0,0:0:0:0:
186,27,194152,86,0,B|241:-5|307:22|307:22|264:33|242:57,1,200,8|0,0:0|0:0,0:0:0:0:
74,178,194409,2,0,P|33:195|0:147,1,100,2|0,0:0|0:0,0:0:0:0:
103,3,194580,2,0,P|98:52|114:99,1,100
127,289,194752,1,2,0:0:0:0:
141,295,194838,22,0,P|172:260|156:215,1,100,8|0,0:0|0:0,0:0:0:0:
191,76,195009,2,0,P|144:64|113:100,1,100,2|0,0:0|0:0,0:0:0:0:
74,178,195180,86,0,B|169:195|169:195|210:186|210:186|243:210|243:210|332:227,1,269.999991760254,2|0,0:0|0:0,0:0:0:0:
438,298,195523,22,0,B|378:286|378:286|354:149,1,200,8|0,0:0|0:0,0:0:0:0:
344,72,195780,2,0,P|299:91|276:135,1,100,2|0,0:0|0:0,0:0:0:0:
375,365,195952,2,0,L|473:384,2,100,0|2|0,0:0|0:0|0:0,0:0:0:0:
92,383,196209,86,0,B|145:355|193:378|193:378|235:395|284:375|300:325|300:325|281:297|252:290,1,300,8|0,0:0|0:0,0:0:0:0:
228,215,196552,22,0,P|187:242|172:289,1,100,10|0,0:0|0:0,0:0:0:0:
405,137,196723,2,0,P|401:88|368:51,1,100,2|0,0:0|0:0,0:0:0:0:
277,1,196895,86,0,B|286:64|286:64|272:97|272:97|296:128|296:128|309:205,1,200,8|0,0:0|0:0,0:0:0:0:
405,214,197152,22,0,B|365:214|343:184|343:184|301:179|272:213|272:213|275:265|227:303|172:289,1,300,2|0,0:0|0:0,0:0:0:0:
