osu file format v14

[General]
AudioFilename: audio.mp3
AudioLeadIn: 0
PreviewTime: 132000
Countdown: 0
SampleSet: None
StackLeniency: 0.2
Mode: 0
LetterboxInBreaks: 0
WidescreenStoryboard: 1

[Editor]
Bookmarks: 22285,44228,66171,81771,88114,110057,111771,112028,112285,112371,112628,112800,112971,113057,113143,113400,113657,114171,114514,115028,115114,115371,115543,115885,116143,116400,116743,116914,117257,117514,117771,117857,118114,118285,118457,118543,118628,118885,119143,119657,119828,120000,120257,120514,120600,120685,121028,121285,121371,121543,121628,121800,121885,121971,122228,122400,122743,122914,123000,123257,123343,123600,124028,124114,124285,124371,124543,124628,124714,124971,125143,125485,125828,126000,126085,126343,126514,126771,126857,127028,127114,127285,127371,127457,127714,127885,128228,128400,128485,128743,128828,129085,129257,129514,129600,129771,129857,129943,130114,130200,130457,130628,130800,130971,131143,131314,131400,131485,131571,131657,132000,135085,135257,135428,135600,135771,135943,136028,136285,136371,136457,136628,136714,136971,137143,137485,141428,141514,141857,141943,142114,142457,142628,142971,146914,150685,152571,153257,153428,153514,153600,153685,153771,153857,153943,154285,154371,154543,154800,154885,154971,155057,155228,155485,155571,155657,155743,155914,156171,156257,156343,156514,156685,156857,156943,157028,157114,157285,157543,157628,157714,157800,157971,158228,158314,158400,158485,158657,158914,159085,159257,159343,159428,164914,170400,170743,170828,171000,171257,171343,171428,171514,171685,171771,172114,172200,172285,172371,172628,172714,172800,172971,173143,173314,173485,173571,173743,173828,174000,174171,174257,174428,174514,174685,174771,174857,175028,175200,175285,175371,175543,175714,175800,175885,177257,197057
DistanceSpacing: 0.4
BeatDivisor: 8
GridSize: 32
TimelineZoom: 3.4

[Metadata]
Title:Euclid
TitleUnicode:Euclid
Artist:Function Phantom
ArtistUnicode:Function Phantom
Creator:Saturnalize
Version:Adrien-Marie Legendre
Source:
Tags:
BeatmapID:1598267
BeatmapSetID:683133

[Difficulty]
HPDrainRate:6
CircleSize:4.2
OverallDifficulty:8
ApproachRate:9.7
SliderMultiplier:2
SliderTickRate:1

[Events]
//Background and Video events
0,0,"background.jpg",0,0
//Break Periods
//Storyboard Layer 0 (Background)
//Storyboard Layer 1 (Fail)
//Storyboard Layer 2 (Pass)
//Storyboard Layer 3 (Foreground)
//Storyboard Sound Samples

[TimingPoints]
343,342.857142857143,4,2,1,5,1,0
343,-400,4,2,1,5,0,0
22243,-400,4,2,1,60,0,0
22328,-400,4,2,1,5,0,0
24214,-400,4,2,1,60,0,0
24300,-400,4,2,1,5,0,0
24471,-400,4,2,1,60,0,0
24557,-400,4,2,1,5,0,0
24900,-400,4,2,1,60,0,0
24985,-400,4,2,1,5,0,0
26357,-400,4,2,5,60,0,0
26421,-400,4,2,1,5,0,0
27514,-100,4,2,1,5,0,0
27771,-400,4,2,1,60,0,0
27814,-400,4,2,1,5,0,0
29700,-400,4,2,1,60,0,0
29785,-400,4,2,1,5,0,0
29957,-400,4,2,1,60,0,0
30043,-400,4,2,1,5,0,0
30385,-400,4,2,1,60,0,0
30471,-400,4,2,1,5,0,0
31843,-400,4,2,1,30,0,0
31928,-400,4,2,1,5,0,0
33214,-400,4,2,1,60,0,0
33300,-400,4,2,1,5,0,0
35185,-400,4,2,1,60,0,0
35271,-400,4,2,1,5,0,0
35443,-400,4,2,1,60,0,0
35528,-400,4,2,1,5,0,0
35871,-400,4,2,1,60,0,0
35957,-400,4,2,1,5,0,0
37328,-400,4,2,5,60,0,0
37414,-400,4,2,1,5,0,0
38443,-100,4,2,1,5,0,0
38743,-400,4,2,1,60,0,0
38785,-400,4,2,1,5,0,0
40671,-400,4,2,1,60,0,0
40757,-400,4,2,1,5,0,0
40928,-400,4,2,1,60,0,0
41014,-400,4,2,1,5,0,0
41357,-400,4,2,1,60,0,0
41443,-400,4,2,1,5,0,0
42514,-400,4,2,1,20,0,0
42857,-200,4,2,1,30,0,0
43543,-100,4,2,1,40,0,0
43885,-100,4,2,1,50,0,0
44228,-169.491525423729,4,2,1,60,0,1
44571,-62.8930817610063,4,2,1,60,0,1
44828,-77.5193798449612,4,2,1,60,0,1
45171,-50.251256281407,4,2,1,60,0,1
45600,-169.491525423729,4,2,1,60,0,1
45943,-62.8930817610063,4,2,1,60,0,1
46200,-77.5193798449612,4,2,1,60,0,1
46971,-169.491525423729,4,2,1,60,0,1
47314,-62.8930817610063,4,2,1,60,0,1
47571,-77.5193798449612,4,2,1,60,0,1
47914,-55.8659217877095,4,2,1,60,0,1
48343,-77.5193798449612,4,2,1,60,0,1
49371,-169.491525423729,4,2,1,60,0,1
50057,-62.8930817610063,4,2,1,60,0,1
50314,-77.5193798449612,4,2,1,60,0,1
50743,-55.8659217877095,4,2,1,60,0,1
51085,-169.491525423729,4,2,1,60,0,1
51428,-62.8930817610063,4,2,1,60,0,1
51685,-77.5193798449612,4,2,1,60,0,1
52457,-169.491525423729,4,2,1,60,0,1
52800,-62.8930817610063,4,2,1,60,0,1
53057,-77.5193798449612,4,2,1,60,0,1
53485,-55.8659217877095,4,2,1,60,0,1
53828,-77.5193798449612,4,2,1,60,0,1
54685,-169.491525423729,4,2,1,60,0,0
55200,-169.491525423729,4,2,1,60,0,1
55543,-62.8930817610063,4,2,1,60,0,1
55800,-77.5193798449612,4,2,1,60,0,1
56143,-55.8659217877095,4,2,1,60,0,1
56528,-169.491525423729,4,2,1,60,0,1
56871,-62.8930817610063,4,2,1,60,0,1
57171,-77.5193798449612,4,2,1,60,0,1
57943,-169.491525423729,4,2,1,60,0,1
58285,-62.8930817610063,4,2,1,60,0,1
58543,-77.5193798449612,4,2,1,60,0,1
58971,-55.8659217877095,4,2,1,60,0,1
59314,-77.5193798449612,4,2,1,60,0,1
60300,-169.491525423729,4,2,3,60,0,1
60685,-169.491525423729,4,2,1,60,0,1
60985,-62.8930817610063,4,2,1,60,0,1
61243,-77.5193798449612,4,2,1,60,0,1
61628,-55.8659217877095,4,2,1,60,0,1
62014,-169.491525423729,4,2,1,60,0,1
62400,-62.8930817610063,4,2,1,60,0,1
62657,-77.5193798449612,4,2,1,60,0,1
63385,-169.491525423729,4,2,1,60,0,1
63771,-62.8930817610063,4,2,1,60,0,1
64028,-77.5193798449612,4,2,1,60,0,1
64457,-55.8659217877095,4,2,1,60,0,1
64757,-62.8930817610063,4,2,2,60,0,1
65614,-62.8930817610063,4,2,2,60,0,1
66171,-100,4,2,1,60,0,0
88114,-200,4,2,1,60,0,0
92185,-200,4,2,5,60,0,0
92271,-200,4,2,1,30,0,0
93343,-90.9090909090909,4,2,1,60,0,0
93557,-200,4,2,1,60,0,0
99043,-133.333333333333,4,2,1,60,0,0
103157,-133.333333333333,4,2,5,60,0,0
103671,-133.333333333333,4,2,1,60,0,0
109371,-169.491525423729,4,2,1,60,0,0
110057,-77.5193798449612,4,2,1,60,0,0
110914,-62.8930817610063,4,2,1,60,0,0
111257,-77.5193798449612,4,2,1,60,0,0
112371,-126.582278481013,4,2,1,60,0,0
112800,-77.5193798449612,4,2,1,60,0,0
113657,-62.8930817610063,4,2,1,60,0,0
114171,-77.5193798449612,4,2,1,60,0,0
114471,-55.8659217877095,4,2,1,40,0,0
115114,-77.5193798449612,4,2,1,60,0,0
116357,-62.8930817610063,4,2,1,60,0,0
116743,-77.5193798449612,4,2,1,60,0,0
117771,-126.582278481013,4,2,1,60,0,0
118285,-77.5193798449612,4,2,1,60,0,0
119100,-62.8930817610063,4,2,1,60,0,0
119614,-77.5193798449612,4,2,1,60,0,0
120643,-77.5193798449612,4,2,1,40,0,0
121028,-77.5193798449612,4,2,1,60,0,0
125485,-55.8659217877095,4,2,1,40,0,0
126085,-77.5193798449612,4,2,1,60,0,0
130800,-51.8134715025907,4,2,1,60,0,0
130971,-77.5193798449612,4,2,1,60,0,0
131143,-51.8134715025907,4,2,1,60,0,0
131314,-77.5193798449612,4,2,1,60,0,0
131657,-77.5193798449612,4,2,1,40,0,0
132000,-77.5193798449612,4,2,1,60,0,0
132000,-77.5193798449612,4,2,1,60,0,1
132043,-77.5193798449612,4,2,1,60,0,0
153214,-77.5193798449612,4,2,2,60,0,0
153943,-62.8930817610063,4,2,1,60,0,1
164314,-62.8930817610063,4,2,2,60,0,1
164528,-62.8930817610063,4,2,1,60,0,1
175371,-62.8930817610063,4,2,2,60,0,1
175885,-169.491525423729,4,2,1,60,0,0
176228,-77.5193798449612,4,2,1,60,0,0
176914,-50.251256281407,4,2,1,60,0,0
177257,-169.491525423729,4,2,1,60,0,1
177600,-62.8930817610063,4,2,1,60,0,1
177857,-77.5193798449612,4,2,1,60,0,1
178628,-169.491525423729,4,2,1,60,0,1
178928,-62.8930817610063,4,2,1,60,0,1
179185,-77.5193798449612,4,2,1,60,0,1
179571,-55.8659217877095,4,2,1,60,0,1
180000,-77.5193798449612,4,2,1,60,0,1
180985,-77.5193798449612,4,2,1,60,0,1
181328,-169.491525423729,4,2,1,60,0,1
181671,-62.8930817610063,4,2,1,60,0,1
181928,-77.5193798449612,4,2,1,60,0,1
182357,-55.8659217877095,4,2,1,60,0,1
182700,-169.491525423729,4,2,1,60,0,1
183043,-62.8930817610063,4,2,1,60,0,1
183300,-77.5193798449612,4,2,1,60,0,1
184114,-169.491525423729,4,2,1,60,0,1
184414,-62.8930817610063,4,2,1,60,0,1
184671,-77.5193798449612,4,2,1,60,0,1
185100,-55.8659217877095,4,2,1,60,0,1
185485,-77.5193798449612,4,2,1,60,0,1
186343,-169.491525423729,4,2,1,60,0,0
186857,-169.491525423729,4,2,1,60,0,1
187200,-62.8930817610063,4,2,1,60,0,1
187414,-77.5193798449612,4,2,1,60,0,1
187885,-55.8659217877095,4,2,1,60,0,1
188228,-169.491525423729,4,2,1,60,0,1
188528,-62.8930817610063,4,2,1,60,0,1
188828,-77.5193798449612,4,2,1,60,0,1
189600,-169.491525423729,4,2,1,60,0,1
189943,-62.8930817610063,4,2,1,60,0,1
190200,-77.5193798449612,4,2,1,60,0,1
190628,-55.8659217877095,4,2,1,60,0,1
190971,-77.5193798449612,4,2,1,60,0,1
192000,-169.491525423729,4,3,3,60,0,1
192343,-169.491525423729,4,2,1,60,0,1
192685,-62.8930817610063,4,2,1,60,0,1
192943,-77.5193798449612,4,2,1,60,0,1
193371,-55.8659217877095,4,2,1,60,0,1
193714,-169.491525423729,4,2,1,60,0,1
194057,-62.8930817610063,4,2,1,60,0,1
194314,-77.5193798449612,4,2,1,60,0,1
195085,-169.491525423729,4,2,1,60,0,1
195428,-62.8930817610063,4,2,1,60,0,1
195685,-77.5193798449612,4,2,1,60,0,1
196114,-55.8659217877095,4,2,1,60,0,1
196457,-55.8659217877095,4,2,2,60,0,1
197057,-55.8659217877095,4,2,2,60,0,0
197271,-55.8659217877095,4,2,2,5,0,0

[Colours]
Combo1 : 112,112,190
Combo2 : 255,128,255
Combo3 : 0,128,255
Combo4 : 255,108,171
Combo5 : 0,0,255
Combo6 : 199,146,184

[HitObjects]
113,62,22285,70,0,B|168:128|32:184|108:280|184:264|188:204,1,275,0|0,1:0|0:0,0:0:0:0:
193,191,24257,2,0,L|189:227,1,25,0|0,1:0|0:0,0:0:0:0:
194,227,24514,2,0,L|190:263,1,25,0|0,1:0|0:0,0:0:0:0:
195,262,24943,5,0,1:0:0:0:
417,67,26400,6,0,L|427:64,24,6.25,8|0|0|0|0|0|0|0|0|0|0|0|0|0|0|0|0|0|0|0|0|0|0|0|0,0:0|0:0|0:0|0:0|0:0|0:0|0:0|0:0|0:0|0:0|0:0|0:0|0:0|0:0|0:0|0:0|0:0|0:0|0:0|0:0|0:0|0:0|0:0|0:0|0:0,0:0:0:0:
460,65,27514,6,0,P|424:95|386:69,1,100
418,57,27771,38,0,B|442:112|443:172|443:172|392:182|356:158|356:158|326:171|309:203,1,275,0|0,1:0|0:0,0:0:0:0:
304,215,29743,2,0,L|308:251,1,25,0|0,1:0|0:0,0:0:0:0:
303,251,30000,2,0,L|307:287,1,25,0|0,1:0|0:0,0:0:0:0:
302,286,30429,5,0,1:0:0:0:
302,286,31885,1,2,0:0:0:0:
90,325,33257,70,0,B|129:295|125:240|125:240|169:263|187:307|187:307|222:272|272:279,1,275,0|0,1:0|0:0,0:0:0:0:
278,283,35228,2,0,L|313:276,1,25,0|0,1:0|0:0,0:0:0:0:
317,281,35485,2,0,L|352:274,1,25,0|0,1:0|0:0,0:0:0:0:
355,281,35914,5,0,1:0:0:0:
244,125,37371,6,0,L|236:123,24,6.25,8|0|0|0|0|0|0|0|0|0|0|0|0|0|0|0|0|0|0|0|0|0|0|0|0,0:0|0:0|0:0|0:0|0:0|0:0|0:0|0:0|0:0|0:0|0:0|0:0|0:0|0:0|0:0|0:0|0:0|0:0|0:0|0:0|0:0|0:0|0:0|0:0|0:0,0:0:0:0:
223,69,38485,6,0,P|172:87|148:44,1,100
187,45,38743,38,0,B|269:42|269:42|298:62|298:62|360:61|360:61|388:113|353:151,1,275,0|0,1:0|0:0,0:0:0:0:
343,160,40714,2,0,L|308:153,1,25,0|0,1:0|0:0,0:0:0:0:
304,158,40971,2,0,L|269:151,1,25,0|0,1:0|0:0,0:0:0:0:
266,158,41400,5,0,1:0:0:0:
149,286,42171,70,0,L|127:284,3,12.5,2|2|2|2,0:3|0:3|0:3|0:3,0:0:0:0:
229,254,42514,6,0,L|251:252,3,12.5,2|2|2|2,0:3|0:3|0:3|0:3,0:0:0:0:
320,299,42857,69,2,0:3:0:0:
358,288,42943,1,2,0:3:0:0:
397,289,43028,1,2,0:3:0:0:
434,304,43114,1,2,0:3:0:0:
461,332,43200,5,2,0:3:0:0:
404,322,43285,1,2,0:3:0:0:
358,288,43371,1,2,0:3:0:0:
342,232,43457,1,2,0:3:0:0:
357,177,43543,6,0,P|353:146|351:113,1,50,2|2,0:3|0:3,0:0:0:0:
226,28,43714,2,0,P|230:53|236:92,1,50,2|2,0:3|0:3,0:0:0:0:
173,277,43885,2,0,P|163:248|155:219,1,50,2|2,0:3|0:3,0:0:0:0:
24,65,44056,2,0,P|35:93|48:128,1,50,2|2,0:3|0:3,0:0:0:0:
178,306,44228,6,0,L|262:278,1,88.4999968940736,4|0,1:0|0:0,0:0:0:0:
131,123,44571,2,0,P|54:132|3:191,1,159.000000242615,10|0,1:2|0:0,0:0:0:0:
154,334,44828,2,0,L|277:293,1,129.000001968384,0|2,1:0|0:3,0:0:0:0:
260,118,45085,1,0,0:3:0:0:
355,343,45257,6,0,P|247:380|207:233,1,298.500007401467,10|0,1:2|0:0,0:0:0:0:
252,162,45600,70,0,L|236:75,1,88.4999968940736,0|0,1:0|0:0,0:0:0:0:
399,38,45943,2,0,P|432:109|402:180,1,159.000000242615,10|0,1:2|0:0,0:0:0:0:
220,155,46200,2,0,L|208:92,1,64.5000009841919,0|0,1:0|0:3,0:0:0:0:
195,150,46371,2,0,L|183:87,1,64.5000009841919,0|0,0:0|0:3,0:0:0:0:
64,192,46543,5,0,1:0:0:0:
44,200,46628,2,0,L|32:264,1,64.5000009841919,8|0,1:2|0:3,0:0:0:0:
24,208,46799,2,0,L|12:272,1,64.5000009841919,2|0,0:0|0:3,0:0:0:0:
156,376,46971,70,0,B|183:376|183:376|215:371|215:371|245:371,1,88.4999968940736,0|0,1:0|0:0,0:0:0:0:
359,139,47314,2,0,P|295:97|225:126,1,159.000000242615,10|0,1:2|0:0,0:0:0:0:
106,358,47571,2,0,L|234:361,1,129.000001968384,0|2,1:0|0:3,0:0:0:0:
287,179,47828,1,0,0:0:0:0:
2,23,48000,6,0,B|-39:76|15:126|15:126|69:142|69:142|111:170|105:228,1,268.500003687286,10|0,1:2|0:0,0:0:0:0:
51,299,48343,69,0,1:0:0:0:
291,309,48514,1,0,1:0:0:0:
45,308,48685,5,10,1:2:0:0:
131,287,48771,2,0,P|167:282|207:295,1,64.5000009841919
284,317,48943,2,0,P|315:322|351:315,1,64.5000009841919,0|0,1:0|0:0,0:0:0:0:
409,227,49114,2,0,L|416:154,1,64.5000009841919,2|0,0:2|0:0,0:0:0:0:
252,88,49285,1,0,1:0:0:0:
247,100,49371,70,0,L|248:114,6,14.7499994823456,8|0|0|0|0|0|0,0:3|0:0|0:0|0:0|0:0|0:0|0:0,0:0:0:0:
208,186,49714,6,0,L|216:276,1,88.4999968940736,0|0,1:2|0:0,0:0:0:0:
403,302,50057,2,0,P|441:235|414:162,1,159.000000242615,10|0,1:2|0:0,0:0:0:0:
196,204,50314,2,0,L|207:332,1,129.000001968384,0|2,1:2|0:3,0:0:0:0:
352,228,50571,1,0,0:0:0:0:
186,225,50743,70,0,B|188:276|188:276|208:316|208:316|208:384|156:392|108:388|94:339,1,268.500003687286,10|0,1:2|0:0,0:0:0:0:
96,252,51085,6,0,L|88:160,1,88.4999968940736,0|0,1:0|0:0,0:0:0:0:
244,156,51428,2,0,P|280:232|240:296,1,159.000000242615,10|0,1:2|0:0,0:0:0:0:
80,264,51685,2,0,L|72:172,1,64.5000009841919,0|0,1:0|0:0,0:0:0:0:
64,276,51857,2,0,L|56:184,1,64.5000009841919
124,128,52028,69,0,1:0:0:0:
136,116,52114,2,0,L|144:24,1,64.5000009841919,8|0,1:2|0:0,0:0:0:0:
148,104,52285,2,0,L|156:12,1,64.5000009841919,2|0,0:2|0:0,0:0:0:0:
264,136,52457,6,0,L|360:132,1,88.4999968940736,0|0,1:0|0:0,0:0:0:0:
382,319,52800,2,0,P|298:335|242:283,1,159.000000242615,8|0,1:2|0:0,0:0:0:0:
284,116,53057,2,0,L|412:110,1,129.000001968384,0|2,1:0|0:3,0:0:0:0:
324,256,53314,1,0,0:0:0:0:
128,80,53485,70,0,P|20:76|100:148,1,268.500003687286,10|0,1:2|0:0,0:0:0:0:
172,148,53828,5,0,1:0:0:0:
480,144,54000,1,0,1:0:0:0:
164,160,54171,69,8,1:2:0:0:
248,140,54257,2,0,P|279:135|311:139,1,64.5000009841919
400,164,54428,2,0,P|431:168|500:96,1,129.000001968384,0|0,1:0|0:0,0:0:0:0:
476,20,54685,21,0,0:0:0:0:
456,24,54771,1,0,0:0:0:0:
344,48,54857,5,0,0:0:0:0:
324,44,54943,1,0,0:0:0:0:
217,80,55028,69,0,0:0:0:0:
196,84,55114,2,0,L|174:87,1,14.7499994823456
101,146,55200,54,0,P|138:168|182:167,1,88.4999968940736,4|0,1:0|0:0,0:0:0:0:
308,40,55543,2,0,L|145:14,1,159.000000242615,8|0,1:2|0:0,0:0:0:0:
138,245,55800,2,0,P|200:245|258:202,1,129.000001968384,0|0,1:0|0:0,0:0:0:0:
160,91,56057,1,2,0:3:0:0:
60,353,56228,6,0,B|112:372|167:354|167:354|193:323|193:323|260:314|307:352,1,268.500003687286,10|0,1:2|0:0,0:0:0:0:
389,305,56571,70,0,P|374:262|377:216,1,88.4999968940736,0|0,1:0|0:0,0:0:0:0:
512,87,56914,2,0,L|500:245,1,159.000000242615,8|0,1:2|0:0,0:0:0:0:
300,270,57171,2,0,P|297:234|304:201,1,64.5000009841919,0|0,1:0|0:0,0:0:0:0:
284,277,57343,2,0,P|281:241|288:208,1,64.5000009841919
192,107,57514,5,0,1:0:0:0:
176,99,57600,2,0,P|170:67|173:35,1,64.5000009841919,8|0,1:2|0:0,0:0:0:0:
160,91,57772,2,0,P|154:59|157:27,1,64.5000009841919
69,172,57943,70,0,P|35:180|1:219,1,88.4999968940736,0|0,1:0|0:0,0:0:0:0:
104,371,58285,2,0,L|208:249,1,159.000000242615,8|0,1:2|0:0,0:0:0:0:
58,148,58543,2,0,P|16:163|-24:234,1,129.000001968384,0|0,1:0|0:0,0:0:0:0:
104,371,58800,2,0,L|176:367,1,64.5000009841919
263,324,58971,6,0,B|296:322|296:322|353:325|372:372|372:372|427:306|397:241,1,268.500003687286,8|0,1:2|0:2,0:2:0:0:
348,168,59314,69,0,1:0:0:0:
56,184,59485,1,0,1:0:0:0:
336,180,59657,5,8,1:2:0:0:
256,224,59743,2,0,P|224:228|180:216,1,64.5000009841919
107,193,59914,2,0,P|75:189|31:201,1,64.5000009841919,0|0,1:0|0:0,0:0:0:0:
8,288,60085,2,0,L|4:364,1,64.5000009841919
144,364,60257,1,0,1:0:0:0:
156,352,60343,70,0,L|154:324,2,14.7499994823456,8|0|0,3:3|3:0|3:0,0:0:0:0:
194,253,60514,2,0,L|192:225,2,14.7499994823456,4|0|0,3:3|3:0|3:0,0:0:0:0:
232,144,60685,6,0,P|272:128|328:136,1,88.4999968940736,4|0,1:2|0:0,0:0:0:0:
504,268,61028,2,0,L|345:264,1,159.000000242615,8|0,0:0|0:0,0:0:0:0:
188,80,61285,2,0,P|252:52|316:52,1,129.000001968384,0|0,1:0|0:0,0:0:0:0:
288,208,61543,1,0,0:0:0:0:
97,82,61714,70,0,B|64:64|20:60|20:60|24:100|48:136|48:136|8:180|32:232,1,268.500003687286,8|0,0:0|0:0,0:0:0:0:
96,316,62057,6,0,P|140:324|184:304,1,88.4999968940736,0|0,1:0|0:0,0:0:0:0:
261,173,62400,2,0,L|104:196,1,159.000000242615,8|0,1:2|0:0,0:0:0:0:
224,368,62657,2,0,P|252:360|284:328,1,64.5000009841919,0|0,1:0|0:0,0:0:0:0:
260,384,62828,2,0,P|280:363|291:319,1,64.5000009841919
340,232,63000,69,0,1:2:0:0:
368,208,63085,2,0,P|377:238|398:262,1,64.5000009841919,8|0,1:2|0:0,0:0:0:0:
399,184,63256,2,0,P|391:215|398:246,1,64.5000009841919
472,127,63428,6,0,P|480:85|461:45,1,88.4999968940736,0|0,1:0|0:0,0:0:0:0:
280,0,63771,2,0,L|308:156,1,159.000000242615,8|0,0:0|0:0,0:0:0:0:
492,148,64028,2,0,P|504:76|480:12,1,129.000001968384,0|0,1:0|0:0,0:0:0:0:
328,168,64285,2,0,L|340:232,1,64.5000009841919
278,314,64457,70,0,B|244:337|189:323|172:285|172:285|135:308|78:303|50:259|50:259|29:238,1,268.500003687286,8|0,1:2|0:0,0:0:0:0:
116,124,64800,6,0,P|129:161|125:201,1,79.5000001213074,4|0,1:0|0:0,0:0:0:0:
37,330,64971,2,0,P|32:290|45:253,1,79.5000001213074,0|0,1:0|0:0,0:0:0:0:
227,154,65143,70,0,L|387:162,1,159.000000242615,12|0,1:0|0:0,0:0:0:0:
467,298,65400,2,0,B|407:306|407:306|365:295|365:295|310:302,1,159.000000242615,4|0,1:0|0:0,0:0:0:0:
205,283,65657,2,0,P|195:324|158:355,1,79.5000001213074,8|0,0:1|0:0,0:0:0:0:
276,207,65828,5,8,0:1:0:0:
268,176,65914,1,8,0:1:0:0:
260,145,66000,1,8,0:1:0:0:
253,114,66085,1,8,0:1:0:0:
246,82,66171,37,4,1:0:0:0:
125,283,66300,1,0,0:0:0:0:
0,203,66514,1,8,0:0:0:0:
234,299,66686,1,0,0:0:0:0:
369,248,66857,1,0,0:0:0:0:
369,248,66943,1,0,0:0:0:0:
369,248,67028,1,0,1:0:0:0:
154,376,67200,5,8,0:2:0:0:
175,138,67371,1,0,0:0:0:0:
175,138,67457,2,0,L|180:79,1,50,0|0,1:0|0:0,0:0:0:0:
257,350,67714,1,0,0:0:0:0:
259,124,67885,1,8,0:0:0:0:
359,334,68057,1,0,0:0:0:0:
359,334,68143,2,0,L|365:389,1,50,0|0,1:0|0:0,0:0:0:0:
347,112,68400,1,0,0:0:0:0:
347,112,68485,2,0,L|354:55,1,50,0|8,1:0|0:0,0:0:0:0:
442,315,68743,1,0,0:0:0:0:
257,350,68914,69,0,1:0:0:0:
44,227,69085,1,0,0:0:0:0:
258,163,69257,1,8,0:0:0:0:
162,348,69428,1,0,0:0:0:0:
106,121,69600,1,0,0:0:0:0:
106,121,69685,1,0,0:0:0:0:
106,121,69771,1,0,1:0:0:0:
335,189,69943,5,8,0:0:0:0:
162,348,70114,1,0,0:0:0:0:
162,348,70200,2,0,L|95:341,1,50,0|0,1:0|0:0,0:0:0:0:
359,269,70457,1,0,0:0:0:0:
359,269,70543,2,0,L|426:276,1,50,0|8,1:0|0:2,0:0:0:0:
107,250,70800,1,0,0:0:0:0:
107,250,70886,2,0,L|40:243,1,50,0|0,1:0|0:0,0:0:0:0:
335,189,71143,1,0,1:0:0:0:
52,152,71314,1,8,0:0:0:0:
373,343,71657,69,0,1:0:0:0:
387,179,71828,1,0,0:0:0:0:
84,93,72000,1,8,0:0:0:0:
289,86,72171,1,0,0:0:0:0:
381,351,72343,1,0,0:0:0:0:
381,351,72428,1,0,0:0:0:0:
381,351,72514,1,0,1:0:0:0:
399,80,72685,5,8,0:0:0:0:
288,335,72857,1,0,0:0:0:0:
288,335,72943,2,0,L|291:402,1,50,0|0,1:0|0:0,0:0:0:0:
289,86,73200,1,0,0:0:0:0:
199,320,73371,1,8,0:2:0:0:
186,90,73543,1,0,0:0:0:0:
186,90,73628,2,0,L|189:38,1,50,0|0,1:0|0:0,0:0:0:0:
113,318,73885,1,0,0:0:0:0:
113,318,73971,2,0,L|116:385,1,50,0|8,1:0|0:2,0:0:0:0:
67,100,74228,1,0,0:0:0:0:
289,86,74400,69,0,1:0:0:0:
468,207,74571,1,0,0:0:0:0:
228,183,74743,1,8,0:2:0:0:
381,13,74914,1,0,0:0:0:0:
402,312,75085,1,0,0:0:0:0:
402,312,75171,1,0,0:0:0:0:
402,312,75257,1,0,1:0:0:0:
289,86,75428,1,8,0:2:0:0:
275,309,75600,1,0,0:0:0:0:
275,309,75685,6,0,L|284:364,1,50,0|0,1:0|0:0,0:0:0:0:
192,75,75943,1,0,0:0:0:0:
192,75,76028,2,0,L|201:20,1,50,0|8,1:0|0:2,0:0:0:0:
150,311,76285,1,0,0:0:0:0:
150,311,76371,2,0,L|159:366,1,50,0|0,1:0|0:0,0:0:0:0:
97,67,76628,1,0,1:0:0:0:
37,311,76800,1,8,0:2:0:0:
360,95,77143,69,0,1:0:0:0:
91,253,77314,1,0,0:0:0:0:
97,67,77485,1,8,0:0:0:0:
283,290,77657,1,0,0:0:0:0:
368,103,77828,1,0,0:0:0:0:
368,103,77913,1,0,0:0:0:0:
368,103,77999,1,0,1:0:0:0:
184,296,78171,5,8,0:0:0:0:
264,58,78343,1,0,0:0:0:0:
264,58,78428,2,0,L|269:8,1,50,0|0,1:0|0:0,0:0:0:0:
283,290,78685,1,0,0:0:0:0:
355,83,78857,1,8,0:0:0:0:
378,290,79028,1,0,0:0:0:0:
378,290,79113,2,0,L|383:339,1,50,0|0,1:0|0:0,0:0:0:0:
443,109,79372,1,0,0:0:0:0:
443,109,79457,2,0,L|448:59,1,50,0|8,1:0|0:0,0:0:0:0:
467,286,79714,1,0,0:0:0:0:
283,290,79885,69,0,1:0:0:0:
59,145,80057,1,0,0:0:0:0:
248,72,80228,1,8,0:0:0:0:
184,296,80400,1,0,0:0:0:0:
160,64,80571,1,0,0:0:0:0:
160,64,80657,1,0,0:0:0:0:
160,64,80743,1,0,1:0:0:0:
403,88,80914,5,8,0:0:0:0:
168,141,81085,1,0,0:0:0:0:
168,141,81171,2,0,L|108:139,1,50,0|0,1:0|0:0,0:0:0:0:
424,192,81428,1,0,0:0:0:0:
424,192,81514,2,0,L|484:190,1,50,0|8,1:0|0:0,0:0:0:0:
177,218,81771,1,0,0:0:0:0:
177,218,81857,2,0,L|117:216,1,50,0|0,1:0|0:0,0:0:0:0:
444,280,82114,1,0,1:0:0:0:
184,296,82285,1,8,0:0:0:0:
472,48,82628,69,0,1:0:0:0:
320,203,82800,1,0,0:0:0:0:
68,74,82971,1,8,0:0:0:0:
223,225,83143,1,0,0:0:0:0:
377,13,83314,1,0,0:0:0:0:
377,13,83400,1,0,0:0:0:0:
377,13,83485,1,0,1:0:0:0:
288,275,83657,5,8,0:0:0:0:
264,64,83828,1,0,0:0:0:0:
264,64,83914,2,0,L|269:14,1,50,0|0,1:0|0:0,0:0:0:0:
206,301,84171,1,0,0:0:0:0:
167,67,84343,1,8,0:0:0:0:
126,332,84514,1,0,0:0:0:0:
126,332,84600,2,0,L|131:382,1,50,0|0,1:0|0:0,0:0:0:0:
79,72,84857,1,0,0:0:0:0:
79,72,84943,2,0,L|84:22,1,50,0|8,1:0|0:0,0:0:0:0:
39,362,85200,1,0,0:0:0:0:
363,311,85371,69,0,1:0:0:0:
264,64,85543,1,0,0:0:0:0:
202,303,85714,1,8,0:0:0:0:
453,245,85885,1,0,0:0:0:0:
453,245,85971,1,0,0:0:0:0:
453,245,86057,1,0,0:0:0:0:
192,219,86228,1,0,1:0:0:0:
454,155,86400,1,8,0:0:0:0:
184,137,86571,1,0,0:0:0:0:
450,71,86743,54,0,L|500:63,5,33.3333333333333
362,119,87085,2,0,L|312:111,3,50
170,95,87428,2,0,L|220:87,3,50
81,129,87771,2,0,L|31:121,5,33.3333333333333
158,192,88114,6,0,B|227:175|227:175|275:205|275:205|224:224|224:224|161:249|139:338|209:388|307:383|296:313|280:255|356:242|398:261,1,550,4|0,1:0|0:0,0:0:0:0:
371,332,90085,2,0,L|341:373,1,50,0|0,1:0|0:0,0:0:0:0:
377,344,90343,2,0,L|347:385,1,50,0|0,1:0|0:0,0:0:0:0:
383,357,90771,1,0,1:0:0:0:
167,61,92228,6,0,L|148:59,24,12.5,8|0|0|0|0|0|0|0|0|0|0|0|0|0|0|0|0|0|0|0|0|0|0|0|0,0:0|0:0|0:0|0:0|0:0|0:0|0:0|0:0|0:0|0:0|0:0|0:0|0:0|0:0|0:0|0:0|0:0|0:0|0:0|0:0|0:0|0:0|0:0|0:0|0:0,0:0:0:0:
200,72,93343,6,0,P|151:89|118:50,1,110.000003356934
170,30,93600,38,0,B|212:20|251:50|251:50|213:92|228:170|276:188|276:188|251:148|248:26|439:21|432:157,1,550,0|0,1:0|0:0,0:0:0:0:
400,214,95571,6,0,P|367:228|332:224,1,50,0|0,1:0|0:0,0:0:0:0:
390,247,95828,2,0,P|354:242|326:221,1,50,0|0,1:0|0:0,0:0:0:0:
374,285,96257,1,0,1:0:0:0:
102,103,98743,2,0,P|131:76|173:68,1,75
193,76,99085,6,0,P|158:105|276:135,1,262.500010013581,4|0,1:0|0:0,0:0:0:0:
276,142,99771,1,8,0:0:0:0:
276,142,100543,2,0,L|274:230,1,75.0000028610231,0|0,1:0|0:0,0:0:0:0:
288,164,100800,2,0,L|286:252,1,75.0000028610231,0|0,1:0|0:0,0:0:0:0:
193,76,101143,1,8,0:0:0:0:
300,186,101314,2,0,L|298:274,1,75.0000028610231,0|0,1:0|0:0,0:0:0:0:
193,76,101657,1,8,0:0:0:0:
312,208,101828,6,0,B|311:285|311:285|351:343|351:343|289:302|229:322|218:345,1,262.500010013581,0|0,1:0|0:0,0:0:0:0:
235,330,102514,1,8,0:0:0:0:
235,330,103028,2,0,L|238:280,1,37.5000014305115
310,226,103200,2,0,L|312:208,10,18.7500007152558,2|0|0|0|0|0|0|0|0|0|0,0:0|0:0|0:0|0:0|0:0|0:0|0:0|0:0|0:0|0:0|0:0,0:0:0:0:
234,279,103714,1,0,1:0:0:0:
312,193,103885,1,8,0:0:0:0:
231,264,104057,2,0,L|238:143,1,112.500004291535,0|0,1:0|0:0,0:0:0:0:
317,100,104400,1,8,0:0:0:0:
223,247,104571,70,0,P|115:265|151:162,1,262.500010013581,0|0,1:0|0:0,0:0:0:0:
159,164,105257,1,8,0:0:0:0:
159,164,106028,2,0,L|155:252,1,75.0000028610231,0|0,1:0|0:0,0:0:0:0:
173,155,106285,2,0,L|169:243,1,75.0000028610231,0|0,1:0|0:0,0:0:0:0:
5,141,106628,1,8,0:0:0:0:
187,146,106800,2,0,L|183:234,1,75.0000028610231,0|0,1:0|0:0,0:0:0:0:
5,141,107143,1,8,0:0:0:0:
201,137,107314,6,0,B|201:223|201:223|155:278|155:278|165:338|222:350,1,262.500010013581,0|0,1:0|0:0,0:0:0:0:
228,348,108000,1,8,0:0:0:0:
307,59,108257,1,0,1:0:0:0:
340,290,108514,1,8,0:0:0:0:
167,241,108685,38,0,P|114:240|187:141,1,262.500010013581,0|0,1:0|0:0,0:0:0:0:
173,154,109371,6,0,P|106:180|166:219,1,176.999993788147,0|0,2:0|0:0,0:0:0:0:
256,105,110057,38,0,B|258:10|258:10|324:82,1,193.500002952576,4|0,1:0|0:0,0:0:0:0:
240,229,110400,2,0,B|151:253|151:253|166:219,1,129.000001968384,8|0,1:2|0:0,0:0:0:0:
325,83,110657,2,0,L|411:178,1,129.000001968384,0|0,1:0|0:0,0:0:0:0:
395,342,110914,2,0,B|352:353|352:353|316:324|316:324|268:338|268:338|225:312|225:312|179:323,1,238.500000363922,8|0,0:0|0:0,0:0:0:0:
147,143,111257,2,0,P|179:142|209:153,1,64.5000009841919,0|0,1:0|0:0,0:0:0:0:
166,219,111428,6,0,L|119:32,1,193.500002952576,2|0,1:2|0:0,0:0:0:0:
322,196,111771,2,0,P|323:259|282:307,1,129.000001968384,8|0,1:2|0:0,0:0:0:0:
149,213,112028,2,0,L|116:82,1,129.000001968384,0|0,1:0|0:0,0:0:0:0:
325,83,112285,1,8,0:0:0:0:
325,83,112371,70,0,L|323:176,1,79.000001928711,0|0,1:0|0:0,0:0:0:0:
308,169,112628,2,0,L|309:104,1,39.5000009643555,8|0,0:0|0:0,0:0:0:0:
312,10,112800,1,2,1:2:0:0:
432,137,112971,2,0,L|431:176,1,32.250000492096
443,150,113057,2,0,L|442:189,1,32.250000492096
454,161,113143,2,0,L|451:294,1,129.000001968384,8|0,0:0|0:0,0:0:0:0:
213,351,113400,2,0,P|204:280|243:241,1,129.000001968384,0|0,1:0|0:0,0:0:0:0:
318,307,113657,2,0,L|265:311,10,39.7500000606537,8|0|0|0|0|0|0|0|0|0|0,0:0|0:0|0:0|0:0|0:0|0:0|0:0|0:0|0:0|0:0|0:0,0:0:0:0:
213,351,114171,6,0,B|115:368|115:368|171:285,1,193.500002952576,0|0,1:0|0:0,0:0:0:0:
191,169,114514,6,8,L|180:124,1,44.7500006145477
221,154,114600,2,8,L|226:107,1,44.7500006145477
250,152,114685,2,8,L|270:110,1,44.7500006145477,8|8,0:0|0:0,0:0:0:0:
283,160,114771,2,8,L|316:127,1,44.7500006145477
318,179,114857,6,8,L|284:211,1,44.7500006145477
351,187,114942,2,8,L|330:228,1,44.7500006145477,8|8,0:0|0:0,0:0:0:0:
380,185,115028,2,8,L|374:231,1,44.7500006145477
410,170,115114,38,8,L|450:303,1,129.000001968384,0|0,1:0|0:0,0:0:0:0:
336,368,115371,2,8,L|317:306,1,64.5000009841919,8|0,1:2|0:0,0:0:0:0:
210,351,115543,2,0,P|121:340|102:251,1,193.500002952576,0|0,1:0|0:0,0:0:0:0:
225,109,115885,2,0,L|358:120,1,129.000001968384,8|0,1:2|0:0,0:0:0:0:
308,269,116143,2,0,L|175:280,1,129.000001968384,0|0,1:0|0:0,0:0:0:0:
144,70,116400,6,0,B|179:90|179:90|218:81|218:81|255:88|255:88|292:74|292:74|330:86|330:86|363:61,1,238.500000363922,8|0,0:0|0:0,0:0:0:0:
441,228,116743,2,0,P|419:254|386:256,1,64.5000009841919,0|0,1:0|0:0,0:0:0:0:
381,180,116914,2,0,P|455:150|518:246,1,193.500002952576,2|0,1:2|0:0,0:0:0:0:
501,365,117257,2,0,L|343:361,1,129.000001968384,8|0,1:2|0:0,0:0:0:0:
312,231,117514,2,0,L|441:228,1,129.000001968384,0|0,1:0|0:0,0:0:0:0:
372,361,117771,1,8,0:0:0:0:
346,361,117857,70,0,L|232:358,1,79.000001928711,0|0,1:0|0:0,0:0:0:0:
255,350,118114,2,0,L|294:349,1,39.5000009643555,8|0,0:0|0:0,0:0:0:0:
312,231,118285,1,2,1:2:0:0:
363,123,118457,2,0,L|397:122,1,32.250000492096
373,110,118543,2,0,L|404:109,1,32.250000492096
382,95,118628,2,0,L|510:91,1,129.000001968384,8|0,1:2|0:0,0:0:0:0:
495,295,118885,2,0,P|440:314|368:270,1,129.000001968384,0|0,1:0|0:0,0:0:0:0:
312,231,119143,2,0,B|228:185|160:228|160:228|192:241|207:273|207:273|248:193|229:141|194:117,1,397.500000606537,8|0,0:0|0:0,0:0:0:0:
109,83,119657,6,0,L|100:13,1,64.5000009841919,2|0,1:2|0:0,0:0:0:0:
65,166,119828,2,0,L|74:230,1,64.5000009841919,0|0,1:0|0:0,0:0:0:0:
35,355,120000,2,0,P|96:356|129:283,1,129.000001968384,8|0,0:2|0:0,0:0:0:0:
65,166,120257,2,0,P|54:107|109:83,1,129.000001968384,0|0,1:0|0:0,0:0:0:0:
195,117,120514,1,0,1:0:0:0:
227,116,120600,1,0,1:0:0:0:
258,116,120685,2,0,L|301:114,6,32.250000492096,8|8|8|8|8|8|8,0:0|0:0|0:0|0:0|0:0|0:0|0:0,0:0:0:0:
361,158,121028,70,0,P|442:159|473:205,1,129.000001968384,4|0,1:0|0:0,0:0:0:0:
417,316,121285,1,2,0:1:0:0:
397,291,121371,2,0,P|390:260|398:229,1,64.5000009841919,8|0,0:0|0:0,0:0:0:0:
454,101,121543,1,2,0:1:0:0:
468,129,121629,2,0,P|475:160|468:191,1,64.5000009841919,0|0,1:0|0:0,0:0:0:0:
320,225,121800,1,2,0:1:0:0:
291,239,121885,1,8,0:0:0:0:
261,252,121971,2,0,L|130:245,1,129.000001968384,2|0,0:1|0:0,0:0:0:0:
45,99,122228,2,0,L|84:101,2,32.250000492096,2|0|0,1:0|1:0|1:0,0:0:0:0:
100,119,122400,6,0,B|198:124|198:124|243:108|243:108|285:133,1,193.500002952576,2|0,1:2|0:0,0:0:0:0:
403,78,122743,2,0,L|458:111,1,64.5000009841919,8|0,0:0|0:0,0:0:0:0:
420,268,122914,1,0,0:0:0:0:
394,287,123000,2,0,P|331:284|295:234,1,129.000001968384,0|0,1:0|0:0,0:0:0:0:
276,40,123257,1,8,0:0:0:0:
304,24,123343,2,0,P|366:27|403:77,1,129.000001968384,0|0,1:0|0:0,0:0:0:0:
221,235,123600,2,0,P|215:191|231:160,1,64.5000009841919,8|0,0:0|0:0,0:0:0:0:
295,234,123771,70,0,P|274:292|212:312,1,129.000001968384,2|0,1:2|0:0,0:0:0:0:
94,226,124028,1,2,0:1:0:0:
126,228,124114,2,0,L|193:232,1,64.5000009841919,8|0,0:0|0:0,0:0:0:0:
239,147,124285,1,2,0:1:0:0:
272,145,124371,2,0,L|339:141,1,64.5000009841919,0|0,1:0|0:0,0:0:0:0:
501,212,124543,1,2,0:1:0:0:
484,239,124628,1,8,0:0:0:0:
465,265,124714,2,0,L|313:255,1,129.000001968384,2|0,0:1|0:0,0:0:0:0:
208,304,124971,2,0,L|167:303,2,32.250000492096,2|0|0,1:0|1:0|1:0,0:0:0:0:
201,322,125143,6,0,P|160:341|68:248,1,193.500002952576,2|0,1:2|0:0,0:0:0:0:
74,140,125485,6,8,L|63:95,1,44.7500006145477
104,125,125571,2,8,L|109:78,1,44.7500006145477
133,123,125656,2,8,L|153:81,1,44.7500006145477,8|8,0:0|0:0,0:0:0:0:
166,131,125742,2,8,L|199:98,1,44.7500006145477
201,150,125828,6,8,L|167:182,1,44.7500006145477
234,158,125913,2,8,L|213:199,1,44.7500006145477,8|8,0:0|0:0,0:0:0:0:
263,156,125999,2,8,L|257:202,1,44.7500006145477
293,141,126085,38,8,L|333:274,1,129.000001968384,0|0,1:0|0:0,0:0:0:0:
470,171,126343,2,0,P|462:133|431:107,1,64.5000009841919,8|0,0:0|0:0,0:0:0:0:
308,112,126514,6,8,L|348:245,1,129.000001968384,4|0,1:0|0:0,0:0:0:0:
387,339,126771,1,2,0:1:0:0:
414,322,126857,2,0,P|456:312|496:328,1,64.5000009841919,8|0,0:0|0:0,0:0:0:0:
274,312,127028,1,2,0:1:0:0:
244,325,127114,2,0,P|201:320|168:291,1,64.5000009841919,0|0,1:0|0:0,0:0:0:0:
47,78,127285,1,2,0:1:0:0:
66,105,127371,1,8,0:0:0:0:
87,130,127457,2,0,P|147:115|200:149,1,129.000001968384,2|0,0:1|0:0,0:0:0:0:
307,175,127714,2,0,L|343:164,2,32.250000492096,2|0|0,1:0|1:0|1:0,0:0:0:0:
311,149,127885,70,0,P|364:115|460:181,1,193.500002952576,2|0,1:2|0:0,0:0:0:0:
397,331,128228,2,0,L|320:314,1,64.5000009841919,8|0,0:0|0:0,0:0:0:0:
233,347,128400,1,0,0:0:0:0:
205,363,128485,2,0,P|143:369|97:327,1,129.000001968384,0|0,1:0|0:0,0:0:0:0:
161,136,128743,1,8,0:0:0:0:
173,165,128828,2,0,B|193:223|193:223|172:288,1,129.000001968384,0|0,1:0|0:0,0:0:0:0:
50,109,129085,2,0,B|39:76|39:76|49:47,1,64.5000009841919,8|0,0:0|0:0,0:0:0:0:
199,11,129257,6,0,L|333:21,1,129.000001968384,4|0,1:0|0:0,0:0:0:0:
441,119,129514,1,2,0:1:0:0:
456,147,129600,2,0,B|465:175|465:175|455:208,1,64.5000009841919,8|0,0:0|0:0,0:0:0:0:
249,168,129771,1,2,0:1:0:0:
256,142,129857,1,0,1:0:0:0:
261,113,129943,2,0,B|250:80|250:80|260:51,1,64.5000009841919,4|2,0:1|0:1,0:0:0:0:
352,194,130114,1,8,0:0:0:0:
364,223,130200,2,0,B|373:251|373:251|346:353,1,129.000001968384,2|0,0:1|0:0,0:0:0:0:
169,272,130457,2,0,P|160:241|166:209,1,64.5000009841919,2|0,0:1|0:0,0:0:0:0:
161,85,130628,70,0,L|66:72,1,96.7500014762879,4|0,1:0|0:0,0:0:0:0:
93,51,130800,2,0,L|188:64,1,96.4999976808548,2|0,1:3|0:0,0:0:0:0:
324,64,130971,2,0,L|419:51,1,96.4999976808548,8|0,1:2|0:0,0:0:0:0:
446,72,131143,2,0,L|351:85,1,96.7500014762879,2|0,1:3|0:0,0:0:0:0:
248,168,131314,6,0,L|240:208,1,32.250000492096
254,181,131400,2,0,L|246:221,1,32.250000492096
242,239,131485,70,0,L|250:279,1,32.250000492096,2|0,1:3|0:0,0:0:0:0:
236,252,131571,2,0,L|244:292,1,32.250000492096,2|0,0:3|0:0,0:0:0:0:
254,314,131657,6,0,L|248:345,6,32.250000492096,8|8|8|8|8|8|8,1:2|0:0|0:0|0:0|0:0|0:0|0:0,0:0:0:0:
256,371,132000,38,0,P|188:305|95:314,1,193.500002952576,4|0,1:0|0:0,0:0:0:0:
62,335,132343,1,8,0:0:0:0:
45,110,132514,1,0,0:0:0:0:
254,181,132685,1,0,0:0:0:0:
0,228,132857,1,0,1:0:0:0:
0,228,132943,1,0,0:0:0:0:
0,228,133028,1,8,0:0:0:0:
199,54,133200,1,0,0:0:0:0:
199,54,133285,6,0,B|328:49|328:49|383:92|383:92|297:99,1,258.000003936768,0|0,1:0|0:0,0:0:0:0:
254,181,133714,2,0,L|352:176,1,64.5000009841919,8|0,0:0|0:0,0:0:0:0:
408,174,133885,1,0,0:0:0:0:
408,174,133971,1,0,1:0:0:0:
408,174,134057,1,0,0:0:0:0:
274,352,134228,1,0,0:0:0:0:
274,352,134314,1,0,1:0:0:0:
274,352,134400,2,0,B|235:359|235:359|210:372|210:372|186:367|186:367|150:370,1,129.000001968384,8|0,0:0|0:0,0:0:0:0:
93,280,134657,1,0,0:0:0:0:
93,280,134743,70,0,L|221:266,1,129.000001968384,0|0,1:0|0:0,0:0:0:0:
359,40,135085,1,8,0:0:0:0:
60,18,135257,1,0,0:0:0:0:
164,261,135428,2,0,L|228:254,1,64.5000009841919
300,276,135600,2,0,L|364:269,1,64.5000009841919,0|0,1:0|0:0,0:0:0:0:
435,289,135771,1,8,0:0:0:0:
504,152,135943,1,0,0:0:0:0:
504,152,136028,6,0,P|506:96|434:33,1,129.000001968384,0|0,1:0|0:0,0:0:0:0:
348,125,136285,1,0,0:0:0:0:
348,125,136371,1,0,1:0:0:0:
348,125,136457,2,0,L|426:123,1,64.5000009841919,8|0,0:0|0:0,0:0:0:0:
263,57,136628,1,0,0:0:0:0:
263,57,136714,2,0,L|134:53,1,129.000001968384,0|0,1:0|0:0,0:0:0:0:
61,134,136971,2,0,P|50:169|65:223,1,64.5000009841919,0|0,1:0|0:0,0:0:0:0:
129,273,137143,2,0,L|173:271,6,32.250000492096,8|0|0|0|0|0|0,0:3|0:0|0:0|0:0|0:0|0:0|0:0,0:0:0:0:
123,281,137485,70,0,B|193:281|193:281|273:299|273:299|318:298,1,193.500002952576,0|0,1:0|0:0,0:0:0:0:
366,294,137828,1,8,0:0:0:0:
328,38,138000,1,0,0:0:0:0:
124,175,138171,1,0,0:0:0:0:
398,212,138343,1,0,1:0:0:0:
398,212,138428,1,0,0:0:0:0:
398,212,138514,1,8,0:0:0:0:
109,92,138685,1,0,0:0:0:0:
109,92,138771,6,0,P|39:150|146:256,1,258.000003936768,0|0,1:0|0:0,0:0:0:0:
201,309,139200,2,0,P|242:295|278:303,1,64.5000009841919,8|0,0:0|0:0,0:0:0:0:
344,336,139371,1,0,0:0:0:0:
344,336,139457,1,0,1:0:0:0:
344,336,139543,1,0,0:0:0:0:
318,164,139714,1,0,0:0:0:0:
318,164,139800,1,0,1:0:0:0:
318,164,139885,2,0,P|249:168|203:134,1,129.000001968384,8|0,0:0|0:0,0:0:0:0:
220,43,140143,1,0,0:0:0:0:
220,43,140228,70,0,L|346:73,1,129.000001968384,0|0,1:0|0:0,0:0:0:0:
345,356,140571,1,8,0:0:0:0:
125,177,140743,1,0,0:0:0:0:
412,27,140914,2,0,P|425:55|424:87,1,64.5000009841919
380,151,141085,2,0,P|393:179|392:211,1,64.5000009841919,0|0,1:0|0:0,0:0:0:0:
343,273,141257,1,8,0:0:0:0:
75,244,141428,1,0,0:0:0:0:
75,244,141514,6,0,P|40:193|120:92,1,193.500002952576,0|0,1:0|0:0,0:0:0:0:
189,172,141857,1,0,1:0:0:0:
189,172,141943,2,0,L|125:177,1,64.5000009841919,8|0,0:0|0:0,0:0:0:0:
102,94,142114,2,0,L|295:80,1,193.500002952576,0|0,1:0|0:0,0:0:0:0:
394,170,142457,2,0,B|406:200|387:247,1,64.5000009841919,2|0,0:3|0:0,0:0:0:0:
302,311,142628,2,0,L|262:308,6,32.250000492096,8|0|0|0|0|0|0,1:3|0:0|0:0|0:0|0:0|0:0|0:0,0:0:0:0:
307,320,142971,70,0,B|179:308|179:308|121:273,1,193.500002952576,4|0,1:0|0:0,0:0:0:0:
80,245,143314,1,8,0:0:0:0:
260,18,143485,1,0,0:0:0:0:
205,232,143657,1,0,0:0:0:0:
0,48,143828,1,0,1:0:0:0:
0,48,143914,1,0,0:0:0:0:
0,48,144000,1,8,0:0:0:0:
229,123,144171,1,0,0:0:0:0:
229,123,144257,6,0,B|289:111|289:111|332:148|332:148|413:125|455:195,1,258.000003936768,0|0,1:0|0:0,0:0:0:0:
376,295,144685,2,0,P|365:264|370:233,1,64.5000009841919,8|0,0:0|0:0,0:0:0:0:
452,74,144857,1,0,0:0:0:0:
452,74,144943,1,0,1:0:0:0:
452,74,145028,1,0,0:0:0:0:
469,280,145200,1,0,0:0:0:0:
469,280,145286,1,0,1:0:0:0:
469,280,145371,2,0,P|453:356|404:386,1,129.000001968384,8|0,0:0|0:0,0:0:0:0:
294,323,145628,1,0,0:0:0:0:
294,323,145714,70,0,L|154:345,1,129.000001968384,0|0,1:0|0:0,0:0:0:0:
80,60,146057,1,8,0:0:0:0:
364,104,146228,1,0,0:0:0:0:
156,352,146400,2,0,P|116:336|100:304,1,64.5000009841919
88,240,146571,2,0,P|92:196|116:168,1,64.5000009841919,0|0,1:0|0:0,0:0:0:0:
160,124,146743,1,8,0:0:0:0:
348,316,146914,1,0,0:0:0:0:
348,316,147000,6,0,L|208:294,1,129.000001968384,0|0,1:0|0:0,0:0:0:0:
160,124,147257,1,0,0:0:0:0:
164,128,147343,1,0,1:0:0:0:
168,132,147428,2,0,L|232:130,1,64.5000009841919,8|0,0:0|0:0,0:0:0:0:
216,288,147600,1,0,0:0:0:0:
204,292,147685,2,0,L|64:270,1,129.000001968384,0|0,1:0|0:0,0:0:0:0:
24,184,147943,2,0,L|22:119,1,64.5000009841919,0|0,1:0|0:0,0:0:0:0:
100,40,148114,2,0,L|132:39,6,32.250000492096,8|0|0|0|0|0|0,1:3|0:0|0:0|0:0|0:0|0:0|0:0,0:0:0:0:
118,53,148457,70,0,B|189:53|189:53|231:39|231:39|309:38,1,193.500002952576,0|0,1:0|0:0,0:0:0:0:
360,39,148800,1,8,0:0:0:0:
294,308,148971,1,0,0:0:0:0:
136,149,149143,1,0,0:0:0:0:
422,202,149314,1,0,1:0:0:0:
422,202,149400,1,0,0:0:0:0:
422,202,149485,1,8,0:0:0:0:
222,365,149657,1,0,0:0:0:0:
222,365,149743,6,0,B|144:378|144:378|131:259|242:252,1,258.000003936768,0|0,1:0|0:0,0:0:0:0:
294,308,150171,2,0,B|362:306,1,64.5000009841919,8|0,0:0|0:0,0:0:0:0:
440,308,150343,1,0,0:0:0:0:
440,308,150428,1,0,1:0:0:0:
440,308,150514,1,0,0:0:0:0:
481,157,150686,1,0,0:0:0:0:
481,157,150771,1,0,1:0:0:0:
481,157,150857,2,0,L|345:150,1,129.000001968384,8|0,0:0|0:0,0:0:0:0:
284,188,151114,1,0,0:0:0:0:
284,188,151200,70,0,P|220:183|172:130,1,129.000001968384,0|0,1:0|0:0,0:0:0:0:
416,108,151543,1,8,0:0:0:0:
279,321,151714,1,0,0:0:0:0:
81,164,151885,2,0,P|80:128|87:101,1,64.5000009841919
142,47,152057,2,0,P|176:42|213:50,1,64.5000009841919,0|0,1:0|0:0,0:0:0:0:
276,85,152228,1,8,0:0:0:0:
84,334,152400,1,0,0:0:0:0:
84,334,152485,1,0,1:0:0:0:
84,334,152571,6,0,B|30:337|6:291|6:291|45:316|112:305,1,193.500002952576,4|0,1:0|0:0,0:0:0:0:
264,216,152914,2,0,B|309:210|361:230|361:230|337:184|283:187,1,193.500002952576,8|0,0:0|0:0,0:0:0:0:
74,220,153257,1,4,1:0:0:0:
299,322,153429,69,8,0:1:0:0:
324,326,153514,1,0,0:0:0:0:
361,229,153600,5,4,1:0:0:0:
386,227,153685,1,0,0:0:0:0:
286,142,153771,69,8,0:1:0:0:
311,141,153856,1,8,0:1:0:0:
355,42,153943,22,0,B|433:39|433:39|494:91,1,159.000000242615,6|2,1:0|0:3,0:0:0:0:
292,248,154286,1,8,0:2:0:0:
281,218,154371,2,0,P|274:179|286:142,1,79.5000001213074,2|0,0:1|0:0,0:0:0:0:
355,43,154543,2,0,P|284:67|209:28,1,159.000000242615,2|0,0:1|0:0,0:0:0:0:
28,113,154800,2,0,P|90:106|146:129,1,79.5000001213074,2|0,1:3|0:0,0:0:0:0:
171,227,154971,1,8,0:0:0:0:
202,224,155057,2,0,L|285:218,1,79.5000001213074,2|0,0:1|0:0,0:0:0:0:
391,330,155228,6,0,P|459:316|482:238,1,159.000000242615,2|0,1:0|0:0,0:0:0:0:
316,299,155485,2,0,P|308:346|329:382,1,79.5000001213074,2|0,0:3|0:0,0:0:0:0:
171,227,155657,1,8,0:0:0:0:
136,230,155743,2,0,L|48:224,1,79.5000001213074,2|0,0:1|0:0,0:0:0:0:
0,36,155914,2,0,P|74:24|160:41,1,159.000000242615,2|0,1:0|0:0,0:0:0:0:
257,129,156171,69,2,0:1:0:0:
283,146,156257,1,0,1:0:0:0:
311,160,156343,2,0,L|398:145,1,79.5000001213074,8|0,0:0|0:0,0:0:0:0:
512,199,156514,2,0,L|484:273,1,79.5000001213074,2|0,0:1|0:0,0:0:0:0:
380,354,156685,2,0,P|299:287|222:305,1,159.000000242615,2|2,1:0|0:3,0:0:0:0:
43,111,157028,5,8,0:0:0:0:
70,127,157114,2,0,L|158:123,1,79.5000001213074,2|0,0:1|0:0,0:0:0:0:
233,64,157285,2,0,P|291:93|378:50,1,159.000000242615,2|0,0:1|0:0,0:0:0:0:
482,16,157543,2,0,L|467:100,1,79.5000001213074,2|0,0:3|0:0,0:0:0:0:
360,244,157714,1,8,0:0:0:0:
366,275,157800,2,0,L|381:359,1,79.5000001213074,2|0,0:1|0:0,0:0:0:0:
236,190,157971,70,0,B|123:128|119:256|12:190,1,238.500000363922,2|2,1:0|0:3,0:0:0:0:
44,20,158314,1,0,1:0:0:0:
53,34,158400,1,8,0:0:0:0:
58,48,158486,2,0,P|70:86|69:126,1,79.5000001213074,2|0,0:1|0:0,0:0:0:0:
181,256,158657,2,0,P|189:320|285:303,1,159.000000242615,2|0,1:1|0:0,0:0:0:0:
388,256,158914,2,0,P|333:246|282:269,1,79.5000001213074,2|0,1:0|0:0,0:0:0:0:
138,191,159085,2,0,P|193:181|244:204,1,79.5000001213074,8|0,0:3|0:0,0:0:0:0:
471,156,159257,1,2,0:3:0:0:
441,142,159343,1,2,0:3:0:0:
411,132,159428,6,0,B|372:121|334:127|334:127|298:107|256:105,1,159.000000242615,2|2,1:0|0:3,0:0:0:0:
76,248,159771,1,8,0:0:0:0:
105,261,159857,2,0,P|144:269|181:256,1,79.5000001213074,2|0,0:1|0:1,0:1:0:0:
270,324,160028,2,0,P|346:320|388:256,1,159.000000242615,2|0,0:1|0:0,0:0:0:0:
305,168,160285,2,0,P|296:207|304:246,1,79.5000001213074,2|0,1:3|0:0,0:0:0:0:
453,318,160457,1,8,0:0:0:0:
468,290,160543,2,0,P|475:251|466:212,1,79.5000001213074,2|0,0:1|0:0,0:0:0:0:
320,140,160714,70,0,B|280:143|280:143|201:123|201:123|164:129,1,159.000000242615,2|0,1:0|0:0,0:0:0:0:
19,98,160971,2,0,P|0:52|7:15,1,79.5000001213074,2|0,0:3|0:0,0:0:0:0:
171,24,161143,1,8,0:0:0:0:
180,55,161228,2,0,P|182:94|164:129,1,79.5000001213074,2|0,0:1|0:0,0:0:0:0:
77,238,161400,2,0,B|117:241|117:241|196:221|196:221|233:227,1,159.000000242615,2|0,1:0|0:0,0:0:0:0:
353,273,161657,5,2,0:1:0:0:
384,266,161743,1,0,1:0:0:0:
414,259,161828,2,0,L|500:235,1,79.5000001213074,8|0,0:0|0:0,0:0:0:0:
512,112,162000,2,0,L|491:35,1,79.5000001213074,2|0,0:1|0:0,0:0:0:0:
360,64,162171,2,0,B|320:114|320:114|269:134|229:104,1,159.000000242615,2|2,1:1|0:3,0:0:0:0:
77,238,162514,69,8,0:0:0:0:
106,225,162600,2,0,P|145:217|182:230,1,79.5000001213074,2|0,0:1|0:1,0:1:0:0:
293,276,162771,2,0,B|333:279|333:279|412:259|412:259|449:265,1,159.000000242615,2|0,0:1|0:0,0:0:0:0:
352,369,163028,2,0,B|328:373|328:373|252:366,1,79.5000001213074,2|0,1:3|0:0,0:0:0:0:
360,181,163200,1,8,0:0:0:0:
388,171,163285,2,0,B|413:164|413:164|485:179,1,79.5000001213074,2|0,0:1|0:0,0:0:0:0:
363,359,163457,6,0,B|327:366|327:366|162:348|162:348|126:357,1,238.500000363922,2|2,1:1|0:3,0:0:0:0:
43,233,163800,1,0,1:0:0:0:
28,204,163885,2,0,P|21:162|36:123,1,79.5000001213074,8|2,0:0|0:1,0:0:0:0:
120,85,164057,2,0,L|209:94,1,79.5000001213074,0|2,1:0|0:1,0:0:0:0:
287,87,164228,69,4,1:1:0:0:
287,87,164400,2,0,P|299:49|291:10,1,79.5000001213074,10|0,0:1|0:1,0:0:0:0:
361,223,164571,2,0,L|440:227,1,79.5000001213074,0|0,0:1|0:1,0:0:0:0:
225,297,164743,2,0,P|212:334|220:373,1,79.5000001213074,2|0,1:1|0:1,0:0:0:0:
151,161,164914,2,0,B|71:156|71:156|17:214,1,159.000000242615,6|2,0:1|0:3,0:0:0:0:
225,297,165257,5,8,0:0:0:0:
239,268,165343,2,0,P|246:229|234:191,1,79.5000001213074,2|0,0:1|0:1,0:0:0:0:
148,152,165514,2,0,B|68:147|68:147|14:205,1,159.000000242615,2|0,0:1|0:0,0:0:0:0:
103,314,165771,2,0,P|111:275|106:236,1,79.5000001213074,2|0,1:3|0:0,0:0:0:0:
51,127,165943,1,8,0:0:0:0:
39,96,166028,2,0,P|30:57|35:18,1,79.5000001213074,2|0,0:1|0:0,0:0:0:0:
163,0,166200,70,0,B|208:2|208:2|260:48|260:48|305:50,1,159.000000242615,2|0,1:1|0:0,0:0:0:0:
381,123,166457,2,0,P|420:133|458:124,1,79.5000001213074,2|0,0:3|0:0,0:0:0:0:
288,160,166628,1,8,0:0:0:0:
291,191,166714,2,0,P|322:250|378:262,1,79.5000001213074,2|0,0:1|0:0,0:0:0:0:
182,140,166885,2,0,P|134:202|139:280,1,159.000000242615,2|0,1:0|0:0,0:0:0:0:
249,369,167143,5,2,0:1:0:0:
279,362,167228,1,0,1:0:0:0:
310,358,167314,2,0,L|394:347,1,79.5000001213074,8|0,0:0|0:0,0:0:0:0:
496,276,167485,2,0,L|412:265,1,79.5000001213074,2|0,0:1|0:0,0:0:0:0:
215,202,167657,2,0,L|372:181,1,159.000000242615,2|2,1:0|0:3,0:0:0:0:
127,27,168000,69,8,0:0:0:0:
96,23,168086,2,0,L|12:12,1,79.5000001213074,2|0,0:1|0:0,0:0:0:0:
36,142,168257,2,0,P|125:144|178:85,1,159.000000242615,2|0,0:1|0:0,0:0:0:0:
275,115,168514,2,0,L|355:103,1,79.5000001213074,2|0,1:3|0:0,0:0:0:0:
417,265,168685,1,8,0:0:0:0:
385,263,168771,2,0,L|301:252,1,79.5000001213074,2|0,0:1|0:0,0:0:0:0:
141,277,168943,6,0,P|47:300|123:359,1,238.500000363922,2|2,1:1|0:3,0:0:0:0:
211,199,169285,1,0,1:0:0:0:
209,167,169371,1,8,0:0:0:0:
206,135,169457,2,0,L|198:48,1,79.5000001213074,2|0,0:1|0:0,0:0:0:0:
329,20,169628,2,0,L|314:178,1,159.000000242615,2|0,1:0|0:0,0:0:0:0:
213,304,169885,2,0,P|174:298|140:276,1,79.5000001213074,2|0,1:0|0:0,0:0:0:0:
385,263,170057,2,0,P|410:232|422:195,1,79.5000001213074,8|0,0:3|0:0,0:0:0:0:
182,379,170228,1,2,0:3:0:0:
150,376,170314,1,2,0:3:0:0:
120,364,170400,70,0,P|67:321|34:234,1,159.000000242615,6|2,1:0|0:3,0:0:0:0:
198,94,170743,1,8,0:0:0:0:
212,121,170828,2,0,P|216:179|198:222,1,79.5000001213074,2|0,0:1|0:0,0:0:0:0:
213,304,171000,2,0,P|298:303|359:345,1,159.000000242615,2|0,0:1|0:0,0:0:0:0:
461,246,171257,2,0,L|480:153,1,79.5000001213074,0|0,1:0|0:0,0:0:0:0:
336,39,171428,1,8,0:0:0:0:
318,67,171514,2,0,P|305:126|340:181,1,79.5000001213074,2|0,0:1|0:0,1:0:0:0:
468,262,171685,1,2,0:1:0:0:
476,231,171771,6,0,L|507:75,1,159.000000242615,4|0,1:0|0:0,0:0:0:0:
228,78,172114,1,8,0:0:0:0:
223,109,172200,2,0,P|231:169|249:193,1,79.5000001213074,2|0,0:1|0:0,0:0:0:0:
385,101,172371,2,0,B|347:99|347:99|263:80|263:80|220:78,1,159.000000242615,2|0,1:0|0:0,0:0:0:0:
82,138,172628,1,2,0:1:0:0:
59,115,172714,1,0,1:1:0:0:
45,86,172800,2,0,P|34:45|46:8,1,79.5000001213074,8|0,0:0|0:1,0:1:0:0:
111,168,172971,2,0,P|121:205|110:243,1,79.5000001213074,2|0,0:1|0:1,0:1:0:0:
71,335,173143,70,0,L|236:325,1,159.000000242615,6|0,1:0|0:0,0:0:0:0:
377,34,173485,1,8,0:0:0:0:
345,39,173571,2,0,L|261:49,1,79.5000001213074,2|0,0:1|0:0,0:0:0:0:
82,138,173743,1,2,0:1:0:0:
113,142,173829,2,0,L|197:152,1,79.5000001213074,4|0,1:0|0:0,0:0:0:0:
287,160,174000,2,0,L|371:170,1,79.5000001213074,0|0,1:0|0:0,0:0:0:0:
470,294,174171,1,8,0:0:0:0:
438,298,174257,2,0,L|354:308,1,79.5000001213074,2|0,0:1|0:0,0:0:0:0:
229,325,174428,1,2,1:1:0:0:
197,330,174514,5,4,1:0:0:0:
156,47,174685,1,8,0:0:0:0:
156,47,174771,1,0,1:0:0:0:
156,47,174857,1,8,0:0:0:0:
411,88,175028,1,8,0:0:0:0:
116,213,175200,1,8,0:0:0:0:
116,213,175285,1,8,0:0:0:0:
116,213,175371,1,10,0:1:0:0:
440,250,175543,1,10,0:1:0:0:
73,377,175714,1,10,0:1:0:0:
73,377,175799,1,8,0:1:0:0:
73,377,175885,22,0,P|68:336|99:300,1,88.4999968940736,4|0,1:0|0:0,0:0:0:0:
173,280,176228,6,0,P|226:336|279:332,1,129.000001968384
314,255,176485,2,0,L|243:259,1,64.5000009841919
173,280,176657,1,0,0:0:0:0:
96,301,176743,2,0,L|85:230,1,64.5000009841919,8|0,0:0|0:0,0:0:0:0:
160,79,176914,38,0,B|231:37|327:101|327:179|327:179|260:182,1,298.500007401467,8|0,0:0|0:0,0:0:0:0:
159,187,177257,70,0,L|143:90,1,88.4999968940736,4|0,1:0|0:0,0:0:0:0:
287,49,177600,2,0,P|337:88|367:185,1,159.000000242615,8|0,0:0|0:0,0:0:0:0:
176,206,177857,2,0,L|165:142,1,64.5000009841919,0|0,1:0|0:0,0:0:0:0:
191,226,178028,2,0,L|180:162,1,64.5000009841919
53,193,178200,5,0,1:0:0:0:
40,163,178285,2,0,L|29:226,1,64.5000009841919,8|0,0:0|0:0,0:0:0:0:
26,135,178456,2,0,L|15:198,1,64.5000009841919
115,378,178628,70,0,L|203:363,1,88.4999968940736,0|0,1:0|0:0,0:0:0:0:
190,177,178971,2,0,P|118:152|53:193,1,159.000000242615,8|0,0:0|0:0,0:0:0:0:
142,350,179228,2,0,L|268:328,1,129.000001968384,0|0,1:0|0:0,0:0:0:0:
255,40,179485,1,0,0:0:0:0:
300,350,179657,6,0,B|358:338|358:338|418:343|418:343|474:335|504:268|475:216,1,268.500003687286,8|0,0:0|0:0,0:0:0:0:
413,168,180000,69,0,1:0:0:0:
191,162,180171,1,0,1:0:0:0:
421,176,180343,5,8,0:0:0:0:
335,139,180428,2,0,P|300:134|266:146,1,64.5000009841919
196,173,180600,2,0,P|161:178|127:166,1,64.5000009841919,0|0,1:0|0:0,0:0:0:0:
70,107,180771,2,0,L|62:33,1,64.5000009841919
210,45,180943,1,0,1:0:0:0:
213,57,181028,70,0,L|210:112,6,32.250000492096,8|0|0|0|0|0|0,0:3|0:0|0:0|0:0|0:0|0:0|0:0,0:0:0:0:
272,142,181371,6,0,L|272:232,1,88.4999968940736,0|0,1:0|0:0,0:0:0:0:
456,237,181714,2,0,P|470:145|437:77,1,159.000000242615,8|0,0:0|0:0,0:0:0:0:
221,170,181971,2,0,L|269:292,1,129.000001968384,0|0,1:0|0:0,0:0:0:0:
378,179,182228,1,0,0:0:0:0:
110,21,182400,70,0,B|60:47|77:112|77:112|129:146|129:146|156:198|122:239,1,268.500003687286,8|0,0:0|0:0,0:0:0:0:
180,296,182743,6,0,L|270:290,1,88.4999968940736,0|0,1:0|0:0,0:0:0:0:
437,120,183085,2,0,P|382:94|297:160,1,159.000000242615,8|0,0:0|0:0,0:0:0:0:
207,319,183343,2,0,L|297:313,1,64.5000009841919,0|0,1:0|0:0,0:0:0:0:
236,336,183514,2,0,L|326:330,1,64.5000009841919
432,212,183685,69,0,1:0:0:0:
407,196,183771,2,0,L|317:202,1,64.5000009841919,8|0,0:0|0:0,0:0:0:0:
378,179,183942,2,0,L|288:185,1,64.5000009841919
202,121,184114,6,0,B|175:123|175:123|145:140|145:140|117:141,1,88.4999968940736,0|0,1:0|0:0,0:0:0:0:
76,349,184457,2,0,P|142:371|210:304,1,159.000000242615,8|0,0:0|0:0,0:0:0:0:
257,102,184714,2,0,L|121:107,1,129.000001968384,0|0,1:0|0:0,0:0:0:0:
130,285,184971,1,0,0:0:0:0:
429,233,185143,70,0,B|419:169|461:139|461:139|504:127|504:127|487:64|487:64|426:77,1,268.500003687286,8|0,0:0|0:0,0:0:0:0:
348,37,185485,5,0,1:0:0:0:
64,103,185657,1,0,1:0:0:0:
356,44,185828,69,8,0:0:0:0:
298,106,185914,2,0,P|262:116|225:108,1,64.5000009841919
159,80,186085,2,0,P|108:81|57:136,1,129.000001968384,0|0,1:0|0:0,0:0:0:0:
102,216,186343,21,0,0:0:0:0:
122,212,186429,1,0,0:0:0:0:
234,253,186515,5,0,0:0:0:0:
254,257,186601,1,0,0:0:0:0:
365,203,186686,69,0,0:0:0:0:
386,199,186772,2,0,L|408:196,1,14.7499994823456
489,303,186857,54,0,P|448:332|404:324,1,88.4999968940736,4|0,1:0|0:0,0:0:0:0:
262,184,187200,2,0,L|422:193,1,159.000000242615,8|0,0:0|0:0,0:0:0:0:
476,351,187457,2,0,P|420:362|358:325,1,129.000001968384,0|0,1:0|0:0,0:0:0:0:
426,90,187714,1,0,0:0:0:0:
431,278,187885,6,0,B|359:328|359:328|260:297|260:297|180:344,1,268.500003687286,8|0,0:0|0:0,0:0:0:0:
112,314,188228,70,0,P|75:275|70:237,1,88.4999968940736,0|0,1:0|0:0,0:0:0:0:
250,113,188571,2,0,L|259:275,1,159.000000242615,8|0,0:0|0:0,0:0:0:0:
46,282,188828,2,0,P|51:234|74:200,1,64.5000009841919,0|0,1:0|0:0,0:0:0:0:
32,255,189000,2,0,P|53:211|86:187,1,64.5000009841919
224,167,189171,5,0,1:0:0:0:
236,140,189257,2,0,P|231:92|208:58,1,64.5000009841919,8|0,0:0|0:0,0:0:0:0:
250,113,189429,2,0,P|228:69|195:45,1,64.5000009841919
173,240,189600,70,0,P|214:256|257:248,1,88.4999968940736,0|0,1:0|0:0,0:0:0:0:
359,22,189943,2,0,L|200:43,1,159.000000242615,8|0,0:0|0:0,0:0:0:0:
177,324,190200,2,0,P|240:331|311:300,1,129.000001968384,0|0,1:0|0:0,0:0:0:0:
224,167,190457,2,0,L|159:156,1,64.5000009841919
63,199,190628,6,0,B|7:190|7:190|12:247|74:280|144:278|173:240,1,268.500003687286,8|0,0:0|0:0,0:0:0:0:
213,156,190971,69,0,1:0:0:0:
455,152,191143,1,0,1:0:0:0:
203,145,191314,1,8,0:0:0:0:
292,132,191400,2,0,P|324:137|354:150,1,64.5000009841919
445,141,191571,2,0,P|482:142|513:130,1,64.5000009841919,0|0,1:0|0:0,0:0:0:0:
452,244,191743,2,0,L|465:314,1,64.5000009841919
361,290,191914,1,0,1:0:0:0:
359,307,192000,2,0,L|358:330,2,14.7499994823456,8|0|0,0:0|0:0|0:0,0:0:0:0:
262,305,192171,2,0,L|255:327,2,14.7499994823456,4|0|0,0:0|0:0|0:0,0:0:0:0:
144,285,192343,6,0,P|101:262|86:221,1,88.4999968940736,4|0,0:0|0:0,0:0:0:0:
211,95,192685,2,0,L|301:232,1,159.000000242615,8|0,0:0|0:0,0:0:0:0:
87,267,192943,2,0,P|56:211|63:141,1,129.000001968384,0|0,1:0|0:0,0:0:0:0:
290,71,193200,1,0,0:0:0:0:
433,336,193371,70,0,B|371:345|323:305|323:305|255:319|214:262|218:226,1,268.500003687286,8|0,0:0|0:0,0:0:0:0:
334,152,193714,6,0,P|327:195|298:228,1,88.4999968940736,0|0,1:0|0:0,0:0:0:0:
119,280,194057,2,0,L|137:105,1,159.000000242615,8|0,0:0|0:0,0:0:0:0:
324,90,194314,2,0,P|335:121|334:153,1,64.5000009841919,0|0,1:0|0:0,0:0:0:0:
340,75,194485,2,0,P|351:106|350:138,1,64.5000009841919
247,236,194657,69,0,1:0:0:0:
228,243,194742,2,0,P|216:274|217:306,1,64.5000009841919,8|0,0:0|0:0,0:0:0:0:
210,250,194914,2,0,P|198:281|199:313,1,64.5000009841919
167,175,195085,6,0,P|168:142|136:98,1,88.4999968940736,0|0,1:0|0:0,0:0:0:0:
11,141,195428,2,0,L|41:305,1,159.000000242615,8|0,0:0|0:0,0:0:0:0:
247,124,195685,2,0,P|234:83|168:26,1,129.000001968384,0|0,1:0|0:0,0:0:0:0:
91,159,195943,2,0,L|106:243,1,64.5000009841919
199,312,196114,70,0,B|229:329|248:369|248:369|259:342|279:321|279:321|303:329|320:351|320:351|321:310|350:275,1,268.500003687286,8|0,0:0|0:0,0:0:0:0:
307,207,196457,6,0,P|298:168|310:117,1,89.5000012290955,4|0,1:0|0:0,0:0:0:0:
452,21,196628,2,0,P|465:64|450:111,1,89.5000012290955,0|0,1:0|0:0,0:0:0:0:
225,237,196800,70,0,L|42:239,1,179.000002458191,12|0,1:0|0:0,0:0:0:0:
19,59,197057,2,0,B|172:5|130:117|277:60,1,268.500003687286,4|0,1:0|0:0,0:0:0:0:
