osu file format v14

[General]
AudioFilename: audio.mp3
AudioLeadIn: 0
PreviewTime: 88115
Countdown: 0
SampleSet: Soft
StackLeniency: 0.7
Mode: 2
LetterboxInBreaks: 0
EpilepsyWarning: 1
WidescreenStoryboard: 1

[Editor]
DistanceSpacing: 0.9
BeatDivisor: 4
GridSize: 4
TimelineZoom: 2.099999

[Metadata]
Title:Algebra
TitleUnicode:Algebra
Artist:Function Phantom
ArtistUnicode:Function Phantom
Creator:Spectator
Version:Sinnoh's Platter
Source:osu!
Tags:alienflybot AFB Sinnoh CLSW Minato Yukina featured artist dubstep drumstep wub
BeatmapID:1442004
BeatmapSetID:468281

[Difficulty]
HPDrainRate:5
CircleSize:3.5
OverallDifficulty:8
ApproachRate:8
SliderMultiplier:1.8
SliderTickRate:2

[Events]
//Background and Video events
0,0,"never_letting_go_by_nanomortis-d9i37dg_.png",0,0
//Break Periods
2,131790,141687
//Storyboard Layer 0 (Background)
//Storyboard Layer 1 (Fail)
//Storyboard Layer 2 (Pass)
//Storyboard Layer 3 (Foreground)
//Storyboard Sound Samples

[TimingPoints]
1421,338.983050847458,4,2,1,40,1,0
1590,-100,4,2,1,20,0,0
12268,-100,4,2,1,30,0,0
17692,-100,4,1,1,10,0,0
18370,-100,4,1,1,15,0,0
19048,-100,4,1,1,20,0,0
19556,-100,4,1,1,30,0,0
20404,-100,4,1,1,35,0,0
21336,-100,4,1,1,40,0,0
21759,-100,4,2,1,50,0,0
21929,-100,4,2,1,5,0,0
22098,-100,4,2,1,50,0,0
22268,-100,4,2,1,5,0,0
22437,-100,4,2,1,50,0,0
22607,-100,4,2,1,5,0,0
22776,-100,4,2,1,40,0,0
23115,-100,4,1,1,50,0,0
44810,-100,4,1,1,50,0,0
60912,-100,4,1,1,20,0,0
62437,-100,4,1,1,15,0,0
65149,-100,4,2,1,30,0,0
65488,-100,4,2,1,5,0,0
65658,-100,4,2,1,25,0,0
65827,-100,4,2,1,20,0,0
65997,-100,4,2,1,15,0,0
66166,-100,4,2,1,10,0,0
66505,-100,4,2,1,50,0,0
80065,-100,4,2,1,55,0,0
82776,-100,4,2,1,60,0,0
85488,-100,4,2,1,65,0,0
86844,-100,4,2,1,70,0,0
87522,-100,4,2,1,75,0,0
88200,-100,4,1,1,70,0,1
88285,-100,4,1,1,70,0,0
109895,-100,4,1,1,60,0,0
120743,-100,4,1,1,25,0,0
130573,-100,4,1,1,20,0,0
130912,-100,4,1,1,15,0,0
131251,-100,4,1,1,10,0,0
131590,-100,4,1,1,25,0,0
142437,-100,4,2,1,5,0,0
143793,-100,4,2,1,10,0,0
145149,-100,4,2,1,15,0,0
146505,-100,4,2,1,20,0,0
147861,-100,4,2,1,25,0,0
149217,-100,4,2,1,30,0,0
150573,-100,4,2,1,35,0,0
151929,-100,4,2,1,40,0,0
152607,-100,4,2,1,10,0,0
153285,-100,4,2,1,50,0,0
169556,-100,4,2,1,50,0,0
170912,-100,4,2,1,55,0,0
172268,-100,4,2,1,60,0,0
172607,-100,4,2,1,65,0,0
172946,-100,4,2,1,70,0,0
173285,-100,4,2,1,75,0,0
173624,-100,4,2,1,80,0,0
173963,-100,4,2,1,60,0,0
174598,-100,4,2,1,65,0,0
174980,-100,4,1,1,70,0,1
175065,-100,4,1,1,70,0,0
196675,-100,4,1,1,75,0,1
196759,-100,4,1,1,75,0,0
212946,-100,4,1,1,50,0,0
214302,-100,4,1,1,55,0,0
215658,-100,4,1,1,60,0,0
215997,-100,4,1,1,65,0,0
216336,-100,4,1,1,70,0,0
216675,-100,4,1,1,75,0,0
217014,-100,4,1,1,80,0,0
217098,-100,4,1,1,60,0,0
218370,-100,4,2,1,50,0,0
231929,-100,4,2,1,55,0,0
234641,-100,4,2,1,60,0,0
237353,-100,4,2,1,65,0,0
238709,-100,4,2,1,70,0,0
239387,-100,4,2,1,75,0,0
240065,-100,4,2,1,60,0,0

[Colours]
Combo1 : 121,111,213
Combo2 : 247,108,125
Combo3 : 243,141,103
Combo4 : 124,186,216

[HitObjects]
228,268,1421,5,0,0:0:0:0:
208,180,1675,1,0,0:0:0:0:
344,164,1929,1,0,0:0:0:0:
364,252,2183,1,0,0:0:0:0:
228,224,2437,6,0,L|328:132,1,135
465,131,2945,2,0,L|332:49,1,135
220,112,3454,2,0,L|101:176,2,135
320,256,4133,6,0,L|328:68,1,180
224,280,4641,2,0,L|232:92,1,180
128,320,5149,2,0,L|136:132,1,180
229,199,5658,6,0,P|270:170|203:68,1,180
138,200,6166,2,0,P|97:171|164:69,1,180
380,224,6844,5,0,0:0:0:0:
396,143,7098,1,0,0:0:0:0:
260,127,7352,1,0,0:0:0:0:
240,215,7606,1,0,0:0:0:0:
371,246,7861,6,0,L|264:365,3,135,0|0|0|0,0:0|0:0|0:0|0:0,0:0:0:0:
149,309,8878,2,0,L|28:228,2,135
234,289,9556,6,0,L|214:100,1,180
330,313,10065,2,0,L|310:124,1,180
426,353,10573,6,0,L|406:164,1,180
311,161,11082,2,0,L|121:84,1,180
215,138,11590,2,0,L|405:61,1,180
117,153,12268,6,0,P|70:198|72:264,1,135
207,278,12776,2,0,P|244:210|222:156,1,135
96,156,13285,1,0,0:0:0:0:
225,160,13538,1,0,0:0:0:0:
355,159,13793,1,0,0:0:0:0:
479,160,14048,1,0,0:0:0:0:
334,272,14302,2,0,L|190:366,2,135
409,251,14980,6,0,P|402:165|306:144,1,180
227,168,15488,2,0,P|234:82|330:61,1,180
396,65,15997,2,0,L|215:190,1,180
174,204,16505,2,0,L|355:329,1,180
246,346,17014,2,0,P|190:325|247:254,1,180
501,246,17692,5,0,0:0:0:0:
340,215,18031,1,0,0:0:0:0:
424,185,18200,2,0,P|463:171|392:91,1,180
307,73,18709,1,0,0:0:0:0:
92,104,19217,2,0,L|206:51,2,90
255,217,19895,1,0,0:0:0:0:
362,187,20065,1,0,0:0:0:0:
178,306,20404,6,0,P|174:226|267:168,1,180
344,168,20912,2,0,P|342:92|226:72,1,180
130,74,21421,1,0,0:0:0:0:
287,196,21759,6,0,L|285:173,1,15
148,163,22098,2,0,L|150:145,1,15
27,130,22437,2,0,L|34:108,1,15
143,255,22776,1,0,0:0:0:0:
123,209,22860,1,0,0:0:0:0:
107,164,22945,1,0,0:0:0:0:
341,191,23115,6,0,P|393:172|319:109,1,180
229,98,23624,2,0,L|154:46,2,90
469,213,24132,2,0,P|472:65|449:16,1,180
360,32,24641,1,0,0:0:0:0:
275,173,24810,2,0,L|266:75,1,90
371,173,25149,2,0,L|265:188,2,90
84,256,25827,6,0,P|84:193|210:156,1,180
270,136,26336,2,0,P|320:167|259:252,1,180
158,124,26844,2,0,L|150:21,1,90
426,260,27183,6,0,P|474:243|409:168,1,180
315,156,27691,1,0,0:0:0:0:
79,260,27861,2,0,P|31:243|96:168,1,180
190,156,28369,1,0,0:0:0:0:
436,169,28539,6,0,P|436:86|335:61,1,180
253,58,29048,2,0,L|251:166,1,90
351,208,29387,1,0,0:0:0:0:
112,310,29556,2,0,L|29:258,1,90
116,201,29895,5,0,0:0:0:0:
304,152,30234,1,0,0:0:0:0:
116,153,30573,2,0,L|201:83,2,90
423,213,31251,6,0,P|462:164|428:102,1,135
393,85,31590,1,0,0:0:0:0:
313,260,31759,2,0,L|475:161,1,180
383,151,32268,1,0,0:0:0:0:
106,171,32607,5,0,0:0:0:0:
198,70,32776,1,0,0:0:0:0:
162,68,32860,1,0,0:0:0:0:
126,66,32945,1,0,0:0:0:0:
444,240,33115,2,0,P|494:213|409:149,1,180
343,68,33624,1,0,0:0:0:0:
386,55,33708,1,0,0:0:0:0:
429,42,33793,1,0,0:0:0:0:
171,244,33963,6,0,P|90:210|75:104,1,180
180,109,34471,1,0,0:0:0:0:
74,142,34641,2,0,L|80:28,1,90
343,283,34980,6,0,P|369:194|316:94,1,180
247,100,35488,1,0,0:0:0:0:
156,62,35658,2,0,L|248:6,1,90
340,62,35997,2,0,L|247:10,2,90
77,279,36675,6,0,P|72:216|178:160,1,180
252,161,37183,2,0,P|332:130|351:46,1,180
250,43,37692,1,0,0:0:0:0:
479,203,38031,6,0,L|287:117,1,180
235,96,38539,1,0,0:0:0:0:
404,276,38709,2,0,L|209:187,1,180
162,169,39217,1,0,0:0:0:0:
427,195,39387,6,0,P|473:169|395:94,1,180
323,68,39895,2,0,B|405:27|405:27|398:28,2,90
67,299,40404,2,0,P|59:225|78:191,1,90
177,194,40743,5,0,0:0:0:0:
382,164,41082,1,0,0:0:0:0:
197,161,41421,2,0,P|201:110|189:57,1,90
95,65,41759,1,0,0:0:0:0:
378,266,42098,6,0,P|378:206|296:165,1,135
271,159,42437,1,0,0:0:0:0:
406,166,42607,2,0,P|458:141|487:30,1,180
372,24,43115,1,0,0:0:0:0:
122,186,43454,5,0,0:0:0:0:
198,70,43624,1,0,0:0:0:0:
162,68,43708,1,0,0:0:0:0:
126,66,43793,1,0,0:0:0:0:
430,284,43963,2,0,P|474:263|408:181,1,180
335,146,44471,1,0,0:0:0:0:
369,124,44555,1,0,0:0:0:0:
404,103,44640,1,0,0:0:0:0:
161,99,44811,5,0,0:0:0:0:
308,125,45149,2,0,L|294:14,1,90
68,48,45827,1,0,0:0:0:0:
216,143,46166,1,0,0:0:0:0:
109,280,46421,2,0,L|106:205,1,45
199,196,46675,1,0,0:0:0:0:
372,185,47014,2,0,L|377:88,1,90
87,93,47522,5,0,0:0:0:0:
220,200,47861,2,0,L|118:190,1,90
332,175,48539,1,0,0:0:0:0:
146,121,48878,1,0,0:0:0:0:
253,112,49132,2,0,L|253:34,1,45
165,42,49387,1,0,0:0:0:0:
289,65,49726,1,0,0:0:0:0:
178,251,49895,1,0,0:0:0:0:
458,174,50234,5,0,0:0:0:0:
297,270,50573,2,0,L|290:159,1,90
496,147,51251,1,0,0:0:0:0:
349,129,51590,1,0,0:0:0:0:
438,90,51844,2,0,L|424:27,1,45
322,42,52099,1,0,0:0:0:0:
463,257,52437,2,0,L|470:155,1,90
178,161,52946,5,0,0:0:0:0:
32,169,53285,2,0,L|44:63,1,90
266,68,53964,1,0,0:0:0:0:
150,70,54302,1,0,0:0:0:0:
275,217,54556,2,0,L|276:157,1,45
205,171,54810,1,0,0:0:0:0:
371,200,55149,2,0,L|377:95,1,90
72,74,55659,5,0,0:0:0:0:
221,246,55997,2,0,L|226:150,1,90
32,131,56675,1,0,0:0:0:0:
187,103,57014,1,0,0:0:0:0:
317,120,57269,2,0,L|324:61,1,45
235,58,57522,1,0,0:0:0:0:
79,212,57861,2,0,L|72:96,1,90
339,191,58370,5,0,0:0:0:0:
482,165,58709,2,0,L|469:58,1,90
263,79,59387,1,0,0:0:0:0:
408,227,59726,1,0,0:0:0:0:
283,237,59980,2,0,L|279:166,1,45
351,223,60234,1,0,0:0:0:0:
168,301,60573,2,0,L|160:206,1,90
356,244,61082,6,0,P|396:192|408:64,1,180
356,59,61591,1,0,0:0:0:0:
191,300,62098,2,0,L|314:137,1,180
176,122,62692,2,0,L|129:84,1,45
64,83,62946,2,0,P|32:150|64:255,1,180
148,276,63454,1,0,0:0:0:0:
289,275,63793,6,0,L|165:101,1,180
275,109,64302,2,0,P|312:197|272:391,1,270
104,349,65149,2,0,P|143:312|86:210,1,180
31,299,65658,2,0,P|13:222|40:19,1,270
458,296,66505,6,0,P|494:256|372:94,1,270
306,246,67184,2,0,L|301:149,1,90
407,136,67523,2,0,L|402:42,1,90
226,322,67862,6,0,P|153:318|114:256,2,135
321,278,68539,1,0,0:0:0:0:
412,303,68709,2,0,P|470:249|407:183,1,180
171,268,69217,6,0,P|75:206|194:163,1,270
271,142,69895,2,0,L|376:78,3,90
446,250,70573,6,0,P|442:190|321:153,1,180
254,158,71082,1,0,0:0:0:0:
167,255,71251,2,0,P|238:233|145:118,1,270
466,258,71929,6,0,P|458:129|322:93,1,270
228,94,72607,1,0,0:0:0:0:
148,120,72776,1,0,0:0:0:0:
148,120,72945,1,0,0:0:0:0:
228,94,73115,1,0,0:0:0:0:
427,135,73285,6,0,P|474:122|503:37,2,135
338,142,73963,1,0,0:0:0:0:
430,315,74132,2,0,P|481:291|405:228,1,180
177,276,74641,6,0,P|102:271|121:111,1,270
226,208,75319,2,0,L|210:100,1,90
325,115,75658,2,0,L|307:7,1,90
123,280,75997,6,0,P|46:260|13:159,2,180
225,251,76844,1,0,0:0:0:0:
123,280,77014,2,0,L|86:232,2,45
393,280,77353,6,0,P|407:222|243:119,1,270
368,254,78031,2,0,L|370:136,1,90
469,139,78369,2,0,L|468:39,1,90
271,61,78709,6,0,L|117:63,2,135
377,63,79387,1,0,0:0:0:0:
280,156,79556,2,0,L|96:56,1,180
360,311,80065,6,0,P|412:292|314:158,1,270
245,144,80743,2,0,L|125:93,3,90
60,307,81421,6,0,L|51:114,1,180
151,91,81929,1,0,0:0:0:0:
240,84,82098,2,0,P|151:118|243:205,1,270
479,211,82776,6,0,P|475:84|336:40,1,270
257,59,83454,2,0,L|153:117,1,90
286,145,83793,2,0,L|390:203,1,90
159,282,84132,6,0,P|102:264|66:174,2,135
253,285,84810,1,0,0:0:0:0:
351,282,84980,2,0,L|496:170,1,180
199,345,85488,6,0,P|119:307|218:200,1,270
305,193,86166,1,0,0:0:0:0:
385,219,86335,1,0,0:0:0:0:
385,219,86504,1,0,0:0:0:0:
305,193,86674,1,0,0:0:0:0:
46,238,86844,6,0,P|28:173|131:99,1,180
200,87,87352,1,0,0:0:0:0:
446,275,87522,1,0,0:0:0:0:
490,188,87691,1,0,0:0:0:0:
439,116,87860,1,0,0:0:0:0:
394,103,87946,1,0,0:0:0:0:
355,89,88030,1,0,0:0:0:0:
119,292,88200,6,0,P|63:226|147:182,1,180
224,180,88709,2,0,P|280:114|196:70,1,180
113,200,89217,2,0,L|97:82,1,90
364,280,89726,6,0,L|369:172,1,90
261,197,90065,2,0,P|206:159|277:81,1,180
358,75,90573,2,0,L|454:0,1,90
183,294,90912,6,0,P|122:270|80:195,1,135
101,162,91251,2,0,L|199:114,1,90
367,76,91760,2,0,L|270:29,2,90
466,284,92268,6,0,P|465:202|398:123,1,180
320,135,92776,2,0,L|433:87,1,90
91,191,93115,6,0,B|88:99|88:99|58:95|58:95|88:96|88:96|89:27,1,180
323,272,93624,6,0,P|396:251|404:134,1,180
304,161,94132,2,0,P|231:140|223:23,1,180
310,98,94641,2,0,L|400:51,1,90
112,224,95149,6,0,L|112:104,1,90
219,234,95488,2,0,P|264:202|191:112,1,180
109,142,95997,2,0,L|14:88,1,90
293,220,96336,6,0,P|355:189|364:108,1,135
339,88,96675,1,0,0:0:0:0:
245,223,96844,2,0,P|219:168|254:54,1,180
351,65,97353,2,0,L|445:3,1,90
191,236,97692,6,0,L|175:121,1,90
270,124,98031,2,0,L|310:56,2,45
105,105,98370,2,0,L|0:61,1,90
137,60,98709,2,0,L|32:16,1,90
389,308,99048,6,0,P|438:296|374:229,1,180
282,227,99556,2,0,P|226:219|189:92,1,180
289,114,100065,2,0,L|404:74,1,90
127,50,100573,6,0,L|232:42,1,90
133,276,100913,2,0,P|85:239|137:141,1,180
226,125,101421,2,0,L|319:69,1,90
41,191,101759,6,0,P|18:126|92:93,1,135
97,81,102098,2,0,L|191:38,1,90
338,83,102607,2,0,L|239:49,2,90
433,191,103115,6,0,P|404:100|311:98,1,180
246,83,103624,2,0,L|334:14,1,90
57,277,103963,2,0,P|41:194|44:84,1,180
306,243,104471,6,0,P|357:235|406:94,1,180
321,144,104980,2,0,P|270:136|221:-5,1,180
307,96,105488,2,0,L|349:-7,1,90
128,143,105996,5,0,0:0:0:0:
217,184,106166,2,0,L|384:90,1,180
456,55,106675,1,0,0:0:0:0:
382,180,106844,2,0,L|477:129,1,90
185,308,107183,6,0,P|129:279|117:205,1,135
138,192,107522,2,0,L|230:142,1,90
377,117,108031,2,0,L|272:100,2,90
465,158,108539,1,0,0:0:0:0:
228,263,108709,6,0,P|172:202|227:156,1,135
223,153,109047,1,0,0:0:0:0:
89,269,109218,1,0,0:0:0:0:
59,235,109302,1,0,0:0:0:0:
44,193,109387,1,0,0:0:0:0:
46,148,109472,1,0,0:0:0:0:
65,108,109556,1,0,0:0:0:0:
109,82,109641,1,0,0:0:0:0:
158,66,109726,1,0,0:0:0:0:
427,240,109895,6,0,P|437:170|363:45,1,180
309,70,110403,1,0,0:0:0:0:
127,126,110911,1,0,0:0:0:0:
270,177,111251,5,0,0:0:0:0:
409,166,111506,1,0,0:0:0:0:
414,130,111590,2,0,L|403:35,1,90
228,135,112098,2,0,L|326:120,1,90
42,294,112607,6,0,P|29:226|128:172,1,180
208,315,113115,2,0,P|304:211|235:107,1,270
99,194,113963,6,0,L|208:77,1,135
157,80,114302,2,0,L|84:5,1,90
244,77,114810,1,0,0:0:0:0:
173,35,114980,1,0,0:0:0:0:
459,246,115319,6,0,P|462:165|419:73,1,180
332,317,115827,2,0,L|104:141,1,270
280,266,116675,6,0,L|394:171,1,135
339,148,117014,2,0,L|250:214,1,90
433,279,117522,2,0,L|437:166,1,90
167,280,118031,6,0,P|110:211|183:162,1,180
249,180,118539,2,0,P|235:101|74:16,1,270
232,300,119387,6,0,L|232:164,1,135
184,168,119726,2,0,L|176:72,1,90
336,152,120235,2,0,L|304:32,1,90
144,60,120742,5,0,0:0:0:0:
229,202,121082,1,0,0:0:0:0:
161,178,121250,1,0,0:0:0:0:
402,172,121759,1,0,0:0:0:0:
249,187,122098,5,0,0:0:0:0:
354,290,122353,2,0,L|357:218,1,45
293,201,122606,1,0,0:0:0:0:
147,280,122946,1,0,0:0:0:0:
140,192,123115,1,0,0:0:0:0:
312,216,123454,5,0,0:0:0:0:
237,158,123793,1,0,0:0:0:0:
304,130,123963,1,0,0:0:0:0:
162,205,124471,1,0,0:0:0:0:
285,242,124810,5,0,0:0:0:0:
189,251,125065,2,0,L|183:182,1,45
267,160,125320,1,0,0:0:0:0:
116,206,125658,2,0,L|106:83,1,90
287,77,126166,5,0,0:0:0:0:
406,156,126505,1,0,0:0:0:0:
406,156,126675,1,0,0:0:0:0:
265,172,127182,1,0,0:0:0:0:
365,164,127522,5,0,0:0:0:0:
427,117,127776,2,0,L|419:58,1,45
367,86,128030,1,0,0:0:0:0:
260,246,128369,2,0,L|253:151,1,90
112,138,128877,5,0,0:0:0:0:
200,131,129217,1,0,0:0:0:0:
183,72,129387,1,0,0:0:0:0:
50,131,129895,1,0,0:0:0:0:
256,192,130065,12,0,131590,0:0:0:0:
256,192,142437,12,0,152607,0:0:0:0:
331,290,153285,6,0,P|335:183|260:15,1,270
190,267,153963,2,0,L|181:163,1,90
302,173,154302,2,0,L|295:80,1,90
186,92,154641,6,0,P|110:84|76:38,2,135
282,107,155319,1,0,0:0:0:0:
371,80,155488,2,0,L|194:29,1,180
384,297,155997,6,0,P|442:231|369:69,1,270
289,66,156675,2,0,L|179:8,3,90
114,265,157353,6,0,P|33:235|24:180,2,135
211,237,158031,1,0,0:0:0:0:
111,216,158200,2,0,P|56:189|120:117,1,180
368,256,158709,6,0,P|458:251|481:95,1,270
379,175,159387,2,0,L|372:54,1,90
263,214,159726,2,0,L|258:85,1,90
370,108,160065,6,0,L|495:15,2,135
264,159,160743,1,0,0:0:0:0:
343,254,160912,2,0,P|367:134|316:69,1,180
172,244,161420,6,0,P|91:209|125:49,1,270
215,298,162098,1,0,0:0:0:0:
289,255,162267,1,0,0:0:0:0:
288,169,162436,1,0,0:0:0:0:
213,129,162606,1,0,0:0:0:0:
305,158,162776,6,0,P|361:114|288:56,1,180
155,98,163454,1,0,0:0:0:0:
225,139,163625,2,0,L|214:67,1,45
158,159,163794,2,0,L|147:51,1,90
422,252,164132,6,0,L|421:45,1,180,0|0,0:0|0:0,0:0:0:0:
241,243,164810,2,0,L|243:110,1,90
137,161,165149,2,0,L|137:56,1,90
309,117,165488,6,0,P|362:95|412:16,2,135
207,124,166166,1,0,0:0:0:0:
114,125,166336,2,0,P|60:157|135:230,1,180
379,288,166844,6,0,P|451:259|338:153,1,270
272,175,167522,2,0,L|247:80,3,90
365,95,168200,2,0,L|472:-4,2,135
274,114,168878,1,0,0:0:0:0:
358,135,169048,2,0,P|386:240|340:325,1,180
70,330,169557,6,0,L|60:143,1,180
338,271,170234,2,0,L|323:71,1,180
88,229,170912,2,0,L|110:18,1,180
379,233,171590,2,0,L|401:22,1,180
106,282,172268,6,0,L|97:185,1,90
198,235,172608,2,0,L|196:127,1,90
291,281,172945,2,0,L|297:178,1,90
192,165,173285,2,0,L|146:108,2,45
445,142,173624,5,0,0:0:0:0:
50,103,174980,6,0,L|245:99,1,180
129,265,175488,2,0,P|74:246|139:175,1,180
211,168,175997,1,0,0:0:0:0:
302,169,176166,6,0,L|216:124,1,90
139,78,176505,1,0,0:0:0:0:
379,72,176675,1,0,0:0:0:0:
309,304,177014,2,0,L|297:196,1,90
418,204,177353,2,0,L|419:107,1,90
174,174,177692,6,0,P|121:159|116:63,1,135
136,76,178031,2,0,L|243:21,1,90
41,67,178540,2,0,L|120:111,2,90
143,303,179048,6,0,L|328:272,1,180
224,227,179556,2,0,L|216:115,1,90
487,200,179895,2,0,L|487:-14,1,180
193,288,180404,6,0,P|135:249|191:179,1,180
287,183,180912,2,0,P|368:157|389:58,1,180
308,63,181421,2,0,L|397:10,1,90
198,204,181929,6,0,L|94:181,2,90
295,217,182437,2,0,L|304:109,1,90
131,134,182776,2,0,L|118:31,1,90
372,205,183115,6,0,P|434:163|442:82,1,135
428,78,183454,1,0,0:0:0:0:
330,184,183624,2,0,P|322:103|421:66,1,180
489,26,184132,2,0,L|377:19,1,90
162,274,184471,5,0,0:0:0:0:
78,218,184641,2,0,L|73:131,1,45
177,118,184895,2,0,L|177:43,1,45
63,100,185149,2,0,L|0:-6,1,90
288,182,185488,2,0,L|364:95,1,90
105,224,185827,6,0,P|48:192|123:126,1,180
199,115,186336,2,0,L|380:28,1,180
450,233,186844,2,0,L|457:137,1,90
287,157,187353,5,0,0:0:0:0:
401,185,187522,2,0,L|375:78,1,90
267,145,187861,2,0,L|246:27,1,90
119,55,188200,2,0,L|8:25,1,90
332,305,188539,6,0,P|382:265|345:187,1,135
325,186,188879,1,0,0:0:0:0:
232,149,189048,2,0,L|411:62,1,180
305,117,189556,2,0,L|295:17,1,90
65,271,189895,6,0,P|13:250|75:175,1,180
145,128,190404,2,0,L|56:63,1,90
415,269,190743,2,0,L|417:63,1,180
155,223,191252,6,0,P|90:191|77:121,1,135
111,103,191590,2,0,L|201:44,1,90
290,147,191929,2,0,L|295:32,1,90
107,192,192268,2,0,L|105:88,1,90
222,89,192607,6,0,L|267:33,2,45
114,103,192945,2,0,L|20:56,1,90
147,300,193285,2,0,L|155:198,1,90
32,212,193624,2,0,L|40:117,1,90
340,219,193963,6,0,P|399:204|407:107,1,135
405,93,194302,1,0,0:0:0:0:
286,107,194471,2,0,L|206:43,2,90
486,191,194980,2,0,L|489:88,1,90
240,260,195319,5,0,0:0:0:0:
125,200,195489,2,0,L|117:138,1,45
242,160,195743,2,0,L|246:81,1,45
122,212,195997,1,0,0:0:0:0:
77,206,196081,1,0,0:0:0:0:
44,178,196166,1,0,0:0:0:0:
31,135,196251,1,0,0:0:0:0:
44,93,196335,1,0,0:0:0:0:
77,64,196420,1,0,0:0:0:0:
121,59,196505,1,0,0:0:0:0:
464,234,196675,6,0,P|471:171|370:87,1,180
282,199,197183,2,0,P|187:139|179:67,1,180
435,151,197691,2,0,L|495:59,1,90
371,54,198031,5,0,0:0:0:0:
272,106,198200,1,0,0:0:0:0:
362,204,198370,2,0,L|383:153,2,45
245,301,198709,2,0,L|218:200,1,90
479,189,199048,2,0,L|487:85,1,90
381,94,199387,6,0,L|187:83,1,180
98,83,199895,1,0,0:0:0:0:
186,349,200065,1,0,0:0:0:0:
215,325,200149,1,0,0:0:0:0:
211,289,200234,1,0,0:0:0:0:
181,266,200319,1,0,0:0:0:0:
143,260,200404,2,0,L|61:177,1,90
350,193,200743,6,0,L|420:111,1,90
309,97,201082,1,0,0:0:0:0:
272,97,201166,1,0,0:0:0:0:
235,98,201251,1,0,0:0:0:0:
198,99,201336,1,0,0:0:0:0:
161,101,201421,2,0,L|253:97,1,90
375,249,201759,1,0,0:0:0:0:
380,204,201843,1,0,0:0:0:0:
385,159,201928,1,0,0:0:0:0:
136,215,202098,6,0,P|91:200|151:120,1,180
247,113,202607,2,0,L|332:50,2,90
56,102,203115,1,0,0:0:0:0:
243,263,203454,6,0,L|249:155,1,90
148,168,203793,2,0,L|155:72,1,90
256,56,204132,2,0,L|156:16,2,90
436,124,204810,6,0,L|276:56,1,135
280,52,205149,1,0,0:0:0:0:
372,192,205319,1,0,0:0:0:0:
296,280,205488,2,0,L|288:224,3,45
336,328,205827,2,0,L|428:364,1,90
180,319,206166,5,0,0:0:0:0:
76,323,206335,2,0,L|60:271,2,45
260,299,206675,2,0,P|300:274|241:176,1,180
140,207,207183,2,0,L|67:140,1,90
405,307,207522,6,0,P|457:291|383:233,1,180
301,218,208031,2,0,L|200:153,2,90
459,154,208539,2,0,P|467:71|386:46,1,180
301,57,209048,5,0,0:0:0:0:
222,193,209217,2,0,L|229:80,1,90
345,233,209556,2,0,L|349:118,1,90
158,165,209895,2,0,L|153:255,1,90
442,330,210234,6,0,P|492:303|411:234,1,180
354,226,210743,1,0,0:0:0:0:
261,224,210912,1,0,0:0:0:0:
252,180,210996,1,0,0:0:0:0:
253,250,211081,1,0,0:0:0:0:
261,207,211166,1,0,0:0:0:0:
277,247,211251,2,0,L|384:257,1,90
117,268,211590,6,0,P|51:243|37:131,1,180
98,115,212098,1,0,0:0:0:0:
337,269,212268,2,0,P|403:244|417:132,1,180
402,109,212692,1,0,0:0:0:0:
365,68,212776,1,0,0:0:0:0:
57,214,212946,6,0,L|50:95,1,90
178,185,213284,2,0,L|179:90,1,90
318,171,213624,2,0,L|322:62,1,90
459,167,213963,2,0,L|508:92,1,90
230,159,214302,6,0,L|151:93,1,90
296,219,214641,2,0,L|371:131,1,90
206,247,214980,2,0,L|202:152,1,90
78,212,215319,2,0,P|58:166|83:114,1,90
351,304,215658,5,0,0:0:0:0:
384,273,215742,1,0,0:0:0:0:
404,233,215827,1,0,0:0:0:0:
409,189,215912,1,0,0:0:0:0:
398,146,215996,1,0,0:0:0:0:
372,109,216081,1,0,0:0:0:0:
335,84,216166,1,0,0:0:0:0:
291,74,216251,1,0,0:0:0:0:
247,80,216335,5,0,0:0:0:0:
207,101,216420,1,0,0:0:0:0:
178,134,216505,1,0,0:0:0:0:
162,176,216590,1,0,0:0:0:0:
163,221,216674,1,0,0:0:0:0:
179,263,216759,1,0,0:0:0:0:
209,296,216844,1,0,0:0:0:0:
343,295,217014,6,0,L|383:239,2,45
257,317,217353,1,0,0:0:0:0:
150,324,217522,1,0,0:0:0:0:
147,279,217606,1,0,0:0:0:0:
144,234,217691,1,0,0:0:0:0:
243,188,217862,1,0,0:0:0:0:
143,171,218031,2,0,L|105:127,2,45
416,259,218370,6,0,P|472:234|365:145,1,270
258,161,219048,2,0,L|211:59,1,90
343,235,219387,2,0,L|371:122,1,90
179,251,219726,6,0,P|117:235|107:154,2,135
270,239,220404,1,0,0:0:0:0:
163,286,220573,2,0,P|114:262|174:172,1,180
439,292,221082,6,0,P|465:168|334:128,1,270
264,162,221759,2,0,L|195:94,3,90
102,303,222437,6,0,P|80:216|182:176,1,180
243,211,222946,1,0,0:0:0:0:
489,294,223115,2,0,P|499:117|466:22,1,270
160,275,223793,6,0,P|73:238|182:148,1,270
258,230,224471,2,0,L|269:139,1,90
155,153,224810,2,0,L|168:47,1,90
335,142,225149,6,0,P|397:109|446:31,2,135
239,186,225827,1,0,0:0:0:0:
155,218,225997,2,0,P|97:183|90:68,1,180
370,336,226505,6,0,P|447:300|483:102,1,270,0|0,0:0|0:0,0:0:0:0:
390,131,227183,2,0,L|295:94,1,90
424,214,227522,2,0,L|425:101,1,90
250,252,227861,6,0,P|139:209|121:125,2,180
340,259,228709,1,0,0:0:0:0:
425,262,228878,2,0,L|440:200,2,45
136,305,229217,6,0,P|97:273|226:141,1,270
286,277,229895,1,0,0:0:0:0:
362,240,230064,1,0,0:0:0:0:
359,155,230233,1,0,0:0:0:0:
280,125,230403,1,0,0:0:0:0:
102,156,230573,6,0,P|51:117|34:10,2,135
199,166,231251,1,0,0:0:0:0:
272,162,231421,2,0,P|274:104|143:51,1,180
477,315,231929,6,0,P|498:246|337:155,1,270
253,160,232607,2,0,L|174:78,3,90
310,279,233285,2,0,P|368:246|341:130,1,180
297,135,233793,1,0,0:0:0:0:
30,321,233963,2,0,P|17:246|102:69,1,270
369,324,234641,6,0,P|434:294|372:137,1,270
291,137,235319,2,0,L|195:90,1,90
117,109,235657,2,0,L|213:44,1,90
375,234,235997,6,0,P|428:202|444:121,2,135
275,248,236675,1,0,0:0:0:0:
175,241,236844,2,0,P|128:221|187:138,1,180
425,242,237353,6,0,P|475:129|370:64,1,270
265,298,238031,1,0,0:0:0:0:
192,252,238200,1,0,0:0:0:0:
192,165,238369,1,0,0:0:0:0:
266,121,238539,1,0,0:0:0:0:
33,237,238709,6,0,P|34:149|45:119,1,90
142,146,239048,2,0,L|165:90,1,45
402,248,239302,1,0,0:0:0:0:
434,231,239387,2,0,P|468:189|495:137,1,90
490,99,239641,1,0,0:0:0:0:
478,56,239725,1,0,0:0:0:0:
445,26,239810,1,0,0:0:0:0:
401,18,239895,1,0,0:0:0:0:
102,73,240065,1,0,0:0:0:0:
