osu file format v14

[General]
AudioFilename: audio.mp3
AudioLeadIn: 0
PreviewTime: 88115
Countdown: 0
SampleSet: Soft
StackLeniency: 0.7
Mode: 2
LetterboxInBreaks: 0
WidescreenStoryboard: 1

[Editor]
DistanceSpacing: 2.2
BeatDivisor: 8
GridSize: 4
TimelineZoom: 2.099999

[Metadata]
Title:Algebra
TitleUnicode:Algebra
Artist:Function Phantom
ArtistUnicode:Function Phantom
Creator:Spectator
Version:Salad
Source:osu!
Tags:alienflybot AFB Sinnoh CLSW Minato Yukina featured artist dubstep drumstep wub
BeatmapID:1405882
BeatmapSetID:468281

[Difficulty]
HPDrainRate:4
CircleSize:3
OverallDifficulty:7
ApproachRate:7
SliderMultiplier:1.43
SliderTickRate:1

[Events]
//Background and Video events
0,0,"never_letting_go_by_nanomortis-d9i37dg_.png",0,0
//Break Periods
2,131789,141537
//Storyboard Layer 0 (Background)
//Storyboard Layer 1 (Fail)
//Storyboard Layer 2 (Pass)
//Storyboard Layer 3 (Foreground)
//Storyboard Sound Samples

[TimingPoints]
1421,338.983050847458,4,2,1,40,1,0
1421,-125,4,2,1,40,0,0
12268,-100,4,2,1,45,0,0
17692,-100,4,1,1,10,0,0
18370,-100,4,1,1,15,0,0
19048,-100,4,1,1,20,0,0
19556,-100,4,1,1,30,0,0
20404,-100,4,1,1,35,0,0
21336,-100,4,1,1,40,0,0
21759,-100,4,2,1,50,0,0
21929,-100,4,2,1,5,0,0
22098,-100,4,2,1,50,0,0
22268,-100,4,2,1,5,0,0
22437,-100,4,2,1,50,0,0
22607,-100,4,2,1,5,0,0
22776,-100,4,2,1,40,0,0
23115,-83.3333333333333,4,1,1,50,0,0
44810,-100,4,1,1,50,0,0
60912,-100,4,1,1,20,0,0
62437,-100,4,1,1,15,0,0
65149,-100,4,2,1,30,0,0
65488,-100,4,2,1,5,0,0
65658,-100,4,2,1,25,0,0
65827,-100,4,2,1,20,0,0
65997,-100,4,2,1,15,0,0
66166,-100,4,2,1,10,0,0
66505,-83.3333333333333,4,2,1,50,0,0
80065,-83.3333333333333,4,2,1,55,0,0
82776,-83.3333333333333,4,2,1,60,0,0
85488,-83.3333333333333,4,2,1,65,0,0
86844,-83.3333333333333,4,2,1,70,0,0
87522,-83.3333333333333,4,2,1,75,0,0
88200,-100,4,1,1,70,0,1
88285,-100,4,1,1,70,0,0
109895,-100,4,1,1,60,0,0
120743,-100,4,1,1,25,0,0
130573,-100,4,1,1,20,0,0
130912,-100,4,1,1,15,0,0
131251,-100,4,1,1,10,0,0
131590,-100,4,1,1,25,0,0
142437,-100,4,2,1,5,0,0
143793,-100,4,2,1,10,0,0
145149,-100,4,2,1,15,0,0
146505,-100,4,2,1,20,0,0
147861,-100,4,2,1,25,0,0
149217,-100,4,2,1,30,0,0
150573,-100,4,2,1,35,0,0
151929,-100,4,2,1,40,0,0
152607,-100,4,2,1,10,0,0
153285,-83.3333333333333,4,2,1,50,0,0
169556,-83.3333333333333,4,2,1,50,0,0
170912,-83.3333333333333,4,2,1,55,0,0
172268,-83.3333333333333,4,2,1,60,0,0
172607,-83.3333333333333,4,2,1,65,0,0
172946,-83.3333333333333,4,2,1,70,0,0
173285,-83.3333333333333,4,2,1,75,0,0
173624,-83.3333333333333,4,2,1,80,0,0
173963,-83.3333333333333,4,2,1,60,0,0
174598,-83.3333333333333,4,2,1,65,0,0
174980,-71.4285714285714,4,1,1,70,0,1
175065,-83.3333333333333,4,1,1,70,0,0
196675,-83.3333333333333,4,1,1,75,0,1
196759,-83.3333333333333,4,1,1,75,0,0
212946,-83.3333333333333,4,1,1,50,0,0
214302,-83.3333333333333,4,1,1,55,0,0
215658,-83.3333333333333,4,1,1,60,0,0
215997,-83.3333333333333,4,1,1,65,0,0
216336,-83.3333333333333,4,1,1,70,0,0
216675,-83.3333333333333,4,1,1,75,0,0
217014,-83.3333333333333,4,1,1,80,0,0
217098,-83.3333333333333,4,1,1,60,0,0
218370,-83.3333333333333,4,2,1,50,0,0
231929,-83.3333333333333,4,2,1,55,0,0
234641,-83.3333333333333,4,2,1,60,0,0
237353,-83.3333333333333,4,2,1,65,0,0
238709,-83.3333333333333,4,2,1,70,0,0
239387,-83.3333333333333,4,2,1,75,0,0
240065,-83.3333333333333,4,2,1,60,0,0

[Colours]
Combo1 : 121,111,213
Combo2 : 247,108,125
Combo3 : 243,141,103
Combo4 : 124,186,216

[HitObjects]
158,272,1421,6,0,L|252:260,1,85.8,4|0,0:3|0:0,0:0:0:0:
349,193,1929,2,0,L|244:180,1,85.8,2|0,0:0|0:0,0:0:0:0:
136,153,2437,2,0,L|240:141,1,85.8,2|0,0:0|0:0,0:0:0:0:
327,75,2945,2,0,L|223:62,1,85.8,2|0,0:0|0:0,0:0:0:0:
164,243,3454,6,0,L|55:233,2,85.8,2|0|2,0:0|0:0|0:0,0:0:0:0:
287,258,4132,6,0,P|311:209|276:142,1,114.4,2|0,0:0|0:0,0:0:0:0:
199,172,4641,2,0,P|175:123|210:56,1,114.4,2|0,0:0|0:0,0:0:0:0:
318,70,5149,1,2,0:0:0:0:
144,278,5658,2,0,P|104:248|82:181,1,114.4,2|0,0:0|0:0,0:0:0:0:
171,119,6167,1,2,0:0:0:0:
322,119,6506,1,0,0:0:0:0:
169,72,6844,6,0,L|83:82,1,85.8,2|0,0:0|0:0,0:0:0:0:
189,150,7352,2,0,L|274:159,1,85.8,2|0,0:0|0:0,0:0:0:0:
147,190,7860,2,0,L|61:200,1,85.8,2|0,0:0|0:0,0:0:0:0:
167,268,8370,2,0,L|252:278,1,85.8,2|0,0:0|0:0,0:0:0:0:
344,172,8878,2,0,L|429:162,2,85.8,2|0|0,0:0|0:0|0:0,0:0:0:0:
248,264,9556,6,0,L|233:140,1,114.4,2|0,0:0|0:0,0:0:0:0:
339,157,10065,2,0,P|384:118|388:42,1,114.4,2|0,0:0|0:0,0:0:0:0:
288,43,10573,1,2,0:0:0:0:
380,283,10912,6,0,L|455:272,1,57.2,2|0,0:0|0:0,0:0:0:0:
308,224,11421,1,0,0:0:0:0:
240,263,11590,2,0,P|211:219|216:147,1,114.4,0|0,0:0|0:0,0:0:0:0:
363,249,12268,6,0,L|375:130,1,107.25,2|0,0:0|0:0,0:0:0:0:
239,196,12776,2,0,L|227:77,1,107.25,2|0,0:0|0:0,0:0:0:0:
402,365,13285,2,0,L|414:246,1,107.25,2|0,0:0|0:0,0:0:0:0:
278,312,13793,2,0,L|266:193,1,107.25,2|0,0:0|0:0,0:0:0:0:
425,206,14302,2,0,P|463:190|494:112,1,107.25,2|0,0:0|0:0,0:0:0:0:
368,83,14810,1,0,0:0:0:0:
299,78,14980,6,0,P|275:137|318:202,1,143,2|0,0:0|0:0,0:0:0:0:
403,196,15488,2,0,P|427:255|384:320,1,143,2|0,0:0|0:0,0:0:0:0:
283,314,15997,1,2,0:0:0:0:
132,283,16336,6,0,L|49:273,1,71.5,0|2,0:0|0:0,0:0:0:0:
199,224,16845,1,0,0:0:0:0:
272,263,17014,2,0,P|301:219|283:118,1,143,2|0,0:0|0:0,0:0:0:0:
96,344,17692,6,0,P|60:320|68:224,1,143,0|8,0:0|0:0,0:0:0:0:
144,192,18200,2,0,L|296:176,1,143,0|0,0:0|0:0,0:0:0:0:
220,184,18709,1,8,0:0:0:0:
416,344,19048,6,0,P|452:320|444:224,1,143,0|8,0:0|0:0,0:0:0:0:
357,193,19556,2,0,L|205:177,1,143,0|0,0:0|0:0,0:0:0:0:
319,103,20065,1,8,0:0:0:0:
206,334,20404,6,0,P|173:266|239:208,1,143,0|0,0:0|0:0,0:0:0:0:
306,334,20912,2,0,P|339:266|273:208,1,143,0|0,0:0|0:0,0:0:0:0:
194,208,21421,1,8,0:0:0:0:
399,209,21759,5,0,0:0:0:0:
225,210,22098,1,0,0:0:0:0:
399,209,22437,1,0,0:0:0:0:
232,216,22776,1,0,0:0:0:0:
198,190,22861,1,0,0:0:0:0:
163,165,22946,1,0,0:0:0:0:
380,205,23115,6,0,P|430:179|427:74,1,171.599994763184,4|8,0:3|0:0,0:0:0:0:
338,305,23624,2,0,L|167:289,1,171.599994763184,4|4,0:1|0:1,0:0:0:0:
241,215,24132,1,8,0:0:0:0:
61,188,24641,6,0,P|55:140|146:75,1,171.599994763184,0|0,0:0|0:0,0:0:0:0:
256,214,25149,2,0,L|269:112,1,85.7999973815919,0|4,0:0|0:1,0:0:0:0:
167,82,25488,1,8,0:0:0:0:
411,300,25827,6,0,P|417:252|326:187,1,171.599994763184,4|8,0:1|0:0,0:0:0:0:
216,261,26336,2,0,P|166:240|149:198,2,85.7999973815919,0|0|4,0:0|0:0|0:1,0:0:0:0:
339,238,26844,1,8,0:0:0:0:
125,316,27183,6,0,P|133:268|231:195,1,171.599994763184,4|8,0:2|0:0,0:0:0:0:
327,193,27692,1,0,0:0:0:0:
426,313,27861,2,0,P|418:265|320:192,1,171.599994763184,4|8,0:2|0:0,0:0:0:0:
229,193,28370,1,8,0:0:0:0:
34,192,28539,6,0,P|21:137|93:47,1,171.599994763184,4|8,0:2|0:0,0:0:0:0:
168,52,29048,2,0,L|350:35,1,171.599994763184,0|4,0:0|0:1,0:0:0:0:
243,71,29556,1,8,0:0:0:0:
468,182,29895,5,4,0:1:0:0:
291,267,30234,1,8,0:0:0:0:
463,345,30573,2,0,L|475:249,1,85.7999973815919,0|4,0:0|0:1,0:0:0:0:
397,182,30912,1,8,0:0:0:0:
191,329,31251,6,0,P|142:286|183:183,1,171.599994763184,4|8,0:1|0:0,0:0:0:0:
276,196,31759,2,0,P|280:127|202:68,1,171.599994763184,0|0,0:0|0:0,0:0:0:0:
89,71,32268,1,8,0:0:0:0:
266,313,32607,6,0,L|449:305,1,171.599994763184,4|0,0:2|2:0,0:0:0:0:
364,218,33115,2,0,L|177:212,1,171.599994763184,4|0,0:2|2:0,0:0:0:0:
278,156,33624,1,4,0:2:0:0:
120,256,33963,6,0,P|100:200|184:108,1,171.599994763184,4|8,0:3|0:0,0:0:0:0:
248,104,34471,2,0,L|432:88,1,171.599994763184,0|4,0:0|0:1,0:0:0:0:
328,144,34980,1,8,0:0:0:0:
451,188,35488,6,0,P|457:140|366:75,1,171.599994763184,0|0,0:0|0:0,0:0:0:0:
256,214,35996,2,0,L|243:112,1,85.7999973815919,0|4,0:0|0:1,0:0:0:0:
342,85,36335,1,8,0:0:0:0:
126,300,36675,6,0,P|120:252|211:187,1,171.599994763184,4|8,0:1|0:0,0:0:0:0:
327,261,37184,2,0,P|377:240|394:198,2,85.7999973815919,0|0|4,0:0|0:0|0:1,0:0:0:0:
208,196,37692,1,8,0:0:0:0:
336,332,38031,6,0,P|384:308|372:180,1,171.599994763184,0|8,0:0|0:0,0:0:0:0:
300,200,38539,1,0,0:0:0:0:
141,329,38709,2,0,P|93:305|105:177,1,171.599994763184
177,197,39217,1,0,0:0:0:0:
353,204,39387,6,0,P|405:185|448:66,1,171.599994763184,4|8,0:2|0:0,0:0:0:0:
366,342,39895,2,0,P|321:308|381:216,1,171.599994763184,0|4,0:0|0:1,0:0:0:0:
452,220,40404,1,8,0:0:0:0:
240,208,40743,5,4,0:1:0:0:
419,210,41082,1,8,0:0:0:0:
211,195,41421,2,0,L|203:107,1,85.7999973815919,0|4,0:0|0:1,0:0:0:0:
299,107,41759,1,8,0:0:0:0:
404,208,42098,6,0,P|400:160|304:96,1,171.599994763184,4|8,0:1|0:0,0:0:0:0:
208,252,42607,2,0,L|384:224,1,171.599994763184,0|4,0:0|0:1,0:0:0:0:
280,192,43115,1,8,0:0:0:0:
131,298,43454,6,0,P|100:252|182:206,1,171.599994763184,4|0,0:2|2:0,0:0:0:0:
255,158,43963,2,0,P|286:112|204:66,1,171.599994763184,4|0,0:2|2:0,0:0:0:0:
156,285,44471,2,0,L|144:181,1,85.7999973815919
348,122,44810,1,4,2:2:0:0:
244,260,46166,6,0,P|186:236|183:172,2,107.25,4|0|4,0:0|0:0|0:0,0:0:0:0:
395,259,47014,1,4,0:0:0:0:
159,257,47522,1,0,0:2:0:0:
268,260,48878,6,0,P|326:236|329:172,2,107.25,0|0|4,0:0|2:0|0:0,0:0:0:0:
117,259,49726,2,0,L|109:175,1,71.5,4|8,0:0|0:0,0:0:0:0:
321,188,50234,1,0,0:0:0:0:
174,210,51590,6,0,P|116:186|113:122,2,107.25,0|0|0,0:0|0:0|0:0,0:0:0:0:
325,209,52438,1,0,0:0:0:0:
98,210,52946,1,0,0:0:0:0:
239,222,54302,6,0,P|297:198|300:134,2,107.25,0|0|0,0:0|0:0|0:0,0:0:0:0:
88,221,55150,1,0,0:0:0:0:
307,343,55658,6,0,P|334:298|274:232,1,143,0|0,0:0|0:0,0:0:0:0:
194,238,56166,2,0,P|109:213|174:142,1,214.5,0|0,0:0|0:0,0:0:0:0:
361,240,57014,6,0,P|401:227|434:152,2,107.25
194,237,57861,1,0,0:0:0:0:
363,343,58370,6,0,P|396:303|290:205,1,214.5,0|0,0:0|0:0,0:0:0:0:
120,202,59387,1,0,0:0:0:0:
247,207,59726,6,0,P|286:187|307:117,2,107.25,0|0|0,0:0|0:0|0:0,0:0:0:0:
390,200,60573,1,0,0:0:0:0:
190,347,61082,6,0,P|171:302|241:242,1,143,0|0,0:0|0:0,0:0:0:0:
302,244,61591,2,0,P|364:217|287:124,1,214.5,0|0,0:0|0:0,0:0:0:0:
132,343,62437,5,0,0:0:0:0:
118,248,62692,1,0,0:0:0:0:
103,142,62946,1,0,0:0:0:0:
298,206,63285,1,0,0:0:0:0:
313,108,63454,1,0,0:0:0:0:
132,204,63793,2,0,P|112:168|188:104,1,143,0|0,0:0|0:0,0:0:0:0:
256,100,64302,2,0,P|328:48|240:20,1,214.5,0|8,0:0|0:0,0:0:0:0:
128,324,65149,6,0,L|120:168,1,143,2|0,0:0|0:0,0:0:0:0:
220,180,65658,1,2,0:0:0:0:
36,180,65997,1,2,0:0:0:0:
390,327,66505,6,0,P|437:293|338:166,1,257.399992144776,6|0,0:3|0:0,0:0:0:0:
269,152,67183,2,0,P|251:102|354:44,1,171.599994763184,8|0,0:1|0:1,0:0:0:0:
352,201,67861,6,0,P|414:186|444:107,2,128.699996072388,4|4|4,0:1|0:1|0:1,0:0:0:0:
262,200,68539,1,8,0:1:0:0:
176,198,68709,2,0,P|148:144|235:79,1,171.599994763184
380,284,69217,6,0,P|406:240|327:157,1,171.599994763184,4|0,0:1|0:0,0:0:0:0:
153,274,69895,1,8,0:1:0:0:
89,232,70065,1,2,0:0:0:0:
78,164,70234,1,2,0:0:0:0:
119,109,70404,1,2,0:0:0:0:
186,96,70573,6,0,L|366:84,1,171.599994763184,4|4,0:1|0:1,0:0:0:0:
394,136,71082,1,0,0:0:0:0:
402,203,71251,1,8,0:1:0:0:
369,263,71421,2,0,L|189:255,1,171.599994763184
42,295,71929,6,0,P|23:213|163:160,1,257.399992144776,4|0,0:1|0:0,0:0:0:0:
246,156,72607,2,0,P|262:105|163:45,1,171.599994763184,8|0,0:1|0:1,0:0:0:0:
377,200,73285,6,0,P|439:185|469:106,2,128.699996072388,4|4|4,0:1|0:1|0:1,0:0:0:0:
279,199,73963,1,8,0:1:0:0:
181,200,74133,2,0,P|131:146|190:85,1,171.599994763184
395,76,74641,6,0,L|413:253,1,171.599994763184,4|0,0:1|0:0,0:0:0:0:
219,353,75319,1,8,0:1:0:0:
169,305,75488,1,2,0:0:0:0:
154,237,75658,1,2,0:0:0:0:
192,180,75827,1,2,0:0:0:0:
270,158,75997,6,0,P|327:147|326:38,2,171.599994763184,4|0|8,0:1|0:0|0:1,0:0:0:0:
183,160,76844,2,0,P|146:127|93:126,2,85.7999973815919,0|0|0,0:0|1:0|1:0,0:0:0:0:
372,304,77353,6,0,P|422:247|298:165,1,257.399992144776,6|0,0:3|0:0,0:0:0:0:
223,166,78031,2,0,P|197:115|271:13,1,171.599994763184,8|0,0:1|0:1,0:0:0:0:
322,240,78709,6,0,P|371:229|433:136,2,128.699996072388,4|4|4,0:1|0:1|0:1,0:0:0:0:
234,237,79387,1,8,0:1:0:0:
322,240,79556,2,0,P|397:197|363:137,1,171.599994763184
197,158,80065,6,0,P|159:118|213:13,1,171.599994763184,4|0,0:1|0:0,0:0:0:0:
300,324,80743,1,8,0:0:0:0:
266,264,80912,1,0,0:0:0:0:
282,183,81082,1,0,0:0:0:0:
342,151,81251,1,0,0:0:0:0:
416,22,81421,6,0,P|442:78|341:134,1,171.599994763184,4|4,0:1|0:1,0:0:0:0:
282,183,81929,1,0,0:0:0:0:
369,343,82098,2,0,P|424:306|342:164,1,257.399992144776,8|0,0:1|0:0,0:0:0:0:
183,221,82776,6,0,P|111:197|175:69,1,257.399992144776,4|0,0:1|0:0,0:0:0:0:
254,72,83454,2,0,P|334:100|386:32,1,171.599994763184,8|0,0:1|0:1,0:0:0:0:
259,122,84132,6,0,P|210:111|148:18,2,128.699996072388,4|4|4,0:1|0:1|0:1,0:0:0:0:
334,174,84810,1,8,0:1:0:0:
266,237,84980,2,0,P|176:221|159:143,1,171.599994763184
331,195,85488,6,0,P|369:144|343:37,1,171.599994763184,4|0,0:1|0:0,0:0:0:0:
204,344,86166,1,8,0:1:0:0:
148,302,86336,1,2,0:0:0:0:
136,234,86505,1,2,0:0:0:0:
175,177,86675,1,2,0:0:0:0:
263,171,86844,6,0,L|453:162,1,171.599994763184,4|2,0:0|0:3,0:0:0:0:
341,239,87353,1,0,0:0:0:0:
152,276,87522,2,0,P|110:220|183:127,1,171.599994763184,8|8,0:1|0:1,0:0:0:0:
250,139,88031,1,8,0:1:0:0:
413,142,88200,6,0,P|400:74|314:27,1,143,12|8,2:3|0:0,0:0:0:0:
257,34,88709,1,4,0:0:0:0:
420,150,89048,1,4,0:0:0:0:
252,284,89387,2,0,P|197:263|262:227,1,143,2|4,2:0|0:0,0:0:0:0:
413,232,90065,5,0,0:0:0:0:
217,216,90404,1,4,0:0:0:0:
413,232,90743,1,0,2:0:0:0:
496,176,90912,2,0,P|504:100|480:72,1,107.25,4|0,0:0|2:0,0:0:0:0:
336,244,91421,2,0,P|300:224|308:112,1,143,4|4,0:0|0:0,0:0:0:0:
374,48,91929,1,8,0:0:0:0:
227,313,92268,6,0,L|68:300,1,143,4|8,0:0|0:0,0:0:0:0:
172,263,92776,1,4,0:0:0:0:
49,190,93115,2,0,P|33:118|109:72,1,143,4|0,0:0|0:0,0:0:0:0:
243,75,93624,6,0,L|408:59,1,143,0|8,0:0|0:0,0:0:0:0:
466,90,94133,1,4,0:0:0:0:
256,178,94472,1,4,0:0:0:0:
444,327,94810,2,0,P|428:267|355:216,1,143,0|4,2:0|0:0,0:0:0:0:
190,245,95488,1,4,0:0:0:0:
390,245,95827,1,4,0:0:0:0:
190,245,96166,1,0,2:0:0:0:
120,254,96336,6,0,P|84:201|94:142,1,107.25,4|0,0:0|2:0,0:0:0:0:
206,98,96844,2,0,P|284:76|356:114,1,143,0|4,0:0|0:0,0:0:0:0:
255,187,97353,1,8,0:0:0:0:
370,277,97692,6,0,P|421:247|470:250,2,107.25,4|4|8,0:2|0:0|0:0,0:0:0:0:
284,322,98370,2,0,L|110:306,1,143,0|8,0:0|0:0,0:0:0:0:
212,224,98878,1,8,0:0:0:0:
388,200,99048,6,0,P|375:132|289:85,1,143,12|8,0:3|0:0,0:0:0:0:
229,91,99557,1,4,0:0:0:0:
98,93,99896,1,4,0:0:0:0:
304,287,100235,2,0,P|359:266|294:230,1,143,0|4,2:0|0:0,0:0:0:0:
143,235,100913,5,0,2:0:0:0:
339,219,101252,1,4,1:0:0:0:
143,235,101591,1,0,2:0:0:0:
58,247,101759,2,0,P|50:171|74:143,1,107.25,4|0,0:0|2:0,0:0:0:0:
204,316,102268,2,0,P|240:296|232:184,1,143,4|4,1:0|0:0,0:0:0:0:
166,120,102776,1,8,0:0:0:0:
364,144,103115,6,0,L|192:116,1,143,4|8,0:0|0:0,0:0:0:0:
286,85,103624,1,4,0:0:0:0:
164,252,103963,2,0,P|96:216|136:144,1,143,4|0,1:0|2:0,0:0:0:0:
276,166,104471,6,0,L|432:149,1,143,4|8,0:0|0:0,0:0:0:0:
461,227,104980,1,4,0:0:0:0:
285,281,105319,1,4,0:0:0:0:
438,352,105658,6,0,P|470:304|405:239,1,143,2|4,2:2|0:0,0:0:0:0:
338,221,106166,1,8,0:0:0:0:
257,243,106336,1,4,0:0:0:0:
72,161,106675,1,4,0:0:0:0:
255,112,107014,1,0,2:0:0:0:
331,110,107183,6,0,P|371:73|391:-3,1,107.25,4|0,0:0|2:0,0:0:0:0:
221,319,107692,2,0,P|168:296|204:207,1,143,4|4,0:0|0:0,0:0:0:0:
260,211,108200,1,8,0:0:0:0:
108,220,108539,5,4,0:0:0:0:
76,128,108709,1,8,0:0:0:0:
234,127,108963,1,0,0:0:0:0:
64,299,109217,1,8,0:0:0:0:
28,248,109387,1,8,0:0:0:0:
42,187,109556,1,8,0:0:0:0:
95,162,109726,1,8,0:0:0:0:
260,157,109895,6,0,L|433:141,1,143,4|8,0:3|0:0,0:0:0:0:
478,165,110404,2,0,P|470:97|403:43,1,143,4|4,0:1|0:1,0:0:0:0:
336,45,110912,1,8,0:0:0:0:
137,298,111251,6,0,P|90:274|66:207,2,107.25,4|0|4,0:1|0:0|0:1,0:0:0:0:
315,296,112098,1,4,0:1:0:0:
149,338,112607,6,0,P|121:295|191:224,1,143,4|8,0:3|0:1,0:0:0:0:
241,229,113115,2,0,P|282:199|181:116,1,214.5,4|8,0:1|0:0,0:0:0:0:
59,279,113963,1,4,0:1:0:0:
34,196,114217,1,0,0:0:0:0:
64,115,114471,1,4,0:1:0:0:
229,118,114810,1,4,0:1:0:0:
449,295,115319,6,0,P|471:235|435:157,1,143,4|8,0:3|0:0,0:0:0:0:
346,225,115827,2,0,P|280:187|340:78,1,214.5,0|8,0:0|0:0,0:0:0:0:
185,177,116675,6,0,P|128:145|113:78,2,107.25,0|0|0,0:0|0:0|0:0,0:0:0:0:
348,176,117522,1,0,0:0:0:0:
135,317,118031,6,0,P|107:274|177:203,1,143,4|8,0:3|0:0,0:0:0:0:
227,208,118539,2,0,P|268:178|167:95,1,214.5,0|8,0:0|0:0,0:0:0:0:
45,258,119387,1,0,0:0:0:0:
20,175,119641,1,0,0:0:0:0:
50,94,119895,1,0,0:0:0:0:
215,97,120234,1,0,0:0:0:0:
79,218,120743,6,0,P|61:180|138:179,1,143,4|8,0:3|0:0,0:0:0:0:
206,172,121251,2,0,P|253:133|160:45,1,214.5,0|8,0:0|0:0,0:0:0:0:
335,206,122098,2,0,P|383:186|407:116,2,107.25,0|0|0,0:0|0:0|0:0,0:0:0:0:
152,208,122946,1,0,0:0:0:0:
367,211,123454,6,0,P|385:173|308:172,1,143,4|8,0:3|0:0,0:0:0:0:
240,165,123962,2,0,P|193:126|286:38,1,214.5,0|8,0:0|0:0,0:0:0:0:
111,199,124810,2,0,P|63:179|39:109,2,107.25,0|0|0,0:0|0:0|0:0,0:0:0:0:
268,201,125657,1,0,0:0:0:0:
100,239,126166,5,4,0:3:0:0:
270,222,126505,1,8,0:0:0:0:
286,141,126675,1,0,0:0:0:0:
88,63,127183,1,8,0:0:0:0:
266,80,127522,5,0,0:0:0:0:
152,161,127776,1,0,0:0:0:0:
262,243,128031,1,0,0:0:0:0:
386,166,128370,1,0,0:0:0:0:
402,110,128539,1,8,0:0:0:0:
218,215,128878,5,4,0:3:0:0:
345,217,129217,1,8,0:0:0:0:
332,150,129386,1,4,0:3:0:0:
99,180,129895,1,0,0:0:0:0:
252,347,130234,6,0,P|304:316|120:298,1,572,0|4,0:0|1:3,0:0:0:0:
256,192,142437,12,0,152607,0:0:0:0:
272,312,153285,6,0,P|320:284|292:168,1,171.599994763184,0|0,1:0|0:0,0:0:0:0:
161,245,153963,1,2,0:0:0:0:
115,194,154132,1,2,0:0:0:0:
131,127,154302,1,2,0:0:0:0:
190,92,154471,1,2,0:0:0:0:
258,90,154641,6,0,P|309:98|347:168,2,128.699996072388,2|0|2,0:0|0:0|0:0,0:0:0:0:
139,91,155319,1,2,0:0:0:0:
260,236,155573,2,0,P|317:218|342:128,1,128.699996072388,2|0,0:0|0:0,0:0:0:0:
259,349,155997,6,0,P|213:320|280:238,1,171.599994763184,2|0,0:0|0:0,0:0:0:0:
453,294,156675,1,2,0:0:0:0:
488,235,156844,1,2,0:0:0:0:
477,166,157014,1,2,0:0:0:0:
431,115,157183,1,2,0:0:0:0:
362,107,157353,6,0,P|286:103|263:40,2,128.699996072388,2|2|2,0:0|0:0|0:0,0:0:0:0:
449,106,158031,1,2,0:0:0:0:
379,234,158285,2,0,P|314:220|251:265,1,128.699996072388,0|0,0:0|0:0,0:0:0:0:
83,179,158709,6,0,P|70:258|139:299,1,171.599994763184,4|0,0:0|0:0,0:0:0:0:
244,228,159387,2,0,L|298:152,1,85.7999973815919,2|2,0:0|0:0,0:0:0:0:
195,105,159726,2,0,L|146:175,1,85.7999973815919,2|2,0:0|0:0,0:0:0:0:
267,157,160065,6,0,P|318:165|356:235,2,128.699996072388,2|2|2,0:0|0:0|0:0,0:0:0:0:
175,160,160743,1,2,0:0:0:0:
296,305,160997,2,0,P|353:287|378:197,1,128.699996072388,2|0,0:0|0:0,0:0:0:0:
294,159,161421,6,0,P|237:141|230:20,1,171.599994763184,2|0,0:0|0:0,0:0:0:0:
413,306,162098,1,2,0:0:0:0:
456,252,162268,1,2,0:0:0:0:
460,183,162437,1,2,0:0:0:0:
421,125,162607,1,2,0:0:0:0:
352,120,162776,1,2,0:0:0:0:
183,193,163115,2,0,P|229:159|147:85,1,171.599994763184,2|2,0:0|0:0,0:0:0:0:
90,118,163624,2,0,L|3:64,2,85.7999973815919,0|2|2,0:0|0:0|0:0,0:0:0:0:
283,81,164132,5,4,1:2:0:0:
355,204,164471,1,0,1:0:0:0:
180,344,164810,1,2,1:2:0:0:
132,293,164980,1,2,0:0:0:0:
114,226,165149,1,2,1:2:0:0:
141,162,165319,1,2,0:0:0:0:
205,139,165488,2,0,P|260:127|299:43,2,128.699996072388,0|2|2,1:0|0:0|2:0,0:0:0:0:
103,138,166166,1,0,1:0:0:0:
238,178,166421,2,0,P|312:160|337:89,1,128.699996072388,2|0,0:0|0:0,0:0:0:0:
168,20,166844,6,0,P|94:74|80:156,1,171.599994763184,2|0,1:2|1:0,0:0:0:0:
249,274,167522,1,2,1:2:0:0:
287,217,167692,1,2,0:0:0:0:
263,152,167861,1,2,1:2:0:0:
196,134,168031,1,2,0:0:0:0:
126,154,168200,2,0,P|73:143|45:69,2,128.699996072388,0|0|0,1:0|0:0|0:0,0:0:0:0:
220,154,168878,1,2,1:2:0:0:
176,328,169132,2,0,P|127:290|152:216,1,128.699996072388,2|0,0:0|0:0,0:0:0:0:
344,324,169556,5,4,1:2:0:0:
392,275,169726,1,0,1:0:0:0:
403,207,169895,1,0,1:0:0:0:
351,161,170065,1,0,1:0:0:0:
249,323,170234,1,4,1:2:0:0:
201,274,170404,1,0,1:0:0:0:
190,206,170573,1,0,1:0:0:0:
242,160,170743,1,0,1:0:0:0:
334,161,170912,5,4,1:2:0:0:
390,199,171082,1,0,1:2:0:0:
402,266,171251,1,0,1:2:0:0:
373,328,171421,1,0,1:2:0:0:
194,158,171590,1,4,1:2:0:0:
138,196,171760,1,0,1:2:0:0:
126,263,171929,1,0,1:2:0:0:
155,325,172099,1,0,1:2:0:0:
322,338,172268,6,0,P|368:323|396:202,1,171.599994763184,4|4,1:2|1:2,0:0:0:0:
209,342,172946,2,0,P|163:327|135:206,1,171.599994763184,4|4,1:2|1:2,0:0:0:0:
396,204,173624,5,4,1:2:0:0:
194,210,173963,2,0,P|164:169|253:109,1,171.599994763184,2|2,0:0|0:0,0:0:0:0:
329,104,174471,1,0,0:0:0:0:
416,111,174641,1,0,3:0:0:0:
424,73,174726,1,0,3:0:0:0:
430,42,174810,1,0,3:0:0:0:
246,28,174980,6,0,P|178:20|55:72,1,200.199993890381,14|8,0:3|0:1,0:0:0:0:
168,131,175488,1,4,0:1:0:0:
314,127,175827,1,4,0:1:0:0:
192,236,176166,2,0,P|152:196|224:120,1,171.599994763184,0|4,2:0|0:0,0:0:0:0:
400,128,176844,1,4,0:1:0:0:
229,134,177183,1,4,0:1:0:0:
408,128,177522,1,0,1:0:0:0:
341,209,177692,6,0,P|301:177|301:93,1,128.699996072388,4|4,0:1|0:1,0:0:0:0:
464,54,178200,1,4,0:1:0:0:
283,323,178539,2,0,P|259:278|257:234,1,85.7999973815919,4|8,0:1|0:1,0:0:0:0:
345,185,178878,1,0,2:0:0:0:
430,139,179048,6,0,P|452:94|343:36,1,171.599994763184,4|8,0:1|0:1,0:0:0:0:
271,28,179556,1,4,0:1:0:0:
435,277,179895,2,0,P|472:229|392:160,1,171.599994763184,8|8,1:1|1:1,0:0:0:0:
241,162,180404,6,0,P|183:114|203:22,1,171.599994763184,4|8,0:2|0:1,0:0:0:0:
288,31,180912,1,4,0:1:0:0:
139,117,181251,1,4,0:1:0:0:
314,351,181590,6,0,P|342:295|242:239,1,171.599994763184,0|2,2:0|0:3,0:0:0:0:
100,240,182268,1,4,0:1:0:0:
284,240,182607,1,4,0:1:0:0:
84,240,182946,1,0,0:0:0:0:
160,186,183115,6,0,P|171:143|131:74,1,128.699996072388,4|4,0:1|0:1,0:0:0:0:
1,79,183624,1,4,0:1:0:0:
212,168,183963,2,0,P|256:144|224:32,1,171.599994763184,4|0,0:1|0:0,0:0:0:0:
133,288,184471,6,0,P|64:253|46:176,2,128.699996072388,4|0|4,0:2|0:0|0:1,0:0:0:0:
233,292,185149,2,0,P|308:295|334:204,1,171.599994763184,8|8,0:1|0:1,0:0:0:0:
267,128,185658,1,8,0:1:0:0:
92,241,185827,6,0,P|68:170|150:110,1,171.599994763184,14|8,0:3|0:1,0:0:0:0:
224,112,186336,1,4,0:1:0:0:
392,192,186675,1,4,0:1:0:0:
252,312,187014,2,0,P|184:288|180:192,1,171.599994763184,2|2,0:3|0:3,0:0:0:0:
377,191,187692,1,4,0:1:0:0:
184,188,188031,1,4,0:1:0:0:
385,191,188370,1,0,2:0:0:0:
296,315,188539,6,0,P|276:265|331:210,1,128.699996072388,4|4,0:1|0:1,0:0:0:0:
455,258,189048,2,0,L|465:82,1,171.599994763184,4|4,0:1|0:1,0:0:0:0:
382,36,189556,1,8,0:1:0:0:
236,206,189895,2,0,P|229:158|323:88,1,171.599994763184,4|8,0:1|0:1,0:0:0:0:
399,87,190404,1,4,0:1:0:0:
203,312,190743,2,0,P|146:278|206:193,1,171.599994763184,8|8,1:1|1:1,0:0:0:0:
338,196,191251,6,0,P|398:140|380:60,1,171.599994763184,4|8,0:2|0:1,0:0:0:0:
291,64,191759,1,4,0:1:0:0:
450,160,192098,1,4,0:1:0:0:
233,382,192437,6,0,P|208:305|275:261,1,171.599994763184,2|4,0:3|0:0,0:0:0:0:
443,258,193115,1,4,0:1:0:0:
291,261,193454,1,4,0:1:0:0:
459,258,193793,1,0,0:0:0:0:
382,232,193963,5,4,0:1:0:0:
252,241,194217,1,4,0:1:0:0:
429,213,194471,2,0,P|428:157|311:140,1,171.599994763184,4|4,0:1|0:1,0:0:0:0:
227,276,194980,1,8,0:1:0:0:
382,329,195319,6,0,P|425:293|432:215,2,128.699996072388,4|0|4,0:1|0:0|0:1,0:0:0:0:
283,329,195997,2,0,P|227:293|252:194,1,171.599994763184,8|8,0:1|0:1,0:0:0:0:
321,176,196505,1,8,0:1:0:0:
479,199,196675,6,0,P|497:149|397:52,1,171.599994763184,12|8,1:3|0:0,0:0:0:0:
347,56,197183,1,4,0:0:0:0:
168,60,197353,2,0,L|142:155,1,85.7999973815919,0|4,2:0|1:0,0:0:0:0:
242,143,197692,1,8,0:0:0:0:
136,308,198200,6,0,P|116:252|224:208,1,171.599994763184,2|4,0:3|0:0,0:0:0:0:
309,198,198709,1,0,2:0:0:0:
343,138,198878,1,0,0:0:0:0:
314,75,199048,1,8,0:0:0:0:
247,59,199217,1,2,2:0:0:0:
326,110,199387,6,0,P|386:92|370:11,1,128.699996072388,0|0,0:0|2:0,0:0:0:0:
233,262,199895,1,4,0:0:0:0:
147,230,200065,2,0,L|136:130,1,85.7999973815919,0|0,2:0|2:0,0:0:0:0:
243,122,200404,1,8,0:0:0:0:
388,236,200743,6,0,P|436:216|472:104,1,171.599994763184,4|8,0:2|0:0,0:0:0:0:
367,112,201251,1,0,0:0:0:0:
202,234,201421,2,0,P|154:214|118:102,1,171.599994763184,4|0,1:2|2:0,0:0:0:0:
234,109,201929,1,0,1:0:0:0:
412,118,202098,6,0,P|452:81|421:12,1,128.699996072388,4|0,0:2|2:0,0:0:0:0:
258,24,202607,1,0,0:0:0:0:
362,155,202946,1,4,0:0:0:0:
436,106,203115,2,0,P|441:62|396:23,1,85.7999973815919,8|0,0:0|2:0,0:0:0:0:
311,32,203454,5,0,1:0:0:0:
106,37,203793,1,8,1:0:0:0:
328,208,204132,2,0,P|333:164|288:125,1,85.7999973815919,0|4,2:0|0:0,0:0:0:0:
203,134,204471,1,8,0:0:0:0:
363,331,204810,6,0,P|413:303|425:233,1,128.699996072388,4|0,0:0|2:0,0:0:0:0:
291,235,205319,2,0,P|259:185|342:115,1,171.599994763184,4|0,0:0|2:0,0:0:0:0:
407,115,205827,1,8,0:0:0:0:
288,303,206166,6,0,P|190:287|131:355,1,171.599994763184,4|0,1:2|0:0,0:0:0:0:
210,247,206675,2,0,P|308:231|367:299,1,171.599994763184,8|0,0:0|0:0,0:0:0:0:
380,351,207183,1,8,0:0:0:0:
60,321,207522,5,4,1:2:0:0:
185,308,207861,1,2,3:0:0:0:
228,254,208031,1,4,0:0:0:0:
236,186,208200,1,0,2:0:0:0:
194,131,208370,1,4,1:0:0:0:
126,119,208539,1,8,0:0:0:0:
276,284,208878,5,2,2:0:0:0:
353,247,209048,2,0,P|363:185|258:139,1,171.599994763184,4|0,0:0|2:0,0:0:0:0:
216,208,209556,2,0,L|181:109,1,85.7999973815919,0|4,2:0|0:0,0:0:0:0:
276,108,209895,2,0,L|311:9,1,85.7999973815919,8|2,2:0|2:0,0:0:0:0:
224,136,210234,6,0,P|172:100|139:31,1,128.699996072388,4|0,0:0|2:0,0:0:0:0:
276,40,210743,1,4,0:0:0:0:
176,164,211082,1,0,2:0:0:0:
146,75,211251,1,8,0:0:0:0:
372,320,211590,6,0,P|416:292|352:216,1,171.599994763184,4|0,1:2|0:0,0:0:0:0:
260,204,212098,1,0,2:0:0:0:
74,192,212268,2,0,P|30:164|94:88,1,171.599994763184,4|8,1:2|0:0,0:0:0:0:
186,76,212776,1,4,0:0:0:0:
358,343,212946,5,4,0:2:0:0:
421,316,213115,1,4,0:0:0:0:
448,253,213285,1,4,0:0:0:0:
429,187,213454,1,4,0:0:0:0:
328,185,213624,1,4,0:0:0:0:
280,135,213793,1,4,0:0:0:0:
305,71,213963,1,4,0:0:0:0:
369,49,214132,1,4,0:0:0:0:
478,54,214302,5,4,0:2:0:0:
213,75,214641,1,4,0:1:0:0:
329,258,214980,1,4,0:1:0:0:
366,201,215149,1,4,0:0:0:0:
336,138,215319,1,4,0:1:0:0:
268,127,215488,1,4,0:0:0:0:
212,180,215658,6,0,P|182:131|189:89,1,85.7999973815919,4|4,0:2|0:0,0:0:0:0:
252,82,215997,1,4,0:0:0:0:
280,19,216166,1,4,0:0:0:0:
241,278,216336,2,0,P|211:229|218:187,1,85.7999973815919,4|4,0:0|0:0,0:0:0:0:
295,193,216675,1,4,0:0:0:0:
323,130,216844,1,4,0:0:0:0:
152,129,217014,6,0,P|78:109|108:29,1,171.599994763184,0|2,0:0|0:3,0:0:0:0:
218,43,217692,1,2,0:3:0:0:
312,86,217861,1,0,0:1:0:0:
196,65,218031,1,0,0:0:0:0:
183,96,218115,1,0,0:0:0:0:
170,128,218200,1,4,0:0:0:0:
347,313,218370,6,0,P|413:270|308:180,1,257.399992144776,6|0,0:3|0:0,0:0:0:0:
126,172,219048,2,0,P|106:116|209:47,1,171.599994763184,8|0,0:1|0:1,0:0:0:0:
339,270,219726,6,0,P|387:253|402:163,2,128.699996072388,4|4|4,0:1|0:1|0:1,0:0:0:0:
246,268,220404,1,8,0:1:0:0:
142,267,220573,2,0,P|122:222|222:149,1,171.599994763184
381,146,221082,6,0,P|431:138|453:19,1,171.599994763184,4|0,0:1|0:0,0:0:0:0:
291,333,221759,1,8,0:1:0:0:
332,278,221929,1,2,0:0:0:0:
312,212,222098,1,2,0:0:0:0:
256,170,222268,1,2,0:0:0:0:
187,131,222437,6,0,P|113:96|112:15,1,171.599994763184,4|4,0:1|0:1,0:0:0:0:
200,39,222946,1,0,0:0:0:0:
283,14,223115,1,8,0:1:0:0:
366,42,223285,2,0,P|419:106|346:174,1,171.599994763184
194,250,223793,6,0,P|119:239|162:103,1,257.399992144776,4|0,0:1|0:0,0:0:0:0:
251,148,224471,2,0,P|276:100|200:30,1,171.599994763184,8|0,0:1|0:1,0:0:0:0:
149,274,225149,6,0,P|98:244|93:172,2,128.699996072388,4|4|4,0:1|0:1|0:1,0:0:0:0:
249,267,225827,1,8,0:1:0:0:
347,260,225997,2,0,P|387:222|312:130,1,171.599994763184
155,132,226505,6,0,P|100:105|124:10,1,171.599994763184,4|0,0:1|0:0,0:0:0:0:
311,318,227183,1,8,0:1:0:0:
362,272,227353,1,2,0:0:0:0:
380,206,227522,1,2,0:0:0:0:
352,142,227692,1,2,0:0:0:0:
289,115,227861,5,4,0:1:0:0:
143,130,228200,1,0,0:0:0:0:
310,207,228539,1,8,0:1:0:0:
392,152,228709,1,0,0:0:0:0:
405,120,228793,1,0,0:0:0:0:
392,87,228878,1,0,1:0:0:0:
297,60,229048,1,0,1:0:0:0:
123,241,229217,6,0,P|101:184|252:118,1,257.399992144776,6|0,0:3|0:0,0:0:0:0:
430,133,229895,2,0,P|438:77|333:32,1,171.599994763184,8|0,0:1|0:1,0:0:0:0:
252,263,230573,6,0,P|181:240|173:167,2,128.699996072388,4|4|4,0:1|0:1|0:1,0:0:0:0:
345,263,231251,1,8,0:0:0:0:
250,349,231421,2,0,P|181:320|209:221,1,171.599994763184,0|0,0:0|0:0,0:0:0:0:
363,236,231929,6,0,P|411:214|362:107,1,171.599994763184,4|0,0:1|0:0,0:0:0:0:
218,333,232607,1,8,0:1:0:0:
172,281,232776,1,2,0:0:0:0:
162,212,232946,1,2,0:0:0:0:
195,152,233115,1,2,0:0:0:0:
258,125,233285,2,0,P|316:114|292:15,1,171.599994763184,4|4,0:1|0:1,0:0:0:0:
209,65,233793,1,0,0:0:0:0:
308,284,233963,6,0,P|375:257|272:167,1,257.399992144776,8|0,0:1|0:0,0:0:0:0:
118,211,234641,6,0,P|98:163|234:59,1,257.399992144776,4|0,0:1|0:0,0:0:0:0:
335,87,235319,1,8,0:1:0:0:
371,144,235488,1,0,0:1:0:0:
358,211,235658,1,0,0:1:0:0:
309,259,235827,1,0,0:1:0:0:
205,259,235997,6,0,P|137:247|126:171,2,128.699996072388,4|4|4,0:1|0:1|0:1,0:0:0:0:
309,259,236675,1,8,0:1:0:0:
204,351,236844,2,0,P|145:317|202:219,1,171.599994763184,0|0,0:0|0:0,0:0:0:0:
370,224,237353,6,0,P|394:172|242:96,1,257.399992144776,4|0,0:1|0:0,0:0:0:0:
159,212,238031,1,8,0:1:0:0:
123,153,238200,1,2,0:0:0:0:
141,86,238370,1,2,0:0:0:0:
203,58,238539,1,2,0:0:0:0:
336,157,238709,6,0,L|366:74,1,85.7999973815919,2|8,0:3|0:1,0:0:0:0:
260,69,239048,1,2,0:3:0:0:
255,35,239132,1,8,0:1:0:0:
349,255,239302,1,2,0:3:0:0:
354,221,239386,1,8,0:1:0:0:
275,153,239556,1,8,0:1:0:0:
179,193,239726,2,0,P|157:150|195:91,1,85.7999973815919,8|8,0:1|0:1,0:0:0:0:
366,124,240065,5,12,0:3:0:0:
