osu file format v14

[General]
AudioFilename: audio.mp3
AudioLeadIn: 0
PreviewTime: 88115
Countdown: 0
SampleSet: Normal
StackLeniency: 0.7
Mode: 2
LetterboxInBreaks: 0
WidescreenStoryboard: 1

[Editor]
Bookmarks: 23115,44810,66505,88200,109895,131590,153285,174980,196675,218370,240065
DistanceSpacing: 2.2
BeatDivisor: 8
GridSize: 32
TimelineZoom: 2.699998

[Metadata]
Title:Algebra
TitleUnicode:Algebra
Artist:Function Phantom
ArtistUnicode:Function Phantom
Creator:Spectator
Version:Crystal Spec's Overdose
Source:osu!
Tags:alienflybot AFB Sinnoh CLSW Minato Yukina featured artist dubstep drumstep wub
BeatmapID:1001619
BeatmapSetID:468281

[Difficulty]
HPDrainRate:7
CircleSize:4
OverallDifficulty:9.6
ApproachRate:9.6
SliderMultiplier:1.9
SliderTickRate:2

[Events]
//Background and Video events
0,0,"never_letting_go_by_nanomortis-d9i37dg_.png",0,0
//Break Periods
2,131790,141928
//Storyboard Layer 0 (Background)
//Storyboard Layer 1 (Fail)
//Storyboard Layer 2 (Pass)
//Storyboard Layer 3 (Foreground)
Sprite,Foreground,Centre,"SB\me.png",320,240 M,0,1421,,516.6547,87.56361 S,0,1421,,0.5810907 F,0,23073,23115,1,0
Sprite,Foreground,Centre,"SB\CLSW.png",320,240 M,0,23115,,577.7455,89.8909 S,0,23115,,0.6509091 F,0,44768,44810,1,0
Sprite,Foreground,Centre,"SB\me.png",320,240 M,0,44810,,516.6547,87.56361 S,0,44810,,0.5810907 F,0,66462,66504,1,0
Sprite,Foreground,Centre,"SB\CLSW.png",320,240 M,0,66505,,577.7455,89.8909 S,0,66505,,0.6509091 F,0,88158,88200,1,0
Sprite,Foreground,Centre,"SB\CLSW.png",320,240 M,0,109895,,577.7455,89.8909 S,0,109895,,0.6509091 F,0,131548,131590,1,0
Sprite,Foreground,Centre,"SB\me.png",320,240 M,0,88200,,516.6547,87.56361 S,0,88200,,0.5810907 F,0,109852,109894,1,0
Sprite,Foreground,Centre,"SB\me.png",320,240 M,0,153285,,516.6547,87.56361 S,0,153285,,0.5810907 F,0,174937,174979,1,0
Sprite,Foreground,Centre,"SB\me.png",320,240 M,0,196675,,516.6547,87.56361 S,0,196675,,0.5810907 F,0,218327,218369,1,0
Sprite,Foreground,Centre,"SB\CLSW.png",320,240 M,0,174980,,577.7455,89.8909 S,0,174980,,0.6509091 F,0,196633,196675,1,0
Sprite,Foreground,Centre,"SB\CLSW.png",320,240 M,0,218370,,577.7455,89.8909 S,0,218370,,0.6509091 F,0,240023,240065,1,0
//Storyboard Sound Samples

[TimingPoints]
1421,338.983050847458,4,2,1,40,1,0
1590,-100,4,2,1,20,0,0
12268,-100,4,2,1,30,0,0
17692,-100,4,1,1,10,0,0
18200,-100,4,1,1,10,0,0
18370,-100,4,1,1,15,0,0
19048,-100,4,1,1,20,0,0
19556,-100,4,1,1,30,0,0
20404,-100,4,1,1,35,0,0
21336,-100,4,1,1,40,0,0
21759,-83.3333333333333,4,2,1,50,0,0
21929,-83.3333333333333,4,2,1,5,0,0
22098,-83.3333333333333,4,2,1,50,0,0
22268,-83.3333333333333,4,2,1,5,0,0
22437,-83.3333333333333,4,2,1,50,0,0
22607,-83.3333333333333,4,2,1,5,0,0
22776,-83.3333333333333,4,2,1,40,0,0
23115,-83.3333333333333,4,1,1,50,0,0
27183,-66.6666666666667,4,1,1,50,0,0
28539,-83.3333333333333,4,1,1,50,0,0
29895,-66.6666666666667,4,1,1,50,0,0
30573,-83.3333333333333,4,1,1,50,0,0
38031,-66.6666666666667,4,1,1,50,0,0
39387,-76.9230769230769,4,1,1,50,0,0
44810,-90.9090909090909,4,1,1,50,0,0
52946,-100,4,1,1,50,0,0
55658,-100,4,1,1,45,0,0
58370,-100,4,1,1,40,0,0
60912,-100,4,1,1,20,0,0
62437,-100,4,1,1,15,0,0
63793,-100,4,1,1,15,0,0
65149,-76.9230769230769,4,2,1,30,0,0
65488,-76.9230769230769,4,2,1,5,0,0
65658,-76.9230769230769,4,2,1,25,0,0
65827,-76.9230769230769,4,2,1,5,0,0
65997,-76.9230769230769,4,2,1,45,0,0
66505,-76.9230769230769,4,2,1,60,0,0
88200,-83.3333333333333,4,1,1,70,0,1
88285,-83.3333333333333,4,1,1,70,0,0
109895,-100,4,2,1,60,0,0
109980,-100,4,2,1,30,0,0
120743,-100,4,2,1,25,0,0
142437,-100,4,2,1,5,0,0
143793,-100,4,2,1,10,0,0
145149,-100,4,2,1,15,0,0
146505,-100,4,2,1,20,0,0
147861,-100,4,2,1,25,0,0
149217,-100,4,2,1,30,0,0
150573,-100,4,2,1,35,0,0
151929,-100,4,2,1,40,0,0
153285,-90.9090909090909,4,2,0,50,0,0
164132,-83.3333333333333,4,2,0,50,0,0
169514,-83.3333333333333,4,2,0,60,0,0
174598,-83.3333333333333,4,2,0,65,0,0
174980,-76.9230769230769,4,1,1,70,0,1
175065,-76.9230769230769,4,1,1,70,0,0
196675,-76.9230769230769,4,1,1,75,0,1
196759,-76.9230769230769,4,1,1,75,0,0
218341,-76.9230769230769,4,2,1,60,0,0

[Colours]
Combo1 : 121,111,213
Combo2 : 247,108,125
Combo3 : 243,141,103
Combo4 : 124,186,216

[HitObjects]
168,324,1421,37,4,0:3:0:0:
337,254,1675,1,0,0:0:0:0:
126,224,1929,1,2,0:0:0:0:
364,137,2183,1,0,0:0:0:0:
192,160,2437,2,0,L|16:126,1,142.5,2|0,0:0|0:0,0:0:0:0:
224,52,2946,2,0,L|400:16,1,142.5,2|0,0:0|0:0,0:0:0:0:
180,273,3454,5,2,0:0:0:0:
59,343,3624,1,0,0:0:0:0:
44,307,3709,1,0,0:0:0:0:
30,271,3793,1,0,0:0:0:0:
92,197,3963,1,2,0:0:0:0:
251,330,4132,6,0,L|268:195,1,95,2|0,0:0|0:0,0:0:0:0:
165,145,4471,1,0,0:0:0:0:
311,185,4641,2,0,L|328:50,1,95,2|0,0:0|0:0,0:0:0:0:
225,0,4980,1,0,0:0:0:0:
358,327,5149,6,0,P|419:264|332:214,1,190,2|0,0:0|0:0,0:0:0:0:
212,244,5658,2,0,L|195:109,1,95,2|0,0:0|0:0,0:0:0:0:
298,59,5997,1,0,0:0:0:0:
427,148,6166,1,2,0:0:0:0:
315,293,6336,1,2,0:0:0:0:
307,246,6421,1,0,0:0:0:0:
299,199,6505,1,0,0:0:0:0:
145,73,6844,37,2,0:0:0:0:
357,194,7098,1,0,0:0:0:0:
160,236,7353,1,2,0:0:0:0:
372,357,7607,1,0,0:0:0:0:
123,330,7861,2,0,P|67:306|14:219,1,142.5,2|0,0:0|0:0,0:0:0:0:
280,200,8370,2,0,P|336:176|390:91,1,142.5,2|0,0:0|0:0,0:0:0:0:
183,78,8878,5,2,0:0:0:0:
90,228,9048,1,2,0:0:0:0:
79,199,9132,1,0,0:0:0:0:
69,170,9217,1,0,0:0:0:0:
176,103,9387,1,0,0:0:0:0:
338,242,9556,6,0,L|352:118,1,95,2|2,0:0|0:0,0:0:0:0:
224,152,9895,2,0,L|211:49,1,95,0|2,0:0|0:0,0:0:0:0:
376,254,10234,1,0,0:0:0:0:
252,331,10403,2,0,L|239:229,1,95,0|2,0:0|0:0,0:0:0:0:
400,356,10743,1,0,0:0:0:0:
256,148,10912,2,0,L|121:164,1,95,2|0,0:0|0:0,0:0:0:0:
304,248,11251,37,0,0:0:0:0:
176,332,11421,1,0,0:0:0:0:
360,332,11590,1,0,0:0:0:0:
421,287,11759,1,0,0:0:0:0:
435,212,11929,1,0,0:0:0:0:
411,139,12098,1,0,0:0:0:0:
102,342,12268,6,0,P|76:285|164:230,1,142.5,2|0,0:0|0:0,0:0:0:0:
198,213,12607,2,0,L|299:212,1,95
428,352,12946,37,0,0:0:0:0:
454,330,13031,1,0,0:0:0:0:
471,301,13115,1,0,0:0:0:0:
477,267,13200,1,0,0:0:0:0:
473,232,13285,1,0,0:0:0:0:
457,201,13370,1,0,0:0:0:0:
430,180,13454,1,0,0:0:0:0:
398,167,13539,1,0,0:0:0:0:
363,168,13624,5,0,0:0:0:0:
328,166,13709,1,0,0:0:0:0:
297,151,13793,1,0,0:0:0:0:
276,123,13878,1,0,0:0:0:0:
270,89,13963,1,0,0:0:0:0:
282,57,14048,1,0,0:0:0:0:
307,34,14132,1,0,0:0:0:0:
338,20,14217,1,0,0:0:0:0:
400,48,14302,38,0,L|446:68,6,47.5
273,98,14980,6,0,L|169:112,2,95,2|0|0,0:0|0:0|0:0,0:0:0:0:
134,242,15488,2,0,L|238:256,2,95,2|0|0,0:0|0:0|0:0,0:0:0:0:
283,361,15997,6,0,P|340:297|264:241,1,190,2|0,0:0|0:0,0:0:0:0:
134,255,16505,2,0,L|112:150,1,95,2|0,0:0|0:0,0:0:0:0:
218,76,16844,1,0,0:0:0:0:
365,154,17014,2,0,L|236:140,1,95,2|0,0:0|0:0,0:0:0:0:
401,240,17353,1,0,0:0:0:0:
147,339,17692,38,0,P|144:263|229:225,1,142.5
265,218,18031,1,8,0:0:0:0:
411,113,18200,2,0,L|196:96,1,190
76,177,18709,1,8,0:0:0:0:
286,281,19048,6,0,L|405:271,1,95
281,299,19387,1,8,0:0:0:0:
436,291,19556,2,0,P|456:240|346:162,1,190
129,176,20065,1,8,0:0:0:0:
407,355,20404,38,0,P|450:304|356:235,1,190,0|8,0:0|0:0,0:0:0:0:
128,192,20912,2,0,P|85:141|181:93,1,190
408,104,21421,1,8,0:0:0:0:
173,308,21759,5,0,0:0:0:0:
52,276,21929,1,0,0:0:0:0:
164,221,22098,37,0,0:0:0:0:
33,189,22268,1,0,0:0:0:0:
157,133,22437,5,0,0:0:0:0:
18,101,22607,1,0,0:0:0:0:
284,98,22776,38,0,L|354:90,1,56.9999982604981
431,136,22946,2,0,L|498:128,1,56.9999982604981
220,148,23115,6,0,P|146:180|130:278,1,170.999994781494,4|0,0:3|2:0,0:0:0:0:
287,265,23454,2,0,L|357:282,1,56.9999982604981,8|0,0:0|2:0,0:0:0:0:
175,246,23624,2,0,P|250:279|270:359,1,170.999994781494,4|0,0:1|2:0,0:0:0:0:
187,357,23963,1,4,0:1:0:0:
466,267,24132,2,0,P|482:202|396:158,1,170.999994781494,8|0,0:0|0:0,0:0:0:0:
326,158,24471,5,4,2:1:0:0:
63,252,24641,2,0,L|56:190,1,56.9999982604981,0|0,0:0|2:0,0:0:0:0:
250,189,24810,2,0,L|261:306,1,113.999996520996,8|0,0:0|0:0,0:0:0:0:
18,313,25149,2,0,L|80:306,1,56.9999982604981,0|0,0:0|2:0,0:0:0:0:
239,278,25319,2,0,L|177:271,1,56.9999982604981,4|0,0:1|2:0,0:0:0:0:
102,257,25488,2,0,P|89:212|145:177,1,113.999996520996,8|0,0:0|0:0,0:0:0:0:
330,177,25827,38,0,P|351:118|256:77,1,170.999994781494,4|0,0:1|2:0,0:0:0:0:
102,69,26166,2,0,L|40:73,1,56.9999982604981,8|0,0:0|2:0,0:0:0:0:
211,129,26336,1,0,0:0:0:0:
85,195,26505,2,0,L|87:257,1,56.9999982604981,0|0,0:0|2:0,0:0:0:0:
172,245,26675,2,0,L|174:307,1,56.9999982604981,4|0,0:1|2:0,0:0:0:0:
258,266,26844,2,0,L|125:277,1,113.999996520996,8|0,0:0|0:0,0:0:0:0:
468,290,27183,6,0,L|238:257,1,213.750008153916,4|0,0:2|2:0,0:0:0:0:
424,219,27522,2,0,L|536:204,1,71.2500027179719,8|0,0:0|0:0,0:0:0:0:
300,226,27692,2,0,L|230:236,1,71.2500027179719
70,208,27861,38,0,L|300:175,1,213.750008153916,4|0,0:2|0:0,0:0:0:0:
494,209,28200,2,0,L|479:278,1,71.2500027179719,8|8,0:0|0:0,0:0:0:0:
268,173,28370,2,0,L|252:242,1,71.2500027179719,8|8,0:0|0:0,0:0:0:0:
101,93,28539,6,0,P|68:139|157:179,1,170.999994781494,4|0,0:2|2:0,0:0:0:0:
314,191,28878,2,0,L|377:200,1,56.9999982604981,8|0,0:0|2:0,0:0:0:0:
212,237,29048,1,0,0:0:0:0:
314,315,29217,2,0,L|453:307,1,113.999996520996,0|4,0:0|0:1,0:0:0:0:
137,296,29556,2,0,L|322:247,1,170.999994781494,8|0,0:0|2:0,0:0:0:0:
111,237,29895,38,0,P|71:202|176:128,1,213.750008153916,4|0,0:1|2:0,0:0:0:0:
351,181,30234,2,0,P|391:146|286:72,1,213.750008153916,8|0,0:0|0:0,0:0:0:0:
110,85,30573,1,0,0:0:0:0:
245,109,30743,2,0,L|250:187,1,56.9999982604981,4|0,0:1|2:0,0:0:0:0:
167,172,30912,2,0,P|110:229|203:286,1,170.999994781494,8|0,0:0|0:0,0:0:0:0:
239,292,31251,6,0,L|382:278,1,113.999996520996,4|0,0:1|0:0,0:0:0:0:
371,217,31505,1,0,2:0:0:0:
286,215,31590,1,8,0:0:0:0:
444,221,31759,2,0,P|482:170|329:74,1,284.999991302491,0|0,0:0|2:0,0:0:0:0:
266,117,32268,2,0,L|392:128,1,113.999996520996,8|0,0:0|0:0,0:0:0:0:
81,163,32607,38,0,L|71:198,1,28.4999991302491,4|0,0:2|0:0,0:0:0:0:
273,256,32776,2,0,L|159:246,1,113.999996520996,0|0,2:0|2:0,0:0:0:0:
408,165,33115,6,0,L|418:200,1,28.4999991302491,4|0,0:2|0:0,0:0:0:0:
329,261,33285,2,0,L|261:254,2,56.9999982604981,0|0|0,2:0|2:0|2:0,0:0:0:0:
26,251,33624,2,0,P|58:201|111:187,1,113.999996520996,4|0,0:2|2:0,0:0:0:0:
371,173,33963,38,0,P|362:109|240:87,1,170.999994781494,4|0,0:3|2:0,0:0:0:0:
441,122,34302,1,8,0:0:0:0:
307,127,34471,2,0,L|291:246,1,113.999996520996,0|0,0:0|0:0,0:0:0:0:
466,235,34810,1,4,0:1:0:0:
205,234,34980,2,0,P|140:189|219:149,1,170.999994781494,8|0,0:0|0:0,0:0:0:0:
274,141,35319,5,4,2:1:0:0:
28,141,35488,2,0,L|18:207,2,56.9999982604981,0|0|8,0:0|2:0|0:0,0:0:0:0:
189,139,35827,1,0,0:0:0:0:
464,237,35997,2,0,L|372:230,1,56.9999982604981,0|0,0:0|2:0,0:0:0:0:
212,231,36166,2,0,L|304:224,1,56.9999982604981,4|0,0:1|2:0,0:0:0:0:
341,227,36336,2,0,P|396:193|335:127,1,170.999994781494,8|0,0:0|2:0,0:0:0:0:
125,108,36675,38,0,L|299:97,1,170.999994781494,4|0,0:1|2:0,0:0:0:0:
212,103,37014,1,8,0:0:0:0:
376,99,37183,1,0,0:0:0:0:
212,103,37353,2,0,L|200:174,1,56.9999982604981,0|0,0:0|2:0,0:0:0:0:
281,162,37522,1,4,0:1:0:0:
126,161,37692,2,0,P|84:205|161:247,1,170.999994781494,8|0,0:0|0:0,0:0:0:0:
446,278,38031,6,0,L|222:313,1,213.750008153916,4|0,1:2|2:0,0:0:0:0:
424,326,38370,2,0,L|503:344,1,71.2500027179719,8|0,0:0|0:0,0:0:0:0:
290,335,38539,2,0,L|211:353,1,71.2500027179719,0|0,0:0|0:0,0:0:0:0:
66,106,38709,38,0,L|290:71,1,213.750008153916,4|0,0:2|0:0,0:0:0:0:
88,58,39048,2,0,L|16:29,1,71.2500027179719,8|8,0:0|0:0,0:0:0:0:
222,49,39217,2,8,L|296:21,1,71.2500027179719
451,37,39387,6,0,P|466:92|369:145,1,185.249991519928,4|0,0:2|2:0,0:0:0:0:
219,150,39726,1,8,0:0:0:0:
351,192,39895,2,0,L|371:317,1,123.499994346619
205,304,40234,1,4,0:1:0:0:
464,308,40404,2,0,P|482:241|370:220,1,185.249991519928,8|0,0:0|2:0,0:0:0:0:
135,170,40743,38,0,L|119:205,4,30.8749985866547,4|0|0|0|0,0:1|0:0|0:0|0:0|0:0,0:0:0:0:
392,228,41082,2,0,L|412:266,4,30.8749985866547,8|0|0|0|0,0:0|0:0|2:0|0:0|0:0,0:0:0:0:
236,260,41421,2,0,L|376:263,1,123.499994346619,0|4,0:0|0:1,0:0:0:0:
196,266,41759,2,0,L|48:271,1,123.499994346619,8|0,0:0|0:0,0:0:0:0:
349,263,42098,6,0,P|395:219|326:143,1,185.249991519928,4|0,0:1|2:0,0:0:0:0:
246,168,42437,1,8,0:0:0:0:
410,166,42607,1,0,0:0:0:0:
246,168,42776,2,0,L|257:236,1,61.7499971733095
339,223,42946,1,4,0:1:0:0:
174,229,43115,2,0,L|43:242,1,123.499994346619,8|0,0:0|0:0,0:0:0:0:
455,234,43454,37,4,0:2:0:0:
307,191,43624,1,0,2:0:0:0:
363,182,43709,1,0,2:0:0:0:
418,173,43793,1,0,2:0:0:0:
57,150,43963,5,4,0:2:0:0:
205,193,44133,1,0,2:0:0:0:
149,202,44218,1,0,2:0:0:0:
94,211,44302,1,0,2:0:0:0:
371,183,44471,2,0,L|444:168,1,61.7499971733095,8|8,0:0|0:0,0:0:0:0:
141,201,44641,2,0,L|65:217,1,61.7499971733095,8|8,0:0|0:0,0:0:0:0:
374,307,44810,6,0,P|415:226|325:173,1,209.000006378174,4|8,2:2|0:0,0:0:0:0:
177,279,45319,2,0,L|169:173,1,104.500003189087,0|0,0:0|2:0,0:0:0:0:
446,163,45827,2,0,L|456:53,1,104.500003189087,8|0,0:0|2:0,0:0:0:0:
299,295,46166,6,0,P|228:248|212:170,1,156.750004783631,4|0,0:0|0:0,0:0:0:0:
279,144,46505,1,8,0:0:0:0:
434,55,46675,2,4,L|213:24,1,209.000006378174
110,172,47183,2,0,L|214:157,1,104.500003189087,8|0,0:0|2:0,0:0:0:0:
469,234,47522,5,0,0:2:0:0:
170,316,47861,1,8,0:0:0:0:
400,260,48031,2,0,P|430:182|312:120,1,209.000006378174,4|4,0:0|0:0,0:0:0:0:
201,172,48539,2,0,L|189:63,1,104.500003189087,8|0,0:0|2:0,0:0:0:0:
359,298,48878,6,0,P|283:264|167:262,1,156.750004783631,0|0,0:0|2:0,0:0:0:0:
276,191,49217,1,8,0:0:0:0:
140,122,49387,2,4,L|354:93,1,209.000006378174
481,25,49895,1,8,0:0:0:0:
32,208,50234,5,0,0:0:0:0:
293,284,50573,1,8,0:0:0:0:
61,231,50743,2,4,P|29:156|136:102,1,209.000006378174
216,58,51251,1,8,0:0:0:0:
398,335,51590,6,0,P|414:271|332:202,1,156.750004783631
301,188,51929,1,8,0:0:0:0:
149,245,52098,2,0,P|131:158|227:106,1,209.000006378174,4|4,0:0|0:0,0:0:0:0:
478,106,52607,2,0,L|356:107,1,104.500003189087,8|0,0:0|0:0,0:0:0:0:
138,283,52946,6,0,L|343:301,1,190,0|8,0:0|0:0,0:0:0:0:
459,251,53454,2,0,P|478:166|379:113,1,190,4|4,0:0|0:0,0:0:0:0:
275,165,53963,1,8,0:0:0:0:
94,331,54302,2,0,P|75:279|155:229,1,142.5,4|0,0:0|0:0,0:0:0:0:
301,278,54641,2,0,L|409:270,1,95,8|4,0:0|0:0,0:0:0:0:
230,117,55149,1,4,0:0:0:0:
487,177,55319,1,8,0:0:0:0:
254,350,55658,6,0,P|263:256|170:209,1,190,4|8,0:0|0:0,0:0:0:0:
58,265,56166,2,0,P|34:208|119:128,1,190,4|4,0:0|0:0,0:0:0:0:
228,167,56675,1,8,0:0:0:0:
461,256,57014,6,0,L|290:242,1,142.5,4|4,0:0|0:0,0:0:0:0:
387,177,57353,1,8,0:0:0:0:
233,248,57522,2,0,P|182:194|258:126,1,190,4|4,0:0|0:0,0:0:0:0:
395,67,58031,1,8,0:0:0:0:
117,317,58370,5,0,0:0:0:0:
291,286,58709,1,8,0:0:0:0:
403,253,58878,2,0,P|418:175|312:124,1,190,4|4,0:0|0:0,0:0:0:0:
204,66,59387,1,8,0:0:0:0:
45,316,59726,6,0,L|187:304,1,142.5,4|4,0:0|0:0,0:0:0:0:
123,243,60065,1,8,0:0:0:0:
269,151,60234,2,0,L|51:108,1,190,4|4,0:0|0:0,0:0:0:0:
240,31,60743,1,8,0:0:0:0:
99,301,61082,5,0,0:0:0:0:
325,199,61421,1,0,0:0:0:0:
240,143,61590,1,0,0:0:0:0:
462,44,62098,1,0,0:0:0:0:
134,297,62437,5,0,0:0:0:0:
284,183,62692,2,0,L|215:172,1,47.5
96,95,62946,1,0,0:0:0:0:
283,304,63285,1,0,0:0:0:0:
411,245,63454,1,0,0:0:0:0:
174,335,63793,2,0,P|141:270|236:220,1,190
328,259,64302,2,0,P|361:194|266:144,1,190
399,109,64810,1,8,0:0:0:0:
256,346,65149,6,0,P|183:264|268:187,1,246.999988693238,2|0,0:0|0:0,0:0:0:0:
107,208,65658,2,0,P|53:167|137:116,1,185.249991519928,2|0,0:0|0:0,0:0:0:0:
409,167,65997,1,2,0:0:0:0:
183,160,66505,6,0,L|178:206,14,30.8749985866547,6|0|0|0|0|0|0|0|0|0|0|0|0|0|0,0:3|0:0|0:0|0:0|0:0|0:0|0:0|0:0|0:0|0:0|0:0|0:0|0:0|0:0|0:0,0:0:0:0:
340,296,67183,6,0,L|345:235,1,61.7499971733095,8|0,0:1|0:1,0:0:0:0:
261,227,67353,2,0,L|256:288,1,61.7499971733095,0|0,0:1|0:1,0:0:0:0:
436,170,67522,2,0,L|441:109,1,61.7499971733095,0|0,0:1|0:1,0:0:0:0:
357,101,67692,2,0,L|352:162,1,61.7499971733095,0|0,0:1|0:1,0:0:0:0:
453,223,67861,6,0,L|281:203,1,123.499994346619,4|0,0:1|0:0,0:0:0:0:
164,170,68115,2,0,L|336:150,1,123.499994346619,4|0,0:1|0:0,0:0:0:0:
195,116,68370,2,0,L|84:104,1,61.7499971733095,4|0,0:1|0:0,0:0:0:0:
236,150,68539,2,0,L|347:162,2,61.7499971733095,8|0|0,0:1|0:0|0:0,0:0:0:0:
399,172,68793,6,0,L|403:135,8,30.8749985866547,0|0|0|0|0|0|0|0|0,0:0|0:0|0:0|0:0|0:0|0:0|0:0|0:0|0:0,0:0:0:0:
308,100,69217,6,0,L|271:96,14,30.8749985866547,4|0|0|0|0|0|0|0|0|0|0|0|0|0|4,0:1|0:0|0:0|0:0|0:0|0:0|0:0|0:0|0:0|0:0|0:0|0:0|0:0|0:0|0:1,0:0:0:0:
205,99,69895,6,0,L|197:171,1,61.7499971733095,8|0,0:1|0:0,0:0:0:0:
292,211,70065,2,0,L|220:203,1,61.7499971733095,2|0,0:0|0:0,0:0:0:0:
141,198,70234,2,0,L|149:126,1,61.7499971733095,2|0,0:0|0:0,0:0:0:0:
54,86,70404,2,0,L|126:94,1,61.7499971733095,2|0,0:0|0:0,0:0:0:0:
207,108,70573,6,0,L|352:123,1,123.499994346619,4|0,0:1|0:0,0:0:0:0:
263,150,70827,1,0,0:0:0:0:
362,196,70912,2,0,L|217:181,1,123.499994346619,4|0,0:1|0:0,0:0:0:0:
477,330,71251,6,0,L|482:284,14,30.8749985866547,8|0|0|0|0|0|0|0|0|0|0|0|0|0|0,0:1|0:0|0:0|0:0|0:0|0:0|0:0|0:0|0:0|0:0|0:0|0:0|0:0|0:0|0:0,0:0:0:0:
289,196,71929,6,0,L|294:242,14,30.8749985866547,4|0|0|0|0|0|0|0|0|0|0|0|0|0|0,0:1|0:0|0:0|0:0|0:0|0:0|0:0|0:0|0:0|0:0|0:0|0:0|0:0|0:0|0:0,0:0:0:0:
389,240,72607,6,0,L|320:248,1,61.7499971733095,8|0,0:1|0:1,0:0:0:0:
164,268,72776,2,0,L|95:276,1,61.7499971733095,0|0,0:1|0:1,0:0:0:0:
301,173,72946,2,0,L|232:181,1,61.7499971733095,0|0,0:1|0:1,0:0:0:0:
76,201,73115,2,0,L|7:209,1,61.7499971733095,0|0,0:1|0:1,0:0:0:0:
116,192,73285,6,0,L|262:170,1,123.499994346619,4|0,0:1|0:0,0:0:0:0:
169,138,73539,2,0,L|315:116,1,123.499994346619,4|0,0:1|0:0,0:0:0:0:
228,88,73793,1,4,0:1:0:0:
484,137,73963,2,0,L|338:115,1,123.499994346619,8|0,0:1|0:0,0:0:0:0:
149,119,74217,6,0,L|144:73,8,30.8749985866547,0|0|0|0|0|0|0|0|0,0:0|0:0|0:0|0:0|0:0|0:0|0:0|0:0|0:0,0:0:0:0:
305,209,74641,6,0,L|310:255,14,30.8749985866547,4|0|0|0|0|0|0|0|0|0|0|0|0|0|4,0:1|0:0|0:0|0:0|0:0|0:0|0:0|0:0|0:0|0:0|0:0|0:0|0:0|0:0|0:1,0:0:0:0:
207,231,75319,6,0,L|215:303,1,61.7499971733095,8|0,0:1|0:0,0:0:0:0:
312,309,75488,2,0,L|240:301,1,61.7499971733095,2|0,0:0|0:0,0:0:0:0:
163,294,75658,2,0,L|91:286,1,61.7499971733095,2|0,0:0|0:0,0:0:0:0:
189,296,75827,2,0,L|197:368,1,61.7499971733095,2|0,0:0|0:0,0:0:0:0:
364,362,75997,6,0,P|394:300|309:243,1,185.249991519928,4|0,0:1|0:0,0:0:0:0:
153,232,76336,6,0,L|129:255,1,30.8749985866547,0|0,0:0|0:0,0:0:0:0:
145,194,76421,2,0,L|115:207,1,30.8749985866547,0|0,0:0|0:0,0:0:0:0:
151,156,76505,2,0,L|118:158,1,30.8749985866547,0|0,0:0|0:0,0:0:0:0:
169,122,76590,2,0,L|137:112,1,30.8749985866547,4|0,0:1|0:0,0:0:0:0:
198,95,76675,6,0,L|51:85,1,123.499994346619,8|0,0:1|0:0,0:0:0:0:
136,63,76929,1,0,0:0:0:0:
337,79,77014,2,0,L|349:155,1,61.7499971733095,0|0,1:0|1:0,0:0:0:0:
153,232,77183,2,0,L|141:308,1,61.7499971733095,0|0,1:0|1:0,0:0:0:0:
237,312,77353,6,0,L|191:307,14,30.8749985866547,6|0|0|0|0|0|0|0|0|0|0|0|0|0|0,0:3|0:0|0:0|0:0|0:0|0:0|0:0|0:0|0:0|0:0|0:0|0:0|0:0|0:0|0:0,0:0:0:0:
70,303,78031,6,0,L|62:238,1,61.7499971733095,8|0,0:1|0:1,0:0:0:0:
284,192,78200,2,0,L|219:200,1,61.7499971733095,0|0,0:1|0:1,0:0:0:0:
137,202,78370,2,0,L|145:137,1,61.7499971733095,0|0,0:1|0:1,0:0:0:0:
365,153,78539,2,0,L|430:161,1,61.7499971733095,0|0,0:1|0:1,0:0:0:0:
329,171,78709,6,0,L|170:160,1,123.499994346619,4|0,0:1|0:0,0:0:0:0:
377,229,78963,2,0,L|218:218,1,123.499994346619,4|0,0:1|0:0,0:0:0:0:
158,210,79217,2,0,L|-1:199,1,123.499994346619,4|8,0:1|0:1,0:0:0:0:
197,272,79556,1,0,0:0:0:0:
479,129,79641,6,0,L|525:124,8,30.8749985866547,0|0|0|0|0|0|0|0|0,0:0|0:0|0:0|0:0|0:0|0:0|0:0|0:0|0:0,0:0:0:0:
393,85,80065,6,0,L|347:80,14,30.8749985866547,4|0|0|0|0|0|0|0|0|0|0|0|0|0|4,0:1|0:0|0:0|0:0|0:0|0:0|0:0|0:0|0:0|0:0|0:0|0:0|0:0|0:0|0:1,0:0:0:0:
477,94,80743,6,0,L|467:160,1,61.7499971733095,8|0,0:1|0:0,0:0:0:0:
385,147,80912,2,0,L|309:136,1,61.7499971733095,2|0,0:0|0:0,0:0:0:0:
408,170,81082,2,0,L|398:236,1,61.7499971733095,2|0,0:0|0:0,0:0:0:0:
316,223,81251,2,0,L|240:212,1,61.7499971733095,2|0,0:0|0:0,0:0:0:0:
90,181,81421,6,0,L|225:207,1,123.499994346619,4|0,0:1|0:0,0:0:0:0:
143,220,81675,1,0,0:0:0:0:
303,262,81759,2,0,L|293:328,1,61.7499971733095,4|0,0:1|0:0,0:0:0:0:
131,279,81929,2,0,L|121:345,1,61.7499971733095,0|4,0:0|0:1,0:0:0:0:
224,352,82098,2,0,L|162:361,2,61.7499971733095,8|0|0,0:1|0:0|0:0,0:0:0:0:
389,242,82353,6,0,L|435:247,8,30.8749985866547,0|0|0|0|0|0|0|0|0,0:0|0:0|0:0|0:0|0:0|0:0|0:0|0:0|0:0,0:0:0:0:
190,144,82776,6,0,L|144:139,14,30.8749985866547,4|0|0|0|0|0|0|0|0|0|0|0|0|0|0,0:1|0:0|0:0|0:0|0:0|0:0|0:0|0:0|0:0|0:0|0:0|0:0|0:0|0:0|0:0,0:0:0:0:
345,157,83454,6,0,L|339:227,1,61.7499971733095,8|0,0:1|0:1,0:0:0:0:
177,245,83624,2,0,L|247:251,1,61.7499971733095,0|0,0:1|0:1,0:0:0:0:
426,264,83793,2,0,L|496:270,1,61.7499971733095,0|0,0:1|0:1,0:0:0:0:
332,294,83963,2,0,L|326:364,1,61.7499971733095,0|0,0:1|0:1,0:0:0:0:
417,358,84132,6,0,L|428:233,1,123.499994346619,4|0,0:1|0:0,0:0:0:0:
240,184,84387,2,0,L|365:195,1,123.499994346619,4|0,0:1|0:0,0:0:0:0:
268,143,84641,2,0,L|150:134,1,61.7499971733095,4|0,0:1|0:0,0:0:0:0:
112,134,84810,2,0,L|230:143,2,61.7499971733095,8|0|0,0:1|0:0|0:0,0:0:0:0:
268,143,85065,6,0,L|305:147,8,30.8749985866547,0|0|0|0|0|0|0|0|0,0:0|0:0|0:0|0:0|0:0|0:0|0:0|0:0|0:0,0:0:0:0:
173,138,85488,6,0,L|169:175,14,30.8749985866547,4|0|0|0|0|0|0|0|0|0|0|0|0|0|0,0:1|0:0|0:0|0:0|0:0|0:0|0:0|0:0|0:0|0:0|0:0|0:0|0:0|0:0|0:0,0:0:0:0:
265,179,86166,6,0,L|258:245,1,61.7499971733095,8|0,0:1|0:0,0:0:0:0:
351,219,86336,2,0,L|344:285,1,61.7499971733095,2|0,0:0|0:0,0:0:0:0:
256,303,86505,2,0,L|322:310,1,61.7499971733095,2|0,0:0|0:0,0:0:0:0:
423,321,86675,2,0,L|357:314,1,61.7499971733095,2|0,0:0|0:0,0:0:0:0:
193,88,86844,6,0,L|334:72,1,123.499994346619,4|8,0:0|0:1,0:0:0:0:
57,105,87183,1,2,0:3:0:0:
123,104,87268,2,0,P|173:151|148:193,1,123.499994346619,8|2,0:1|0:3,0:0:0:0:
81,189,87522,1,8,0:1:0:0:
332,316,87692,6,0,L|346:249,1,61.7499971733095,8|8,0:1|0:1,0:0:0:0:
184,218,87861,2,0,L|251:232,1,61.7499971733095,8|8,0:1|0:1,0:0:0:0:
440,278,88031,2,0,L|507:292,1,61.7499971733095,8|8,0:1|0:1,0:0:0:0:
176,350,88200,6,0,P|108:269|178:212,1,170.999994781494,12|0,2:3|2:0,0:0:0:0:
213,183,88539,1,8,0:0:0:0:
356,78,88709,2,0,L|237:55,1,113.999996520996,4|0,0:0|2:0,0:0:0:0:
387,268,89048,2,0,L|404:182,1,56.9999982604981,4|0,0:0|2:0,0:0:0:0:
340,152,89217,1,8,0:0:0:0:
191,235,89387,1,2,2:0:0:0:
352,353,89556,6,0,L|213:345,2,113.999996520996,0|4|8,2:0|0:0|2:1,0:0:0:0:
201,250,90065,2,0,P|170:180|273:131,1,170.999994781494
375,147,90404,2,0,L|390:63,1,56.9999982604981,4|0,0:0|2:0,0:0:0:0:
309,42,90573,1,8,0:0:0:0:
466,40,90743,1,0,2:0:0:0:
217,346,90912,6,0,P|137:293|167:216,1,170.999994781494,4|0,0:0|2:0,0:0:0:0:
376,235,91251,2,0,L|391:163,1,56.9999982604981,8|0,0:0|2:0,0:0:0:0:
300,121,91421,2,0,L|187:140,1,113.999996520996,4|0,0:0|2:0,0:0:0:0:
43,139,91759,2,0,L|26:84,2,56.9999982604981,4|0|8,0:0|2:0|0:0,0:0:0:0:
177,138,92098,1,0,0:0:0:0:
336,333,92268,6,0,P|348:271|246:209,1,170.999994781494,4|0,0:0|2:0,0:0:0:0:
432,144,92607,2,0,L|444:75,1,56.9999982604981,8|0,0:0|2:0,0:0:0:0:
201,174,92776,2,0,P|193:109|304:67,1,170.999994781494,4|0,0:0|2:0,0:0:0:0:
434,113,93115,2,0,L|320:123,1,113.999996520996,4|8,0:0|0:0,0:0:0:0:
43,152,93454,1,0,0:0:0:0:
305,367,93624,6,0,P|329:296|222:237,1,170.999994781494,4|0,0:2|2:0,0:0:0:0:
107,289,93963,2,0,L|94:213,1,56.9999982604981,8|0,0:0|2:0,0:0:0:0:
181,159,94132,2,0,L|21:125,1,113.999996520996,4|0,0:0|2:0,0:0:0:0:
255,61,94471,2,0,L|415:27,1,113.999996520996,4|8,0:0|1:0,0:0:0:0:
221,345,94810,6,0,P|232:285|326:231,1,170.999994781494,0|0,2:0|2:0,0:0:0:0:
484,146,95149,2,0,L|352:135,1,113.999996520996,4|8,0:0|0:0,0:0:0:0:
74,201,95488,2,0,L|58:89,1,113.999996520996,4|0,0:0|2:0,0:0:0:0:
347,300,95827,1,4,0:0:0:0:
291,287,95912,1,0,2:0:0:0:
235,274,95997,1,8,0:0:0:0:
378,178,96166,1,0,2:0:0:0:
120,215,96336,6,0,P|123:149|222:107,1,170.999994781494,4|0,0:0|2:0,0:0:0:0:
391,103,96675,2,0,L|396:42,1,56.9999982604981,8|0,0:0|2:0,0:0:0:0:
246,328,96844,2,0,L|383:320,1,113.999996520996,0|0,0:0|2:0,0:0:0:0:
464,179,97183,1,4,0:0:0:0:
303,78,97353,2,0,L|428:67,1,113.999996520996,8|0,0:0|2:0,0:0:0:0:
155,288,97692,6,0,L|286:279,1,113.999996520996,4|0,0:2|2:0,0:0:0:0:
358,183,97946,2,0,L|228:168,1,113.999996520996,4|0,0:0|1:0,0:0:0:0:
153,99,98200,1,8,0:0:0:0:
300,210,98370,1,0,0:0:0:0:
154,299,98539,1,4,0:0:0:0:
432,115,98709,1,8,0:0:0:0:
180,212,98878,2,8,L|86:197,1,56.9999982604981
318,331,99048,6,0,P|351:264|252:220,1,170.999994781494,12|0,0:3|2:0,0:0:0:0:
196,195,99387,2,0,L|186:125,1,56.9999982604981,8|0,0:0|2:0,0:0:0:0:
360,150,99556,2,0,L|378:30,1,113.999996520996,4|0,0:0|2:0,0:0:0:0:
226,317,99895,2,0,L|348:302,1,113.999996520996,4|8,0:0|0:0,0:0:0:0:
473,210,100234,2,0,P|489:149|404:89,1,170.999994781494,0|0,2:0|2:0,2:0:0:0:
241,179,100573,6,0,L|127:151,1,113.999996520996,4|8,0:0|0:0,0:0:0:0:
304,351,100912,2,0,P|291:294|200:239,1,170.999994781494,0|0,2:0|2:0,2:0:0:0:
52,229,101251,2,0,L|184:216,1,113.999996520996,4|8,1:0|2:0,2:0:0:0:
290,108,101590,1,0,2:0:0:0:
152,242,101759,6,0,P|131:163|220:130,1,170.999994781494,4|0,0:0|2:0,0:0:0:0:
362,106,102098,2,0,L|286:100,1,56.9999982604981,8|0,0:0|2:0,0:0:0:0:
119,42,102268,2,0,L|241:35,1,113.999996520996,4|0,1:0|2:0,0:0:0:0:
361,326,102607,2,0,L|377:241,1,56.9999982604981,4|0,0:0|2:0,0:0:0:0:
306,206,102776,1,8,0:0:0:0:
148,287,102946,1,0,2:0:0:0:
321,217,103115,6,0,P|314:138|202:106,1,170.999994781494,4|0,0:0|2:0,0:0:0:0:
302,37,103454,1,8,0:0:0:0:
140,199,103624,2,0,L|269:195,1,113.999996520996,4|0,0:0|2:0,0:0:0:0:
400,232,103963,2,0,L|411:184,10,28.4999991302491,4|0|0|0|0|0|0|0|0|0|0,1:0|2:0|2:0|2:0|2:0|2:0|2:0|2:0|2:0|2:0|2:0,2:0:0:0:
182,276,104471,6,0,P|152:212|253:164,1,170.999994781494,4|0,0:0|2:0,0:0:0:0:
374,66,104810,2,0,L|296:53,1,56.9999982604981,8|0,0:0|2:0,0:0:0:0:
116,70,104980,2,0,L|241:54,1,113.999996520996,4|0,0:0|2:0,0:0:0:0:
369,159,105319,1,4,0:0:0:0:
226,241,105488,1,8,0:0:0:0:
372,352,105658,6,0,P|380:285|273:230,1,170.999994781494,2|0,2:2|2:0,0:0:0:0:
378,153,105997,2,0,L|245:129,1,113.999996520996,4|8,0:0|0:0,0:0:0:0:
107,219,106336,2,0,L|92:80,1,113.999996520996,4|0,0:0|2:0,0:0:0:0:
258,314,106675,2,0,L|267:234,1,56.9999982604981,4|0,0:0|2:0,0:0:0:0:
184,187,106844,1,8,0:0:0:0:
448,187,107014,1,0,2:0:0:0:
160,336,107183,6,0,P|99:278|161:197,1,170.999994781494,4|0,0:0|2:0,0:0:0:0:
301,222,107522,2,0,L|316:138,1,56.9999982604981,8|0,0:0|2:0,0:0:0:0:
217,87,107692,2,0,L|354:60,1,113.999996520996,4|0,0:0|2:0,0:0:0:0:
458,168,108031,1,4,0:0:0:0:
215,336,108200,2,0,L|348:308,1,113.999996520996,8|0,0:0|2:0,0:0:0:0:
56,329,108539,6,0,L|40:217,1,113.999996520996,4|8,0:0|0:0,0:0:0:0:
318,214,108878,1,4,0:0:0:0:
393,250,108963,2,0,P|424:194|340:126,1,170.999994781494,0|8,0:0|0:0,0:0:0:0:
157,96,109302,2,8,L|88:90,2,56.9999982604981
395,329,109556,6,8,L|339:336,1,56.9999982604981
159,334,109726,2,8,L|102:327,1,56.9999982604981
364,280,109895,6,0,P|411:213|327:171,1,190,4|8,0:3|0:0,0:0:0:0:
176,101,110404,2,0,L|395:91,1,190,4|4,0:1|0:1,0:0:0:0:
240,137,110912,1,8,0:0:0:0:
431,158,111251,6,0,P|441:229|389:270,1,142.5,4|0,0:1|0:0,0:0:0:0:
304,269,111590,1,8,0:0:0:0:
172,247,111759,2,4,L|368:240,1,190,4|4,0:1|0:1,0:1:0:0:
266,200,112268,1,2,0:3:0:0:
78,203,112607,6,0,P|77:142|190:89,1,190,4|8,0:3|0:1,0:0:0:0:
313,144,113115,2,0,L|116:163,1,190,4|4,0:1|0:1,0:0:0:0:
262,195,113624,1,8,0:0:0:0:
421,249,113963,6,0,L|267:254,1,142.5,4|0,0:1|0:0,0:0:0:0:
361,285,114302,1,8,0:0:0:0:
489,282,114471,2,0,P|485:225|386:143,1,190,4|4,0:1|0:1,0:0:0:0:
248,141,114980,1,2,0:3:0:0:
413,208,115319,6,0,P|478:125|420:57,1,190,4|8,0:3|0:0,0:0:0:0:
299,58,115827,2,0,P|271:119|419:235,1,285,0|8,0:0|0:0,0:0:0:0:
226,235,116675,6,0,P|194:176|266:143,1,142.5
322,142,117014,1,8,0:0:0:0:
192,138,117183,2,0,P|103:162|72:248,1,190,0|0,0:0|0:0,0:0:0:0:
202,253,117692,1,2,0:3:0:0:
399,245,118031,6,0,L|202:234,1,190,4|8,0:3|0:0,0:0:0:0:
338,241,118539,2,0,P|429:161|349:44,1,285,0|8,0:0|0:0,0:0:0:0:
189,42,119387,6,0,L|187:198,1,142.5,0|0,0:0|0:0,0:0:0:0:
268,188,119726,1,8,0:0:0:0:
402,223,119895,2,0,L|206:220,1,190,0|0,0:0|0:0,0:0:0:0:
313,261,120404,1,2,0:3:0:0:
82,269,120743,5,4,0:3:0:0:
291,227,121082,2,0,L|292:122,1,95,8|0,0:0|0:0,0:0:0:0:
131,143,121759,1,8,0:0:0:0:
317,172,122098,5,0,0:0:0:0:
156,227,122353,2,0,L|153:288,1,47.5,0|8,0:0|0:0,0:0:0:0:
255,277,122607,1,0,0:0:0:0:
103,325,122946,1,0,0:0:0:0:
205,328,123115,1,8,0:0:0:0:
416,320,123454,5,4,0:3:0:0:
260,258,123793,2,0,L|256:159,1,95,8|0,0:0|0:0,0:0:0:0:
436,168,124471,1,8,0:0:0:0:
265,166,124810,5,0,0:0:0:0:
468,276,125065,2,0,L|466:339,1,47.5,0|8,0:0|0:0,0:0:0:0:
347,319,125319,1,0,0:0:0:0:
188,243,125658,1,0,0:0:0:0:
287,248,125827,1,8,0:0:0:0:
131,284,126166,6,0,P|122:214|203:128,1,190,4|8,0:3|0:1,0:0:0:0:
345,214,126675,2,0,P|342:139|180:21,1,285,0|8,0:0|0:1,0:0:0:0:
85,152,127522,6,0,P|142:124|278:100,1,190,0|8,0:0|0:0,0:0:0:0:
423,114,128031,2,0,P|366:142|230:166,1,190
126,166,128539,1,8,0:0:0:0:
337,195,128878,5,4,0:3:0:0:
128,63,129217,1,8,0:0:0:0:
256,64,129387,6,0,B|384:64|400:240|256:240|256:240|384:240|400:64|256:64|256:64|112:64|128:240|256:240|256:240|112:240|128:64|256:64|256:64|256:96,1,1235,4|4,0:3|1:3,0:0:0:0:
256,192,142437,12,0,152946,0:0:0:0:
96,224,153285,6,0,L|90:195,14,26.1250007972718,0|0|0|0|0|0|0|0|0|0|0|0|0|0|0,1:0|0:0|0:0|0:0|0:0|0:0|0:0|0:0|0:0|0:0|0:0|0:0|0:0|0:0|0:0,0:0:0:0:
271,315,153963,6,0,L|285:256,1,52.2500015945435,2|0,0:0|0:0,0:0:0:0:
215,212,154132,2,0,L|204:156,1,52.2500015945435,2|0,0:0|0:0,0:0:0:0:
382,202,154302,2,0,L|396:143,1,52.2500015945435,2|0,0:0|0:0,0:0:0:0:
326,99,154471,2,0,L|315:43,1,52.2500015945435,2|0,0:0|0:0,0:0:0:0:
469,294,154641,6,0,L|352:279,1,104.500003189087,2|0,0:0|0:0,0:0:0:0:
268,208,154895,2,0,L|385:193,1,104.500003189087,2|0,0:0|0:0,0:0:0:0:
455,108,155149,2,0,L|381:96,1,52.2500015945435,2|0,0:0|0:0,0:0:0:0:
191,337,155319,2,0,L|172:229,1,104.500003189087,2|0,0:0|0:0,0:0:0:0:
258,126,155573,6,0,L|276:102,8,26.1250007972718,2|0|0|0|0|0|0|0|0,0:0|0:0|0:0|0:0|0:0|0:0|0:0|0:0|0:0,0:0:0:0:
56,54,155997,6,0,L|38:30,14,26.1250007972718,2|0|0|0|0|0|0|0|0|0|0|0|0|0|0,0:0|0:0|0:0|0:0|0:0|0:0|0:0|0:0|0:0|0:0|0:0|0:0|0:0|0:0|0:0,0:0:0:0:
206,313,156675,6,0,L|253:280,1,52.2500015945435,2|0,0:0|0:0,0:0:0:0:
442,283,156844,2,0,L|430:216,1,52.2500015945435,2|0,0:0|0:0,0:0:0:0:
353,184,157014,2,0,L|340:126,1,52.2500015945435,2|0,0:0|0:0,0:0:0:0:
414,73,157183,2,0,L|477:34,1,52.2500015945435,2|0,0:0|0:0,0:0:0:0:
272,48,157353,6,0,P|227:42|168:45,1,104.500003189087,2|0,0:0|0:0,0:0:0:0:
112,128,157607,2,0,P|157:122|216:125,1,104.500003189087,2|0,0:0|0:0,0:0:0:0:
304,160,157861,2,0,L|318:234,1,52.2500015945435,2|0,0:0|0:0,0:0:0:0:
87,271,158031,2,0,P|79:328|134:335,1,104.500003189087,2|0,0:0|0:0,0:0:0:0:
288,314,158285,6,0,L|308:284,8,26.1250007972718,2|0|0|0|0|0|0|0|0,0:0|0:0|0:0|0:0|0:0|0:0|0:0|0:0|0:0,0:0:0:0:
58,162,158709,6,0,L|38:132,14,26.1250007972718,4|0|0|0|0|0|0|0|0|0|0|0|0|0|0,0:0|0:0|0:0|0:0|0:0|0:0|0:0|0:0|0:0|0:0|0:0|0:0|0:0|0:0|0:0,0:0:0:0:
252,283,159387,6,0,L|317:273,1,52.2500015945435,2|0,0:0|0:0,0:0:0:0:
388,305,159556,2,0,L|402:241,1,52.2500015945435,2|0,0:0|0:0,0:0:0:0:
224,192,159726,2,0,L|210:128,1,52.2500015945435,2|0,0:0|0:0,0:0:0:0:
288,96,159895,2,0,L|302:32,1,52.2500015945435,2|0,0:0|0:0,0:0:0:0:
208,48,160065,6,0,P|146:47|101:60,1,104.500003189087,2|0,0:0|0:0,0:0:0:0:
185,138,160319,2,0,P|237:141|288:128,1,104.500003189087,2|0,0:0|0:0,0:0:0:0:
371,38,160573,2,0,L|320:48,1,52.2500015945435,2|0,0:0|0:0,0:0:0:0:
115,261,160743,2,0,L|218:250,1,104.500003189087,2|0,0:0|0:0,0:0:0:0:
419,303,160997,6,0,L|429:269,8,26.1250007972718,2|0|0|0|0|0|0|0|0,0:0|0:0|0:0|0:0|0:0|0:0|0:0|0:0|0:0,0:0:0:0:
220,140,161421,6,0,L|210:106,14,26.1250007972718,2|0|0|0|0|0|0|0|0|0|0|0|0|0|0,0:0|0:0|0:0|0:0|0:0|0:0|0:0|0:0|0:0|0:0|0:0|0:0|0:0|0:0|0:0,0:0:0:0:
397,260,162098,6,0,L|414:192,1,52.2500015945435,2|0,0:0|0:0,0:0:0:0:
330,152,162268,2,0,L|313:84,1,52.2500015945435,2|0,0:0|0:0,0:0:0:0:
424,38,162437,2,0,L|351:28,1,52.2500015945435,2|0,0:0|0:0,0:0:0:0:
174,261,162607,2,0,L|101:251,1,52.2500015945435,2|0,0:0|0:0,0:0:0:0:
315,338,162776,6,2,P|349:297|270:255,1,156.750004783631,2|0,0:0|0:0,0:0:0:0:
96,153,163115,2,0,L|86:118,6,26.1250007972718,2|0|0|0|0|0|0,0:0|0:0|0:0|0:0|0:0|0:0|0:0,0:0:0:0:
261,147,163454,6,0,L|374:129,1,104.500003189087,2|0,0:0|0:0,0:0:0:0:
297,63,163709,1,0,0:0:0:0:
453,255,163793,2,0,L|340:237,1,104.500003189087,2|2,0:0|0:0,0:0:0:0:
78,252,164132,6,0,L|56:208,14,28.4999991302491,4|0|0|0|0|0|0|0|0|0|0|0|0|0|0,1:2|0:0|0:0|0:0|0:0|0:0|0:0|0:0|1:0|0:0|0:0|0:0|0:0|0:0|0:0,0:0:0:0:
269,274,164810,6,0,L|334:261,1,56.9999982604981,2|0,1:2|0:0,0:0:0:0:
419,191,164980,2,0,L|352:179,1,56.9999982604981,2|0,0:0|0:0,0:0:0:0:
197,169,165149,2,0,L|188:110,1,56.9999982604981,2|0,1:2|0:0,0:0:0:0:
281,27,165319,2,0,L|226:39,1,56.9999982604981,2|0,0:0|0:0,0:0:0:0:
35,293,165488,6,0,L|150:275,1,113.999996520996,0|0,1:0|0:0,0:0:0:0:
245,189,165743,2,0,L|119:168,1,113.999996520996,2|0,0:0|0:0,0:0:0:0:
211,102,165997,2,0,L|219:44,1,56.9999982604981,2|0,2:0|0:0,0:0:0:0:
22,63,166166,6,0,L|159:48,1,113.999996520996,0|0,1:0|0:0,0:0:0:0:
308,127,166421,2,0,L|314:86,8,28.4999991302491,2|0|0|0|0|0|0|0|0,0:0|0:0|1:0|0:0|0:0|0:0|0:0|0:0|0:0,0:0:0:0:
69,340,166844,6,0,L|63:299,14,28.4999991302491,2|0|0|0|0|0|0|0|0|0|0|0|0|0|0,1:2|0:0|2:0|0:0|0:0|0:0|0:0|0:0|1:0|0:0|0:0|0:0|0:0|0:0|0:0,0:0:0:0:
231,266,167522,6,0,L|296:250,1,56.9999982604981,2|0,1:2|0:0,0:0:0:0:
374,161,167692,2,0,L|293:147,1,56.9999982604981,2|0,0:0|0:0,0:0:0:0:
221,147,167861,2,0,L|213:77,1,56.9999982604981,2|0,1:2|0:0,0:0:0:0:
405,330,168031,2,0,L|397:260,1,56.9999982604981,2|0,0:0|0:0,0:0:0:0:
204,327,168200,6,0,L|68:298,1,113.999996520996,0|2,1:0|0:0,0:0:0:0:
30,243,168454,1,0,0:0:0:0:
91,173,168539,2,0,L|223:156,1,113.999996520996,0|0,1:0|0:0,0:0:0:0:
353,239,168878,2,0,P|362:166|331:113,1,113.999996520996,2|0,1:2|0:0,0:0:0:0:
129,69,169132,6,0,L|102:34,8,28.4999991302491,2|0|0|0|0|0|0|0|0,0:0|0:0|1:0|0:0|0:0|0:0|0:0|0:0|0:0,0:0:0:0:
477,323,169556,5,4,1:2:0:0:
326,229,169726,1,0,1:0:0:0:
488,201,169895,1,0,1:0:0:0:
332,125,170065,1,0,1:0:0:0:
35,323,170234,5,4,1:2:0:0:
189,219,170404,1,0,1:0:0:0:
24,201,170573,1,0,1:0:0:0:
183,109,170743,1,0,1:0:0:0:
474,279,170912,5,4,1:2:0:0:
186,202,171082,1,0,1:2:0:0:
323,203,171251,1,0,1:2:0:0:
461,202,171421,1,0,1:2:0:0:
34,43,171590,5,4,1:2:0:0:
322,120,171760,1,0,1:2:0:0:
188,118,171929,1,0,1:2:0:0:
53,119,172099,1,0,1:2:0:0:
338,339,172268,5,4,1:2:0:0:
374,295,172353,1,0,1:0:0:0:
382,239,172437,1,0,1:0:0:0:
352,189,172522,1,0,1:0:0:0:
120,263,172607,5,4,1:2:0:0:
101,208,172692,1,0,1:0:0:0:
119,154,172776,1,0,1:0:0:0:
169,127,172861,1,0,1:0:0:0:
437,137,172946,5,4,1:2:0:0:
428,80,173031,1,0,1:0:0:0:
394,34,173115,1,0,1:0:0:0:
338,19,173200,1,0,1:0:0:0:
169,127,173285,6,0,L|98:117,1,56.9999982604981,4|0,1:2|1:0,0:0:0:0:
343,127,173454,2,0,L|414:117,1,56.9999982604981,0|0,1:0|1:0,1:0:0:0:
186,334,173624,6,0,P|143:288|238:275,1,170.999994781494,4|0,1:2|0:0,0:0:0:0:
383,145,173963,2,0,L|302:128,1,56.9999982604981,2|0,0:0|0:0,0:0:0:0:
169,206,174132,2,0,L|159:130,1,56.9999982604981,2|2,3:0|3:0,0:0:0:0:
246,85,174302,6,0,L|106:63,1,113.999996520996,2|0,0:0|0:0,0:0:0:0:
206,2,174556,1,2,0:0:0:0:
444,287,174641,6,0,L|488:275,1,28.4999991302491,0|0,3:0|3:0,3:0:0:0:
458,238,174726,2,0,L|490:219,1,28.4999991302491,0|0,3:0|3:0,3:0:0:0:
446,194,174810,2,0,L|483:168,1,28.4999991302491,0|0,3:0|3:0,3:0:0:0:
427,159,174895,2,0,L|448:132,1,28.4999991302491,0|0,3:0|3:0,3:0:0:0:
393,132,174980,6,0,L|191:132,1,185.249991519928,14|0,0:3|2:0,0:0:0:0:
117,134,175319,1,8,0:1:0:0:
393,132,175488,1,4,0:1:0:0:
152,162,175658,2,0,L|150:295,1,123.499994346619,0|4,2:0|0:1,0:0:0:0:
325,290,175997,1,8,0:1:0:0:
61,284,176166,1,0,2:0:0:0:
61,253,176208,1,0,2:0:0:0:
61,222,176250,1,0,2:0:0:0:
61,191,176293,1,0,2:0:0:0:
61,160,176336,5,0,2:0:0:0:
324,168,176505,1,4,0:0:0:0:
61,160,176674,1,8,0:1:0:0:
231,127,176844,2,0,L|376:133,1,123.499994346619,4|0,0:1|2:0,0:0:0:0:
187,96,177183,2,0,L|42:102,2,123.499994346619,4|8|0,0:1|2:1|1:0,0:0:0:0:
439,131,177692,6,0,L|245:139,1,185.249991519928,4|4,0:1|0:1,0:0:0:0:
413,161,178031,2,0,L|420:288,1,123.499994346619,8|4,0:0|0:1,0:0:0:0:
249,315,178370,1,0,2:0:0:0:
81,323,178539,1,4,0:1:0:0:
369,228,178709,2,0,L|242:235,1,123.499994346619,8|0,0:1|2:0,0:0:0:0:
489,227,179048,6,0,P|486:165|390:93,1,185.249991519928,4|0,0:1|0:0,0:0:0:0:
308,98,179387,1,8,0:1:0:0:
141,160,179556,2,0,L|339:156,1,185.249991519928,4|0,0:1|0:0,0:0:0:0:
63,158,179895,6,0,L|58:127,2,30.8749985866547,8|0|0,1:1|2:0|2:0,0:0:0:0:
146,207,180065,2,0,L|151:238,2,30.8749985866547,8|0|0,1:1|2:0|2:0,0:0:0:0:
57,223,180234,2,0,L|52:192,2,30.8749985866547,8|0|0,1:1|2:0|2:0,0:0:0:0:
328,156,180404,6,0,P|378:199|280:258,1,185.249991519928,4|4,0:2|0:1,0:0:0:0:
226,277,180743,1,8,0:1:0:0:
483,273,180912,1,4,0:1:0:0:
323,225,181082,2,0,L|323:96,1,123.499994346619,0|4,2:0|0:1,0:0:0:0:
254,98,181336,1,0,0:0:0:0:
181,93,181421,1,8,0:1:0:0:
481,111,181590,1,0,2:0:0:0:
254,98,181759,5,0,0:0:0:0:
405,108,181929,2,0,L|405:154,2,30.8749985866547,2|0|0,0:3|0:0|0:0,0:0:0:0:
323,101,182098,1,8,0:1:0:0:
72,97,182268,5,4,0:1:0:0:
66,127,182310,1,0,2:0:0:0:
62,157,182352,1,0,2:0:0:0:
60,188,182395,1,0,2:0:0:0:
61,219,182437,1,0,2:0:0:0:
64,250,182479,1,0,2:0:0:0:
68,280,182522,1,0,2:0:0:0:
156,281,182607,1,4,0:1:0:0:
386,252,182776,2,0,L|244:247,1,123.499994346619,8|0,0:1|2:0,0:0:0:0:
490,216,183115,5,4,0:1:0:0:
350,208,183285,1,0,0:0:0:0:
350,146,183369,1,4,0:1:0:0:
350,84,183454,1,8,0:0:0:0:
109,85,183624,1,4,0:1:0:0:
278,93,183793,2,0,L|278:224,1,123.499994346619,0|4,2:0|0:1,0:0:0:0:
33,211,184132,1,8,0:1:0:0:
440,218,184302,2,0,L|441:178,2,30.8749985866547,0|0|0,0:0|0:0|0:0,0:0:0:0:
195,117,184471,5,4,0:2:0:0:
334,119,184641,2,0,L|332:283,1,123.499994346619,8|0,0:1|0:0,0:0:0:0:
169,241,184895,2,0,L|171:309,1,61.7499971733095,8|4,0:1|0:1,0:0:0:0:
20,314,185149,5,8,0:1:0:0:
256,288,185319,1,4,0:1:0:0:
19,232,185488,1,8,0:1:0:0:
354,313,185658,2,0,L|356:245,1,61.7499971733095,8|8,0:1|0:1,0:0:0:0:
186,182,185827,6,0,L|386:179,1,185.249991519928,14|0,0:3|0:0,0:0:0:0:
285,180,186166,2,0,L|111:183,1,123.499994346619,8|4,0:1|0:1,0:0:0:0:
417,175,186505,2,0,L|420:307,1,123.499994346619,0|4,2:0|0:1,0:0:0:0:
254,308,186844,1,8,0:1:0:0:
499,317,187014,2,0,L|499:283,2,30.8749985866547,2|0|0,0:3|2:0|2:0,0:0:0:0:
412,326,187183,5,0,0:0:0:0:
166,263,187353,2,0,L|166:297,2,30.8749985866547,2|0|0,0:3|2:0|2:0,0:0:0:0:
253,254,187522,1,8,0:1:0:0:
16,213,187692,2,0,L|216:211,1,185.249991519928,4|0,0:1|2:0,0:0:0:0:
111,184,188031,1,4,0:1:0:0:
360,177,188200,2,0,L|358:46,1,123.499994346619,8|0,0:1|2:0,0:0:0:0:
192,57,188539,6,0,P|149:125|235:175,1,185.249991519928,4|4,0:1|0:1,0:0:0:0:
306,201,188878,1,0,0:0:0:0:
138,208,189048,2,0,L|140:350,1,123.499994346619,4|0,0:1|2:0,0:0:0:0:
19,341,189387,1,4,0:1:0:0:
281,341,189556,2,0,L|281:302,2,30.8749985866547,8|0|0,0:1|3:0|3:0,0:0:0:0:
199,298,189726,2,0,L|199:259,2,30.8749985866547,2|0|0,0:3|3:0|3:0,0:0:0:0:
367,305,189895,6,0,P|415:254|367:126,1,185.249991519928,4|0,0:1|0:0,0:0:0:0:
308,146,190234,1,8,0:1:0:0:
145,79,190404,2,0,P|97:130|145:258,1,185.249991519928,4|0,0:1|0:0,0:0:0:0:
371,242,190743,6,0,L|375:203,2,30.8749985866547,8|0|0,1:1|2:0|2:0,0:0:0:0:
289,237,190912,2,0,L|290:178,2,30.8749985866547,8|0|0,1:1|2:0|2:0,0:0:0:0:
206,236,191082,2,0,L|202:197,2,30.8749985866547,8|0|0,1:1|2:0|2:0,0:0:0:0:
454,286,191251,6,0,L|267:279,1,185.249991519928,4|0,0:2|0:0,0:0:0:0:
180,278,191590,2,0,L|45:271,1,123.499994346619,8|4,0:1|0:1,0:0:0:0:
220,248,191929,2,0,L|227:113,1,123.499994346619,0|4,2:0|0:1,0:0:0:0:
387,128,192268,2,0,L|388:168,2,30.8749985866547,8|0|0,0:1|2:0|2:0,0:0:0:0:
226,124,192437,2,0,L|225:164,2,30.8749985866547,2|0|0,0:3|2:0|2:0,0:0:0:0:
306,122,192607,5,0,0:0:0:0:
64,117,192776,2,0,L|60:181,1,61.7499971733095,4|0,0:0|2:0,0:0:0:0:
143,193,192946,1,8,0:1:0:0:
387,250,193115,2,0,P|435:193|338:140,1,185.249991519928,4|0,0:1|0:0,0:0:0:0:
281,138,193454,1,4,0:1:0:0:
26,153,193624,2,0,L|176:149,1,123.499994346619,8|0,0:1|0:0,0:0:0:0:
401,307,193963,6,0,L|401:113,1,185.249991519928,4|4,0:1|0:1,0:0:0:0:
317,120,194302,1,8,0:0:0:0:
485,116,194471,2,0,L|486:244,1,123.499994346619,4|0,0:1|2:0,0:0:0:0:
316,242,194810,2,0,L|186:239,1,123.499994346619,4|8,0:1|0:1,0:0:0:0:
353,241,195149,2,0,L|354:201,2,30.8749985866547
112,214,195319,5,4,0:1:0:0:
257,199,195488,2,0,L|261:333,1,123.499994346619,8|0,0:1|0:0,0:0:0:0:
79,304,195743,2,0,L|80:366,1,61.7499971733095,8|4,0:1|0:1,0:0:0:0:
334,286,195997,6,0,L|332:221,1,61.7499971733095,8|8,0:1|0:1,0:0:0:0:
169,221,196166,2,0,L|167:156,1,61.7499971733095,8|8,0:1|0:1,0:0:0:0:
16,123,196336,2,0,L|81:121,1,61.7499971733095,8|8,0:1|0:1,0:0:0:0:
167,117,196505,1,8,0:1:0:0:
417,328,196675,6,0,P|403:263|287:197,1,185.249991519928,12|0,1:3|0:0,0:0:0:0:
455,125,197014,2,0,L|462:88,2,30.8749985866547,8|0|0,0:0|2:0|2:0,0:0:0:0:
367,83,197183,1,4,0:0:0:0:
212,278,197353,2,0,L|353:266,1,123.499994346619,0|4,2:0|1:0,0:0:0:0:
446,277,197692,2,0,P|464:213|368:153,1,185.249991519928,8|0,0:0|2:0,0:0:0:0:
170,102,198031,6,0,L|158:24,1,61.7499971733095,4|0,0:0|2:0,0:0:0:0:
344,61,198200,2,0,L|381:52,2,30.8749985866547,2|0|0,0:3|2:0|2:0,0:0:0:0:
273,83,198370,1,8,0:0:0:0:
130,220,198539,2,0,P|204:225|276:232,1,123.499994346619,4|0,0:0|2:0,0:0:0:0:
401,127,198878,1,0,0:0:0:0:
108,123,199048,1,8,0:0:0:0:
244,23,199217,1,2,2:0:0:0:
101,356,199387,6,0,P|67:289|156:247,1,185.249991519928,0|0,0:0|2:0,0:0:0:0:
345,152,199726,2,0,L|250:132,1,61.7499971733095,8|0,0:0|2:0,0:0:0:0:
200,123,199895,1,4,0:0:0:0:
62,234,200065,2,0,L|71:161,1,61.7499971733095,0|0,2:0|2:0,2:0:0:0:
228,327,200234,2,0,L|237:254,1,61.7499971733095,0|0,2:0|2:0,2:0:0:0:
432,321,200404,2,0,L|306:296,1,123.499994346619,8|0,0:0|0:0,0:0:0:0:
138,259,200743,6,0,P|111:189|211:153,1,185.249991519928,4|0,0:2|2:0,0:0:0:0:
384,167,201082,2,0,L|469:153,1,61.7499971733095,8|0,0:0|2:0,0:0:0:0:
233,49,201251,2,0,L|173:60,1,61.7499971733095,0|0,0:0|2:0,0:0:0:0:
386,265,201421,2,0,L|249:237,1,123.499994346619,4|0,1:2|1:0,0:0:0:0:
113,157,201675,2,0,L|40:137,2,61.7499971733095,0|8|0,1:0|1:0|1:0,0:0:0:0:
327,116,201929,1,0,1:0:0:0:
223,154,202098,6,0,P|197:107|291:51,1,185.249991519928,4|0,0:2|2:0,0:0:0:0:
460,116,202437,2,0,L|390:118,1,61.7499971733095,8|0,0:0|2:0,0:0:0:0:
231,238,202607,1,0,0:0:0:0:
106,157,202776,2,0,L|21:149,2,61.7499971733095,0|0|4,2:0|2:0|0:0,0:0:0:0:
263,56,203115,2,0,L|137:37,1,123.499994346619,8|0,0:0|2:0,0:0:0:0:
324,256,203454,6,0,L|340:210,4,30.8749985866547,0|0|0|0|0,1:0|2:0|2:0|2:0|2:0,2:0:0:0:
163,127,203793,2,0,L|147:173,4,30.8749985866547,8|0|0|0|0,1:0|2:0|2:0|2:0|2:0,2:0:0:0:
318,46,204132,6,0,L|194:37,1,123.499994346619,0|4,2:0|0:0,0:0:0:0:
356,169,204471,2,0,L|485:161,1,123.499994346619,8|0,0:0|2:0,0:0:0:0:
97,320,204810,5,4,0:0:0:0:
226,214,204980,2,0,L|302:208,2,61.7499971733095,2|0|8,2:0|2:0|0:0,0:0:0:0:
67,148,205319,1,4,0:0:0:0:
443,302,205488,1,0,2:0:0:0:
464,257,205573,1,0,2:0:0:0:
462,207,205658,1,0,2:0:0:0:
437,163,205743,1,0,2:0:0:0:
393,140,205827,1,8,0:0:0:0:
261,42,205997,1,0,2:0:0:0:
97,317,206166,6,0,L|226:303,1,123.499994346619,4|4,1:2|1:0,0:0:0:0:
252,265,206421,1,0,0:0:0:0:
256,216,206505,1,0,0:0:0:0:
230,173,206590,1,0,2:0:0:0:
72,113,206675,2,0,P|65:48|137:26,1,123.499994346619,8|0,0:0|0:0,0:0:0:0:
180,51,206929,1,0,0:0:0:0:
487,295,207014,2,0,L|351:280,1,123.499994346619,0|8,0:0|0:0,0:0:0:0:
117,150,207353,1,4,0:0:0:0:
385,185,207522,6,0,P|404:123|303:80,1,185.249991519928,4|0,1:2|2:0,2:0:0:0:
115,220,207861,2,0,L|71:205,2,30.8749985866547,2|0|0,3:0|0:0|0:0,0:0:0:0:
201,155,208031,1,4,0:0:0:0:
310,332,208200,2,0,L|319:267,1,61.7499971733095,0|0,2:0|2:0,2:0:0:0:
230,219,208370,2,0,L|218:149,1,61.7499971733095,4|0,1:0|2:0,0:0:0:0:
317,95,208539,1,8,0:0:0:0:
152,138,208709,1,0,2:0:0:0:
316,277,208878,6,0,L|327:207,1,61.7499971733095,2|0,2:0|2:0,0:0:0:0:
408,156,209048,1,4,0:0:0:0:
259,93,209217,2,0,L|121:58,1,123.499994346619,8|0,0:0|2:0,0:0:0:0:
397,247,209556,2,0,L|321:230,1,61.7499971733095,0|0,2:0|2:0,0:0:0:0:
170,206,209726,1,4,0:0:0:0:
398,115,209895,2,0,L|263:89,1,123.499994346619,8|0,0:0|2:0,0:0:0:0:
102,305,210234,6,0,P|106:248|215:174,1,185.249991519928,4|0,0:0|2:0,0:0:0:0:
106,116,210573,2,0,L|92:55,1,61.7499971733095,8|0,0:0|2:0,0:0:0:0:
316,323,210743,2,0,L|185:294,1,123.499994346619,4|4,0:0|0:0,0:0:0:0:
269,224,210997,2,0,L|282:156,1,61.7499971733095,0|0,2:0|2:0,0:0:0:0:
206,94,211166,1,0,2:0:0:0:
376,57,211251,2,0,L|252:23,1,123.499994346619,8|0,0:0|2:0,0:0:0:0:
86,340,211590,6,0,P|67:273|155:215,1,185.249991519928,4|0,1:2|2:0,0:0:0:0:
362,166,211929,2,0,L|282:152,1,61.7499971733095,8|0,0:0|2:0,0:0:0:0:
151,63,212098,2,0,L|71:49,1,61.7499971733095,0|0,2:0|2:0,0:0:0:0:
341,311,212268,6,0,L|470:293,1,123.499994346619,4|0,1:2|2:0,0:0:0:0:
302,208,212522,2,0,L|205:190,2,61.7499971733095,0|8|0,2:0|0:0|2:0,0:0:0:0:
391,132,212776,1,4,0:0:0:0:
134,329,212946,5,4,0:2:0:0:
11,262,213115,1,4,0:0:0:0:
261,245,213285,1,4,0:0:0:0:
138,178,213454,1,4,0:0:0:0:
385,153,213624,5,4,0:0:0:0:
262,86,213793,1,4,0:0:0:0:
512,69,213963,1,4,0:0:0:0:
389,2,214132,1,4,0:0:0:0:
59,224,214302,5,4,0:2:0:0:
185,156,214471,1,4,0:0:0:0:
340,95,214641,1,4,0:1:0:0:
215,27,214810,1,4,0:0:0:0:
452,159,214980,5,4,0:1:0:0:
326,227,215149,1,4,0:0:0:0:
171,288,215319,1,4,0:1:0:0:
296,356,215488,1,4,0:0:0:0:
104,339,215658,6,0,L|97:273,1,61.7499971733095,4|0,0:2|2:0,0:0:0:0:
285,221,215827,2,4,L|290:147,1,61.7499971733095,4|0,0:0|2:0,0:0:0:0:
212,106,215997,2,4,L|276:82,1,61.7499971733095,4|0,0:0|2:0,0:0:0:0:
436,133,216166,2,4,L|500:109,1,61.7499971733095,4|0,0:0|2:0,0:0:0:0:
208,193,216336,6,4,L|119:187,1,61.7499971733095,4|0,0:0|2:0,0:0:0:0:
360,343,216505,2,4,L|449:337,1,61.7499971733095,4|0,0:0|2:0,0:0:0:0:
197,344,216675,2,4,L|182:283,1,61.7499971733095,4|0,0:0|2:0,0:0:0:0:
269,255,216844,2,4,L|294:162,1,61.7499971733095,4|0,0:0|2:0,0:0:0:0:
22,181,217014,6,0,L|101:173,1,61.7499971733095
231,84,217183,2,0,L|316:73,1,61.7499971733095
465,162,217353,1,2,0:3:0:0:
327,344,217522,6,0,L|313:256,1,61.7499971733095
393,233,217692,1,2,0:3:0:0:
227,149,217861,1,0,0:1:0:0:
405,71,218031,2,0,L|315:62,1,61.7499971733095
133,151,218200,1,4,0:0:0:0:
415,170,218370,6,0,L|448:172,14,30.8749985866547,6|0|0|0|0|0|0|0|0|0|0|0|0|0|0,0:3|0:0|0:0|0:0|0:0|0:0|0:0|0:0|0:0|0:0|0:0|0:0|0:0|0:0|0:0,0:0:0:0:
223,149,219048,6,0,L|156:147,1,61.7499971733095,8|0,0:1|0:1,0:0:0:0:
350,156,219217,2,0,L|348:223,1,61.7499971733095,0|0,0:1|0:1,0:0:0:0:
251,219,219387,2,0,L|249:286,1,61.7499971733095,0|0,0:1|0:1,0:0:0:0:
348,281,219556,2,0,L|415:283,1,61.7499971733095,0|0,0:1|0:1,0:0:0:0:
227,330,219726,6,0,L|93:328,1,123.499994346619,4|0,0:1|0:0,0:0:0:0:
294,331,219980,2,0,L|296:197,1,123.499994346619,4|0,0:1|0:0,0:0:0:0:
201,154,220234,2,0,L|268:156,1,61.7499971733095,4|0,0:1|0:0,0:0:0:0:
460,167,220404,2,0,L|458:234,1,61.7499971733095,8|0,0:1|0:0,0:0:0:0:
375,229,220573,1,0,0:0:0:0:
164,243,220658,6,0,L|131:245,8,30.8749985866547,0|0|0|0|0|0|0|0|0,0:0|0:0|0:0|0:0|0:0|0:0|0:0|0:0|0:0,0:0:0:0:
323,265,221082,6,0,L|325:298,14,30.8749985866547,4|0|0|0|0|0|0|0|0|0|0|0|0|0|4,0:1|0:0|0:0|0:0|0:0|0:0|0:0|0:0|0:0|0:0|0:0|0:0|0:0|0:0|0:1,0:0:0:0:
157,299,221759,6,0,L|155:232,1,61.7499971733095,8|0,0:1|0:0,0:0:0:0:
320,224,221929,2,0,L|253:222,1,61.7499971733095,2|0,0:0|0:0,0:0:0:0:
176,183,222098,2,0,L|243:181,1,61.7499971733095,2|0,0:0|0:0,0:0:0:0:
319,170,222268,2,0,L|321:103,1,61.7499971733095,2|0,0:0|0:0,0:0:0:0:
161,156,222437,6,0,L|163:22,1,123.499994346619,4|0,0:1|0:0,0:0:0:0:
247,26,222692,1,0,0:0:0:0:
81,25,222776,2,0,L|79:159,1,123.499994346619,4|0,0:1|0:0,0:0:0:0:
347,152,223115,6,0,L|349:119,14,30.8749985866547,8|0|0|0|0|0|0|0|0|0|0|0|0|0|0,0:1|0:0|0:0|0:0|0:0|0:0|0:0|0:0|0:0|0:0|0:0|0:0|0:0|0:0|0:0,0:0:0:0:
154,106,223793,6,0,L|121:104,14,30.8749985866547,4|0|0|0|0|0|0|0|0|0|0|0|0|0|0,0:1|0:0|0:0|0:0|0:0|0:0|0:0|0:0|0:0|0:0|0:0|0:0|0:0|0:0|0:0,0:0:0:0:
348,114,224471,6,0,L|422:117,1,61.7499971733095,8|0,0:1|0:1,0:0:0:0:
215,150,224641,2,0,L|141:147,1,61.7499971733095,0|0,0:1|0:1,0:0:0:0:
249,166,224810,2,0,L|252:240,1,61.7499971733095,0|0,0:1|0:1,0:0:0:0:
353,234,224980,2,0,L|356:308,1,61.7499971733095,0|0,0:1|0:1,0:0:0:0:
160,306,225149,6,0,L|290:303,1,123.499994346619,4|0,0:1|0:0,0:0:0:0:
88,248,225404,2,0,L|218:245,1,123.499994346619,4|0,0:1|0:0,0:0:0:0:
305,242,225658,2,0,L|396:239,1,61.7499971733095,4|0,0:1|0:0,0:0:0:0:
177,164,225827,2,0,L|306:160,1,123.499994346619,8|0,0:1|0:0,0:0:0:0:
141,117,226082,6,0,L|108:115,8,30.8749985866547,0|0|0|0|0|0|0|0|0,0:0|0:0|0:0|0:0|0:0|0:0|0:0|0:0|0:0,0:0:0:0:
305,121,226505,6,0,L|307:154,14,30.8749985866547,4|0|0|0|0|0|0|0|0|0|0|0|0|0|4,0:1|0:0|0:0|0:0|0:0|0:0|0:0|0:0|0:0|0:0|0:0|0:0|0:0|0:0|0:1,0:0:0:0:
141,162,227183,6,0,L|138:236,1,61.7499971733095,8|0,0:1|0:0,0:0:0:0:
299,220,227353,2,0,L|373:223,1,61.7499971733095,2|0,0:0|0:0,0:0:0:0:
273,245,227522,2,0,L|199:242,1,61.7499971733095,2|0,0:0|0:0,0:0:0:0:
300,247,227692,2,0,L|297:321,1,61.7499971733095,2|0,0:0|0:0,0:0:0:0:
458,310,227861,6,0,P|488:248|403:191,1,185.249991519928,4|0,0:1|0:0,0:0:0:0:
209,218,228200,6,0,L|185:241,1,30.8749985866547,0|0,0:0|0:0,0:0:0:0:
201,180,228285,2,0,L|171:193,1,30.8749985866547,0|0,0:0|0:0,0:0:0:0:
207,142,228369,2,0,L|174:144,1,30.8749985866547,0|0,0:0|0:0,0:0:0:0:
225,108,228454,2,0,L|193:98,1,30.8749985866547,4|0,0:1|0:0,0:0:0:0:
254,81,228539,6,0,L|107:71,1,123.499994346619,8|0,0:1|0:0,0:0:0:0:
192,49,228793,1,0,0:0:0:0:
389,80,228878,2,0,L|463:83,1,61.7499971733095,0|0,1:0|1:0,0:0:0:0:
255,118,229048,2,0,L|181:115,1,61.7499971733095,0|0,1:0|1:0,0:0:0:0:
434,127,229217,6,0,L|467:129,14,30.8749985866547,6|0|0|0|0|0|0|0|0|0|0|0|0|0|0,0:3|0:0|0:0|0:0|0:0|0:0|0:0|0:0|0:0|0:0|0:0|0:0|0:0|0:0|0:0,0:0:0:0:
238,124,229895,6,0,L|235:198,1,61.7499971733095,8|0,0:1|0:1,0:0:0:0:
396,206,230065,2,0,L|322:203,1,61.7499971733095,0|0,0:1|0:1,0:0:0:0:
236,199,230234,2,0,L|162:196,1,61.7499971733095,0|0,0:1|0:1,0:0:0:0:
268,220,230404,2,0,L|265:294,1,61.7499971733095,0|0,0:1|0:1,0:0:0:0:
69,283,230573,6,0,L|67:149,1,123.499994346619,4|0,0:1|0:0,0:0:0:0:
265,150,230827,2,0,L|131:152,1,123.499994346619,4|0,0:1|0:0,0:0:0:0:
237,167,231082,2,0,L|234:105,1,61.7499971733095,4|0,0:1|0:0,0:0:0:0:
421,106,231251,2,0,L|258:108,1,123.499994346619,8|0,0:0|0:0,0:0:0:0:
465,216,231505,6,0,L|498:218,8,30.8749985866547
304,212,231929,6,0,L|302:179,14,30.8749985866547,4|0|0|0|0|0|0|0|0|0|0|0|0|0|4,0:1|0:0|0:0|0:0|0:0|0:0|0:0|0:0|0:0|0:0|0:0|0:0|0:0|0:0|0:1,0:0:0:0:
137,176,232607,6,0,L|134:250,1,61.7499971733095,8|0,0:1|0:0,0:0:0:0:
286,240,232776,2,0,L|360:237,1,61.7499971733095,2|0,0:0|0:0,0:0:0:0:
265,242,232946,2,0,L|268:316,1,61.7499971733095,2|0,0:0|0:0,0:0:0:0:
182,306,233115,2,0,L|108:309,1,61.7499971733095,2|0,0:0|0:0,0:0:0:0:
275,336,233285,6,0,L|409:334,1,123.499994346619,4|0,0:1|0:0,0:0:0:0:
334,297,233539,1,0,0:0:0:0:
497,233,233624,2,0,L|363:235,1,123.499994346619,4|0,0:1|0:0,0:0:0:0:
115,234,233963,6,0,L|113:201,14,30.8749985866547,8|0|0|0|0|0|0|0|0|0|0|0|0|0|0,0:1|0:0|0:0|0:0|0:0|0:0|0:0|0:0|0:0|0:0|0:0|0:0|0:0|0:0|0:0,0:0:0:0:
304,185,234641,6,0,L|337:183,14,30.8749985866547,4|0|0|0|0|0|0|0|0|0|0|0|0|0|0,0:1|0:0|0:0|0:0|0:0|0:0|0:0|0:0|0:0|0:0|0:0|0:0|0:0|0:0|0:0,0:0:0:0:
108,150,235319,6,0,L|34:153,1,61.7499971733095,8|0,0:1|0:1,0:0:0:0:
240,145,235488,2,0,L|243:219,1,61.7499971733095,0|0,0:1|0:1,0:0:0:0:
144,246,235658,2,0,L|218:243,1,61.7499971733095,0|0,0:1|0:1,0:0:0:0:
306,238,235827,2,0,L|232:241,1,61.7499971733095,0|0,0:1|0:1,0:0:0:0:
438,232,235997,6,0,L|436:98,1,123.499994346619,4|0,0:1|0:0,0:0:0:0:
240,176,236251,2,0,L|238:42,1,123.499994346619,4|0,0:1|0:0,0:0:0:0:
141,93,236505,2,0,L|138:19,1,61.7499971733095,4|0,0:1|0:0,0:0:0:0:
332,93,236675,2,0,L|329:19,1,61.7499971733095,8|0,0:1|0:0,0:0:0:0:
235,28,236844,1,0,0:0:0:0:
45,33,236929,6,0,L|12:35,8,30.8749985866547,0|0|0|0|0|0|0|0|0,0:0|0:0|0:0|0:0|0:0|0:0|0:0|0:0|0:0,0:0:0:0:
207,56,237353,6,0,L|209:89,14,30.8749985866547,4|0|0|0|0|0|0|0|0|0|0|0|0|0|4,0:1|0:0|0:0|0:0|0:0|0:0|0:0|0:0|0:0|0:0|0:0|0:0|0:0|0:0|0:1,0:0:0:0:
46,106,238031,6,0,L|49:180,1,61.7499971733095,8|0,0:1|0:0,0:0:0:0:
208,166,238200,2,0,L|282:163,1,61.7499971733095,2|0,0:0|0:0,0:0:0:0:
184,192,238370,2,0,L|187:266,1,61.7499971733095,2|0,0:0|0:0,0:0:0:0:
271,256,238539,2,0,L|274:330,1,61.7499971733095,2|0,0:0|0:0,0:0:0:0:
114,349,238709,6,0,L|244:346,1,123.499994346619,2|8,0:3|0:1,0:0:0:0:
493,238,239048,2,0,L|427:237,1,61.7499971733095,2|8,0:3|0:1,0:0:0:0:
275,224,239302,2,0,L|341:223,1,61.7499971733095,2|8,0:3|0:1,0:0:0:0:
64,130,239556,6,0,L|32:106,1,30.8749985866547,8|0,0:1|0:0,0:0:0:0:
53,153,239641,2,0,L|15:141,1,30.8749985866547,8|0,0:1|0:0,0:0:0:0:
49,184,239726,2,0,L|9:185,1,30.8749985866547,8|0,0:1|0:0,0:0:0:0:
53,214,239810,2,0,L|16:229,1,30.8749985866547,8|0,0:1|0:0,0:0:0:0:
69,241,239895,2,0,L|39:267,1,30.8749985866547,8|0,0:1|0:0,0:0:0:0:
86,264,239980,1,8,0:1:0:0:
407,287,240065,5,12,0:3:0:0:
